osu file format v14

[General]
AudioFilename: audio.mp3
AudioLeadIn: 0
PreviewTime: 81516
Countdown: 1
SampleSet: None
StackLeniency: 0.7
Mode: 0
LetterboxInBreaks: 0
WidescreenStoryboard: 1

[Editor]
Bookmarks: 81516,103459,147345,169288,264773
DistanceSpacing: 0.1
BeatDivisor: 4
GridSize: 16
TimelineZoom: 1.9

[Metadata]
Title:United (L.A.O.S Remix)
TitleUnicode:United (L.A.O.S Remix)
Artist:Our Stolen Theory
ArtistUnicode:Our Stolen Theory
Creator:zPeanut
Version:Tephra
Source:
Tags:
BeatmapID:1801518
BeatmapSetID:860111

[Difficulty]
HPDrainRate:4
CircleSize:3.5
OverallDifficulty:7
ApproachRate:9.3
SliderMultiplier:1.6
SliderTickRate:1

[Events]
//Background and Video events
0,0,"wallpaper-1322673.jpg",0,0
//Break Periods
2,170659,190676
//Storyboard Layer 0 (Background)
//Storyboard Layer 1 (Fail)
//Storyboard Layer 2 (Pass)
//Storyboard Layer 3 (Foreground)
//Storyboard Sound Samples

[TimingPoints]
15688,342.857142857143,4,2,0,55,1,0
78773,-100,4,3,0,70,0,0
79459,-100,4,3,0,75,0,0
80145,-100,4,3,0,80,0,0
80830,-100,4,3,0,85,0,0
81516,-100,4,1,0,90,0,1
103459,-100,4,2,0,55,0,0
147345,-100,4,1,0,90,0,1
169288,-100,4,2,0,55,0,0
257059,-100,4,1,0,90,0,1
279002,-100,4,2,0,80,0,0

[Colours]
Combo1 : 64,0,0
Combo2 : 128,64,64
Combo3 : 124,43,3
Combo4 : 255,166,128

[HitObjects]
66,60,15687,6,0,P|119:68|144:93,1,80
153,167,16030,1,0,0:0:0:0:
221,229,16202,2,0,P|267:217|296:187,1,80
335,121,16545,1,0,0:0:0:0:
386,45,16716,2,0,P|431:30|479:65,1,80
495,123,17059,1,0,0:0:0:0:
456,205,17230,6,0,P|418:224|368:223,1,80
288,193,17573,1,0,0:0:0:0:
197,166,17745,2,0,P|145:179|117:231,1,80
113,279,18087,5,0,0:0:0:0:
212,320,18259,1,0,0:0:0:0:
290,269,18430,6,0,P|353:237|388:248,1,80
444,230,18773,1,0,0:0:0:0:
473,143,18945,2,0,P|456:91|426:67,1,80
367,116,19287,1,0,0:0:0:0:
362,29,19459,6,0,P|314:38|279:66,1,80
223,107,19802,1,0,0:0:0:0:
177,178,19974,2,0,P|210:242|245:263,1,80
291,280,20317,1,0,0:0:0:0:
375,254,20488,6,0,P|394:209|387:167,1,80
342,89,20831,1,0,0:0:0:0:
285,177,21002,2,0,P|244:149|230:104,1,80
128,143,21345,1,0,0:0:0:0:
196,220,21516,1,0,0:0:0:0:
285,177,21687,2,0,P|357:181|382:201,1,80
429,236,22030,1,0,0:0:0:0:
352,300,22202,2,0,P|280:296|255:276,1,80
213,219,22545,1,0,0:0:0:0:
177,135,22716,6,0,P|139:87|96:88,1,80
0,96,23059,1,0,0:0:0:0:
71,210,23230,1,0,0:0:0:0:
150,266,23402,6,0,P|186:229|231:218,1,80
303,224,23745,1,0,0:0:0:0:
402,217,23916,6,0,P|408:158|388:116,1,80
349,52,24259,1,0,0:0:0:0:
323,138,24430,6,0,P|281:138|244:119,1,80
175,72,24773,1,0,0:0:0:0:
298,213,24945,6,0,P|256:213|219:194,1,80
150,147,25288,1,0,0:0:0:0:
278,298,25459,6,0,P|236:298|199:279,1,80
130,232,25802,1,0,0:0:0:0:
75,163,25973,2,0,P|82:102|101:78,1,80
167,27,26316,1,0,0:0:0:0:
211,110,26488,1,0,0:0:0:0:
249,192,26659,6,0,P|284:225|341:231,1,80
394,185,27002,1,0,0:0:0:0:
379,280,27173,6,0,P|344:313|287:319,1,80
234,273,27516,1,0,0:0:0:0:
173,206,27688,2,0,P|120:172|89:172,1,80
203,127,28030,1,0,0:0:0:0:
256,198,28202,6,0,P|291:239|335:241,1,80
386,198,28545,1,0,0:0:0:0:
379,51,28716,2,0,P|371:102|331:126,1,80
247,112,29059,1,0,0:0:0:0:
158,154,29230,1,0,0:0:0:0:
106,219,29402,6,0,P|161:267|196:267,1,80
248,226,29745,1,0,0:0:0:0:
332,268,29916,2,0,P|277:316|242:316,1,80
181,306,30259,1,0,0:0:0:0:
102,237,30430,6,0,P|105:184|137:156,1,80
188,113,30773,1,0,0:0:0:0:
275,60,30945,2,0,P|292:109|328:140,1,80
383,174,31288,1,0,0:0:0:0:
458,234,31459,6,0,P|431:277|407:306,2,80
460,139,31973,1,0,0:0:0:0:
450,56,32145,6,0,P|396:48|356:66,1,80
288,95,32488,1,0,0:0:0:0:
195,143,32659,2,0,P|141:151|101:133,1,80
56,75,33002,1,0,0:0:0:0:
10,162,33173,2,0,P|-4:211|19:266,1,80
66,300,33516,1,0,0:0:0:0:
152,253,33688,2,0,P|193:248|236:269,1,80
316,309,34030,5,0,0:0:0:0:
420,323,34202,1,0,0:0:0:0:
465,229,34373,1,0,0:0:0:0:
398,155,34545,1,0,0:0:0:0:
317,206,34716,1,0,0:0:0:0:
216,211,34888,6,0,P|221:149|243:124,1,80
294,75,35230,1,0,0:0:0:0:
340,159,35402,2,0,P|370:201|406:209,1,80
460,159,35745,1,0,0:0:0:0:
459,65,35916,2,0,P|413:48|361:52,1,80
294,75,36259,1,0,0:0:0:0:
256,192,36430,12,0,37459,0:0:0:0:
59,208,37630,6,0,P|82:148|108:125,1,80
166,80,37973,1,0,0:0:0:0:
199,177,38145,1,0,0:0:0:0:
231,200,38230,1,0,0:0:0:0:
269,209,38316,1,0,0:0:0:0:
309,205,38402,1,0,0:0:0:0:
344,186,38487,1,0,0:0:0:0:
419,108,38659,5,0,0:0:0:0:
462,195,38830,2,0,P|440:256|401:291,1,80
363,329,39173,1,0,0:0:0:0:
314,194,39345,1,0,0:0:0:0:
263,284,39516,1,0,0:0:0:0:
223,278,39601,1,0,0:0:0:0:
189,257,39687,1,0,0:0:0:0:
168,224,39773,1,0,0:0:0:0:
162,185,39858,1,0,0:0:0:0:
174,49,40030,6,0,P|227:83|249:83,1,80
326,32,40373,1,0,0:0:0:0:
417,84,40545,1,0,0:0:0:0:
321,144,40716,1,0,0:0:0:0:
237,201,40888,1,0,0:0:0:0:
204,224,40973,1,0,0:0:0:0:
186,259,41059,1,0,0:0:0:0:
185,298,41145,1,0,0:0:0:0:
201,335,41230,1,0,0:0:0:0:
304,336,41402,5,0,0:0:0:0:
358,247,41573,1,0,0:0:0:0:
429,339,41745,1,0,0:0:0:0:
472,235,41916,2,0,P|470:180|438:129,1,80
427,53,42259,1,0,0:0:0:0:
402,84,42344,1,0,0:0:0:0:
370,108,42430,1,0,0:0:0:0:
334,125,42516,1,0,0:0:0:0:
295,132,42601,1,0,0:0:0:0:
199,61,42773,5,0,0:0:0:0:
116,146,42945,1,0,0:0:0:0:
157,244,43116,2,0,P|224:281|306:245,1,160
342,185,43630,1,0,0:0:0:0:
347,145,43715,1,0,0:0:0:0:
342,105,43801,1,0,0:0:0:0:
327,68,43887,1,0,0:0:0:0:
303,36,43972,1,0,0:0:0:0:
226,103,44145,1,0,0:0:0:0:
151,41,44316,1,0,0:0:0:0:
68,109,44488,6,0,P|51:72|47:26,2,80
112,180,45002,1,0,0:0:0:0:
137,210,45087,1,0,0:0:0:0:
171,231,45173,1,0,0:0:0:0:
209,242,45259,1,0,0:0:0:0:
249,240,45344,1,0,0:0:0:0:
321,154,45516,1,0,0:0:0:0:
376,236,45688,1,0,0:0:0:0:
446,164,45859,6,0,P|425:106|389:77,1,80
335,30,46202,1,0,0:0:0:0:
318,117,46373,1,0,0:0:0:0:
297,151,46458,1,0,0:0:0:0:
265,174,46544,1,0,0:0:0:0:
226,182,46630,1,0,0:0:0:0:
187,173,46715,1,0,0:0:0:0:
87,104,46888,1,0,0:0:0:0:
81,237,47059,1,0,0:0:0:0:
173,311,47230,6,0,P|214:279|226:237,1,80
218,165,47573,1,0,0:0:0:0:
214,73,47745,1,0,0:0:0:0:
245,49,47830,1,0,0:0:0:0:
284,42,47916,1,0,0:0:0:0:
322,55,48002,1,0,0:0:0:0:
350,83,48087,1,0,0:0:0:0:
403,169,48259,1,0,0:0:0:0:
345,254,48430,1,0,0:0:0:0:
283,320,48602,6,0,P|210:335|135:293,1,160
97,220,49116,1,0,0:0:0:0:
96,180,49201,1,0,0:0:0:0:
108,142,49287,1,0,0:0:0:0:
133,111,49373,1,0,0:0:0:0:
167,90,49458,1,0,0:0:0:0:
245,178,49630,1,0,0:0:0:0:
327,89,49802,1,0,0:0:0:0:
416,175,49973,2,0,P|456:187|509:160,2,80
327,89,50488,5,0,0:0:0:0:
307,123,50573,1,0,0:0:0:0:
299,162,50659,1,0,0:0:0:0:
303,202,50745,1,0,0:0:0:0:
319,238,50830,1,0,0:0:0:0:
404,294,51002,1,0,0:0:0:0:
279,329,51173,1,0,0:0:0:0:
186,271,51345,6,0,P|190:215|213:178,1,80
247,110,51688,1,0,0:0:0:0:
298,196,51859,1,0,0:0:0:0:
331,217,51944,1,0,0:0:0:0:
370,224,52030,1,0,0:0:0:0:
409,217,52116,1,0,0:0:0:0:
442,195,52201,1,0,0:0:0:0:
463,99,52373,1,0,0:0:0:0:
388,27,52545,2,0,P|347:61|293:78,1,80
225,26,52888,1,0,0:0:0:0:
196,122,53059,1,0,0:0:0:0:
94,79,53230,5,0,0:0:0:0:
81,116,53315,1,0,0:0:0:0:
80,156,53401,1,0,0:0:0:0:
89,195,53487,1,0,0:0:0:0:
108,230,53572,1,0,0:0:0:0:
172,306,53745,1,0,0:0:0:0:
254,243,53916,1,0,0:0:0:0:
338,268,54088,6,0,L|399:301,3,40
303,184,54430,2,0,L|336:157,3,40
212,186,54773,2,0,L|205:143,3,40,0|0|0|0,2:0|0:0|2:0|0:0,0:0:0:0:
164,265,55116,2,0,L|129:240,3,40,0|0|0|0,2:0|0:0|2:0|0:0,0:0:0:0:
248,308,55459,5,0,0:0:0:0:
278,333,55544,1,0,0:0:0:0:
315,347,55630,1,0,0:0:0:0:
355,348,55716,1,0,0:0:0:0:
392,334,55801,1,0,0:0:0:0:
423,309,55887,1,0,0:0:0:0:
443,274,55973,1,0,0:0:0:0:
450,235,56058,1,0,0:0:0:0:
443,196,56144,5,0,0:0:0:0:
423,162,56230,1,0,0:0:0:0:
393,136,56316,1,0,0:0:0:0:
355,123,56401,1,0,0:0:0:0:
315,123,56487,1,0,0:0:0:0:
278,137,56573,1,0,0:0:0:0:
248,162,56658,1,0,0:0:0:0:
224,195,56745,1,0,0:0:0:0:
204,226,56830,5,0,0:0:0:0:
164,230,56915,1,0,0:0:0:0:
125,222,57001,1,0,0:0:0:0:
90,202,57087,1,0,0:0:0:0:
64,173,57172,1,0,0:0:0:0:
47,136,57258,1,0,0:0:0:0:
43,97,57344,1,0,0:0:0:0:
41,61,57430,1,0,0:0:0:0:
44,26,57516,5,0,0:0:0:0:
88,9,57601,1,0,0:0:0:0:
136,8,57687,1,0,0:0:0:0:
182,20,57773,1,0,0:0:0:0:
222,46,57858,1,0,0:0:0:0:
251,84,57944,1,0,0:0:0:0:
267,129,58030,1,0,0:0:0:0:
271,179,58116,1,0,0:0:0:0:
274,222,58203,5,4,0:2:0:0:
294,268,58287,1,0,0:0:0:0:
338,295,58375,1,0,0:0:0:0:
389,293,58459,1,0,0:0:0:0:
430,262,58545,1,4,0:2:0:0:
446,213,58630,1,0,0:0:0:0:
448,167,58718,5,0,0:0:0:0:
390,140,58801,1,0,0:0:0:0:
327,131,58888,1,4,0:2:0:0:
263,132,58973,1,0,0:0:0:0:
200,142,59059,1,4,0:0:0:0:
139,162,59144,1,0,0:0:0:0:
83,193,59230,1,4,0:2:0:0:
48,225,59316,1,4,0:2:0:0:
21,268,59402,5,4,0:2:0:0:
67,346,59488,1,4,0:2:0:0:
161,353,59573,1,4,0:2:0:0:
317,297,59916,6,0,P|341:262|342:208,1,80
347,184,60173,1,0,0:0:0:0:
342,142,60259,2,0,P|330:93|296:57,1,80
265,212,60602,1,0,0:0:0:0:
197,77,60773,2,0,P|167:119|162:161,1,80
170,240,61116,5,0,0:0:0:0:
252,301,61288,2,0,P|287:275|296:229,1,80
301,152,61630,1,0,0:0:0:0:
285,50,61802,1,0,0:0:0:0:
285,50,61888,1,0,0:0:0:0:
285,50,61973,6,0,P|253:86|216:104,1,80
139,130,62316,2,0,P|97:159|91:265,1,160
179,312,62830,1,0,0:0:0:0:
179,312,62916,1,0,0:0:0:0:
179,312,63002,6,0,P|187:266|211:226,1,80
248,153,63345,1,0,0:0:0:0:
318,75,63516,2,0,P|360:63|415:68,1,80
398,172,63859,5,0,0:0:0:0:
398,172,63945,1,0,0:0:0:0:
398,172,64030,2,0,P|346:203|302:197,1,80
252,107,64373,1,0,0:0:0:0:
291,293,64545,1,0,0:0:0:0:
192,183,64716,1,0,0:0:0:0:
146,111,64888,5,0,0:0:0:0:
146,111,64973,1,0,0:0:0:0:
146,111,65059,2,0,P|149:57|169:33,1,80
245,120,65402,1,0,0:0:0:0:
335,56,65573,1,0,0:0:0:0:
422,106,65745,6,0,P|450:72|457:29,2,80
334,166,66259,1,0,0:0:0:0:
228,236,66430,6,0,P|190:196|176:141,1,80
312,235,66773,5,0,0:0:0:0:
180,173,66945,1,0,0:0:0:0:
76,132,67116,6,0,P|98:88|149:67,1,80
182,176,67459,1,0,0:0:0:0:
268,98,67630,2,0,P|313:72|365:78,2,80
184,176,68145,1,0,0:0:0:0:
106,269,68316,6,0,P|143:307|183:314,1,80
252,263,68659,1,0,0:0:0:0:
314,122,68830,5,0,0:0:0:0:
397,228,69002,1,0,0:0:0:0:
246,151,69173,1,0,0:0:0:0:
436,173,69345,1,0,0:0:0:0:
362,61,69516,6,0,P|296:45|260:50,1,80
201,63,69859,1,0,0:0:0:0:
222,167,70030,1,0,0:0:0:0:
222,167,70116,1,0,0:0:0:0:
222,167,70202,6,0,P|248:197|296:205,1,80
320,173,70459,1,0,0:0:0:0:
350,128,70545,6,0,P|400:85|477:157,1,160
473,210,71059,1,0,0:0:0:0:
473,210,71145,1,0,0:0:0:0:
473,210,71230,6,0,P|437:245|401:254,1,80
357,326,71573,1,0,0:0:0:0:
277,226,71745,1,0,0:0:0:0:
237,318,71916,2,0,P|195:296|172:269,1,80
120,203,72259,5,0,0:0:0:0:
121,76,72430,2,0,P|152:111|205:116,1,80
257,45,72773,1,0,0:0:0:0:
231,237,72945,1,0,0:0:0:0:
316,120,73116,1,0,0:0:0:0:
316,120,73202,1,0,0:0:0:0:
316,120,73288,6,0,P|356:126|391:162,1,80
427,249,73630,1,0,0:0:0:0:
452,60,73802,1,0,0:0:0:0:
331,240,73973,2,0,P|284:218|270:187,1,80
233,82,74316,1,0,0:0:0:0:
211,280,74488,1,0,0:0:0:0:
268,192,74659,2,0,P|309:148|341:141,1,80
402,106,75002,1,0,0:0:0:0:
457,193,75173,1,0,0:0:0:0:
457,193,75259,1,0,0:0:0:0:
457,193,75345,6,0,P|426:240|394:249,1,80
347,323,75688,1,0,0:0:0:0:
264,146,75859,1,0,0:0:0:0:
280,197,75945,1,0,0:0:0:0:
295,237,76030,2,0,P|346:219|386:177,1,80
410,135,76373,5,0,0:0:0:0:
363,48,76545,1,0,0:0:0:0:
303,111,76716,2,0,P|257:118|213:98,1,80
136,54,77059,1,0,0:0:0:0:
67,197,77230,1,0,0:0:0:0:
67,197,77316,1,0,0:0:0:0:
67,197,77402,6,0,P|112:166|163:179,1,80
216,205,77745,1,0,0:0:0:0:
299,255,77916,2,0,P|357:250|380:217,1,80
433,150,78259,1,0,0:0:0:0:
367,67,78430,2,0,P|324:100|273:109,1,80
214,111,78773,5,0,0:0:0:0:
174,109,78858,1,0,0:0:0:0:
137,123,78944,1,0,0:0:0:0:
108,151,79030,1,0,0:0:0:0:
93,187,79115,1,0,0:0:0:0:
93,227,79201,1,0,0:0:0:0:
108,263,79287,1,0,0:0:0:0:
137,291,79373,1,0,0:0:0:0:
175,304,79458,1,0,0:0:0:0:
215,308,79545,5,0,0:0:0:0:
235,273,79630,1,0,0:0:0:0:
263,244,79716,1,0,0:0:0:0:
296,223,79802,1,0,0:0:0:0:
334,209,79887,1,0,0:0:0:0:
373,205,79973,1,0,0:0:0:0:
413,209,80059,1,0,0:0:0:0:
456,220,80145,5,4,0:0:0:0:
485,165,80230,1,0,0:0:0:0:
486,103,80316,1,0,0:0:0:0:
458,48,80402,1,0,0:0:0:0:
408,12,80487,1,4,0:0:0:0:
347,3,80573,1,0,0:0:0:0:
289,23,80659,1,0,0:0:0:0:
261,68,80745,1,0,0:0:0:0:
250,122,80831,5,4,0:0:0:0:
258,176,80915,1,0,0:0:0:0:
243,230,81002,1,4,0:0:0:0:
207,272,81087,1,0,0:0:0:0:
157,295,81172,1,4,0:0:0:0:
101,296,81258,1,4,0:0:0:0:
50,273,81344,1,4,0:0:0:0:
14,231,81430,1,4,0:0:0:0:
8,177,81516,5,4,0:0:0:0:
83,36,81859,6,0,P|102:74|144:96,1,80
200,216,82202,1,0,0:0:0:0:
250,41,82373,1,0,0:0:0:0:
311,283,82545,1,0,0:0:0:0:
221,125,82716,1,0,0:0:0:0:
320,81,82888,5,0,0:0:0:0:
335,99,82973,1,0,0:0:0:0:
351,117,83059,1,0,0:0:0:0:
367,135,83145,1,0,0:0:0:0:
381,156,83230,2,0,L|304:213,1,80
382,214,83573,2,0,L|305:271,1,80
379,274,83916,2,0,L|302:331,1,80
221,330,84259,5,0,0:0:0:0:
179,138,84430,1,0,0:0:0:0:
165,273,84602,1,0,0:0:0:0:
257,114,84773,1,0,0:0:0:0:
395,67,84945,6,0,P|359:99|336:108,1,40
405,164,85116,2,0,P|357:173|333:170,1,40
366,252,85288,2,0,P|320:236|300:221,1,40,0|0,1:0|1:0,1:0:0:0:
253,173,85459,1,0,0:0:0:0:
171,62,85630,5,0,0:0:0:0:
138,85,85715,1,0,0:0:0:0:
118,119,85801,1,0,0:0:0:0:
114,158,85887,1,0,0:0:0:0:
116,201,85973,2,0,P|179:189|199:162,1,80
244,113,86316,2,0,P|269:83|327:67,1,80
386,92,86659,2,0,P|424:119|433:181,1,80
476,263,87002,5,0,0:0:0:0:
262,232,87173,1,0,0:0:0:0:
378,332,87345,1,0,0:0:0:0:
327,155,87516,1,0,0:0:0:0:
241,103,87688,6,0,P|229:132|237:166,1,40
187,249,87859,2,0,P|218:244|243:220,1,40
340,223,88030,2,0,P|321:198|288:188,1,40
231,141,88202,1,0,0:0:0:0:
112,117,88373,5,0,0:0:0:0:
103,143,88458,1,0,0:0:0:0:
94,170,88544,1,0,0:0:0:0:
86,196,88630,1,0,0:0:0:0:
80,224,88716,2,0,P|123:243|176:235,1,80
232,191,89059,1,0,0:0:0:0:
203,341,89230,1,0,0:0:0:0:
163,132,89402,1,0,0:0:0:0:
323,188,89573,1,0,0:0:0:0:
374,33,89745,5,0,0:0:0:0:
420,211,89916,1,0,0:0:0:0:
465,82,90088,2,0,P|422:111|325:102,1,120
315,105,90430,6,0,L|337:152,1,40
354,255,90602,2,0,L|376:208,1,40
472,159,90773,2,0,L|450:206,1,40
425,271,90945,1,0,0:0:0:0:
327,341,91116,5,0,0:0:0:0:
296,315,91201,1,0,0:0:0:0:
280,279,91287,1,0,0:0:0:0:
282,240,91373,1,0,0:0:0:0:
293,201,91459,2,0,P|302:162|286:93,1,80
163,0,91802,2,0,P|192:27|260:47,1,80
441,17,92145,2,0,P|402:28|350:77,1,80
277,121,92488,6,0,P|224:143|177:135,1,80
108,85,92830,1,0,0:0:0:0:
77,237,93002,1,0,0:0:0:0:
176,301,93173,6,0,L|188:249,1,40
286,251,93345,2,0,L|261:203,1,40
371,162,93516,2,0,L|321:141,1,40
254,118,93688,1,0,0:0:0:0:
105,94,93859,5,0,0:0:0:0:
89,130,93944,1,0,0:0:0:0:
85,170,94030,1,0,0:0:0:0:
94,209,94116,1,0,0:0:0:0:
109,243,94202,2,0,P|155:222|195:220,1,80
271,239,94545,2,0,P|317:260|357:262,1,80
427,228,94888,2,0,P|473:207|513:205,1,80
482,117,95230,5,0,0:0:0:0:
423,327,95402,1,0,0:0:0:0:
427,227,95573,2,0,P|373:202|307:198,1,120
278,192,95916,2,0,L|246:226,1,40
266,302,96088,2,0,L|219:307,1,40
174,376,96259,2,0,L|134:350,1,40
75,301,96430,1,0,0:0:0:0:
32,211,96602,5,0,0:0:0:0:
50,190,96687,1,0,0:0:0:0:
69,169,96773,1,0,0:0:0:0:
87,148,96859,1,0,0:0:0:0:
106,127,96945,6,0,L|178:189,1,80
348,167,97288,2,0,L|258:198,1,80
189,338,97630,2,0,L|206:244,1,80
266,180,97973,5,0,0:0:0:0:
266,180,98316,2,0,P|316:158|346:120,1,80
472,40,98659,6,0,L|434:93,1,40
472,152,98831,2,0,L|448:184,1,40
480,264,99002,2,0,L|456:296,1,40
407,374,99173,1,0,0:0:0:0:
371,220,99345,5,0,0:0:0:0:
333,206,99430,1,0,0:0:0:0:
293,204,99516,1,0,0:0:0:0:
255,214,99602,1,0,0:0:0:0:
218,235,99688,2,0,P|152:227|127:191,1,80
110,150,100030,2,0,P|110:107|148:71,1,80
201,23,100373,2,0,P|229:54|286:67,1,80
367,65,100716,6,0,L|409:31,3,40,0|0|0|0,2:0|2:0|2:0|2:0,2:0:0:0:
415,137,101059,6,0,L|469:129,3,40,0|0|0|0,2:0|2:0|2:0|2:0,2:0:0:0:
421,224,101402,6,0,L|471:244,3,40,0|0|0|0,2:0|2:0|2:0|2:0,2:0:0:0:
383,303,101745,6,0,L|417:345,3,40,0|0|0|0,2:0|2:0|2:0|2:0,2:0:0:0:
315,246,102088,5,4,2:0:0:0:
281,224,102173,1,0,2:0:0:0:
244,208,102259,1,0,2:0:0:0:
205,200,102345,1,0,2:0:0:0:
165,199,102430,1,4,2:0:0:0:
126,205,102516,1,0,2:0:0:0:
88,217,102602,1,0,2:0:0:0:
51,234,102688,1,0,2:0:0:0:
14,256,102773,5,4,2:0:0:0:
5,216,102858,1,0,2:0:0:0:
7,177,102944,1,0,2:0:0:0:
19,139,103030,1,0,2:0:0:0:
41,105,103115,1,4,0:1:0:0:
70,78,103201,1,4,0:1:0:0:
106,60,103287,1,4,0:1:0:0:
145,51,103373,1,4,0:1:0:0:
185,53,103458,5,12,0:1:0:0:
243,140,103802,6,0,L|202:237,1,80
276,278,104145,1,0,0:0:0:0:
380,114,104316,1,0,0:0:0:0:
380,114,104402,1,0,0:0:0:0:
380,114,104488,6,0,L|334:187,1,80
276,278,104830,1,0,0:0:0:0:
245,175,105002,2,0,P|200:137|151:139,1,80
116,236,105345,1,0,0:0:0:0:
271,58,105516,2,0,P|314:61|346:89,1,80
391,156,105859,1,0,0:0:0:0:
349,248,106030,1,0,0:0:0:0:
349,248,106116,1,0,0:0:0:0:
349,248,106202,6,0,P|290:276|244:266,1,80
244,199,106545,1,0,0:0:0:0:
229,333,106716,1,0,0:0:0:0:
326,154,106888,2,0,P|365:125|411:124,1,80
472,190,107230,1,0,0:0:0:0:
382,255,107402,1,0,0:0:0:0:
382,255,107488,1,0,0:0:0:0:
382,255,107573,6,0,P|327:244|294:252,1,80
227,307,107916,1,0,0:0:0:0:
189,148,108088,2,0,L|178:243,1,80
122,320,108430,1,0,0:0:0:0:
64,213,108602,2,0,P|58:146|64:106,1,80
100,39,108945,1,0,0:0:0:0:
167,127,109116,6,0,P|206:141|257:128,1,80
313,61,109459,1,0,0:0:0:0:
291,234,109630,1,0,0:0:0:0:
383,127,109802,2,0,P|409:185|408:226,1,80
369,289,110145,1,0,0:0:0:0:
207,231,110316,1,0,0:0:0:0:
308,160,110488,1,0,0:0:0:0:
278,304,110659,6,0,P|242:336|183:356,1,80
134,307,111002,1,0,0:0:0:0:
76,231,111173,2,0,P|76:185|119:145,1,80
143,57,111516,6,0,P|182:113|227:122,1,80
252,171,111859,2,0,P|287:136|330:125,1,80
386,75,112202,2,0,P|425:131|470:140,1,80
483,66,112545,1,0,0:0:0:0:
498,230,112716,1,0,0:0:0:0:
396,305,112888,6,0,P|379:251|352:199,1,80
303,117,113230,1,0,0:0:0:0:
270,281,113402,1,0,0:0:0:0:
246,178,113573,1,0,0:0:0:0:
207,166,113658,1,0,0:0:0:0:
172,147,113744,1,0,0:0:0:0:
143,120,113830,1,0,0:0:0:0:
121,87,113915,1,0,0:0:0:0:
114,234,114088,1,0,0:0:0:0:
231,53,114259,1,0,0:0:0:0:
266,162,114430,6,0,P|307:148|363:156,1,80
424,170,114773,1,0,0:0:0:0:
317,225,114945,6,0,P|359:233|404:268,1,80
453,322,115288,1,0,0:0:0:0:
354,355,115459,1,0,0:0:0:0:
308,319,115545,1,0,0:0:0:0:
264,297,115630,2,0,P|202:294|165:299,1,80
100,324,115973,1,0,0:0:0:0:
48,130,116145,1,0,0:0:0:0:
132,205,116316,1,0,0:0:0:0:
187,124,116488,6,0,P|230:118|287:129,1,80
374,72,116830,1,0,0:0:0:0:
399,176,117002,2,0,P|385:213|327:258,1,80
257,286,117345,5,0,0:0:0:0:
135,162,117516,1,0,0:0:0:0:
239,184,117688,2,0,P|284:165|310:124,1,80
353,62,118030,1,0,0:0:0:0:
411,212,118202,1,0,0:0:0:0:
340,277,118373,6,0,P|286:304|236:310,2,80
409,211,118888,2,0,P|422:167|423:118,1,80
395,29,119230,1,0,0:0:0:0:
314,207,119402,1,0,0:0:0:0:
352,119,119573,2,0,P|307:110|264:84,1,80
201,49,119916,5,0,0:0:0:0:
283,179,120088,1,0,0:0:0:0:
136,140,120259,1,0,0:0:0:0:
227,258,120430,1,0,0:0:0:0:
120,292,120602,6,0,P|96:260|91:218,1,80
139,122,120945,1,0,0:0:0:0:
201,202,121116,2,0,P|257:217|301:208,1,80
340,143,121459,1,0,0:0:0:0:
404,227,121630,2,0,P|398:270|372:315,1,80
317,357,121973,1,0,0:0:0:0:
192,201,122145,1,0,0:0:0:0:
171,324,122316,1,0,0:0:0:0:
283,275,122488,5,0,0:0:0:0:
317,254,122573,1,0,0:0:0:0:
345,226,122659,1,4,0:0:0:0:
365,191,122745,1,0,0:0:0:0:
377,153,122830,1,0,0:0:0:0:
380,114,122916,1,0,0:0:0:0:
373,74,123002,1,4,0:0:0:0:
351,34,123088,1,0,0:0:0:0:
326,65,123173,5,0,0:0:0:0:
298,93,123259,1,0,0:0:0:0:
266,118,123345,1,4,0:0:0:0:
233,140,123430,1,0,0:0:0:0:
197,157,123516,1,0,0:0:0:0:
159,171,123602,1,0,0:0:0:0:
120,180,123688,1,4,0:0:0:0:
81,185,123773,1,0,0:0:0:0:
34,191,123859,5,0,0:0:0:0:
38,254,123944,1,0,0:0:0:0:
64,312,124030,1,4,0:0:0:0:
111,356,124116,1,0,0:0:0:0:
169,380,124201,1,4,0:0:0:0:
233,381,124287,1,0,0:0:0:0:
293,358,124373,1,4,0:0:0:0:
340,316,124459,1,0,0:0:0:0:
346,257,124545,5,4,0:0:0:0:
287,269,124630,1,0,0:0:0:0:
230,253,124716,1,4,0:0:0:0:
185,214,124802,1,0,0:0:0:0:
163,159,124887,1,4,0:0:0:0:
169,99,124973,1,0,0:0:0:0:
200,49,125059,1,4,0:0:0:0:
251,18,125145,1,4,0:0:0:0:
311,15,125230,5,4,0:0:0:0:
365,35,125316,1,4,0:0:0:0:
404,80,125402,1,12,0:1:0:0:
418,166,125745,6,0,L|374:264,1,80
339,295,126088,1,0,0:0:0:0:
326,105,126259,1,0,0:0:0:0:
326,105,126345,1,0,0:0:0:0:
326,105,126430,2,0,L|268:204,1,80
234,258,126773,1,0,0:0:0:0:
188,96,126945,1,0,0:0:0:0:
152,113,127030,1,0,0:0:0:0:
123,141,127116,1,0,0:0:0:0:
106,177,127202,1,0,0:0:0:0:
104,217,127288,2,0,P|150:218|188:204,1,80
251,170,127630,1,0,0:0:0:0:
321,112,127802,5,0,0:0:0:0:
449,223,127973,1,0,0:0:0:0:
411,82,128145,1,0,0:0:0:0:
352,298,128316,2,0,P|290:303|259:276,1,80
200,245,128659,1,0,0:0:0:0:
192,206,128744,1,0,0:0:0:0:
201,167,128830,1,0,0:0:0:0:
226,136,128916,1,0,0:0:0:0:
261,118,129001,1,0,0:0:0:0:
340,191,129173,1,0,0:0:0:0:
205,28,129345,6,0,P|166:79|156:114,1,80
168,203,129688,1,0,0:0:0:0:
270,139,129859,2,0,P|318:124|372:132,1,80
485,169,130202,1,0,0:0:0:0:
439,48,130373,1,0,0:0:0:0:
359,266,130545,1,0,0:0:0:0:
359,266,130716,2,0,P|315:245|256:247,1,80
210,248,131059,1,0,0:0:0:0:
129,215,131230,6,0,P|88:153|87:114,1,80
96,61,131573,1,0,0:0:0:0:
192,142,131745,1,0,0:0:0:0:
216,51,131916,1,0,0:0:0:0:
323,131,132088,1,0,0:0:0:0:
321,170,132173,1,0,0:0:0:0:
312,209,132259,1,0,0:0:0:0:
295,245,132345,1,0,0:0:0:0:
271,277,132430,1,0,0:0:0:0:
211,355,132602,1,0,0:0:0:0:
164,220,132773,1,0,0:0:0:0:
164,220,132859,1,0,0:0:0:0:
164,220,132945,6,0,P|216:212|269:221,1,80
337,237,133288,2,0,P|390:239|442:230,1,80
491,166,133630,1,0,0:0:0:0:
410,55,133802,1,0,0:0:0:0:
366,153,133973,2,0,P|322:159|280:132,1,80
224,94,134316,2,0,P|187:78|149:84,1,80
67,126,134659,2,0,P|61:180|87:204,1,80
155,263,135002,1,0,0:0:0:0:
181,272,135087,1,0,0:0:0:0:
209,272,135173,1,0,0:0:0:0:
235,263,135259,1,0,0:0:0:0:
260,247,135345,6,0,P|281:207|283:161,1,80
310,39,135688,1,0,0:0:0:0:
353,225,135859,1,0,0:0:0:0:
394,90,136030,2,0,P|338:84|287:96,1,80
201,108,136373,5,0,0:0:0:0:
126,195,136545,1,0,0:0:0:0:
163,208,136630,1,0,0:0:0:0:
203,210,136716,1,0,0:0:0:0:
242,201,136802,1,0,0:0:0:0:
277,181,136887,1,0,0:0:0:0:
370,101,137059,6,0,P|392:159|383:200,1,80
374,251,137402,1,0,0:0:0:0:
290,166,137573,2,0,P|235:152|208:158,1,80
118,183,137916,1,0,0:0:0:0:
123,222,138001,1,0,0:0:0:0:
144,255,138087,1,0,0:0:0:0:
178,277,138173,1,0,0:0:0:0:
217,283,138258,1,0,0:0:0:0:
306,217,138430,2,0,P|318:175|296:129,1,80
388,37,138773,2,0,P|376:79|398:125,1,80
445,170,139116,1,0,0:0:0:0:
338,214,139288,1,0,0:0:0:0:
417,291,139459,5,0,0:0:0:0:
382,310,139544,1,0,0:0:0:0:
343,318,139630,1,0,0:0:0:0:
303,312,139716,1,0,0:0:0:0:
266,294,139802,2,0,L|326:218,1,80
371,161,140145,2,0,L|431:85,1,80
347,51,140488,5,0,0:0:0:0:
263,149,140659,1,0,0:0:0:0:
234,36,140830,1,0,0:0:0:0:
248,186,141002,1,0,0:0:0:0:
131,163,141173,1,0,0:0:0:0:
315,124,141345,1,0,0:0:0:0:
370,188,141516,5,0,0:0:0:0:
189,202,141688,1,0,0:0:0:0:
307,313,141859,1,0,0:0:0:0:
307,313,142202,6,0,P|361:271|376:233,1,80
377,175,142545,1,0,0:0:0:0:
355,141,142630,1,0,0:0:0:0:
322,120,142716,1,0,0:0:0:0:
282,116,142802,1,0,0:0:0:0:
242,125,142888,2,0,P|201:142|151:129,1,80
84,86,143230,1,0,0:0:0:0:
55,184,143402,1,0,0:0:0:0:
131,281,143573,1,0,0:0:0:0:
167,264,143658,1,0,0:0:0:0:
195,237,143744,1,0,0:0:0:0:
212,201,143830,1,0,0:0:0:0:
215,154,143916,6,0,P|256:147|310:166,1,80
372,206,144259,2,0,P|413:213|467:194,1,80
503,148,144602,1,0,0:0:0:0:
384,121,144773,1,0,0:0:0:0:
473,53,144945,1,0,0:0:0:0:
458,242,145116,1,0,0:0:0:0:
418,248,145201,1,0,0:0:0:0:
379,241,145287,1,0,0:0:0:0:
345,221,145373,1,0,0:0:0:0:
319,190,145458,1,0,0:0:0:0:
273,92,145630,6,0,P|215:122|196:156,1,80
186,224,145973,1,0,0:0:0:0:
300,172,146145,1,0,0:0:0:0:
266,285,146316,1,0,0:0:0:0:
187,222,146488,2,0,P|161:182|112:168,1,80
54,158,146830,2,0,P|1:108|-2:72,1,80
41,26,147173,1,4,0:1:0:0:
57,237,147345,1,4,0:1:0:0:
166,255,147688,6,0,P|200:215|211:170,1,80
273,67,148030,2,0,L|238:105,1,40
331,151,148202,2,0,L|281:166,1,40
328,256,148373,2,0,L|277:244,1,40
200,227,148545,1,0,0:0:0:0:
114,91,148716,5,0,0:0:0:0:
85,118,148801,1,0,0:0:0:0:
69,154,148887,1,0,0:0:0:0:
70,194,148973,1,0,0:0:0:0:
85,235,149059,2,0,P|141:211|188:217,1,80
247,219,149402,2,0,P|303:243|350:237,1,80
413,219,149745,2,0,P|469:195|516:201,1,80
417,109,150088,5,0,0:0:0:0:
467,27,150259,1,0,0:0:0:0:
479,183,150430,2,0,P|423:198|397:222,1,80
343,276,150773,2,0,L|318:315,1,40
253,245,150944,2,0,L|211:266,1,40
185,184,151116,2,0,L|138:181,1,40,0|0,2:0|2:0,2:0:0:0:
56,175,151287,1,0,0:0:0:0:
67,53,151459,5,0,0:0:0:0:
101,72,151544,1,0,0:0:0:0:
140,82,151630,1,0,0:0:0:0:
180,82,151716,1,0,0:0:0:0:
226,72,151802,2,0,P|292:58|321:64,1,80
396,69,152145,2,0,P|398:112|364:158,1,80
336,229,152488,2,0,P|279:214|241:230,1,80
188,170,152830,5,0,0:0:0:0:
124,75,153002,1,0,0:0:0:0:
293,72,153173,1,0,0:0:0:0:
81,176,153345,1,0,0:0:0:0:
81,176,153516,2,0,L|30:216,1,40
129,254,153687,2,0,L|104:314,1,40
211,297,153859,2,0,L|220:361,1,40,0|0,2:0|2:0,2:0:0:0:
304,315,154030,1,0,0:0:0:0:
400,277,154202,5,0,0:0:0:0:
407,238,154287,1,0,0:0:0:0:
400,198,154373,1,0,0:0:0:0:
379,165,154459,1,0,0:0:0:0:
347,145,154545,6,0,P|304:146|252:166,1,80
227,245,154888,2,0,P|270:244|322:224,1,80
253,325,155230,2,0,P|210:324|158:304,1,80
21,208,155573,5,0,0:0:0:0:
129,249,155745,1,0,0:0:0:0:
45,300,155916,1,0,0:0:0:0:
104,131,156088,1,0,0:0:0:0:
104,131,156259,2,0,L|146:80,1,40
189,158,156430,2,0,L|250:134,1,40
242,228,156601,2,0,L|307:238,1,40
371,253,156773,1,0,0:0:0:0:
451,163,156945,5,0,0:0:0:0:
417,141,157030,1,0,0:0:0:0:
379,128,157116,1,0,0:0:0:0:
340,122,157202,1,0,0:0:0:0:
303,120,157288,6,0,L|205:117,1,80
163,196,157630,2,0,L|261:193,1,80
303,276,157973,2,0,L|205:273,1,80
126,272,158316,5,4,0:0:0:0:
28,316,158488,1,0,0:0:0:0:
190,340,158659,1,0,0:0:0:0:
58,153,158830,2,0,L|79:93,1,40
130,28,159002,2,0,L|151:88,1,40
200,151,159173,2,0,L|213:113,1,40
247,27,159345,1,0,0:0:0:0:
301,139,159516,1,0,0:0:0:0:
401,42,159688,5,0,0:0:0:0:
405,69,159773,1,0,0:0:0:0:
409,97,159859,1,0,0:0:0:0:
413,125,159945,1,0,0:0:0:0:
419,154,160030,6,0,L|434:250,1,80
351,217,160373,2,0,L|366:313,1,80
281,278,160716,2,0,L|296:374,1,80
191,198,161059,5,0,0:0:0:0:
118,288,161230,1,0,0:0:0:0:
153,66,161402,1,0,0:0:0:0:
247,237,161573,6,0,L|277:203,1,40
235,128,161745,2,0,L|265:94,1,40
351,90,161916,2,0,L|381:56,1,40
438,3,162088,1,0,0:0:0:0:
481,116,162259,1,0,0:0:0:0:
443,199,162430,5,0,0:0:0:0:
415,192,162515,1,0,0:0:0:0:
388,186,162601,1,0,0:0:0:0:
361,179,162687,1,0,0:0:0:0:
329,172,162773,6,0,P|277:171|223:183,1,80
155,307,163116,2,0,P|181:262|198:209,1,80
131,76,163459,2,0,P|156:121|193:162,1,80
247,165,163802,5,0,0:0:0:0:
410,255,163973,1,0,0:0:0:0:
317,316,164145,1,0,0:0:0:0:
304,216,164316,1,0,0:0:0:0:
410,255,164488,6,0,L|443:188,1,40
417,96,164659,2,0,L|384:163,1,40
304,216,164830,2,0,L|321:180,1,40
294,95,165002,1,0,0:0:0:0:
215,148,165173,1,0,0:0:0:0:
181,169,165258,1,0,0:0:0:0:
142,179,165344,1,0,0:0:0:0:
102,178,165430,1,0,0:0:0:0:
62,168,165516,6,0,P|39:125|56:63,1,80
120,106,165859,2,0,P|143:149|126:211,1,80
62,168,166202,2,0,P|39:211|56:273,1,80
123,275,166545,5,0,0:0:0:0:
320,272,166716,1,0,0:0:0:0:
144,344,166888,1,0,0:0:0:0:
288,208,167059,1,0,0:0:0:0:
216,368,167230,1,0,0:0:0:0:
224,184,167402,1,0,0:0:0:0:
296,352,167573,1,0,0:0:0:0:
152,192,167745,1,0,0:0:0:0:
88,216,167916,6,0,L|64:168,1,40
0,80,168088,2,0,L|24:128,1,40
88,248,168259,6,0,L|64:200,1,40
0,112,168431,2,0,L|24:160,1,40
88,280,168602,6,0,L|64:232,1,40
0,144,168774,2,0,L|24:192,1,40
88,312,168945,6,0,L|64:264,1,40
0,176,169117,2,0,L|24:224,1,40
88,320,169288,5,4,0:1:0:0:
168,160,191230,5,0,0:0:0:0:
171,163,191573,2,0,P|218:163|266:193,1,80
326,232,191916,2,0,P|362:246|402:245,1,80
474,174,192259,1,0,0:0:0:0:
400,112,192430,1,0,0:0:0:0:
325,47,192602,1,0,0:0:0:0:
313,72,192687,1,0,0:0:0:0:
302,98,192773,1,0,0:0:0:0:
290,123,192859,1,0,0:0:0:0:
281,154,192945,6,0,L|189:110,1,80
221,173,193288,2,0,L|129:129,1,80
168,196,193630,2,0,L|76:152,1,80
64,272,193973,5,0,0:0:0:0:
133,335,194145,1,0,0:0:0:0:
197,271,194316,1,0,0:0:0:0:
270,329,194488,2,0,P|320:307|326:262,1,80
349,196,194830,1,0,0:0:0:0:
459,301,195002,2,0,L|438:216,1,80
404,133,195345,1,0,0:0:0:0:
383,114,195430,1,0,0:0:0:0:
359,99,195516,1,0,0:0:0:0:
333,90,195602,1,0,0:0:0:0:
302,88,195688,6,0,L|217:88,1,80
160,144,196030,2,0,L|245:144,1,80
312,200,196373,2,0,L|227:200,1,80
64,225,196716,6,0,P|103:278|145:288,1,80
216,257,197059,1,0,0:0:0:0:
294,335,197230,2,0,L|340:235,1,80
365,165,197573,1,0,0:0:0:0:
409,292,197745,2,0,L|455:192,1,80
468,140,198088,1,0,0:0:0:0:
454,115,198173,1,0,0:0:0:0:
435,94,198259,1,0,0:0:0:0:
412,79,198345,1,0,0:0:0:0:
383,64,198431,6,0,P|336:50|267:50,1,80
226,56,198773,2,0,P|179:71|133:109,1,80
104,149,199116,2,0,P|95:206|101:262,1,80
170,283,199459,5,0,0:0:0:0:
243,166,199630,1,0,0:0:0:0:
293,292,199802,1,0,0:0:0:0:
351,202,199973,2,0,P|358:155|338:101,1,80
297,37,200316,1,0,0:0:0:0:
352,120,200488,1,0,0:0:0:0:
434,32,200659,1,0,0:0:0:0:
482,108,200830,5,0,0:0:0:0:
484,135,200915,1,0,0:0:0:0:
483,163,201001,1,0,0:0:0:0:
478,191,201087,1,0,0:0:0:0:
466,218,201173,6,0,P|420:215|372:233,1,80
318,262,201516,2,0,P|272:265|224:247,1,80
161,233,201859,2,0,P|115:230|67:248,1,80
35,145,202202,5,0,0:0:0:0:
119,67,202373,1,0,0:0:0:0:
119,67,202459,1,0,0:0:0:0:
119,67,202545,2,0,P|168:106|206:109,1,80
275,61,202888,1,0,0:0:0:0:
303,157,203059,1,0,0:0:0:0:
373,68,203230,1,0,0:0:0:0:
419,164,203402,1,0,0:0:0:0:
425,252,203573,5,0,0:0:0:0:
398,260,203658,1,0,0:0:0:0:
371,268,203744,1,0,0:0:0:0:
344,276,203830,1,0,0:0:0:0:
315,288,203916,2,0,L|269:180|269:180,1,80
267,252,204259,2,0,L|221:144|221:144,1,80
208,211,204602,2,0,L|162:103|162:103,1,80
247,37,204945,5,0,0:0:0:0:
315,103,205116,2,0,P|360:108|408:83,1,80
466,39,205459,1,0,0:0:0:0:
500,131,205630,1,0,0:0:0:0:
425,202,205802,1,0,0:0:0:0:
425,202,205888,1,0,0:0:0:0:
425,202,205973,6,0,P|367:194|339:205,1,80
278,250,206316,1,0,0:0:0:0:
251,258,206401,1,0,0:0:0:0:
223,260,206487,1,0,0:0:0:0:
196,255,206573,1,0,0:0:0:0:
169,243,206659,2,0,P|123:227|77:230,1,80
30,170,207002,2,0,P|76:154|122:157,1,80
160,93,207345,2,0,P|114:77|68:80,1,80
250,52,207688,5,0,0:0:0:0:
211,194,207859,1,0,0:0:0:0:
351,69,208030,5,0,0:0:0:0:
312,211,208201,1,0,0:0:0:0:
461,86,208373,5,0,0:0:0:0:
422,228,208544,1,0,0:0:0:0:
370,297,208716,5,0,0:0:0:0:
190,288,208888,1,0,0:0:0:0:
315,185,209059,5,0,0:0:0:0:
190,288,209230,1,0,0:0:0:0:
201,123,209402,5,0,0:0:0:0:
190,288,209573,1,0,0:0:0:0:
61,126,209745,5,0,0:0:0:0:
190,288,209916,1,0,0:0:0:0:
33,303,210088,5,0,0:0:0:0:
191,291,210259,1,0,0:0:0:0:
40,115,210430,5,4,0:0:0:0:
77,99,210515,1,0,0:0:0:0:
116,92,210601,1,0,0:0:0:0:
155,95,210687,1,0,0:0:0:0:
193,108,210772,1,4,0:0:0:0:
230,124,210858,1,0,0:0:0:0:
268,135,210944,1,0,0:0:0:0:
308,135,211030,1,0,0:0:0:0:
350,120,211116,5,4,0:0:0:0:
370,154,211201,1,0,0:0:0:0:
376,193,211287,1,0,0:0:0:0:
369,232,211373,1,0,0:0:0:0:
349,266,211458,1,4,0:0:0:0:
318,291,211544,1,0,0:0:0:0:
280,304,211630,1,0,0:0:0:0:
240,288,211716,1,0,0:0:0:0:
220,253,211801,5,4,0:0:0:0:
192,225,211887,1,0,0:0:0:0:
157,206,211973,1,4,0:0:0:0:
118,197,212058,1,0,0:0:0:0:
77,204,212145,5,4,0:0:0:0:
53,158,212230,1,0,0:0:0:0:
55,106,212316,1,4,0:0:0:0:
83,63,212402,1,0,0:0:0:0:
128,38,212487,5,4,0:0:0:0:
179,39,212573,1,0,0:0:0:0:
224,64,212659,1,4,0:0:0:0:
251,94,212745,1,0,0:0:0:0:
280,127,212830,5,4,0:0:0:0:
318,151,212916,1,4,0:0:0:0:
360,164,213002,1,4,0:0:0:0:
405,164,213087,1,4,0:0:0:0:
448,152,213173,5,12,0:1:0:0:
441,283,213516,6,0,P|383:274|344:247,1,80
273,193,213859,1,0,0:0:0:0:
321,85,214030,2,0,P|365:125|383:167,1,80
365,247,214373,1,0,0:0:0:0:
271,192,214545,2,0,P|227:172|169:179,1,80
115,88,214888,5,0,0:0:0:0:
74,305,215059,1,0,0:0:0:0:
21,169,215230,1,0,0:0:0:0:
146,204,215402,1,0,0:0:0:0:
146,204,215488,1,0,0:0:0:0:
146,204,215573,6,0,P|201:232|239:227,1,80
287,154,215916,5,0,0:0:0:0:
417,221,216088,1,0,0:0:0:0:
307,258,216259,1,0,0:0:0:0:
417,114,216430,2,0,P|389:78|329:68,1,80
273,61,216773,6,0,P|238:83|176:76,1,80
115,58,217116,1,0,0:0:0:0:
76,148,217288,1,0,0:0:0:0:
149,227,217459,1,0,0:0:0:0:
149,227,217545,1,0,0:0:0:0:
149,227,217630,6,0,P|201:206|228:214,1,80
303,242,217973,1,0,0:0:0:0:
450,295,218145,1,0,0:0:0:0:
312,154,218316,1,0,0:0:0:0:
465,160,218488,2,0,P|454:122|273:64,1,240
198,75,219173,1,0,0:0:0:0:
198,75,219259,1,0,0:0:0:0:
198,75,219345,6,0,P|187:146|168:168,1,80
133,240,219688,1,0,0:0:0:0:
220,318,219859,1,0,0:0:0:0:
291,230,220030,2,0,P|325:184|365:173,1,80
474,200,220373,1,0,0:0:0:0:
390,303,220545,1,0,0:0:0:0:
298,232,220716,2,0,P|251:215|204:215,1,80
117,187,221059,1,0,0:0:0:0:
45,269,221230,1,0,0:0:0:0:
5,179,221402,6,0,P|20:116|48:82,2,80
42,271,221916,1,0,0:0:0:0:
142,303,222088,2,0,P|170:267|183:228,1,80
197,148,222430,1,0,0:0:0:0:
208,57,222602,6,0,P|237:26|288:20,1,80
392,40,222945,1,0,0:0:0:0:
320,108,223116,1,0,0:0:0:0:
392,176,223288,1,0,0:0:0:0:
346,252,223459,6,0,P|298:272|246:257,1,80
189,215,223802,1,0,0:0:0:0:
125,141,223973,1,0,0:0:0:0:
125,141,224059,1,0,0:0:0:0:
125,141,224145,6,0,P|96:183|96:232,1,80,4|0,0:0|0:0,0:0:0:0:
117,307,224488,1,0,0:0:0:0:
217,277,224659,2,0,P|246:248|296:238,1,80
372,235,225002,1,0,0:0:0:0:
437,176,225173,1,0,0:0:0:0:
441,91,225345,6,0,P|391:80|332:98,1,80
268,125,225688,1,0,0:0:0:0:
138,189,225859,2,0,P|188:178|247:196,1,80
311,223,226202,1,0,0:0:0:0:
396,146,226373,1,0,0:0:0:0:
440,244,226545,1,0,0:0:0:0:
364,297,226716,1,0,0:0:0:0:
364,297,226802,1,0,0:0:0:0:
364,297,226888,6,0,P|310:273|263:278,1,80
180,322,227230,1,0,0:0:0:0:
90,230,227402,1,0,0:0:0:0:
200,207,227573,2,0,P|246:171|258:136,1,80
290,33,227916,1,0,0:0:0:0:
359,197,228088,1,0,0:0:0:0:
424,98,228259,6,0,P|343:98|333:102,1,80
259,127,228602,1,0,0:0:0:0:
354,198,228773,1,0,0:0:0:0:
424,99,228945,1,0,0:0:0:0:
320,35,229116,1,0,0:0:0:0:
261,129,229288,2,0,P|222:141|161:127,1,80
99,99,229630,1,0,0:0:0:0:
54,182,229802,1,0,0:0:0:0:
54,182,229888,1,0,0:0:0:0:
54,182,229973,6,0,P|88:221|150:241,1,80
201,272,230316,1,0,0:0:0:0:
280,226,230488,2,0,P|284:175|248:141,1,80
197,110,230830,1,0,0:0:0:0:
220,29,231002,2,0,P|292:34|314:54,1,80
353,115,231345,5,0,0:0:0:0:
321,248,231516,1,0,0:0:0:0:
436,104,231688,1,0,0:0:0:0:
356,305,231859,1,0,0:0:0:0:
295,104,232030,5,0,0:0:0:0:
245,280,232202,1,0,0:0:0:0:
407,85,232373,1,0,0:0:0:0:
190,274,232545,1,0,0:0:0:0:
238,43,232716,5,0,0:0:0:0:
309,274,232888,1,0,0:0:0:0:
399,38,233059,1,0,0:0:0:0:
238,312,233230,1,0,0:0:0:0:
91,201,233402,5,4,0:0:0:0:
131,205,233488,1,0,0:0:0:0:
171,202,233573,1,0,0:0:0:0:
209,191,233659,1,0,0:0:0:0:
245,174,233745,1,4,0:0:0:0:
282,158,233831,1,0,0:0:0:0:
321,150,233916,1,0,0:0:0:0:
360,155,234002,1,0,0:0:0:0:
397,171,234088,1,4,0:0:0:0:
432,192,234173,1,0,0:0:0:0:
456,223,234259,5,0,0:0:0:0:
415,267,234344,1,0,0:0:0:0:
366,301,234430,1,4,0:0:0:0:
310,322,234516,1,0,0:0:0:0:
251,331,234601,1,4,0:0:0:0:
191,326,234687,1,0,0:0:0:0:
134,308,234773,1,4,0:0:0:0:
83,277,234859,1,4,0:0:0:0:
41,235,234945,5,4,0:0:0:0:
31,163,235030,1,4,0:0:0:0:
61,98,235116,1,12,0:1:0:0:
217,100,235459,6,0,L|191:184,1,80
168,256,235802,1,0,0:0:0:0:
309,113,235973,1,0,0:0:0:0:
309,113,236059,1,0,0:0:0:0:
309,113,236145,6,0,L|282:206,1,80
276,264,236488,1,0,0:0:0:0:
401,125,236659,1,0,0:0:0:0:
203,207,236830,1,0,0:0:0:0:
294,63,237002,1,0,0:0:0:0:
294,63,237088,1,0,0:0:0:0:
294,63,237173,2,0,P|222:62|186:68,1,80
114,77,237516,1,0,0:0:0:0:
306,140,237688,1,0,0:0:0:0:
197,164,237859,6,0,P|231:225|274:236,1,80
321,197,238202,1,0,0:0:0:0:
286,310,238373,1,0,0:0:0:0:
392,261,238545,2,0,P|427:231|444:182,1,80
444,99,238888,1,0,0:0:0:0:
354,157,239059,2,0,P|301:175|260:166,1,80
221,108,239402,1,0,0:0:0:0:
109,157,239573,1,0,0:0:0:0:
153,253,239745,1,0,0:0:0:0:
153,253,239830,1,0,0:0:0:0:
153,253,239916,6,0,P|192:234|253:247,1,80
308,263,240259,5,0,0:0:0:0:
478,313,240430,1,0,0:0:0:0:
293,159,240602,2,0,P|366:169|421:108,1,160
424,22,241116,1,0,0:0:0:0:
484,193,241288,1,0,0:0:0:0:
380,121,241459,2,0,P|332:123|286:141,1,80
215,160,241802,1,0,0:0:0:0:
344,213,241973,1,0,0:0:0:0:
244,263,242145,2,0,P|200:243|162:215,1,80
116,153,242488,1,0,0:0:0:0:
116,153,242573,1,0,0:0:0:0:
116,153,242659,6,0,P|109:96|128:66,1,80
235,114,243002,1,0,0:0:0:0:
185,13,243173,1,0,0:0:0:0:
310,60,243345,2,0,P|347:73|380:113,1,80
431,159,243688,5,0,0:0:0:0:
272,227,243859,1,0,0:0:0:0:
432,247,244030,5,0,0:0:0:0:
238,152,244202,1,0,0:0:0:0:
355,272,244373,5,0,0:0:0:0:
266,91,244545,1,0,0:0:0:0:
208,230,244716,5,0,0:0:0:0:
340,69,244888,1,0,0:0:0:0:
434,109,245059,5,0,0:0:0:0:
421,134,245144,1,0,0:0:0:0:
407,157,245230,1,0,0:0:0:0:
389,179,245316,1,0,0:0:0:0:
369,203,245402,2,0,P|340:232|277:261,1,80
242,334,245745,1,0,0:0:0:0:
284,126,245916,1,0,0:0:0:0:
203,221,246088,6,0,P|159:207|131:160,1,80,4|0,0:0|0:0,0:0:0:0:
118,92,246430,1,0,0:0:0:0:
84,297,246602,1,0,0:0:0:0:
142,221,246773,2,0,P|206:214|249:227,1,80
301,242,247116,1,0,0:0:0:0:
375,293,247288,1,0,0:0:0:0:
456,233,247459,6,0,P|444:179|409:137,1,80
343,93,247802,1,0,0:0:0:0:
366,264,247973,1,0,0:0:0:0:
345,237,248059,1,0,0:0:0:0:
317,219,248145,2,0,P|251:218|224:235,1,80
178,315,248488,1,0,0:0:0:0:
166,135,248659,1,0,0:0:0:0:
133,231,248830,6,0,P|92:219|63:188,1,80
18,107,249173,1,0,0:0:0:0:
110,329,249345,1,0,0:0:0:0:
133,231,249516,2,0,P|194:225|222:235,1,80
294,252,249859,2,0,P|355:258|383:248,1,80
445,196,250202,1,0,0:0:0:0:
303,108,250373,1,0,0:0:0:0:
402,95,250545,1,0,0:0:0:0:
268,195,250716,1,0,0:0:0:0:
140,92,250888,5,0,0:0:0:0:
127,117,250973,1,0,0:0:0:0:
120,144,251059,1,0,0:0:0:0:
117,171,251145,1,0,0:0:0:0:
118,203,251230,2,0,P|131:243|254:301,1,160,0|4,0:0|0:0,0:0:0:0:
344,311,251745,1,0,0:0:0:0:
244,165,251916,1,0,0:0:0:0:
340,221,252088,6,0,P|384:166|393:130,1,80
408,52,252430,1,0,0:0:0:0:
275,156,252602,1,0,0:0:0:0:
282,56,252773,2,0,P|231:48|191:61,1,80
107,86,253116,1,0,0:0:0:0:
245,160,253288,1,0,0:0:0:0:
124,176,253459,1,0,0:0:0:0:
124,176,253545,1,0,0:0:0:0:
124,176,253630,6,0,P|126:232|151:261,1,80
193,317,253973,1,0,0:0:0:0:
284,169,254145,1,0,0:0:0:0:
301,275,254316,2,0,P|247:262|210:229,1,80,4|0,0:0|0:0,0:0:0:0:
193,317,254659,2,0,P|152:278|137:231,1,80,4|0,0:0|0:0,0:0:0:0:
81,304,255002,2,0,P|65:250|75:202,1,80,4|0,0:0|0:0,0:0:0:0:
46,77,255345,1,4,0:0:0:0:
161,131,255516,1,4,0:0:0:0:
216,198,255688,5,4,0:0:0:0:
234,233,255773,1,0,0:0:0:0:
261,263,255859,1,0,0:0:0:0:
293,286,255945,1,0,0:0:0:0:
330,300,256030,1,4,0:0:0:0:
370,306,256116,1,0,0:0:0:0:
410,303,256202,1,0,0:0:0:0:
448,291,256288,1,0,0:0:0:0:
487,263,256373,5,4,0:0:0:0:
448,252,256458,1,0,0:0:0:0:
414,232,256545,1,4,0:0:0:0:
385,204,256630,1,0,0:0:0:0:
365,169,256715,1,4,0:0:0:0:
354,131,256801,1,4,0:0:0:0:
354,91,256887,1,4,0:0:0:0:
363,52,256973,1,4,0:0:0:0:
378,15,257059,5,12,0:1:0:0:
170,65,257402,6,0,L|129:151,1,80
210,166,257745,1,0,0:0:0:0:
272,76,257916,1,0,0:0:0:0:
135,137,258088,1,0,0:0:0:0:
287,186,258259,1,0,0:0:0:0:
446,136,258430,5,0,0:0:0:0:
432,160,258515,1,0,0:0:0:0:
418,184,258601,1,0,0:0:0:0:
404,209,258687,1,0,0:0:0:0:
388,232,258773,2,0,L|295:185,1,80
141,175,259116,2,0,L|234:222,1,80
325,340,259459,2,0,L|232:293,1,80
129,309,259802,5,0,0:0:0:0:
56,192,259973,1,0,0:0:0:0:
136,96,260145,1,0,0:0:0:0:
216,192,260316,1,0,0:0:0:0:
383,81,260488,6,0,L|355:131,1,40
431,185,260659,2,0,L|403:235,1,40
322,193,260830,2,0,L|294:243,1,40
364,299,261002,1,0,0:0:0:0:
257,332,261173,1,0,0:0:0:0:
245,306,261258,1,0,0:0:0:0:
228,284,261344,1,0,0:0:0:0:
207,266,261430,1,0,0:0:0:0:
178,251,261516,2,0,P|128:248|94:274,1,80
11,186,261859,2,0,P|61:189|95:163,1,80
168,101,262202,2,0,P|118:104|84:78,1,80
273,93,262545,5,0,0:0:0:0:
203,152,262716,2,0,P|187:203|209:251,1,80
260,289,263059,1,0,0:0:0:0:
365,289,263230,6,0,L|413:322,1,40
398,221,263401,2,0,L|456:226,1,40
394,146,263573,2,0,L|447:121,1,40
496,95,263744,1,0,0:0:0:0:
402,43,263916,1,0,0:0:0:0:
316,95,264088,1,0,0:0:0:0:
245,44,264259,6,0,P|188:70|148:65,1,80
158,146,264601,2,0,P|99:124|74:92,1,80
29,165,264944,2,0,P|2:108|8:68,1,80
94,226,265288,5,0,0:0:0:0:
56,333,265459,1,0,0:0:0:0:
172,323,265630,2,0,P|215:304|253:271,1,80
306,218,265973,2,0,L|361:247,1,40
311,174,266145,2,0,L|256:145,1,40
344,146,266316,2,0,L|379:164,1,40
359,103,266488,1,0,0:0:0:0:
460,48,266659,5,0,0:0:0:0:
476,70,266744,1,0,0:0:0:0:
487,96,266830,1,0,0:0:0:0:
492,123,266916,1,0,0:0:0:0:
494,158,267002,2,0,P|493:216|481:260,1,80
413,312,267345,2,0,P|355:311|311:299,1,80
275,217,267688,2,0,P|276:159|288:115,1,80
341,42,268030,5,0,0:0:0:0:
414,191,268202,1,0,0:0:0:0:
283,142,268373,2,0,P|236:142|190:161,1,80
109,187,268716,2,0,L|152:228,1,40
148,292,268888,2,0,L|207:290,1,40,0|0,2:0|0:0,0:0:0:0:
251,338,269059,2,0,L|292:296,1,40,0|0,2:0|0:0,0:0:0:0:
333,243,269230,1,0,0:0:0:0:
442,206,269402,5,0,0:0:0:0:
422,171,269487,1,0,0:0:0:0:
392,144,269573,1,0,0:0:0:0:
356,127,269659,1,0,0:0:0:0:
321,120,269745,2,0,P|269:125|219:140,1,80
173,207,270088,2,0,P|225:212|275:227,1,80
343,295,270430,2,0,P|291:300|241:315,1,80
151,322,270773,5,0,0:0:0:0:
66,257,270945,1,0,0:0:0:0:
113,159,271116,2,0,P|172:186|219:183,1,80
241,250,271459,6,0,L|270:209,1,40
376,124,271630,2,0,L|352:156,1,40
340,292,271802,2,0,L|363:259,1,40
449,201,271973,1,0,0:0:0:0:
429,91,272145,5,0,0:0:0:0:
392,75,272230,1,0,0:0:0:0:
352,70,272316,1,0,0:0:0:0:
312,73,272402,1,0,0:0:0:0:
271,88,272488,6,0,P|225:129|209:165,1,80
238,222,272830,2,0,P|284:181|300:145,1,80
216,144,273173,2,0,P|170:185|154:221,1,80
181,287,273516,5,0,0:0:0:0:
364,203,273688,1,0,0:0:0:0:
291,280,273859,2,0,P|261:249|212:216,1,80
146,188,274202,2,0,L|191:154,1,40
181,86,274373,2,0,L|236:93,1,40,0|0,2:0|2:0,2:0:0:0:
285,29,274545,2,0,L|318:74,1,40,0|0,2:0|2:0,2:0:0:0:
304,156,274716,1,0,0:0:0:0:
301,285,274888,5,0,0:0:0:0:
339,274,274973,1,0,0:0:0:0:
373,253,275059,1,0,0:0:0:0:
399,222,275145,1,0,0:0:0:0:
416,189,275230,2,0,P|429:136|401:89,1,80
345,147,275573,2,0,P|316:100|263:86,1,80
264,167,275916,2,0,P|211:153|164:182,1,80
89,257,276259,5,0,0:0:0:0:
286,239,276430,1,0,0:0:0:0:
107,286,276602,1,0,0:0:0:0:
273,197,276773,1,0,0:0:0:0:
138,321,276945,1,0,0:0:0:0:
241,155,277116,1,0,0:0:0:0:
189,338,277288,1,0,0:0:0:0:
193,145,277459,1,0,0:0:0:0:
61,180,277630,5,4,0:0:0:0:
96,198,277715,1,0,0:0:0:0:
133,212,277801,1,0,0:0:0:0:
172,223,277887,1,0,0:0:0:0:
211,231,277972,1,4,0:0:0:0:
250,238,278058,1,0,0:0:0:0:
290,242,278144,1,0,0:0:0:0:
330,243,278229,1,0,0:0:0:0:
365,229,278315,5,4,0:0:0:0:
360,190,278401,1,0,0:0:0:0:
356,151,278487,1,4,0:0:0:0:
380,120,278572,1,0,0:0:0:0:
419,115,278658,1,4,0:0:0:0:
454,132,278744,1,4,0:0:0:0:
468,168,278829,1,4,0:0:0:0:
439,188,278915,1,4,0:0:0:0:
403,194,279002,5,12,0:1:0:0:
318,287,279345,2,0,P|266:256|231:212,1,80
340,199,279688,1,0,0:0:0:0:
126,140,279859,1,0,0:0:0:0:
155,256,280030,1,0,0:0:0:0:
302,145,280202,1,0,0:0:0:0:
234,211,280373,6,0,L|300:233,1,40
379,305,280545,2,0,L|313:283,1,40
177,285,280716,2,0,L|286:324,1,80
127,293,281059,2,0,L|236:332,1,80
78,306,281402,2,0,L|187:345,1,80
71,152,281745,5,0,0:0:0:0:
130,242,281916,1,0,0:0:0:0:
117,73,282088,2,0,P|171:108|209:112,1,80
263,138,282430,2,0,L|227:186,1,40
316,231,282602,2,0,L|256:239,1,40
239,310,282773,2,0,L|191:274,1,40
144,233,282945,1,0,0:0:0:0:
56,88,283116,5,0,0:0:0:0:
80,101,283201,1,0,0:0:0:0:
106,110,283287,1,0,0:0:0:0:
134,115,283373,1,0,0:0:0:0:
166,114,283459,2,0,P|207:111|268:121,1,80
317,202,283802,2,0,P|277:197|237:200,1,80
156,279,284145,2,0,P|197:276|258:286,1,80
348,302,284488,5,0,0:0:0:0:
447,323,284659,1,0,0:0:0:0:
483,225,284830,2,0,P|447:193|382:186,1,80
348,111,285173,2,0,L|340:163,1,40
254,175,285345,2,0,L|285:217,1,40
210,276,285516,2,0,L|262:284,1,40
347,291,285688,1,0,0:0:0:0:
455,223,285859,5,0,0:0:0:0:
437,200,285944,1,0,0:0:0:0:
418,180,286030,1,0,0:0:0:0:
397,162,286116,1,0,0:0:0:0:
371,146,286202,2,0,P|328:119|277:103,1,80
209,82,286545,5,0,0:0:0:0:
228,268,286716,1,0,0:0:0:0:
132,194,286888,1,0,0:0:0:0:
357,152,287059,2,0,P|348:207|317:241,1,80
267,289,287402,1,0,0:0:0:0:
96,172,287573,1,0,0:0:0:0:
146,266,287745,1,0,0:0:0:0:
216,76,287916,1,0,0:0:0:0:
255,80,288001,1,0,0:0:0:0:
292,96,288087,1,0,0:0:0:0:
322,121,288173,1,0,0:0:0:0:
344,155,288258,1,0,0:0:0:0:
374,259,288430,5,0,0:0:0:0:
252,217,288602,1,0,0:0:0:0:
212,214,288687,1,0,0:0:0:0:
173,223,288773,1,0,0:0:0:0:
138,242,288859,1,0,0:0:0:0:
106,269,288945,2,0,P|74:243|66:174,1,80
141,197,289288,2,0,P|136:155|179:101,1,80
218,169,289630,2,0,P|244:137|313:129,1,80
383,91,289973,5,0,0:0:0:0:
346,263,290145,1,0,0:0:0:0:
302,140,290316,2,0,P|250:140|203:174,1,80
121,200,290659,1,0,0:0:0:0:
136,236,290744,1,0,0:0:0:0:
167,261,290830,1,0,0:0:0:0:
206,268,290916,1,0,0:0:0:0:
243,255,291001,1,0,0:0:0:0:
331,304,291173,1,0,0:0:0:0:
369,206,291345,1,0,0:0:0:0:
353,169,291430,1,0,0:0:0:0:
324,142,291516,1,0,0:0:0:0:
287,128,291602,1,0,0:0:0:0:
248,133,291688,6,0,P|199:150|159:156,1,80
97,215,292030,2,0,P|146:232|186:238,1,80
273,295,292373,2,0,P|224:312|184:318,1,80
86,272,292716,5,0,0:0:0:0:
196,316,292888,2,0,P|235:308|273:295,1,80
293,215,293230,1,0,0:0:0:0:
218,108,293402,1,0,0:0:0:0:
184,85,293487,1,0,0:0:0:0:
145,78,293573,1,0,0:0:0:0:
107,87,293659,1,0,0:0:0:0:
74,110,293744,1,0,0:0:0:0:
292,211,293916,1,0,0:0:0:0:
321,82,294088,1,0,0:0:0:0:
358,69,294173,1,0,0:0:0:0:
398,72,294259,1,0,0:0:0:0:
434,90,294345,1,0,0:0:0:0:
460,119,294430,1,0,0:0:0:0:
291,209,294602,5,0,0:0:0:0:
164,107,294773,2,0,L|81:127,1,80
376,102,295116,2,0,L|466:145,1,80
393,221,295459,5,0,0:0:0:0:
393,221,295802,2,0,P|346:263|297:261,1,80
270,179,296145,1,0,0:0:0:0:
229,285,296316,1,0,0:0:0:0:
58,133,296488,1,0,0:0:0:0:
89,259,296659,1,0,0:0:0:0:
193,304,296830,5,0,0:0:0:0:
232,298,296915,1,0,0:0:0:0:
262,273,297001,1,0,0:0:0:0:
275,236,297087,1,0,0:0:0:0:
266,197,297172,1,0,0:0:0:0:
255,86,297345,1,0,0:0:0:0:
376,146,297516,2,0,P|412:186|422:227,1,80
381,281,297859,2,0,P|345:241|335:200,1,80
261,192,298202,5,0,0:0:0:0:
446,112,298373,1,0,0:0:0:0:
301,234,298545,1,0,0:0:0:0:
407,62,298716,1,0,0:0:0:0:
363,253,298888,1,0,0:0:0:0:
339,26,299059,1,0,0:0:0:0:
432,256,299230,1,0,0:0:0:0:
262,48,299402,1,0,0:0:0:0:
100,138,299573,5,0,0:0:0:0:
106,166,299659,1,0,0:0:0:0:
118,191,299745,1,0,0:0:0:0:
135,212,299830,1,0,0:0:0:0:
158,233,299916,1,0,0:0:0:0:
189,254,300002,1,0,0:0:0:0:
204,283,300088,2,0,L|182:335,5,40
233,260,300602,2,0,L|261:248,7,20
326,230,300945,6,0,P|366:236|401:276,1,80
324,350,301288,1,0,0:0:0:0:
256,281,301459,2,0,P|204:275|155:287,1,80
100,331,301802,1,0,0:0:0:0:
83,220,301973,2,0,P|98:165|141:132,1,80
174,57,302316,1,0,0:0:0:0:
224,148,302488,2,0,P|256:170|295:179,1,80
175,56,302830,1,0,0:0:0:0:
130,153,303002,2,0,P|97:175|58:184,1,80
58,184,303345,1,0,0:0:0:0:
176,56,303516,1,0,0:0:0:0:
176,56,303688,5,0,0:0:0:0:
222,152,303859,1,0,0:0:0:0:
271,258,304030,2,0,P|311:256|366:225,1,80
222,156,304373,1,0,0:0:0:0:
160,250,304545,2,0,P|132:218|111:170,1,80
222,156,304888,1,0,0:0:0:0:
266,247,305059,6,0,P|291:308|283:337,1,80
224,155,305402,1,0,0:0:0:0:
266,247,305573,2,0,P|318:231|353:191,1,80
188,232,305916,2,0,P|132:227|92:250,1,80
33,279,306259,1,0,0:0:0:0:
110,323,306430,6,0,P|160:348|205:333,1,80
264,300,306773,1,0,0:0:0:0:
301,213,306945,1,0,0:0:0:0:
346,125,307116,2,0,P|372:94|426:80,1,80
303,215,307459,1,0,0:0:0:0:
261,96,307630,2,0,P|199:82|154:91,1,80
304,212,307973,1,0,0:0:0:0:
403,84,308145,2,0,L|493:83,1,80
233,99,308488,2,0,L|152:136,1,80
303,215,308830,1,0,0:0:0:0:
231,98,309002,1,0,0:0:0:0:
115,111,309173,6,0,P|130:171|164:200,1,80
223,163,309516,1,0,0:0:0:0:
264,251,309688,2,0,P|321:254|356:237,1,80
361,154,310030,1,0,0:0:0:0:
451,192,310202,2,0,P|455:150|429:96,1,80
358,99,310545,1,0,0:0:0:0:
363,206,310716,2,0,P|324:231|271:234,1,80
221,137,311059,1,0,0:0:0:0:
164,248,311230,2,0,P|123:217|98:172,1,80
248,261,311573,2,0,P|299:242|320:198,1,80
365,108,311916,5,4,0:0:0:0:
406,196,312088,1,0,0:0:0:0:
445,273,312259,1,0,0:0:0:0:
352,297,312430,2,0,P|318:265|294:232,1,80
216,296,312773,1,0,0:0:0:0:
205,184,312945,2,0,P|249:159|305:155,1,80
296,239,313288,1,0,0:0:0:0:
382,173,313459,2,0,P|401:124|386:86,1,80
311,149,313802,1,0,0:0:0:0:
278,69,313973,2,0,P|224:99|197:133,1,80
190,232,314316,2,0,P|234:198|278:192,1,80
316,262,314659,5,4,0:0:0:0:
397,200,314830,1,0,0:0:0:0:
306,144,315002,1,0,0:0:0:0:
223,197,315173,2,0,P|157:193|120:164,1,80
120,91,315516,1,0,0:0:0:0:
221,40,315688,2,0,P|277:55|316:95,1,80
328,151,316030,1,0,0:0:0:0:
232,198,316202,2,0,P|170:202|140:221,1,80
72,264,316545,1,0,0:0:0:0:
151,311,316716,1,0,0:0:0:0:
252,268,316888,2,0,P|292:242|310:202,1,80
301,118,317230,1,0,0:0:0:0:
212,161,317402,6,0,L|171:192,3,40
245,204,317745,6,0,L|237:254,3,40
293,221,318088,6,0,L|324:262,3,40
338,218,318430,6,0,L|388:225,3,40
304,206,318773,5,4,0:0:0:0:
298,174,318858,1,0,0:0:0:0:
284,145,318944,1,0,0:0:0:0:
264,120,319030,1,0,0:0:0:0:
238,101,319116,5,4,0:0:0:0:
227,139,319201,1,0,0:0:0:0:
208,174,319287,1,0,0:0:0:0:
183,205,319373,1,0,0:0:0:0:
150,232,319459,5,4,0:0:0:0:
187,273,319544,1,0,0:0:0:0:
238,295,319630,1,0,0:0:0:0:
293,293,319716,1,0,0:0:0:0:
347,267,319802,5,4,0:0:0:0:
292,236,319887,1,0,0:0:0:0:
265,178,319973,1,0,0:0:0:0:
277,117,320059,1,0,0:0:0:0:
305,74,320147,5,4,0:0:0:0:
356,109,320230,1,0,0:0:0:0:
398,154,320318,1,4,0:0:0:0:
408,215,320402,1,0,0:0:0:0:
392,260,320488,5,4,0:0:0:0:
348,208,320573,1,0,0:0:0:0:
285,184,320659,1,4,0:0:0:0:
219,195,320745,1,0,0:0:0:0:
187,240,320831,5,4,0:0:0:0:
254,253,320916,1,0,0:0:0:0:
317,225,321004,1,4,0:0:0:0:
353,166,321088,1,0,0:0:0:0:
348,98,321176,5,4,0:0:0:0:
304,45,321259,1,0,0:0:0:0:
237,26,321347,1,4,0:0:0:0:
173,47,321431,1,0,0:0:0:0:
148,98,321517,5,4,0:0:0:0:
174,137,321602,1,0,0:0:0:0:
216,160,321688,1,4,0:0:0:0:
263,162,321774,1,0,0:0:0:0:
305,164,321860,5,4,0:0:0:0:
296,218,321945,1,0,0:0:0:0:
267,266,322031,1,4,0:0:0:0:
222,299,322117,1,0,0:0:0:0:
179,310,322203,5,4,0:0:0:0:
134,270,322288,1,0,0:0:0:0:
112,215,322374,1,4,0:0:0:0:
117,156,322460,1,0,0:0:0:0:
131,109,322546,5,12,0:1:0:0:
192,125,322631,1,12,0:1:0:0:
256,123,322717,1,12,0:1:0:0:
317,104,322803,1,12,0:1:0:0:
359,68,322889,5,12,0:1:0:0:
62,145,323231,6,0,P|108:187|146:196,1,80
217,218,323574,1,0,0:0:0:0:
217,218,323746,1,0,0:0:0:0:
285,151,323917,6,0,P|335:152|381:184,1,80
470,184,324260,1,4,0:0:0:0:
454,220,324345,1,4,0:0:0:0:
432,254,324431,1,4,0:0:0:0:
404,282,324517,1,4,0:0:0:0:
372,305,324603,6,4,P|318:298|271:303,1,80,4|0,0:0|0:0,0:0:0:0:
207,312,324946,2,0,P|171:297|134:273,1,80
112,148,325289,5,8,0:0:0:0:
141,112,325631,5,12,0:0:0:0:
256,192,325717,12,0,332146,0:0:0:0:
