osu file format v14

[General]
AudioFilename: audio.mp3
AudioLeadIn: 0
PreviewTime: 147400
Countdown: 0
SampleSet: Soft
StackLeniency: 0.7
Mode: 3
LetterboxInBreaks: 0
SpecialStyle: 0
WidescreenStoryboard: 1

[Editor]
Bookmarks: 15742,26714,37685,48657,59628,70600,92543,114485,125457,136428,158371
DistanceSpacing: 1.4
BeatDivisor: 4
GridSize: 4
TimelineZoom: 1.200002

[Metadata]
Title:United (L.A.O.S Remix)
TitleUnicode:United (L.A.O.S Remix)
Artist:Our Stolen Theory
ArtistUnicode:Our Stolen Theory
Creator:riunosk
Version:Rave's Easy
Source:
Tags:drum and bass dnb raveille qqqant famoss short ver cut
BeatmapID:1804435
BeatmapSetID:726545

[Difficulty]
HPDrainRate:7
CircleSize:4
OverallDifficulty:7
ApproachRate:5
SliderMultiplier:1.4
SliderTickRate:1

[Events]
//Background and Video events
0,0,"united.jpg",0,0
//Break Periods
//Storyboard Layer 0 (Background)
//Storyboard Layer 1 (Fail)
//Storyboard Layer 2 (Pass)
//Storyboard Layer 3 (Foreground)
//Storyboard Sound Samples
Sample,58857,0,"R.wav",80
Sample,80800,0,"R.wav",80
Sample,87057,0,"C#4S_Db4S.wav",70
Sample,98028,0,"C#4S_Db4S.wav",70
Sample,102743,0,"R.wav",80
Sample,124685,0,"R.wav",80
Sample,146628,0,"R.wav",80
Sample,152885,0,"C#4S_Db4S.wav",70
Sample,163857,0,"C#4S_Db4S.wav",70
Sample,168571,0,"R.wav",80

[TimingPoints]
15743,342.857142857143,4,2,2,50,1,0
56885,-100,4,2,1,50,0,0
81571,-100,4,2,1,50,0,1
103514,-100,4,2,1,50,0,0
147400,-100,4,2,1,50,0,1
169343,-100,4,2,1,50,0,0

[HitObjects]
448,192,15742,5,0,0:0:0:30:SaS_MovingPad02_170-A.wav
448,192,16257,1,0,0:0:0:0:
448,192,16771,1,0,0:0:0:0:
448,192,17285,1,0,0:0:0:0:
448,192,17800,1,0,0:0:0:0:
448,192,18314,1,0,0:0:0:0:
320,192,18485,1,0,0:0:0:30:SaS_MovingPad02_170-A.wav
320,192,19000,1,0,0:0:0:0:
320,192,19514,1,0,0:0:0:0:
320,192,20028,1,0,0:0:0:0:
320,192,20542,1,0,0:0:0:0:
320,192,21057,1,0,0:0:0:0:
192,192,21228,1,0,0:0:0:30:SaS_MovingPad02_170-A.wav
192,192,21742,1,0,0:0:0:0:
192,192,22257,1,0,0:0:0:0:
192,192,22771,1,0,0:0:0:0:
192,192,23285,1,0,0:0:0:0:
192,192,23800,1,0,0:0:0:0:
64,192,23971,1,0,0:0:0:30:SaS_MovingPad02_170-A.wav
64,192,24485,1,0,0:0:0:0:
64,192,25000,1,0,0:0:0:0:
64,192,25514,1,0,0:0:0:0:
64,192,26028,1,0,0:0:0:0:
64,192,26543,1,0,0:0:0:0:
320,192,26714,1,4,0:0:0:0:
448,192,26714,1,0,0:0:0:30:SaS_MovingPad02_170-A.wav
448,192,27228,1,0,0:0:0:0:
448,192,27743,1,0,0:0:0:0:
448,192,28257,1,0,0:0:0:0:
448,192,28771,1,0,0:0:0:0:
448,192,29285,1,0,0:0:0:0:
320,192,29457,1,0,0:0:0:30:SaS_MovingPad02_170-A.wav
320,192,29971,1,0,0:0:0:0:
320,192,30485,1,0,0:0:0:0:
320,192,31000,1,0,0:0:0:0:
320,192,31514,1,0,0:0:0:0:
320,192,32028,1,0,0:0:0:0:
192,192,32200,1,0,0:0:0:30:SaS_MovingPad02_170-A.wav
192,192,32714,1,0,0:0:0:0:
192,192,33228,1,0,0:0:0:0:
192,192,33743,1,0,0:0:0:0:
192,192,34257,1,0,0:0:0:0:
192,192,34771,1,0,0:0:0:0:
64,192,34943,1,0,0:0:0:30:SaS_MovingPad02_170-A.wav
64,192,35457,1,0,0:0:0:0:
64,192,35971,1,0,0:0:0:0:
64,192,36485,1,0,0:0:0:0:
64,192,37000,1,0,0:0:0:0:
64,192,37514,1,0,0:0:0:0:
192,192,37685,1,4,0:0:0:0:
320,192,37685,1,0,0:0:0:0:
448,192,38028,1,8,0:0:0:0:
192,192,38543,1,2,0:0:0:0:
448,192,38714,1,8,0:0:0:0:
192,192,39057,1,2,0:0:0:0:
448,192,39400,1,8,0:0:0:0:
192,192,39914,1,2,0:0:0:0:
448,192,40085,1,8,0:0:0:0:
320,192,40428,1,2,0:0:0:0:
64,192,40771,1,8,0:0:0:0:
320,192,41285,1,2,0:0:0:0:
64,192,41457,1,8,0:0:0:0:
320,192,41800,1,2,0:0:0:0:
64,192,42143,1,8,0:0:0:0:
320,192,42657,1,2,0:0:0:0:
64,192,42828,1,8,0:0:0:0:
64,192,43171,1,2,0:0:0:0:
448,192,43514,1,8,0:0:0:0:
64,192,44028,1,2,0:0:0:0:
448,192,44200,1,8,0:0:0:0:
64,192,44543,1,2,0:0:0:0:
448,192,44885,1,8,0:0:0:0:
64,192,45400,1,2,0:0:0:0:
448,192,45571,1,8,0:0:0:0:
192,192,45914,1,2,0:0:0:0:
320,192,46257,1,8,0:0:0:0:
192,192,46771,1,2,0:0:0:0:
320,192,46943,1,8,0:0:0:0:
192,192,47285,1,2,0:0:0:0:
320,192,47628,1,8,0:0:0:0:
192,192,48143,1,2,0:0:0:0:
320,192,48314,1,8,0:0:0:0:
64,192,48657,1,4,0:0:0:0:
448,192,48657,1,0,0:0:0:0:
320,192,49000,1,8,0:0:0:0:
64,192,49514,1,2,0:0:0:0:
320,192,49685,1,8,0:0:0:0:
64,192,50028,1,2,0:0:0:0:
320,192,50371,1,8,0:0:0:0:
64,192,50885,1,2,0:0:0:0:
320,192,51057,1,8,0:0:0:0:
192,192,51400,1,2,0:0:0:0:
448,192,51743,1,8,0:0:0:0:
192,192,52257,1,2,0:0:0:0:
448,192,52428,1,8,0:0:0:0:
192,192,52771,1,2,0:0:0:0:
448,192,53114,1,8,0:0:0:0:
192,192,53628,1,2,0:0:0:0:
448,192,53800,1,8,0:0:0:0:
64,192,54143,1,2,0:0:0:0:
64,192,54485,1,8,0:0:0:0:
192,192,54828,1,2,0:0:0:0:
192,192,55171,1,8,0:0:0:0:
320,192,55514,1,2,0:0:0:0:
320,192,55857,1,2,0:0:0:0:
448,192,56200,1,2,0:0:0:0:
448,192,56543,1,2,0:0:0:0:
64,192,56885,1,2,0:0:0:0:
64,192,57228,1,2,0:0:0:0:
192,192,57571,1,2,0:0:0:0:
192,192,57914,1,2,0:0:0:0:
320,192,58257,1,6,0:0:0:0:
320,192,58600,1,6,0:0:0:0:
192,192,58943,1,6,0:0:0:0:
192,192,59285,1,8,0:0:0:0:
320,192,59285,1,4,0:0:0:0:
64,192,59628,1,6,0:0:0:0:
448,192,59628,1,0,0:0:0:70:D#4S_Eb4S.wav
320,192,59971,1,8,0:0:0:0:
448,192,59971,1,0,0:0:0:0:
192,192,60485,1,2,0:0:0:0:
320,192,60657,1,8,0:0:0:0:
448,192,60657,1,0,0:0:0:0:
192,192,61000,1,2,0:0:0:0:
320,192,61343,1,8,0:0:0:0:
448,192,61343,1,0,0:0:0:0:
192,192,61857,1,2,0:0:0:0:
320,192,62028,1,8,0:0:0:0:
448,192,62028,1,0,0:0:0:0:
320,192,62371,1,2,0:0:0:0:
64,192,62714,1,8,0:0:0:0:
192,192,62714,1,0,0:0:0:0:
320,192,63228,1,2,0:0:0:0:
64,192,63400,1,8,0:0:0:0:
192,192,63400,1,0,0:0:0:0:
320,192,63743,1,2,0:0:0:0:
64,192,64085,1,8,0:0:0:0:
192,192,64085,1,0,0:0:0:0:
320,192,64600,1,2,0:0:0:0:
64,192,64771,1,8,0:0:0:0:
192,192,64771,1,0,0:0:0:0:
448,192,65114,1,2,0:0:0:0:
192,192,65457,1,8,0:0:0:0:
320,192,65457,1,0,0:0:0:0:
448,192,65971,1,2,0:0:0:0:
192,192,66143,1,8,0:0:0:0:
320,192,66143,1,0,0:0:0:0:
448,192,66485,1,2,0:0:0:0:
192,192,66828,1,8,0:0:0:0:
320,192,66828,1,0,0:0:0:0:
448,192,67343,1,2,0:0:0:0:
192,192,67514,1,8,0:0:0:0:
320,192,67514,1,0,0:0:0:0:
64,192,67857,1,2,0:0:0:0:
192,192,68200,1,8,0:0:0:0:
320,192,68200,1,0,0:0:0:0:
64,192,68714,1,2,0:0:0:0:
192,192,68885,1,8,0:0:0:0:
320,192,68885,1,0,0:0:0:0:
64,192,69228,1,2,0:0:0:0:
192,192,69571,1,8,0:0:0:0:
320,192,69571,1,0,0:0:0:0:
64,192,69743,1,2,0:0:0:0:
448,192,70085,1,2,0:0:0:0:
192,192,70257,1,8,0:0:0:0:
320,192,70257,1,0,0:0:0:0:
64,192,70600,1,6,0:0:0:0:
448,192,70600,1,0,0:0:0:70:D#4S_Eb4S.wav
192,192,70943,1,8,0:0:0:0:
448,192,70943,1,0,0:0:0:0:
64,192,71457,1,2,0:0:0:0:
192,192,71628,1,8,0:0:0:0:
448,192,71628,1,0,0:0:0:0:
64,192,71971,1,2,0:0:0:0:
192,192,72314,1,8,0:0:0:0:
448,192,72314,1,0,0:0:0:0:
64,192,72828,1,2,0:0:0:0:
192,192,73000,1,8,0:0:0:0:
448,192,73000,1,0,0:0:0:0:
448,192,73343,1,2,0:0:0:0:
64,192,73685,1,8,0:0:0:0:
320,192,73685,1,0,0:0:0:0:
448,192,74200,1,2,0:0:0:0:
64,192,74371,1,8,0:0:0:0:
320,192,74371,1,0,0:0:0:0:
448,192,74714,1,2,0:0:0:0:
64,192,75057,1,8,0:0:0:0:
320,192,75057,1,0,0:0:0:0:
448,192,75571,1,2,0:0:0:0:
64,192,75743,1,8,0:0:0:0:
320,192,75743,1,0,0:0:0:0:
192,192,76085,1,2,0:0:0:0:
320,192,76428,1,8,0:0:0:0:
448,192,76428,1,0,0:0:0:0:
192,192,76943,1,2,0:0:0:0:
320,192,77114,1,8,0:0:0:0:
448,192,77114,1,0,0:0:0:0:
192,192,77457,1,2,0:0:0:0:
320,192,77800,1,8,0:0:0:0:
448,192,77800,1,0,0:0:0:0:
192,192,78314,1,2,0:0:0:0:
320,192,78485,1,8,0:0:0:0:
448,192,78485,1,0,0:0:0:0:
320,192,78828,1,2,0:0:0:0:
64,192,79171,1,8,0:0:0:0:
192,192,79171,1,0,0:0:0:0:
320,192,79685,1,2,0:0:0:0:
64,192,79857,1,8,0:0:0:0:
192,192,79857,1,0,0:0:0:0:
448,192,80200,1,2,0:0:0:0:
320,192,80543,1,8,0:0:0:0:
192,192,80885,1,0,0:0:0:0:
64,192,81228,1,8,0:0:0:0:
320,192,81571,1,6,0:0:0:0:
448,192,81571,1,0,0:0:0:70:A#4S_Bb4S.wav
64,192,81914,1,8,0:0:0:0:
448,192,82257,1,0,0:0:0:0:
64,192,82428,1,2,0:0:0:0:
448,192,82600,1,8,0:0:0:0:
64,192,82771,1,0,0:0:0:0:
320,192,82943,1,2,0:0:0:0:
192,192,83285,1,8,0:0:0:0:
320,192,83800,1,2,0:0:0:0:
192,192,83971,1,8,0:0:0:0:
64,192,84314,1,2,0:0:0:0:
448,192,84657,1,8,0:0:0:0:
64,192,85000,1,0,0:0:0:0:
448,192,85171,1,2,0:0:0:0:
64,192,85343,1,8,0:0:0:0:
448,192,85514,1,0,0:0:0:0:
192,192,85685,1,2,0:0:0:0:
320,192,86028,1,8,0:0:0:0:
192,192,86543,1,2,0:0:0:0:
320,192,86714,1,8,0:0:0:0:
192,192,86885,1,2,0:0:0:0:
448,192,87057,1,2,0:0:0:0:
192,192,87400,1,8,0:0:0:0:
448,192,87743,1,0,0:0:0:0:
192,192,87914,1,2,0:0:0:0:
448,192,88085,1,8,0:0:0:0:
192,192,88257,1,0,0:0:0:0:
448,192,88428,1,2,0:0:0:0:
192,192,88771,1,8,0:0:0:0:
320,192,89285,1,2,0:0:0:0:
64,192,89457,1,8,0:0:0:0:
64,192,89800,1,2,0:0:0:0:
320,192,90143,1,8,0:0:0:0:
64,192,90485,1,0,0:0:0:0:
320,192,90657,1,2,0:0:0:0:
64,192,90828,1,8,0:0:0:0:
320,192,91000,1,0,0:0:0:0:
64,192,91171,1,2,0:0:0:0:
320,192,91514,1,8,0:0:0:0:
192,192,91685,1,2,0:0:0:0:
192,192,92028,1,2,0:0:0:0:
448,192,92200,1,8,0:0:0:0:
64,192,92543,1,6,0:0:0:0:
192,192,92543,1,0,0:0:0:70:A#4S_Bb4S.wav
448,192,92885,1,8,0:0:0:0:
64,192,93228,1,0,0:0:0:0:
448,192,93400,1,2,0:0:0:0:
64,192,93571,1,8,0:0:0:0:
448,192,93743,1,0,0:0:0:0:
192,192,93914,1,2,0:0:0:0:
320,192,94257,1,8,0:0:0:0:
192,192,94771,1,2,0:0:0:0:
320,192,94943,1,8,0:0:0:0:
448,192,95285,1,2,0:0:0:0:
64,192,95628,1,8,0:0:0:0:
448,192,95971,1,0,0:0:0:0:
64,192,96143,1,2,0:0:0:0:
448,192,96314,1,8,0:0:0:0:
64,192,96485,1,0,0:0:0:0:
320,192,96657,1,2,0:0:0:0:
192,192,97000,1,8,0:0:0:0:
320,192,97514,1,2,0:0:0:0:
192,192,97685,1,8,0:0:0:0:
320,192,97857,1,2,0:0:0:0:
64,192,98028,1,2,0:0:0:0:
320,192,98371,1,8,0:0:0:0:
64,192,98714,1,0,0:0:0:0:
320,192,98885,1,2,0:0:0:0:
64,192,99057,1,8,0:0:0:0:
320,192,99228,1,0,0:0:0:0:
64,192,99400,1,2,0:0:0:0:
320,192,99743,1,8,0:0:0:0:
192,192,100257,1,2,0:0:0:0:
448,192,100428,1,8,0:0:0:0:
448,192,100771,1,2,0:0:0:0:
192,192,101114,1,8,0:0:0:0:
448,192,101457,1,0,0:0:0:0:
192,192,101628,1,2,0:0:0:0:
448,192,101800,1,8,0:0:0:0:
192,192,101971,1,0,0:0:0:0:
448,192,102143,1,2,0:0:0:0:
320,192,102485,1,8,0:0:0:0:
192,192,102828,1,2,0:0:0:0:
64,192,103171,1,8,0:0:0:0:
320,192,103514,1,6,0:0:0:0:
448,192,103514,1,0,0:0:0:70:D#4S_Eb4S.wav
64,192,103857,1,8,0:0:0:0:
192,192,103857,1,0,0:0:0:0:
320,192,104371,1,2,0:0:0:0:
64,192,104543,1,8,0:0:0:0:
192,192,104543,1,0,0:0:0:0:
320,192,104885,1,2,0:0:0:0:
64,192,105228,1,8,0:0:0:0:
192,192,105228,1,0,0:0:0:0:
320,192,105743,1,2,0:0:0:0:
64,192,105914,1,8,0:0:0:0:
192,192,105914,1,0,0:0:0:0:
192,192,106257,1,2,0:0:0:0:
320,192,106600,1,8,0:0:0:0:
448,192,106600,1,0,0:0:0:0:
192,192,107114,1,2,0:0:0:0:
320,192,107285,1,8,0:0:0:0:
448,192,107285,1,0,0:0:0:0:
192,192,107628,1,2,0:0:0:0:
320,192,107971,1,8,0:0:0:0:
448,192,107971,1,0,0:0:0:0:
192,192,108485,1,2,0:0:0:0:
320,192,108657,1,8,0:0:0:0:
448,192,108657,1,0,0:0:0:0:
64,192,109000,1,2,0:0:0:0:
192,192,109343,1,8,0:0:0:0:
320,192,109343,1,0,0:0:0:0:
64,192,109857,1,2,0:0:0:0:
192,192,110028,1,8,0:0:0:0:
320,192,110028,1,0,0:0:0:0:
64,192,110371,1,2,0:0:0:0:
192,192,110714,1,8,0:0:0:0:
320,192,110714,1,0,0:0:0:0:
64,192,111228,1,2,0:0:0:0:
192,192,111400,1,8,0:0:0:0:
320,192,111400,1,0,0:0:0:0:
448,192,111743,1,2,0:0:0:0:
192,192,112085,1,8,0:0:0:0:
320,192,112085,1,0,0:0:0:0:
448,192,112600,1,2,0:0:0:0:
192,192,112771,1,8,0:0:0:0:
320,192,112771,1,0,0:0:0:0:
448,192,113114,1,2,0:0:0:0:
192,192,113457,1,8,0:0:0:0:
320,192,113457,1,0,0:0:0:0:
448,192,113628,1,2,0:0:0:0:
64,192,113971,1,2,0:0:0:0:
192,192,114143,1,8,0:0:0:0:
320,192,114143,1,0,0:0:0:0:
64,192,114485,1,6,0:0:0:0:
448,192,114485,1,0,0:0:0:70:A#4S_Bb4S.wav
64,192,114828,1,8,0:0:0:0:
320,192,114828,1,0,0:0:0:0:
448,192,115343,1,2,0:0:0:0:
64,192,115514,1,8,0:0:0:0:
320,192,115514,1,0,0:0:0:0:
448,192,115857,1,2,0:0:0:0:
64,192,116200,1,8,0:0:0:0:
320,192,116200,1,0,0:0:0:0:
448,192,116714,1,2,0:0:0:0:
64,192,116885,1,8,0:0:0:0:
320,192,116885,1,0,0:0:0:0:
64,192,117228,1,2,0:0:0:0:
192,192,117571,1,8,0:0:0:0:
448,192,117571,1,0,0:0:0:0:
64,192,118085,1,2,0:0:0:0:
192,192,118257,1,8,0:0:0:0:
448,192,118257,1,0,0:0:0:0:
64,192,118600,1,2,0:0:0:0:
192,192,118943,1,8,0:0:0:0:
448,192,118943,1,0,0:0:0:0:
64,192,119457,1,2,0:0:0:0:
192,192,119628,1,8,0:0:0:0:
448,192,119628,1,0,0:0:0:0:
320,192,119971,1,2,0:0:0:0:
64,192,120314,1,8,0:0:0:0:
192,192,120314,1,0,0:0:0:0:
320,192,120828,1,2,0:0:0:0:
64,192,121000,1,8,0:0:0:0:
192,192,121000,1,0,0:0:0:0:
320,192,121343,1,2,0:0:0:0:
64,192,121685,1,8,0:0:0:0:
192,192,121685,1,0,0:0:0:0:
320,192,122200,1,2,0:0:0:0:
64,192,122371,1,8,0:0:0:0:
192,192,122371,1,0,0:0:0:0:
192,192,122714,1,2,0:0:0:0:
320,192,123057,1,8,0:0:0:0:
448,192,123057,1,0,0:0:0:0:
192,192,123571,1,2,0:0:0:0:
320,192,123743,1,8,0:0:0:0:
448,192,123743,1,0,0:0:0:0:
64,192,124085,1,2,0:0:0:0:
192,192,124428,1,8,0:0:0:0:
320,192,124771,1,2,0:0:0:0:
448,192,125114,1,8,0:0:0:0:
64,192,125457,1,6,0:0:0:0:
192,192,125457,1,0,0:0:0:70:A#4S_Bb4S.wav
320,192,125800,1,8,0:0:0:0:
448,192,125800,1,0,0:0:0:0:
64,192,126314,1,2,0:0:0:0:
320,192,126485,1,8,0:0:0:0:
448,192,126485,1,0,0:0:0:0:
64,192,126828,1,2,0:0:0:0:
320,192,127171,1,8,0:0:0:0:
448,192,127171,1,0,0:0:0:0:
64,192,127685,1,2,0:0:0:0:
320,192,127857,1,8,0:0:0:0:
448,192,127857,1,0,0:0:0:0:
192,192,128200,1,2,0:0:0:0:
320,192,128543,1,8,0:0:0:0:
448,192,128543,1,0,0:0:0:0:
192,192,129057,1,2,0:0:0:0:
320,192,129228,1,8,0:0:0:0:
448,192,129228,1,0,0:0:0:0:
192,192,129571,1,2,0:0:0:0:
320,192,129914,1,8,0:0:0:0:
448,192,129914,1,0,0:0:0:0:
192,192,130428,1,2,0:0:0:0:
320,192,130600,1,8,0:0:0:0:
448,192,130600,1,0,0:0:0:0:
320,192,130943,1,2,0:0:0:0:
64,192,131285,1,8,0:0:0:0:
192,192,131285,1,0,0:0:0:0:
320,192,131800,1,2,0:0:0:0:
64,192,131971,1,8,0:0:0:0:
192,192,131971,1,0,0:0:0:0:
320,192,132314,1,2,0:0:0:0:
64,192,132657,1,8,0:0:0:0:
192,192,132657,1,0,0:0:0:0:
320,192,133171,1,2,0:0:0:0:
64,192,133343,1,8,0:0:0:0:
192,192,133343,1,0,0:0:0:0:
448,192,133685,1,2,0:0:0:0:
64,192,134028,1,8,0:0:0:0:
192,192,134028,1,0,0:0:0:0:
448,192,134543,1,2,0:0:0:0:
64,192,134714,1,8,0:0:0:0:
192,192,134714,1,0,0:0:0:0:
448,192,135057,1,2,0:0:0:0:
64,192,135400,1,8,0:0:0:0:
192,192,135400,1,0,0:0:0:0:
448,192,135914,1,2,0:0:0:0:
64,192,136085,1,8,0:0:0:0:
192,192,136085,1,0,0:0:0:0:
64,192,136428,1,6,0:0:0:0:
448,192,136428,1,0,0:0:0:70:A#4S_Bb4S.wav
320,192,136771,1,8,0:0:0:0:
448,192,136771,1,0,0:0:0:0:
64,192,137285,1,2,0:0:0:0:
320,192,137457,1,8,0:0:0:0:
448,192,137457,1,0,0:0:0:0:
64,192,137800,1,2,0:0:0:0:
320,192,138143,1,8,0:0:0:0:
448,192,138143,1,0,0:0:0:0:
64,192,138657,1,2,0:0:0:0:
320,192,138828,1,8,0:0:0:0:
448,192,138828,1,0,0:0:0:0:
192,192,139171,1,2,0:0:0:0:
320,192,139514,1,8,0:0:0:0:
448,192,139514,1,0,0:0:0:0:
192,192,140028,1,2,0:0:0:0:
320,192,140200,1,8,0:0:0:0:
448,192,140200,1,0,0:0:0:0:
192,192,140543,1,2,0:0:0:0:
320,192,140885,1,8,0:0:0:0:
448,192,140885,1,0,0:0:0:0:
192,192,141400,1,2,0:0:0:0:
320,192,141571,1,8,0:0:0:0:
448,192,141571,1,0,0:0:0:0:
320,192,141914,1,2,0:0:0:0:
64,192,142257,1,8,0:0:0:0:
192,192,142257,1,0,0:0:0:0:
320,192,142771,1,2,0:0:0:0:
64,192,142943,1,8,0:0:0:0:
192,192,142943,1,0,0:0:0:0:
320,192,143285,1,2,0:0:0:0:
64,192,143628,1,8,0:0:0:0:
192,192,143628,1,0,0:0:0:0:
320,192,144143,1,2,0:0:0:0:
64,192,144314,1,8,0:0:0:0:
192,192,144314,1,0,0:0:0:0:
448,192,144657,1,2,0:0:0:0:
64,192,145000,1,8,0:0:0:0:
192,192,145000,1,0,0:0:0:0:
448,192,145514,1,2,0:0:0:0:
64,192,145685,1,8,0:0:0:0:
192,192,145685,1,0,0:0:0:0:
448,192,146028,1,2,0:0:0:0:
320,192,146371,1,8,0:0:0:0:
192,192,146714,1,0,0:0:0:0:
64,192,147057,1,8,0:0:0:0:
320,192,147400,1,6,0:0:0:0:
448,192,147400,1,0,0:0:0:70:A#4S_Bb4S.wav
192,192,147743,1,8,0:0:0:0:
64,192,148085,1,0,0:0:0:0:
448,192,148257,1,2,0:0:0:0:
64,192,148428,1,8,0:0:0:0:
448,192,148600,1,0,0:0:0:0:
192,192,148771,1,2,0:0:0:0:
320,192,149114,1,8,0:0:0:0:
192,192,149628,1,2,0:0:0:0:
320,192,149800,1,8,0:0:0:0:
448,192,150143,1,2,0:0:0:0:
64,192,150485,1,8,0:0:0:0:
448,192,150828,1,0,0:0:0:0:
64,192,151000,1,2,0:0:0:0:
448,192,151171,1,8,0:0:0:0:
64,192,151343,1,0,0:0:0:0:
320,192,151514,1,2,0:0:0:0:
192,192,151857,1,8,0:0:0:0:
320,192,152371,1,2,0:0:0:0:
192,192,152543,1,8,0:0:0:0:
320,192,152714,1,2,0:0:0:0:
64,192,152885,1,2,0:0:0:0:
320,192,153228,1,8,0:0:0:0:
64,192,153571,1,0,0:0:0:0:
320,192,153743,1,2,0:0:0:0:
64,192,153914,1,8,0:0:0:0:
320,192,154085,1,0,0:0:0:0:
64,192,154257,1,2,0:0:0:0:
320,192,154600,1,8,0:0:0:0:
192,192,155114,1,2,0:0:0:0:
448,192,155285,1,8,0:0:0:0:
448,192,155628,1,2,0:0:0:0:
192,192,155971,1,8,0:0:0:0:
448,192,156314,1,0,0:0:0:0:
192,192,156485,1,2,0:0:0:0:
448,192,156657,1,8,0:0:0:0:
192,192,156828,1,0,0:0:0:0:
448,192,157000,1,2,0:0:0:0:
192,192,157343,1,8,0:0:0:0:
320,192,157514,1,2,0:0:0:0:
320,192,157857,1,2,0:0:0:0:
64,192,158028,1,8,0:0:0:0:
320,192,158371,1,6,0:0:0:0:
448,192,158371,1,0,0:0:0:70:A#4S_Bb4S.wav
64,192,158714,1,8,0:0:0:0:
448,192,159057,1,0,0:0:0:0:
64,192,159228,1,2,0:0:0:0:
448,192,159400,1,8,0:0:0:0:
64,192,159571,1,0,0:0:0:0:
320,192,159743,1,2,0:0:0:0:
192,192,160085,1,8,0:0:0:0:
320,192,160600,1,2,0:0:0:0:
192,192,160771,1,8,0:0:0:0:
64,192,161114,1,2,0:0:0:0:
448,192,161457,1,8,0:0:0:0:
64,192,161800,1,0,0:0:0:0:
448,192,161971,1,2,0:0:0:0:
64,192,162143,1,8,0:0:0:0:
448,192,162314,1,0,0:0:0:0:
192,192,162485,1,2,0:0:0:0:
320,192,162828,1,8,0:0:0:0:
192,192,163343,1,2,0:0:0:0:
320,192,163514,1,8,0:0:0:0:
192,192,163685,1,2,0:0:0:0:
448,192,163857,1,2,0:0:0:0:
192,192,164200,1,8,0:0:0:0:
448,192,164543,1,0,0:0:0:0:
192,192,164714,1,2,0:0:0:0:
448,192,164885,1,8,0:0:0:0:
192,192,165057,1,0,0:0:0:0:
448,192,165228,1,2,0:0:0:0:
192,192,165571,1,8,0:0:0:0:
320,192,166085,1,2,0:0:0:0:
64,192,166257,1,8,0:0:0:0:
64,192,166600,1,2,0:0:0:0:
320,192,166943,1,8,0:0:0:0:
64,192,167285,1,2,0:0:0:0:
320,192,167457,1,2,0:0:0:0:
64,192,167628,1,8,0:0:0:0:
320,192,167800,1,2,0:0:0:0:
64,192,167971,1,2,0:0:0:0:
192,192,168314,1,8,0:0:0:0:
320,192,168657,1,2,0:0:0:0:
448,192,169000,1,8,0:0:0:0:
64,192,169343,1,6,0:0:0:0:
192,192,169343,1,0,0:0:0:70:D#4S_Eb4S.wav
