osu file format v14

[General]
AudioFilename: audio.mp3
AudioLeadIn: 0
PreviewTime: 213173
Countdown: 0
SampleSet: Normal
StackLeniency: 0.7
Mode: 1
LetterboxInBreaks: 0
WidescreenStoryboard: 0

[Editor]
DistanceSpacing: 1.3
BeatDivisor: 4
GridSize: 32
TimelineZoom: 1.8

[Metadata]
Title:United (L.A.O.S Remix)
TitleUnicode:United (L.A.O.S Remix)
Artist:Our Stolen Theory
ArtistUnicode:Our Stolen Theory
Creator:hikikochan
Version:Eternity
Source:
Tags:drum and bass dnb marathon
BeatmapID:1183029
BeatmapSetID:559371

[Difficulty]
HPDrainRate:5
CircleSize:2
OverallDifficulty:7
ApproachRate:5
SliderMultiplier:1.4
SliderTickRate:1

[Events]
//Background and Video events
0,0,"wallpaper-1322673.jpg",0,0
//Break Periods
//Storyboard Layer 0 (Background)
//Storyboard Layer 1 (Fail)
//Storyboard Layer 2 (Pass)
//Storyboard Layer 3 (Foreground)
//Storyboard Sound Samples

[TimingPoints]
10200,342.857142857143,4,1,0,60,1,0
15685,-125,4,1,0,60,0,0
26657,-117.647058823529,4,1,0,70,0,0
37628,-111.111111111111,4,1,0,90,0,0
48085,-109.89010989011,4,1,0,90,0,0
48257,-108.695652173913,4,1,0,90,0,0
48342,-107.52688172043,4,1,0,90,0,0
48428,-106.382978723404,4,1,0,90,0,0
48600,-105.263157894737,4,1,0,90,0,0
58971,-104.166666666667,4,1,0,90,0,0
59057,-103.092783505155,4,1,0,90,0,0
59142,-102.040816326531,4,1,0,90,0,0
59228,-101.010101010101,4,1,0,90,0,0
59571,-100,4,1,0,90,0,0
80914,-99.009900990099,4,1,0,90,0,0
81000,-98.0392156862745,4,1,0,90,0,0
81085,-97.0873786407767,4,1,0,90,0,0
81171,-96.1538461538461,4,1,0,90,0,0
81257,-95.2380952380952,4,1,0,90,0,0
81342,-94.3396226415094,4,1,0,90,0,0
81428,-93.4579439252336,4,1,0,90,0,0
81514,-92.5925925925926,4,1,0,100,0,1
103457,-92.5925925925926,4,1,0,100,0,0
103628,-100,4,1,0,90,0,0
146742,-99.009900990099,4,1,0,90,0,0
146828,-98.0392156862745,4,1,0,90,0,0
146914,-97.0873786407767,4,1,0,90,0,0
147000,-96.1538461538461,4,1,0,90,0,0
147085,-95.2380952380952,4,1,0,90,0,0
147171,-94.3396226415094,4,1,0,90,0,0
147257,-93.4579439252336,4,1,0,90,0,0
147342,-92.5925925925926,4,1,0,100,0,1
169285,-92.5925925925926,4,1,0,30,0,0
180257,-117.647058823529,4,1,0,70,0,0
191228,-111.111111111111,4,1,0,90,0,0
201771,-109.89010989011,4,1,0,90,0,0
201857,-108.695652173913,4,1,0,90,0,0
201942,-107.52688172043,4,1,0,90,0,0
202028,-106.382978723404,4,1,0,90,0,0
202200,-105.263157894737,4,1,0,90,0,0
212571,-104.166666666667,4,1,0,90,0,0
212657,-103.092783505155,4,1,0,90,0,0
212742,-102.040816326531,4,1,0,90,0,0
212828,-101.010101010101,4,1,0,90,0,0
213171,-100,4,1,0,90,0,0
256457,-99.009900990099,4,1,0,90,0,0
256542,-98.0392156862745,4,1,0,90,0,0
256628,-97.0873786407767,4,1,0,90,0,0
256714,-96.1538461538461,4,1,0,90,0,0
256800,-95.2380952380952,4,1,0,90,0,0
256885,-94.3396226415094,4,1,0,90,0,0
256971,-93.4579439252336,4,1,0,90,0,0
257057,-92.5925925925926,4,1,0,100,0,1
279000,-92.5925925925926,4,1,0,100,0,0
279171,-100,4,1,0,90,0,0
323228,-100,4,1,0,30,0,0

[HitObjects]
256,192,15685,5,0,0:0:0:0:
256,192,16200,1,0,0:0:0:0:
256,192,16714,1,0,0:0:0:0:
256,192,17228,1,0,0:0:0:0:
256,192,17742,1,0,0:0:0:0:
256,192,18428,1,8,0:0:0:0:
256,192,18942,1,8,0:0:0:0:
256,192,19457,1,8,0:0:0:0:
256,192,19971,1,8,0:0:0:0:
256,192,20485,1,8,0:0:0:0:
256,192,21171,1,0,0:0:0:0:
256,192,21685,1,0,0:0:0:0:
256,192,22200,1,0,0:0:0:0:
256,192,22714,1,0,0:0:0:0:
256,192,23228,1,0,0:0:0:0:
256,192,23914,1,8,0:0:0:0:
256,192,24428,1,8,0:0:0:0:
256,192,24942,1,8,0:0:0:0:
256,192,25457,1,8,0:0:0:0:
256,192,25971,1,8,0:0:0:0:
256,192,26657,1,4,0:0:0:0:
256,192,27171,1,0,0:0:0:0:
256,192,27685,1,8,0:0:0:0:
256,192,28200,1,8,0:0:0:0:
256,192,28714,1,0,0:0:0:0:
256,192,29400,1,8,0:0:0:0:
256,192,29914,1,8,0:0:0:0:
256,192,30428,1,0,0:0:0:0:
256,192,30942,1,0,0:0:0:0:
256,192,31457,1,8,0:0:0:0:
256,192,32142,1,0,0:0:0:0:
256,192,32657,1,8,0:0:0:0:
256,192,33171,1,0,0:0:0:0:
256,192,33685,1,0,0:0:0:0:
256,192,34200,1,8,0:0:0:0:
256,192,34885,1,8,0:0:0:0:
256,192,35400,1,0,0:0:0:0:
256,192,35914,1,8,0:0:0:0:
256,192,36428,1,8,0:0:0:0:
256,192,36942,1,0,0:0:0:0:
256,192,37628,1,4,0:0:0:0:
256,192,37971,1,8,0:0:0:0:
256,192,38143,1,0,0:0:0:0:
256,192,38228,1,0,0:0:0:0:
256,192,38314,1,0,0:0:0:0:
256,192,38486,1,0,0:0:0:0:
256,192,38657,1,8,0:0:0:0:
256,192,39000,1,0,0:0:0:0:
256,192,39171,1,0,0:0:0:0:
256,192,39343,1,8,0:0:0:0:
256,192,39514,1,0,0:0:0:0:
256,192,39600,1,8,0:0:0:0:
256,192,39686,1,0,0:0:0:0:
256,192,39857,1,0,0:0:0:0:
256,192,40028,1,8,0:0:0:0:
256,192,40371,1,0,0:0:0:0:
256,192,40714,1,8,0:0:0:0:
256,192,40886,1,8,0:0:0:0:
256,192,40971,1,8,0:0:0:0:
256,192,41057,1,0,0:0:0:0:
256,192,41228,1,0,0:0:0:0:
256,192,41400,1,8,0:0:0:0:
256,192,41743,1,0,0:0:0:0:
256,192,41914,1,0,0:0:0:0:
256,192,42086,1,8,0:0:0:0:
256,192,42257,1,0,0:0:0:0:
256,192,42343,1,8,0:0:0:0:
256,192,42428,1,0,0:0:0:0:
256,192,42600,1,0,0:0:0:0:
256,192,42771,1,8,0:0:0:0:
256,192,42943,1,8,0:0:0:0:
256,192,43114,1,0,0:0:0:0:
256,192,43457,1,8,0:0:0:0:
256,192,43629,1,0,0:0:0:0:
256,192,43714,1,0,0:0:0:0:
256,192,43800,1,0,0:0:0:0:
256,192,43972,1,0,0:0:0:0:
256,192,44143,1,8,0:0:0:0:
256,192,44486,1,0,0:0:0:0:
256,192,44657,1,0,0:0:0:0:
256,192,44829,1,8,0:0:0:0:
256,192,45000,1,0,0:0:0:0:
256,192,45086,1,8,0:0:0:0:
256,192,45172,1,0,0:0:0:0:
256,192,45343,1,0,0:0:0:0:
256,192,45514,1,8,0:0:0:0:
256,192,45857,1,0,0:0:0:0:
256,192,46200,1,8,0:0:0:0:
256,192,46372,1,8,0:0:0:0:
256,192,46457,1,8,0:0:0:0:
256,192,46543,1,0,0:0:0:0:
256,192,46714,1,0,0:0:0:0:
256,192,46886,1,8,0:0:0:0:
256,192,47229,1,0,0:0:0:0:
256,192,47400,1,0,0:0:0:0:
256,192,47572,1,8,0:0:0:0:
256,192,47743,1,0,0:0:0:0:
256,192,47829,1,0,0:0:0:0:
256,192,47914,1,8,0:0:0:0:
256,192,48085,1,0,0:0:0:0:
256,192,48257,1,8,0:0:0:0:
256,192,48342,1,8,0:0:0:0:
256,192,48428,1,8,0:0:0:0:
256,192,48600,1,4,0:0:0:0:
256,192,48943,1,8,0:0:0:0:
256,192,49114,1,0,0:0:0:0:
256,192,49200,1,0,0:0:0:0:
256,192,49286,1,0,0:0:0:0:
256,192,49457,1,0,0:0:0:0:
256,192,49628,1,8,0:0:0:0:
256,192,49971,1,0,0:0:0:0:
256,192,50143,1,0,0:0:0:0:
256,192,50314,1,8,0:0:0:0:
256,192,50486,1,0,0:0:0:0:
256,192,50571,1,8,0:0:0:0:
256,192,50657,1,0,0:0:0:0:
256,192,50828,1,0,0:0:0:0:
256,192,51000,1,8,0:0:0:0:
256,192,51171,1,8,0:0:0:0:
256,192,51257,1,8,0:0:0:0:
256,192,51343,1,0,0:0:0:0:
256,192,51514,1,0,0:0:0:0:
256,192,51686,1,8,0:0:0:0:
256,192,51857,1,0,0:0:0:0:
256,192,51943,1,0,0:0:0:0:
256,192,52028,1,0,0:0:0:0:
256,192,52200,1,0,0:0:0:0:
256,192,52371,1,8,0:0:0:0:
256,192,52714,1,0,0:0:0:0:
256,192,52886,1,0,0:0:0:0:
256,192,53057,1,8,0:0:0:0:
256,192,53228,1,0,0:0:0:0:
256,192,53314,1,8,0:0:0:0:
256,192,53400,1,8,0:0:0:0:
256,192,53571,1,0,0:0:0:0:
256,192,53743,1,8,0:0:0:0:
256,192,53914,1,8,0:0:0:0:
256,192,54000,1,8,0:0:0:0:
256,192,54086,1,0,0:0:0:0:
256,192,54257,1,0,0:0:0:0:
256,192,54343,1,0,0:0:0:0:
256,192,54428,1,8,0:0:0:0:
256,192,54514,1,8,0:0:0:0:
256,192,54600,1,8,0:0:0:0:
256,192,54686,1,8,0:0:0:0:
256,192,54771,1,0,0:0:0:0:
256,192,54857,1,0,0:0:0:0:
256,192,54943,1,0,0:0:0:0:
256,192,55028,1,0,0:0:0:0:
256,192,55114,1,8,0:0:0:0:
256,192,55286,1,8,0:0:0:0:
256,192,55371,1,8,0:0:0:0:
256,192,55457,1,0,0:0:0:0:
256,192,55628,1,0,0:0:0:0:
256,192,55714,1,0,0:0:0:0:
256,192,55800,1,8,0:0:0:0:
256,192,55886,1,8,0:0:0:0:
256,192,55971,1,8,0:0:0:0:
256,192,56057,1,8,0:0:0:0:
256,192,56143,1,0,0:0:0:0:
256,192,56228,1,0,0:0:0:0:
256,192,56314,1,8,0:0:0:0:
256,192,56400,1,0,0:0:0:0:
256,192,56486,1,8,0:0:0:0:
256,192,56657,1,8,0:0:0:0:
256,192,56743,1,8,0:0:0:0:
256,192,56828,1,0,0:0:0:0:
256,192,56914,1,0,0:0:0:0:
256,192,57000,1,0,0:0:0:0:
256,192,57086,1,0,0:0:0:0:
256,192,57171,1,8,0:0:0:0:
256,192,57343,1,0,0:0:0:0:
256,192,57428,1,0,0:0:0:0:
256,192,57514,1,8,0:0:0:0:
256,192,57599,1,0,0:0:0:0:
256,192,57686,1,0,0:0:0:0:
256,192,57771,1,0,0:0:0:0:
256,192,57857,1,8,0:0:0:0:
256,192,58028,1,0,0:0:0:0:
256,192,58114,1,0,0:0:0:0:
256,192,58200,1,8,0:0:0:0:
256,192,58285,1,8,0:0:0:0:
256,192,58371,1,0,0:0:0:0:
256,192,58457,1,0,0:0:0:0:
256,192,58543,1,8,0:0:0:0:
256,192,58628,1,0,0:0:0:0:
256,192,58714,1,0,0:0:0:0:
256,192,58800,1,0,0:0:0:0:
256,192,58886,1,8,0:0:0:0:
256,192,58971,1,8,0:0:0:0:
256,192,59057,1,0,0:0:0:0:
256,192,59142,1,0,0:0:0:0:
256,192,59228,1,8,0:0:0:0:
256,192,59571,1,4,0:0:0:0:
256,192,59914,1,8,0:0:0:0:
256,192,60086,1,0,0:0:0:0:
256,192,60171,1,0,0:0:0:0:
256,192,60257,1,0,0:0:0:0:
256,192,60428,1,0,0:0:0:0:
256,192,60600,1,8,0:0:0:0:
256,192,60686,1,0,0:0:0:0:
256,192,60771,1,8,0:0:0:0:
256,192,60943,1,0,0:0:0:0:
256,192,61114,1,0,0:0:0:0:
256,192,61286,1,8,0:0:0:0:
256,192,61371,1,0,0:0:0:0:
256,192,61457,1,8,0:0:0:0:
256,192,61543,1,8,0:0:0:0:
256,192,61628,1,0,0:0:0:0:
256,192,61800,1,0,0:0:0:0:
256,192,61971,1,8,0:0:0:0:
256,192,62143,1,8,0:0:0:0:
256,192,62228,1,8,0:0:0:0:
256,192,62314,1,0,0:0:0:0:
256,192,62657,1,8,0:0:0:0:
256,192,62828,1,0,0:0:0:0:
256,192,62914,1,8,0:0:0:0:
256,192,63000,1,0,0:0:0:0:
256,192,63171,1,0,0:0:0:0:
256,192,63343,1,8,0:0:0:0:
256,192,63514,1,8,0:0:0:0:
256,192,63686,1,0,0:0:0:0:
256,192,63771,1,0,0:0:0:0:
256,192,63857,1,8,0:0:0:0:
256,192,64028,1,8,0:0:0:0:
256,192,64200,1,0,0:0:0:0:
256,192,64286,1,0,0:0:0:0:
256,192,64371,1,0,0:0:0:0:
256,192,64543,1,8,0:0:0:0:
256,192,64714,1,8,0:0:0:0:
256,192,64800,1,8,0:0:0:0:
256,192,64886,1,8,0:0:0:0:
256,192,64971,1,8,0:0:0:0:
256,192,65057,1,0,0:0:0:0:
256,192,65400,1,8,0:0:0:0:
256,192,65571,1,0,0:0:0:0:
256,192,65657,1,0,0:0:0:0:
256,192,65743,1,0,0:0:0:0:
256,192,65914,1,0,0:0:0:0:
256,192,66086,1,8,0:0:0:0:
256,192,66257,1,8,0:0:0:0:
256,192,66343,1,8,0:0:0:0:
256,192,66428,1,0,0:0:0:0:
256,192,66600,1,0,0:0:0:0:
256,192,66771,1,8,0:0:0:0:
256,192,66943,1,8,0:0:0:0:
256,192,67028,1,0,0:0:0:0:
256,192,67114,1,8,0:0:0:0:
256,192,67286,1,0,0:0:0:0:
256,192,67457,1,8,0:0:0:0:
256,192,67543,1,8,0:0:0:0:
256,192,67628,1,8,0:0:0:0:
256,192,67714,1,8,0:0:0:0:
256,192,67800,1,0,0:0:0:0:
256,192,67971,1,0,0:0:0:0:
256,192,68057,1,0,0:0:0:0:
256,192,68143,1,8,0:0:0:0:
256,192,68314,1,8,0:0:0:0:
256,192,68486,1,0,0:0:0:0:
256,192,68571,1,0,0:0:0:0:
256,192,68657,1,0,0:0:0:0:
256,192,68828,1,8,0:0:0:0:
256,192,69000,1,8,0:0:0:0:
256,192,69086,1,8,0:0:0:0:
256,192,69171,1,0,0:0:0:0:
256,192,69343,1,0,0:0:0:0:
256,192,69514,1,8,0:0:0:0:
256,192,69600,1,0,0:0:0:0:
256,192,69686,1,0,0:0:0:0:
256,192,69771,1,0,0:0:0:0:
256,192,69857,1,8,0:0:0:0:
256,192,70028,1,0,0:0:0:0:
256,192,70200,1,8,0:0:0:0:
256,192,70286,1,8,0:0:0:0:
256,192,70371,1,8,0:0:0:0:
256,192,70543,1,4,0:0:0:0:
256,192,70886,1,8,0:0:0:0:
256,192,71057,1,0,0:0:0:0:
256,192,71143,1,0,0:0:0:0:
256,192,71228,1,0,0:0:0:0:
256,192,71400,1,0,0:0:0:0:
256,192,71571,1,8,0:0:0:0:
256,192,71743,1,8,0:0:0:0:
256,192,71828,1,8,0:0:0:0:
256,192,71914,1,0,0:0:0:0:
256,192,72086,1,0,0:0:0:0:
256,192,72257,1,8,0:0:0:0:
256,192,72428,1,0,0:0:0:0:
256,192,72514,1,0,0:0:0:0:
256,192,72600,1,8,0:0:0:0:
256,192,72771,1,0,0:0:0:0:
256,192,72943,1,8,0:0:0:0:
256,192,73028,1,8,0:0:0:0:
256,192,73114,1,8,0:0:0:0:
256,192,73200,1,8,0:0:0:0:
256,192,73286,1,0,0:0:0:0:
256,192,73628,1,8,0:0:0:0:
256,192,73800,1,0,0:0:0:0:
256,192,73886,1,8,0:0:0:0:
256,192,73971,1,0,0:0:0:0:
256,192,74143,1,0,0:0:0:0:
256,192,74314,1,8,0:0:0:0:
256,192,74486,1,8,0:0:0:0:
256,192,74571,1,8,0:0:0:0:
256,192,74657,1,0,0:0:0:0:
256,192,74828,1,0,0:0:0:0:
256,192,75000,1,8,0:0:0:0:
256,192,75171,1,8,0:0:0:0:
256,192,75257,1,8,0:0:0:0:
256,192,75343,1,8,0:0:0:0:
256,192,75514,1,0,0:0:0:0:
256,192,75686,1,8,0:0:0:0:
256,192,75857,1,8,0:0:0:0:
256,192,75943,1,8,0:0:0:0:
256,192,76028,1,0,0:0:0:0:
256,192,76371,1,8,0:0:0:0:
256,192,76543,1,0,0:0:0:0:
256,192,76628,1,0,0:0:0:0:
256,192,76714,1,0,0:0:0:0:
256,192,76886,1,0,0:0:0:0:
256,192,77057,1,8,0:0:0:0:
256,192,77228,1,8,0:0:0:0:
256,192,77314,1,8,0:0:0:0:
256,192,77400,1,0,0:0:0:0:
256,192,77486,1,0,0:0:0:0:
256,192,77571,1,0,0:0:0:0:
256,192,77743,1,8,0:0:0:0:
256,192,77914,1,8,0:0:0:0:
256,192,78000,1,8,0:0:0:0:
256,192,78086,1,0,0:0:0:0:
256,192,78257,1,0,0:0:0:0:
256,192,78428,1,8,0:0:0:0:
256,192,78600,1,0,0:0:0:0:
256,192,78686,1,8,0:0:0:0:
256,192,78771,1,0,0:0:0:0:
256,192,78943,1,0,0:0:0:0:
256,192,79114,1,8,0:0:0:0:
256,192,79200,1,8,0:0:0:0:
256,192,79286,1,0,0:0:0:0:
256,192,79371,1,0,0:0:0:0:
256,192,79457,1,8,0:0:0:0:
256,192,79628,1,0,0:0:0:0:
256,192,79800,1,8,0:0:0:0:
256,192,79886,1,0,0:0:0:0:
256,192,79971,1,8,0:0:0:0:
256,192,80057,1,8,0:0:0:0:
256,192,80143,1,0,0:0:0:0:
256,192,80314,1,8,0:0:0:0:
256,192,80486,1,8,0:0:0:0:
256,192,80571,1,0,0:0:0:0:
256,192,80657,1,0,0:0:0:0:
256,192,80743,1,0,0:0:0:0:
256,192,80828,1,8,0:0:0:0:
256,192,80914,1,8,0:0:0:0:
256,192,81000,1,0,0:0:0:0:
256,192,81085,1,0,0:0:0:0:
256,192,81171,1,8,0:0:0:0:
256,192,81257,1,8,0:0:0:0:
256,192,81342,1,8,0:0:0:0:
256,192,81428,1,8,0:0:0:0:
256,192,81514,1,0,0:0:0:0:
256,192,81686,1,0,0:0:0:0:
256,192,81771,1,0,0:0:0:0:
256,192,81857,1,8,0:0:0:0:
256,192,82028,1,0,0:0:0:0:
256,192,82114,1,8,0:0:0:0:
256,192,82200,1,0,0:0:0:0:
256,192,82371,1,0,0:0:0:0:
256,192,82543,1,8,0:0:0:0:
256,192,82714,1,8,0:0:0:0:
256,192,82886,1,0,0:0:0:0:
256,192,83057,1,0,0:0:0:0:
256,192,83143,1,0,0:0:0:0:
256,192,83228,1,8,0:0:0:0:
256,192,83400,1,0,0:0:0:0:
256,192,83571,1,8,0:0:0:0:
256,192,83657,1,8,0:0:0:0:
256,192,83743,1,0,0:0:0:0:
256,192,83828,1,0,0:0:0:0:
256,192,83914,1,8,0:0:0:0:
256,192,84086,1,8,0:0:0:0:
256,192,84257,1,0,0:0:0:0:
256,192,84343,1,0,0:0:0:0:
256,192,84428,1,0,0:0:0:0:
256,192,84600,1,8,0:0:0:0:
256,192,84771,1,8,0:0:0:0:
256,192,84857,1,8,0:0:0:0:
256,192,84943,1,0,0:0:0:0:
256,192,85114,1,0,0:0:0:0:
256,192,85286,1,8,0:0:0:0:
256,192,85457,1,0,0:0:0:0:
256,192,85628,1,8,0:0:0:0:
256,192,85800,1,0,0:0:0:0:
256,192,85886,1,0,0:0:0:0:
256,192,85971,1,8,0:0:0:0:
256,192,86143,1,0,0:0:0:0:
256,192,86314,1,8,0:0:0:0:
256,192,86400,1,8,0:0:0:0:
256,192,86486,1,0,0:0:0:0:
256,192,86571,1,0,0:0:0:0:
256,192,86657,1,8,0:0:0:0:
256,192,86743,1,0,0:0:0:0:
256,192,86829,1,8,0:0:0:0:
256,192,87000,1,0,0:0:0:0:
256,192,87343,1,8,0:0:0:0:
256,192,87514,1,0,0:0:0:0:
256,192,87600,1,8,0:0:0:0:
256,192,87686,1,0,0:0:0:0:
256,192,87857,1,0,0:0:0:0:
256,192,88029,1,8,0:0:0:0:
256,192,88200,1,8,0:0:0:0:
256,192,88372,1,0,0:0:0:0:
256,192,88543,1,0,0:0:0:0:
256,192,88628,1,0,0:0:0:0:
256,192,88714,1,8,0:0:0:0:
256,192,88886,1,0,0:0:0:0:
256,192,89057,1,8,0:0:0:0:
256,192,89143,1,0,0:0:0:0:
256,192,89229,1,0,0:0:0:0:
256,192,89314,1,0,0:0:0:0:
256,192,89400,1,8,0:0:0:0:
256,192,89572,1,8,0:0:0:0:
256,192,89743,1,0,0:0:0:0:
256,192,89914,1,8,0:0:0:0:
256,192,90000,1,0,0:0:0:0:
256,192,90086,1,8,0:0:0:0:
256,192,90257,1,0,0:0:0:0:
256,192,90429,1,8,0:0:0:0:
256,192,90514,1,8,0:0:0:0:
256,192,90600,1,0,0:0:0:0:
256,192,90686,1,0,0:0:0:0:
256,192,90771,1,8,0:0:0:0:
256,192,90943,1,0,0:0:0:0:
256,192,91114,1,8,0:0:0:0:
256,192,91286,1,0,0:0:0:0:
256,192,91371,1,0,0:0:0:0:
256,192,91457,1,8,0:0:0:0:
256,192,91629,1,0,0:0:0:0:
256,192,91800,1,8,0:0:0:0:
256,192,91886,1,8,0:0:0:0:
256,192,91972,1,0,0:0:0:0:
256,192,92057,1,0,0:0:0:0:
256,192,92143,1,8,0:0:0:0:
256,192,92228,1,8,0:0:0:0:
256,192,92314,1,8,0:0:0:0:
256,192,92486,1,4,0:0:0:0:
256,192,92828,1,8,0:0:0:0:
256,192,93000,1,0,0:0:0:0:
256,192,93086,1,8,0:0:0:0:
256,192,93171,1,0,0:0:0:0:
256,192,93342,1,0,0:0:0:0:
256,192,93514,1,8,0:0:0:0:
256,192,93685,1,8,0:0:0:0:
256,192,93857,1,0,0:0:0:0:
256,192,94028,1,0,0:0:0:0:
256,192,94114,1,0,0:0:0:0:
256,192,94200,1,8,0:0:0:0:
256,192,94371,1,0,0:0:0:0:
256,192,94542,1,8,0:0:0:0:
256,192,94628,1,8,0:0:0:0:
256,192,94714,1,0,0:0:0:0:
256,192,94800,1,0,0:0:0:0:
256,192,94886,1,8,0:0:0:0:
256,192,95057,1,8,0:0:0:0:
256,192,95228,1,0,0:0:0:0:
256,192,95314,1,0,0:0:0:0:
256,192,95400,1,0,0:0:0:0:
256,192,95571,1,8,0:0:0:0:
256,192,95742,1,8,0:0:0:0:
256,192,95828,1,8,0:0:0:0:
256,192,95914,1,0,0:0:0:0:
256,192,96085,1,0,0:0:0:0:
256,192,96257,1,8,0:0:0:0:
256,192,96428,1,0,0:0:0:0:
256,192,96600,1,8,0:0:0:0:
256,192,96771,1,0,0:0:0:0:
256,192,96857,1,0,0:0:0:0:
256,192,96943,1,8,0:0:0:0:
256,192,97114,1,0,0:0:0:0:
256,192,97285,1,8,0:0:0:0:
256,192,97371,1,0,0:0:0:0:
256,192,97457,1,0,0:0:0:0:
256,192,97543,1,0,0:0:0:0:
256,192,97628,1,8,0:0:0:0:
256,192,97714,1,0,0:0:0:0:
256,192,97800,1,8,0:0:0:0:
256,192,97971,1,0,0:0:0:0:
256,192,98314,1,8,0:0:0:0:
256,192,98485,1,0,0:0:0:0:
256,192,98571,1,8,0:0:0:0:
256,192,98657,1,0,0:0:0:0:
256,192,98828,1,0,0:0:0:0:
256,192,99000,1,8,0:0:0:0:
256,192,99171,1,8,0:0:0:0:
256,192,99257,1,8,0:0:0:0:
256,192,99343,1,0,0:0:0:0:
256,192,99514,1,0,0:0:0:0:
256,192,99685,1,8,0:0:0:0:
256,192,99771,1,0,0:0:0:0:
256,192,99857,1,0,0:0:0:0:
256,192,99943,1,0,0:0:0:0:
256,192,100028,1,8,0:0:0:0:
256,192,100200,1,0,0:0:0:0:
256,192,100371,1,8,0:0:0:0:
256,192,100543,1,8,0:0:0:0:
256,192,100628,1,8,0:0:0:0:
256,192,100714,1,0,0:0:0:0:
256,192,100885,1,0,0:0:0:0:
256,192,101057,1,8,0:0:0:0:
256,192,101143,1,8,0:0:0:0:
256,192,101228,1,0,0:0:0:0:
256,192,101314,1,0,0:0:0:0:
256,192,101400,1,8,0:0:0:0:
256,192,101571,1,0,0:0:0:0:
256,192,101743,1,8,0:0:0:0:
256,192,101828,1,0,0:0:0:0:
256,192,101914,1,8,0:0:0:0:
256,192,102000,1,8,0:0:0:0:
256,192,102086,1,0,0:0:0:0:
256,192,102171,1,0,0:0:0:0:
256,192,102257,1,0,0:0:0:0:
256,192,102343,1,0,0:0:0:0:
256,192,102428,1,8,0:0:0:0:
256,192,102514,1,8,0:0:0:0:
256,192,102600,1,0,0:0:0:0:
256,192,102686,1,0,0:0:0:0:
256,192,102771,1,8,0:0:0:0:
256,192,102943,1,0,0:0:0:0:
256,192,103114,1,8,0:0:0:0:
256,192,103200,1,8,0:0:0:0:
256,192,103286,1,8,0:0:0:0:
256,192,103457,1,4,0:0:0:0:
256,192,103800,1,8,0:0:0:0:
256,192,103971,1,0,0:0:0:0:
256,192,104057,1,0,0:0:0:0:
256,192,104143,1,0,0:0:0:0:
256,192,104314,1,0,0:0:0:0:
256,192,104486,1,8,0:0:0:0:
256,192,104657,1,8,0:0:0:0:
256,192,104743,1,8,0:0:0:0:
256,192,104828,1,0,0:0:0:0:
256,192,105000,1,0,0:0:0:0:
256,192,105086,1,0,0:0:0:0:
256,192,105171,1,8,0:0:0:0:
256,192,105343,1,8,0:0:0:0:
256,192,105514,1,0,0:0:0:0:
256,192,105600,1,0,0:0:0:0:
256,192,105686,1,0,0:0:0:0:
256,192,105857,1,8,0:0:0:0:
256,192,106028,1,0,0:0:0:0:
256,192,106114,1,8,0:0:0:0:
256,192,106200,1,0,0:0:0:0:
256,192,106543,1,8,0:0:0:0:
256,192,106714,1,0,0:0:0:0:
256,192,106800,1,0,0:0:0:0:
256,192,106886,1,0,0:0:0:0:
256,192,107057,1,0,0:0:0:0:
256,192,107228,1,8,0:0:0:0:
256,192,107400,1,8,0:0:0:0:
256,192,107486,1,8,0:0:0:0:
256,192,107571,1,0,0:0:0:0:
256,192,107743,1,0,0:0:0:0:
256,192,107914,1,8,0:0:0:0:
256,192,108000,1,8,0:0:0:0:
256,192,108086,1,0,0:0:0:0:
256,192,108171,1,0,0:0:0:0:
256,192,108257,1,8,0:0:0:0:
256,192,108428,1,0,0:0:0:0:
256,192,108600,1,8,0:0:0:0:
256,192,108686,1,8,0:0:0:0:
256,192,108771,1,8,0:0:0:0:
256,192,108857,1,8,0:0:0:0:
256,192,108943,1,0,0:0:0:0:
256,192,109114,1,0,0:0:0:0:
256,192,109200,1,0,0:0:0:0:
256,192,109286,1,8,0:0:0:0:
256,192,109457,1,8,0:0:0:0:
256,192,109628,1,0,0:0:0:0:
256,192,109714,1,0,0:0:0:0:
256,192,109800,1,0,0:0:0:0:
256,192,109971,1,8,0:0:0:0:
256,192,110143,1,8,0:0:0:0:
256,192,110228,1,8,0:0:0:0:
256,192,110314,1,0,0:0:0:0:
256,192,110657,1,8,0:0:0:0:
256,192,110828,1,0,0:0:0:0:
256,192,110914,1,8,0:0:0:0:
256,192,111000,1,0,0:0:0:0:
256,192,111171,1,0,0:0:0:0:
256,192,111343,1,8,0:0:0:0:
256,192,111514,1,8,0:0:0:0:
256,192,111600,1,8,0:0:0:0:
256,192,111686,1,0,0:0:0:0:
256,192,111857,1,0,0:0:0:0:
256,192,112028,1,8,0:0:0:0:
256,192,112200,1,0,0:0:0:0:
256,192,112286,1,0,0:0:0:0:
256,192,112371,1,0,0:0:0:0:
256,192,112543,1,0,0:0:0:0:
256,192,112714,1,8,0:0:0:0:
256,192,112800,1,0,0:0:0:0:
256,192,112886,1,8,0:0:0:0:
256,192,112971,1,8,0:0:0:0:
256,192,113057,1,0,0:0:0:0:
256,192,113228,1,0,0:0:0:0:
256,192,113400,1,8,0:0:0:0:
256,192,113571,1,0,0:0:0:0:
256,192,113657,1,0,0:0:0:0:
256,192,113743,1,8,0:0:0:0:
256,192,113828,1,8,0:0:0:0:
256,192,113914,1,0,0:0:0:0:
256,192,114086,1,8,0:0:0:0:
256,192,114171,1,8,0:0:0:0:
256,192,114257,1,8,0:0:0:0:
256,192,114428,1,4,0:0:0:0:
256,192,114771,1,8,0:0:0:0:
256,192,114942,1,0,0:0:0:0:
256,192,115028,1,0,0:0:0:0:
256,192,115114,1,0,0:0:0:0:
256,192,115286,1,0,0:0:0:0:
256,192,115457,1,8,0:0:0:0:
256,192,115543,1,0,0:0:0:0:
256,192,115628,1,8,0:0:0:0:
256,192,115800,1,0,0:0:0:0:
256,192,115971,1,0,0:0:0:0:
256,192,116143,1,8,0:0:0:0:
256,192,116314,1,8,0:0:0:0:
256,192,116400,1,8,0:0:0:0:
256,192,116486,1,0,0:0:0:0:
256,192,116657,1,0,0:0:0:0:
256,192,116828,1,8,0:0:0:0:
256,192,117000,1,0,0:0:0:0:
256,192,117086,1,8,0:0:0:0:
256,192,117171,1,0,0:0:0:0:
256,192,117514,1,8,0:0:0:0:
256,192,117686,1,0,0:0:0:0:
256,192,117771,1,0,0:0:0:0:
256,192,117857,1,0,0:0:0:0:
256,192,118028,1,0,0:0:0:0:
256,192,118200,1,8,0:0:0:0:
256,192,118286,1,0,0:0:0:0:
256,192,118371,1,8,0:0:0:0:
256,192,118457,1,8,0:0:0:0:
256,192,118542,1,0,0:0:0:0:
256,192,118714,1,0,0:0:0:0:
256,192,118800,1,0,0:0:0:0:
256,192,118886,1,8,0:0:0:0:
256,192,119057,1,8,0:0:0:0:
256,192,119228,1,0,0:0:0:0:
256,192,119400,1,0,0:0:0:0:
256,192,119486,1,0,0:0:0:0:
256,192,119571,1,8,0:0:0:0:
256,192,119657,1,8,0:0:0:0:
256,192,119743,1,8,0:0:0:0:
256,192,119828,1,8,0:0:0:0:
256,192,119914,1,0,0:0:0:0:
256,192,120086,1,0,0:0:0:0:
256,192,120171,1,0,0:0:0:0:
256,192,120257,1,8,0:0:0:0:
256,192,120428,1,8,0:0:0:0:
256,192,120600,1,0,0:0:0:0:
256,192,120686,1,0,0:0:0:0:
256,192,120771,1,0,0:0:0:0:
256,192,120943,1,8,0:0:0:0:
256,192,121028,1,8,0:0:0:0:
256,192,121114,1,8,0:0:0:0:
256,192,121200,1,8,0:0:0:0:
256,192,121286,1,0,0:0:0:0:
256,192,121457,1,0,0:0:0:0:
256,192,121628,1,8,0:0:0:0:
256,192,121800,1,8,0:0:0:0:
256,192,121886,1,8,0:0:0:0:
256,192,121971,1,0,0:0:0:0:
256,192,122143,1,0,0:0:0:0:
256,192,122314,1,8,0:0:0:0:
256,192,122400,1,0,0:0:0:0:
256,192,122486,1,8,0:0:0:0:
256,192,122571,1,8,0:0:0:0:
256,192,122657,1,0,0:0:0:0:
256,192,122743,1,0,0:0:0:0:
256,192,122828,1,0,0:0:0:0:
256,192,122914,1,0,0:0:0:0:
256,192,123000,1,8,0:0:0:0:
256,192,123171,1,8,0:0:0:0:
256,192,123257,1,8,0:0:0:0:
256,192,123343,1,0,0:0:0:0:
256,192,123428,1,0,0:0:0:0:
256,192,123514,1,8,0:0:0:0:
256,192,123600,1,0,0:0:0:0:
256,192,123686,1,8,0:0:0:0:
256,192,123857,1,8,0:0:0:0:
256,192,123943,1,8,0:0:0:0:
256,192,124028,1,0,0:0:0:0:
256,192,124114,1,0,0:0:0:0:
256,192,124200,1,0,0:0:0:0:
256,192,124286,1,0,0:0:0:0:
256,192,124371,1,8,0:0:0:0:
256,192,124457,1,0,0:0:0:0:
256,192,124543,1,8,0:0:0:0:
256,192,124628,1,8,0:0:0:0:
256,192,124714,1,0,0:0:0:0:
256,192,124800,1,0,0:0:0:0:
256,192,124886,1,0,0:0:0:0:
256,192,124971,1,0,0:0:0:0:
256,192,125057,1,8,0:0:0:0:
256,192,125143,1,8,0:0:0:0:
256,192,125228,1,8,0:0:0:0:
256,192,125314,1,8,0:0:0:0:
256,192,125400,1,0,0:0:0:0:
256,192,125743,1,8,0:0:0:0:
256,192,125828,1,0,0:0:0:0:
256,192,125914,1,0,0:0:0:0:
256,192,126000,1,0,0:0:0:0:
256,192,126086,1,8,0:0:0:0:
256,192,126257,1,0,0:0:0:0:
256,192,126428,1,8,0:0:0:0:
256,192,126600,1,8,0:0:0:0:
256,192,126686,1,8,0:0:0:0:
256,192,126771,1,0,0:0:0:0:
256,192,126943,1,0,0:0:0:0:
256,192,127114,1,8,0:0:0:0:
256,192,127286,1,8,0:0:0:0:
256,192,127371,1,0,0:0:0:0:
256,192,127457,1,8,0:0:0:0:
256,192,127628,1,0,0:0:0:0:
256,192,127800,1,8,0:0:0:0:
256,192,127886,1,8,0:0:0:0:
256,192,127971,1,8,0:0:0:0:
256,192,128057,1,8,0:0:0:0:
256,192,128143,1,0,0:0:0:0:
256,192,128314,1,0,0:0:0:0:
256,192,128486,1,8,0:0:0:0:
256,192,128657,1,0,0:0:0:0:
256,192,128743,1,0,0:0:0:0:
256,192,128828,1,8,0:0:0:0:
256,192,129000,1,0,0:0:0:0:
256,192,129171,1,8,0:0:0:0:
256,192,129343,1,0,0:0:0:0:
256,192,129428,1,8,0:0:0:0:
256,192,129514,1,0,0:0:0:0:
256,192,129686,1,0,0:0:0:0:
256,192,129857,1,8,0:0:0:0:
256,192,129943,1,0,0:0:0:0:
256,192,130028,1,0,0:0:0:0:
256,192,130114,1,0,0:0:0:0:
256,192,130200,1,8,0:0:0:0:
256,192,130371,1,0,0:0:0:0:
256,192,130543,1,8,0:0:0:0:
256,192,130628,1,8,0:0:0:0:
256,192,130714,1,8,0:0:0:0:
256,192,130886,1,0,0:0:0:0:
256,192,131228,1,8,0:0:0:0:
256,192,131400,1,8,0:0:0:0:
256,192,131486,1,8,0:0:0:0:
256,192,131571,1,0,0:0:0:0:
256,192,131743,1,0,0:0:0:0:
256,192,131914,1,8,0:0:0:0:
256,192,132000,1,8,0:0:0:0:
256,192,132086,1,0,0:0:0:0:
256,192,132171,1,0,0:0:0:0:
256,192,132257,1,0,0:0:0:0:
256,192,132428,1,0,0:0:0:0:
256,192,132600,1,8,0:0:0:0:
256,192,132771,1,0,0:0:0:0:
256,192,132857,1,8,0:0:0:0:
256,192,132943,1,0,0:0:0:0:
256,192,133114,1,0,0:0:0:0:
256,192,133286,1,8,0:0:0:0:
256,192,133371,1,8,0:0:0:0:
256,192,133457,1,8,0:0:0:0:
256,192,133543,1,8,0:0:0:0:
256,192,133628,1,0,0:0:0:0:
256,192,133800,1,0,0:0:0:0:
256,192,133971,1,8,0:0:0:0:
256,192,134057,1,0,0:0:0:0:
256,192,134143,1,0,0:0:0:0:
256,192,134228,1,0,0:0:0:0:
256,192,134314,1,8,0:0:0:0:
256,192,134486,1,0,0:0:0:0:
256,192,134657,1,8,0:0:0:0:
256,192,134828,1,0,0:0:0:0:
256,192,134914,1,0,0:0:0:0:
256,192,135000,1,0,0:0:0:0:
256,192,135171,1,0,0:0:0:0:
256,192,135343,1,8,0:0:0:0:
256,192,135428,1,8,0:0:0:0:
256,192,135514,1,0,0:0:0:0:
256,192,135600,1,0,0:0:0:0:
256,192,135686,1,8,0:0:0:0:
256,192,135857,1,0,0:0:0:0:
256,192,136028,1,8,0:0:0:0:
256,192,136114,1,8,0:0:0:0:
256,192,136200,1,8,0:0:0:0:
256,192,136371,1,4,0:0:0:0:
256,192,136714,1,8,0:0:0:0:
256,192,136800,1,0,0:0:0:0:
256,192,136886,1,0,0:0:0:0:
256,192,136971,1,0,0:0:0:0:
256,192,137057,1,8,0:0:0:0:
256,192,137228,1,0,0:0:0:0:
256,192,137400,1,8,0:0:0:0:
256,192,137571,1,8,0:0:0:0:
256,192,137657,1,8,0:0:0:0:
256,192,137743,1,0,0:0:0:0:
256,192,137914,1,0,0:0:0:0:
256,192,138086,1,8,0:0:0:0:
256,192,138257,1,0,0:0:0:0:
256,192,138343,1,8,0:0:0:0:
256,192,138428,1,0,0:0:0:0:
256,192,138600,1,0,0:0:0:0:
256,192,138771,1,8,0:0:0:0:
256,192,138857,1,8,0:0:0:0:
256,192,138943,1,8,0:0:0:0:
256,192,139028,1,8,0:0:0:0:
256,192,139114,1,0,0:0:0:0:
256,192,139286,1,0,0:0:0:0:
256,192,139457,1,8,0:0:0:0:
256,192,139628,1,0,0:0:0:0:
256,192,139714,1,0,0:0:0:0:
256,192,139800,1,8,0:0:0:0:
256,192,139971,1,0,0:0:0:0:
256,192,140143,1,8,0:0:0:0:
256,192,140228,1,0,0:0:0:0:
256,192,140314,1,8,0:0:0:0:
256,192,140400,1,8,0:0:0:0:
256,192,140486,1,0,0:0:0:0:
256,192,140657,1,0,0:0:0:0:
256,192,140828,1,8,0:0:0:0:
256,192,140914,1,8,0:0:0:0:
256,192,141000,1,0,0:0:0:0:
256,192,141086,1,0,0:0:0:0:
256,192,141171,1,8,0:0:0:0:
256,192,141343,1,0,0:0:0:0:
256,192,141514,1,8,0:0:0:0:
256,192,141600,1,8,0:0:0:0:
256,192,141686,1,8,0:0:0:0:
256,192,141771,1,8,0:0:0:0:
256,192,141857,1,0,0:0:0:0:
256,192,142028,1,0,0:0:0:0:
256,192,142114,1,0,0:0:0:0:
256,192,142200,1,8,0:0:0:0:
256,192,142371,1,0,0:0:0:0:
256,192,142543,1,8,0:0:0:0:
256,192,142628,1,0,0:0:0:0:
256,192,142714,1,0,0:0:0:0:
256,192,142800,1,0,0:0:0:0:
256,192,142886,1,8,0:0:0:0:
256,192,143057,1,8,0:0:0:0:
256,192,143228,1,0,0:0:0:0:
256,192,143314,1,0,0:0:0:0:
256,192,143400,1,0,0:0:0:0:
256,192,143486,1,0,0:0:0:0:
256,192,143571,1,8,0:0:0:0:
256,192,143743,1,0,0:0:0:0:
256,192,143828,1,8,0:0:0:0:
256,192,143914,1,0,0:0:0:0:
256,192,144086,1,0,0:0:0:0:
256,192,144257,1,8,0:0:0:0:
256,192,144343,1,0,0:0:0:0:
256,192,144428,1,8,0:0:0:0:
256,192,144514,1,8,0:0:0:0:
256,192,144600,1,0,0:0:0:0:
256,192,144771,1,0,0:0:0:0:
256,192,144943,1,8,0:0:0:0:
256,192,145028,1,8,0:0:0:0:
256,192,145114,1,0,0:0:0:0:
256,192,145200,1,0,0:0:0:0:
256,192,145286,1,8,0:0:0:0:
256,192,145457,1,0,0:0:0:0:
256,192,145628,1,8,0:0:0:0:
256,192,145800,1,8,0:0:0:0:
256,192,145886,1,8,0:0:0:0:
256,192,145971,1,0,0:0:0:0:
256,192,146057,1,0,0:0:0:0:
256,192,146143,1,0,0:0:0:0:
256,192,146228,1,0,0:0:0:0:
256,192,146314,1,8,0:0:0:0:
256,192,146400,1,0,0:0:0:0:
256,192,146486,1,0,0:0:0:0:
256,192,146571,1,0,0:0:0:0:
256,192,146657,1,8,0:0:0:0:
256,192,146742,1,8,0:0:0:0:
256,192,146828,1,0,0:0:0:0:
256,192,146914,1,0,0:0:0:0:
256,192,147000,1,8,0:0:0:0:
256,192,147085,1,8,0:0:0:0:
256,192,147171,1,8,0:0:0:0:
256,192,147257,1,8,0:0:0:0:
256,192,147342,1,0,0:0:0:0:
256,192,147514,1,0,0:0:0:0:
256,192,147600,1,0,0:0:0:0:
256,192,147686,1,8,0:0:0:0:
256,192,147857,1,0,0:0:0:0:
256,192,147943,1,8,0:0:0:0:
256,192,148028,1,0,0:0:0:0:
256,192,148200,1,0,0:0:0:0:
256,192,148371,1,8,0:0:0:0:
256,192,148457,1,0,0:0:0:0:
256,192,148543,1,8,0:0:0:0:
256,192,148628,1,8,0:0:0:0:
256,192,148714,1,0,0:0:0:0:
256,192,148886,1,0,0:0:0:0:
256,192,149057,1,8,0:0:0:0:
256,192,149143,1,8,0:0:0:0:
256,192,149228,1,0,0:0:0:0:
256,192,149314,1,0,0:0:0:0:
256,192,149400,1,8,0:0:0:0:
256,192,149571,1,0,0:0:0:0:
256,192,149743,1,8,0:0:0:0:
256,192,149914,1,8,0:0:0:0:
256,192,150000,1,8,0:0:0:0:
256,192,150086,1,0,0:0:0:0:
256,192,150257,1,0,0:0:0:0:
256,192,150428,1,8,0:0:0:0:
256,192,150600,1,0,0:0:0:0:
256,192,150686,1,8,0:0:0:0:
256,192,150771,1,0,0:0:0:0:
256,192,150943,1,0,0:0:0:0:
256,192,151114,1,8,0:0:0:0:
256,192,151200,1,0,0:0:0:0:
256,192,151286,1,0,0:0:0:0:
256,192,151371,1,0,0:0:0:0:
256,192,151457,1,8,0:0:0:0:
256,192,151628,1,0,0:0:0:0:
256,192,151800,1,8,0:0:0:0:
256,192,151971,1,0,0:0:0:0:
256,192,152057,1,0,0:0:0:0:
256,192,152143,1,8,0:0:0:0:
256,192,152228,1,8,0:0:0:0:
256,192,152314,1,0,0:0:0:0:
256,192,152400,1,0,0:0:0:0:
256,192,152486,1,8,0:0:0:0:
256,192,152657,1,8,0:0:0:0:
256,192,152828,1,0,0:0:0:0:
256,192,153171,1,8,0:0:0:0:
256,192,153343,1,0,0:0:0:0:
256,192,153428,1,0,0:0:0:0:
256,192,153514,1,0,0:0:0:0:
256,192,153686,1,0,0:0:0:0:
256,192,153857,1,8,0:0:0:0:
256,192,153943,1,0,0:0:0:0:
256,192,154028,1,8,0:0:0:0:
256,192,154114,1,8,0:0:0:0:
256,192,154200,1,0,0:0:0:0:
256,192,154371,1,0,0:0:0:0:
256,192,154543,1,8,0:0:0:0:
256,192,154628,1,0,0:0:0:0:
256,192,154714,1,0,0:0:0:0:
256,192,154800,1,0,0:0:0:0:
256,192,154886,1,8,0:0:0:0:
256,192,155057,1,0,0:0:0:0:
256,192,155228,1,8,0:0:0:0:
256,192,155400,1,8,0:0:0:0:
256,192,155486,1,8,0:0:0:0:
256,192,155571,1,0,0:0:0:0:
256,192,155743,1,0,0:0:0:0:
256,192,155914,1,8,0:0:0:0:
256,192,156086,1,0,0:0:0:0:
256,192,156171,1,8,0:0:0:0:
256,192,156257,1,0,0:0:0:0:
256,192,156428,1,0,0:0:0:0:
256,192,156600,1,8,0:0:0:0:
256,192,156686,1,8,0:0:0:0:
256,192,156771,1,0,0:0:0:0:
256,192,156857,1,0,0:0:0:0:
256,192,156943,1,8,0:0:0:0:
256,192,157114,1,0,0:0:0:0:
256,192,157200,1,0,0:0:0:0:
256,192,157286,1,8,0:0:0:0:
256,192,157457,1,0,0:0:0:0:
256,192,157628,1,8,0:0:0:0:
256,192,157714,1,8,0:0:0:0:
256,192,157800,1,0,0:0:0:0:
256,192,157886,1,0,0:0:0:0:
256,192,157971,1,8,0:0:0:0:
256,192,158057,1,8,0:0:0:0:
256,192,158143,1,8,0:0:0:0:
256,192,158314,1,4,0:0:0:0:
256,192,158657,1,8,0:0:0:0:
256,192,158828,1,0,0:0:0:0:
256,192,158914,1,8,0:0:0:0:
256,192,159000,1,0,0:0:0:0:
256,192,159171,1,0,0:0:0:0:
256,192,159343,1,8,0:0:0:0:
256,192,159514,1,8,0:0:0:0:
256,192,159600,1,8,0:0:0:0:
256,192,159686,1,0,0:0:0:0:
256,192,159857,1,0,0:0:0:0:
256,192,160028,1,8,0:0:0:0:
256,192,160200,1,0,0:0:0:0:
256,192,160286,1,0,0:0:0:0:
256,192,160371,1,8,0:0:0:0:
256,192,160543,1,0,0:0:0:0:
256,192,160714,1,8,0:0:0:0:
256,192,160800,1,8,0:0:0:0:
256,192,160886,1,8,0:0:0:0:
256,192,160971,1,8,0:0:0:0:
256,192,161057,1,0,0:0:0:0:
256,192,161228,1,8,0:0:0:0:
256,192,161314,1,0,0:0:0:0:
256,192,161400,1,8,0:0:0:0:
256,192,161571,1,8,0:0:0:0:
256,192,161743,1,0,0:0:0:0:
256,192,161828,1,8,0:0:0:0:
256,192,161914,1,0,0:0:0:0:
256,192,162086,1,8,0:0:0:0:
256,192,162257,1,0,0:0:0:0:
256,192,162343,1,0,0:0:0:0:
256,192,162428,1,8,0:0:0:0:
256,192,162600,1,0,0:0:0:0:
256,192,162771,1,8,0:0:0:0:
256,192,162857,1,0,0:0:0:0:
256,192,162943,1,0,0:0:0:0:
256,192,163028,1,0,0:0:0:0:
256,192,163114,1,8,0:0:0:0:
256,192,163200,1,8,0:0:0:0:
256,192,163286,1,0,0:0:0:0:
256,192,163371,1,0,0:0:0:0:
256,192,163457,1,8,0:0:0:0:
256,192,163628,1,8,0:0:0:0:
256,192,163714,1,8,0:0:0:0:
256,192,163800,1,0,0:0:0:0:
256,192,163971,1,0,0:0:0:0:
256,192,164143,1,8,0:0:0:0:
256,192,164314,1,8,0:0:0:0:
256,192,164400,1,8,0:0:0:0:
256,192,164486,1,0,0:0:0:0:
256,192,164571,1,0,0:0:0:0:
256,192,164657,1,8,0:0:0:0:
256,192,164743,1,0,0:0:0:0:
256,192,164828,1,8,0:0:0:0:
256,192,165000,1,0,0:0:0:0:
256,192,165086,1,0,0:0:0:0:
256,192,165171,1,0,0:0:0:0:
256,192,165343,1,0,0:0:0:0:
256,192,165514,1,8,0:0:0:0:
256,192,165686,1,8,0:0:0:0:
256,192,165771,1,8,0:0:0:0:
256,192,165857,1,0,0:0:0:0:
256,192,165943,1,0,0:0:0:0:
256,192,166028,1,0,0:0:0:0:
256,192,166114,1,0,0:0:0:0:
256,192,166200,1,8,0:0:0:0:
256,192,166371,1,8,0:0:0:0:
256,192,166457,1,8,0:0:0:0:
256,192,166543,1,0,0:0:0:0:
256,192,166714,1,0,0:0:0:0:
256,192,166800,1,0,0:0:0:0:
256,192,166886,1,8,0:0:0:0:
256,192,166971,1,8,0:0:0:0:
256,192,167057,1,8,0:0:0:0:
256,192,167143,1,8,0:0:0:0:
256,192,167228,1,0,0:0:0:0:
256,192,167314,1,8,0:0:0:0:
256,192,167400,1,0,0:0:0:0:
256,192,167486,1,0,0:0:0:0:
256,192,167571,1,8,0:0:0:0:
256,192,167743,1,8,0:0:0:0:
256,192,167828,1,8,0:0:0:0:
256,192,167914,1,0,0:0:0:0:
256,192,168000,1,0,0:0:0:0:
256,192,168086,1,0,0:0:0:0:
256,192,168171,1,0,0:0:0:0:
256,192,168257,1,8,0:0:0:0:
256,192,168343,1,0,0:0:0:0:
256,192,168428,1,0,0:0:0:0:
256,192,168514,1,0,0:0:0:0:
256,192,168600,1,8,0:0:0:0:
256,192,168686,1,8,0:0:0:0:
256,192,168771,1,0,0:0:0:0:
256,192,168857,1,0,0:0:0:0:
256,192,168943,1,8,0:0:0:0:
256,192,169028,1,8,0:0:0:0:
256,192,169114,1,8,0:0:0:0:
256,192,169200,1,8,0:0:0:0:
256,192,169285,12,0,179913,0:0:0:0:
256,192,180257,5,4,0:0:0:0:
256,192,180771,1,0,0:0:0:0:
256,192,181286,1,8,0:0:0:0:
256,192,181800,1,8,0:0:0:0:
256,192,182314,1,0,0:0:0:0:
256,192,183000,1,8,0:0:0:0:
256,192,183514,1,8,0:0:0:0:
256,192,184028,1,0,0:0:0:0:
256,192,184543,1,0,0:0:0:0:
256,192,185057,1,8,0:0:0:0:
256,192,185743,1,0,0:0:0:0:
256,192,186257,1,8,0:0:0:0:
256,192,186771,1,0,0:0:0:0:
256,192,187286,1,0,0:0:0:0:
256,192,187800,1,8,0:0:0:0:
256,192,188486,1,8,0:0:0:0:
256,192,189000,1,0,0:0:0:0:
256,192,189514,1,8,0:0:0:0:
256,192,190028,1,8,0:0:0:0:
256,192,190543,1,0,0:0:0:0:
256,192,191228,5,4,0:0:0:0:
256,192,191571,1,8,0:0:0:0:
256,192,191743,1,0,0:0:0:0:
256,192,191828,1,8,0:0:0:0:
256,192,191914,1,0,0:0:0:0:
256,192,192086,1,0,0:0:0:0:
256,192,192257,1,8,0:0:0:0:
256,192,192428,1,0,0:0:0:0:
256,192,192600,1,8,0:0:0:0:
256,192,192686,1,0,0:0:0:0:
256,192,192771,1,0,0:0:0:0:
256,192,192857,1,0,0:0:0:0:
256,192,192943,1,8,0:0:0:0:
256,192,193114,1,0,0:0:0:0:
256,192,193286,1,8,0:0:0:0:
256,192,193457,1,0,0:0:0:0:
256,192,193628,1,8,0:0:0:0:
256,192,193714,1,8,0:0:0:0:
256,192,193800,1,8,0:0:0:0:
256,192,193971,1,0,0:0:0:0:
256,192,194314,1,8,0:0:0:0:
256,192,194486,1,8,0:0:0:0:
256,192,194571,1,8,0:0:0:0:
256,192,194657,1,0,0:0:0:0:
256,192,194828,1,0,0:0:0:0:
256,192,195000,1,8,0:0:0:0:
256,192,195171,1,0,0:0:0:0:
256,192,195343,1,8,0:0:0:0:
256,192,195428,1,8,0:0:0:0:
256,192,195514,1,0,0:0:0:0:
256,192,195600,1,0,0:0:0:0:
256,192,195686,1,8,0:0:0:0:
256,192,195857,1,0,0:0:0:0:
256,192,196028,1,8,0:0:0:0:
256,192,196200,1,0,0:0:0:0:
256,192,196286,1,0,0:0:0:0:
256,192,196371,1,8,0:0:0:0:
256,192,196543,1,8,0:0:0:0:
256,192,196714,1,0,0:0:0:0:
256,192,197057,1,8,0:0:0:0:
256,192,197228,1,8,0:0:0:0:
256,192,197314,1,8,0:0:0:0:
256,192,197400,1,0,0:0:0:0:
256,192,197571,1,0,0:0:0:0:
256,192,197743,1,8,0:0:0:0:
256,192,197914,1,0,0:0:0:0:
256,192,198086,1,8,0:0:0:0:
256,192,198171,1,0,0:0:0:0:
256,192,198257,1,0,0:0:0:0:
256,192,198343,1,0,0:0:0:0:
256,192,198428,1,8,0:0:0:0:
256,192,198600,1,0,0:0:0:0:
256,192,198771,1,8,0:0:0:0:
256,192,198943,1,0,0:0:0:0:
256,192,199028,1,0,0:0:0:0:
256,192,199114,1,8,0:0:0:0:
256,192,199286,1,8,0:0:0:0:
256,192,199457,1,0,0:0:0:0:
256,192,199628,1,0,0:0:0:0:
256,192,199800,1,8,0:0:0:0:
256,192,199971,1,0,0:0:0:0:
256,192,200057,1,0,0:0:0:0:
256,192,200143,1,8,0:0:0:0:
256,192,200228,1,8,0:0:0:0:
256,192,200314,1,0,0:0:0:0:
256,192,200486,1,8,0:0:0:0:
256,192,200657,1,0,0:0:0:0:
256,192,200828,1,8,0:0:0:0:
256,192,201000,1,0,0:0:0:0:
256,192,201086,1,0,0:0:0:0:
256,192,201171,1,8,0:0:0:0:
256,192,201343,1,0,0:0:0:0:
256,192,201514,1,8,0:0:0:0:
256,192,201600,1,8,0:0:0:0:
256,192,201686,1,0,0:0:0:0:
256,192,201771,1,0,0:0:0:0:
256,192,201857,1,8,0:0:0:0:
256,192,201942,1,8,0:0:0:0:
256,192,202028,1,8,0:0:0:0:
256,192,202200,1,4,0:0:0:0:
256,192,202543,1,8,0:0:0:0:
256,192,202714,1,0,0:0:0:0:
256,192,202800,1,8,0:0:0:0:
256,192,202886,1,0,0:0:0:0:
256,192,203057,1,0,0:0:0:0:
256,192,203228,1,8,0:0:0:0:
256,192,203400,1,8,0:0:0:0:
256,192,203486,1,8,0:0:0:0:
256,192,203571,1,0,0:0:0:0:
256,192,203743,1,0,0:0:0:0:
256,192,203914,1,8,0:0:0:0:
256,192,204000,1,0,0:0:0:0:
256,192,204086,1,0,0:0:0:0:
256,192,204171,1,0,0:0:0:0:
256,192,204257,1,8,0:0:0:0:
256,192,204428,1,0,0:0:0:0:
256,192,204600,1,8,0:0:0:0:
256,192,204771,1,8,0:0:0:0:
256,192,204943,1,0,0:0:0:0:
256,192,205028,1,0,0:0:0:0:
256,192,205114,1,0,0:0:0:0:
256,192,205286,1,8,0:0:0:0:
256,192,205457,1,0,0:0:0:0:
256,192,205543,1,0,0:0:0:0:
256,192,205628,1,8,0:0:0:0:
256,192,205714,1,8,0:0:0:0:
256,192,205800,1,0,0:0:0:0:
256,192,205971,1,8,0:0:0:0:
256,192,206143,1,8,0:0:0:0:
256,192,206228,1,8,0:0:0:0:
256,192,206314,1,0,0:0:0:0:
256,192,206486,1,0,0:0:0:0:
256,192,206657,1,8,0:0:0:0:
256,192,206743,1,8,0:0:0:0:
256,192,206828,1,0,0:0:0:0:
256,192,206914,1,0,0:0:0:0:
256,192,207000,1,8,0:0:0:0:
256,192,207086,1,0,0:0:0:0:
256,192,207171,1,0,0:0:0:0:
256,192,207257,1,0,0:0:0:0:
256,192,207343,1,8,0:0:0:0:
256,192,207428,1,8,0:0:0:0:
256,192,207514,1,8,0:0:0:0:
256,192,207600,1,8,0:0:0:0:
256,192,207686,1,0,0:0:0:0:
256,192,207857,1,0,0:0:0:0:
256,192,207943,1,0,0:0:0:0:
256,192,208028,1,8,0:0:0:0:
256,192,208200,1,8,0:0:0:0:
256,192,208286,1,8,0:0:0:0:
256,192,208371,1,0,0:0:0:0:
256,192,208457,1,0,0:0:0:0:
256,192,208543,1,0,0:0:0:0:
256,192,208628,1,0,0:0:0:0:
256,192,208714,1,8,0:0:0:0:
256,192,208886,1,8,0:0:0:0:
256,192,208971,1,8,0:0:0:0:
256,192,209057,1,0,0:0:0:0:
256,192,209228,1,0,0:0:0:0:
256,192,209314,1,0,0:0:0:0:
256,192,209400,1,8,0:0:0:0:
256,192,209571,1,8,0:0:0:0:
256,192,209657,1,8,0:0:0:0:
256,192,209743,1,0,0:0:0:0:
256,192,209828,1,0,0:0:0:0:
256,192,209914,1,8,0:0:0:0:
256,192,210000,1,0,0:0:0:0:
256,192,210086,1,8,0:0:0:0:
256,192,210257,1,8,0:0:0:0:
256,192,210343,1,8,0:0:0:0:
256,192,210428,1,0,0:0:0:0:
256,192,210514,1,0,0:0:0:0:
256,192,210600,1,0,0:0:0:0:
256,192,210686,1,0,0:0:0:0:
256,192,210771,1,8,0:0:0:0:
256,192,210857,1,8,0:0:0:0:
256,192,210943,1,0,0:0:0:0:
256,192,211028,1,0,0:0:0:0:
256,192,211114,1,8,0:0:0:0:
256,192,211200,1,0,0:0:0:0:
256,192,211286,1,8,0:0:0:0:
256,192,211371,1,8,0:0:0:0:
256,192,211457,1,0,0:0:0:0:
256,192,211543,1,0,0:0:0:0:
256,192,211628,1,0,0:0:0:0:
256,192,211714,1,0,0:0:0:0:
256,192,211800,1,8,0:0:0:0:
256,192,211886,1,8,0:0:0:0:
256,192,211971,1,0,0:0:0:0:
256,192,212057,1,0,0:0:0:0:
256,192,212143,1,8,0:0:0:0:
256,192,212228,1,0,0:0:0:0:
256,192,212314,1,0,0:0:0:0:
256,192,212400,1,0,0:0:0:0:
256,192,212486,1,8,0:0:0:0:
256,192,212571,1,8,0:0:0:0:
256,192,212657,1,0,0:0:0:0:
256,192,212742,1,0,0:0:0:0:
256,192,212828,1,8,0:0:0:0:
256,192,213171,1,4,0:0:0:0:
256,192,213343,1,0,0:0:0:0:
256,192,213514,1,8,0:0:0:0:
256,192,213686,1,0,0:0:0:0:
256,192,213771,1,0,0:0:0:0:
256,192,213857,1,0,0:0:0:0:
256,192,214028,1,0,0:0:0:0:
256,192,214200,1,8,0:0:0:0:
256,192,214371,1,8,0:0:0:0:
256,192,214457,1,8,0:0:0:0:
256,192,214543,1,0,0:0:0:0:
256,192,214714,1,0,0:0:0:0:
256,192,214886,1,8,0:0:0:0:
256,192,215057,1,0,0:0:0:0:
256,192,215143,1,8,0:0:0:0:
256,192,215228,1,0,0:0:0:0:
256,192,215400,1,0,0:0:0:0:
256,192,215571,1,8,0:0:0:0:
256,192,215657,1,0,0:0:0:0:
256,192,215743,1,8,0:0:0:0:
256,192,215828,1,8,0:0:0:0:
256,192,215914,1,0,0:0:0:0:
256,192,216086,1,0,0:0:0:0:
256,192,216257,1,8,0:0:0:0:
256,192,216428,1,0,0:0:0:0:
256,192,216514,1,0,0:0:0:0:
256,192,216600,1,8,0:0:0:0:
256,192,216771,1,0,0:0:0:0:
256,192,216943,1,8,0:0:0:0:
256,192,217114,1,8,0:0:0:0:
256,192,217200,1,8,0:0:0:0:
256,192,217286,1,0,0:0:0:0:
256,192,217457,1,0,0:0:0:0:
256,192,217628,1,8,0:0:0:0:
256,192,217800,1,8,0:0:0:0:
256,192,217886,1,0,0:0:0:0:
256,192,217971,1,8,0:0:0:0:
256,192,218143,1,0,0:0:0:0:
256,192,218228,1,0,0:0:0:0:
256,192,218314,1,8,0:0:0:0:
256,192,218400,1,8,0:0:0:0:
256,192,218486,1,8,0:0:0:0:
256,192,218571,1,8,0:0:0:0:
256,192,218657,1,0,0:0:0:0:
256,192,219000,1,8,0:0:0:0:
256,192,219171,1,8,0:0:0:0:
256,192,219257,1,8,0:0:0:0:
256,192,219343,1,0,0:0:0:0:
256,192,219514,1,0,0:0:0:0:
256,192,219686,1,8,0:0:0:0:
256,192,219771,1,8,0:0:0:0:
256,192,219857,1,8,0:0:0:0:
256,192,220028,1,0,0:0:0:0:
256,192,220200,1,0,0:0:0:0:
256,192,220286,1,0,0:0:0:0:
256,192,220371,1,8,0:0:0:0:
256,192,220543,1,8,0:0:0:0:
256,192,220714,1,0,0:0:0:0:
256,192,220800,1,0,0:0:0:0:
256,192,220886,1,0,0:0:0:0:
256,192,221057,1,8,0:0:0:0:
256,192,221143,1,0,0:0:0:0:
256,192,221228,1,8,0:0:0:0:
256,192,221314,1,8,0:0:0:0:
256,192,221400,1,0,0:0:0:0:
256,192,221571,1,8,0:0:0:0:
256,192,221743,1,8,0:0:0:0:
256,192,221914,1,0,0:0:0:0:
256,192,222000,1,0,0:0:0:0:
256,192,222086,1,8,0:0:0:0:
256,192,222257,1,0,0:0:0:0:
256,192,222428,1,8,0:0:0:0:
256,192,222514,1,8,0:0:0:0:
256,192,222600,1,0,0:0:0:0:
256,192,222686,1,0,0:0:0:0:
256,192,222771,1,8,0:0:0:0:
256,192,222943,1,0,0:0:0:0:
256,192,223114,1,8,0:0:0:0:
256,192,223200,1,0,0:0:0:0:
256,192,223286,1,0,0:0:0:0:
256,192,223371,1,0,0:0:0:0:
256,192,223457,1,8,0:0:0:0:
256,192,223543,1,8,0:0:0:0:
256,192,223628,1,0,0:0:0:0:
256,192,223800,1,8,0:0:0:0:
256,192,223886,1,0,0:0:0:0:
256,192,223971,1,8,0:0:0:0:
256,192,224143,1,4,0:0:0:0:
256,192,224486,1,8,0:0:0:0:
256,192,224657,1,0,0:0:0:0:
256,192,224743,1,8,0:0:0:0:
256,192,224828,1,0,0:0:0:0:
256,192,225000,1,0,0:0:0:0:
256,192,225171,1,8,0:0:0:0:
256,192,225257,1,0,0:0:0:0:
256,192,225343,1,8,0:0:0:0:
256,192,225428,1,8,0:0:0:0:
256,192,225514,1,0,0:0:0:0:
256,192,225686,1,0,0:0:0:0:
256,192,225857,1,8,0:0:0:0:
256,192,226028,1,8,0:0:0:0:
256,192,226114,1,8,0:0:0:0:
256,192,226200,1,0,0:0:0:0:
256,192,226371,1,0,0:0:0:0:
256,192,226457,1,0,0:0:0:0:
256,192,226543,1,8,0:0:0:0:
256,192,226628,1,8,0:0:0:0:
256,192,226714,1,8,0:0:0:0:
256,192,226800,1,8,0:0:0:0:
256,192,226886,1,0,0:0:0:0:
256,192,227057,1,0,0:0:0:0:
256,192,227228,1,8,0:0:0:0:
256,192,227400,1,0,0:0:0:0:
256,192,227485,1,0,0:0:0:0:
256,192,227571,1,8,0:0:0:0:
256,192,227742,1,0,0:0:0:0:
256,192,227914,1,8,0:0:0:0:
256,192,228086,1,8,0:0:0:0:
256,192,228171,1,8,0:0:0:0:
256,192,228257,1,0,0:0:0:0:
256,192,228428,1,0,0:0:0:0:
256,192,228514,1,0,0:0:0:0:
256,192,228600,1,8,0:0:0:0:
256,192,228771,1,8,0:0:0:0:
256,192,228943,1,0,0:0:0:0:
256,192,229114,1,0,0:0:0:0:
256,192,229200,1,0,0:0:0:0:
256,192,229286,1,8,0:0:0:0:
256,192,229371,1,0,0:0:0:0:
256,192,229457,1,8,0:0:0:0:
256,192,229543,1,8,0:0:0:0:
256,192,229628,1,0,0:0:0:0:
256,192,229800,1,0,0:0:0:0:
256,192,229886,1,0,0:0:0:0:
256,192,229971,1,8,0:0:0:0:
256,192,230143,1,0,0:0:0:0:
256,192,230228,1,8,0:0:0:0:
256,192,230314,1,0,0:0:0:0:
256,192,230400,1,0,0:0:0:0:
256,192,230486,1,0,0:0:0:0:
256,192,230571,1,0,0:0:0:0:
256,192,230657,1,8,0:0:0:0:
256,192,230828,1,8,0:0:0:0:
256,192,230914,1,8,0:0:0:0:
256,192,231000,1,0,0:0:0:0:
256,192,231171,1,0,0:0:0:0:
256,192,231257,1,0,0:0:0:0:
256,192,231343,1,8,0:0:0:0:
256,192,231514,1,8,0:0:0:0:
256,192,231600,1,0,0:0:0:0:
256,192,231686,1,8,0:0:0:0:
256,192,231771,1,8,0:0:0:0:
256,192,231857,1,0,0:0:0:0:
256,192,231943,1,0,0:0:0:0:
256,192,232028,1,8,0:0:0:0:
256,192,232200,1,8,0:0:0:0:
256,192,232286,1,8,0:0:0:0:
256,192,232371,1,0,0:0:0:0:
256,192,232457,1,0,0:0:0:0:
256,192,232543,1,0,0:0:0:0:
256,192,232628,1,0,0:0:0:0:
256,192,232714,1,8,0:0:0:0:
256,192,232800,1,0,0:0:0:0:
256,192,232886,1,8,0:0:0:0:
256,192,232971,1,8,0:0:0:0:
256,192,233057,1,0,0:0:0:0:
256,192,233143,1,0,0:0:0:0:
256,192,233228,1,8,0:0:0:0:
256,192,233314,1,0,0:0:0:0:
256,192,233400,1,8,0:0:0:0:
256,192,233486,1,8,0:0:0:0:
256,192,233571,1,0,0:0:0:0:
256,192,233657,1,0,0:0:0:0:
256,192,233743,1,8,0:0:0:0:
256,192,233828,1,8,0:0:0:0:
256,192,233914,1,8,0:0:0:0:
256,192,234000,1,0,0:0:0:0:
256,192,234086,1,8,0:0:0:0:
256,192,234171,1,0,0:0:0:0:
256,192,234257,1,8,0:0:0:0:
256,192,234343,1,8,0:0:0:0:
256,192,234428,1,0,0:0:0:0:
256,192,234514,1,0,0:0:0:0:
256,192,234600,1,8,0:0:0:0:
256,192,234686,1,0,0:0:0:0:
256,192,234771,1,8,0:0:0:0:
256,192,234857,1,8,0:0:0:0:
256,192,234943,1,8,0:0:0:0:
256,192,235028,1,8,0:0:0:0:
256,192,235114,1,0,0:0:0:0:
256,192,235457,1,8,0:0:0:0:
256,192,235628,1,8,0:0:0:0:
256,192,235714,1,8,0:0:0:0:
256,192,235800,1,0,0:0:0:0:
256,192,235971,1,0,0:0:0:0:
256,192,236143,1,8,0:0:0:0:
256,192,236314,1,0,0:0:0:0:
256,192,236400,1,8,0:0:0:0:
256,192,236486,1,0,0:0:0:0:
256,192,236657,1,0,0:0:0:0:
256,192,236828,1,8,0:0:0:0:
256,192,237000,1,0,0:0:0:0:
256,192,237086,1,0,0:0:0:0:
256,192,237171,1,8,0:0:0:0:
256,192,237343,1,0,0:0:0:0:
256,192,237514,1,8,0:0:0:0:
256,192,237600,1,0,0:0:0:0:
256,192,237686,1,8,0:0:0:0:
256,192,237771,1,8,0:0:0:0:
256,192,237857,1,0,0:0:0:0:
256,192,238028,1,0,0:0:0:0:
256,192,238114,1,0,0:0:0:0:
256,192,238200,1,8,0:0:0:0:
256,192,238371,1,0,0:0:0:0:
256,192,238543,1,8,0:0:0:0:
256,192,238628,1,0,0:0:0:0:
256,192,238714,1,0,0:0:0:0:
256,192,238800,1,0,0:0:0:0:
256,192,238886,1,8,0:0:0:0:
256,192,239057,1,0,0:0:0:0:
256,192,239228,1,8,0:0:0:0:
256,192,239314,1,8,0:0:0:0:
256,192,239400,1,0,0:0:0:0:
256,192,239486,1,0,0:0:0:0:
256,192,239571,1,8,0:0:0:0:
256,192,239743,1,0,0:0:0:0:
256,192,239914,1,8,0:0:0:0:
256,192,240086,1,0,0:0:0:0:
256,192,240171,1,0,0:0:0:0:
256,192,240257,1,8,0:0:0:0:
256,192,240343,1,8,0:0:0:0:
256,192,240428,1,8,0:0:0:0:
256,192,240514,1,8,0:0:0:0:
256,192,240600,1,0,0:0:0:0:
256,192,240771,1,0,0:0:0:0:
256,192,240943,1,8,0:0:0:0:
256,192,241114,1,0,0:0:0:0:
256,192,241200,1,8,0:0:0:0:
256,192,241286,1,0,0:0:0:0:
256,192,241457,1,0,0:0:0:0:
256,192,241628,1,8,0:0:0:0:
256,192,241800,1,8,0:0:0:0:
256,192,241886,1,8,0:0:0:0:
256,192,241971,1,0,0:0:0:0:
256,192,242143,1,0,0:0:0:0:
256,192,242314,1,8,0:0:0:0:
256,192,242486,1,8,0:0:0:0:
256,192,242571,1,0,0:0:0:0:
256,192,242657,1,8,0:0:0:0:
256,192,242828,1,0,0:0:0:0:
256,192,243000,1,8,0:0:0:0:
256,192,243086,1,0,0:0:0:0:
256,192,243171,1,8,0:0:0:0:
256,192,243257,1,8,0:0:0:0:
256,192,243343,1,0,0:0:0:0:
256,192,243514,1,0,0:0:0:0:
256,192,243600,1,0,0:0:0:0:
256,192,243686,1,8,0:0:0:0:
256,192,243857,1,0,0:0:0:0:
256,192,244028,1,8,0:0:0:0:
256,192,244114,1,0,0:0:0:0:
256,192,244200,1,0,0:0:0:0:
256,192,244286,1,0,0:0:0:0:
256,192,244371,1,8,0:0:0:0:
256,192,244543,1,0,0:0:0:0:
256,192,244714,1,8,0:0:0:0:
256,192,244886,1,0,0:0:0:0:
256,192,244971,1,0,0:0:0:0:
256,192,245057,1,8,0:0:0:0:
256,192,245228,1,0,0:0:0:0:
256,192,245400,1,8,0:0:0:0:
256,192,245486,1,8,0:0:0:0:
256,192,245571,1,0,0:0:0:0:
256,192,245657,1,0,0:0:0:0:
256,192,245743,1,8,0:0:0:0:
256,192,245828,1,8,0:0:0:0:
256,192,245914,1,8,0:0:0:0:
256,192,246086,1,4,0:0:0:0:
256,192,246428,1,8,0:0:0:0:
256,192,246514,1,0,0:0:0:0:
256,192,246600,1,8,0:0:0:0:
256,192,246686,1,8,0:0:0:0:
256,192,246771,1,0,0:0:0:0:
256,192,246943,1,0,0:0:0:0:
256,192,247114,1,8,0:0:0:0:
256,192,247286,1,0,0:0:0:0:
256,192,247371,1,8,0:0:0:0:
256,192,247457,1,0,0:0:0:0:
256,192,247628,1,0,0:0:0:0:
256,192,247714,1,0,0:0:0:0:
256,192,247800,1,8,0:0:0:0:
256,192,247971,1,0,0:0:0:0:
256,192,248143,1,8,0:0:0:0:
256,192,248228,1,8,0:0:0:0:
256,192,248314,1,0,0:0:0:0:
256,192,248400,1,0,0:0:0:0:
256,192,248486,1,8,0:0:0:0:
256,192,248657,1,8,0:0:0:0:
256,192,248828,1,0,0:0:0:0:
256,192,248914,1,0,0:0:0:0:
256,192,249000,1,0,0:0:0:0:
256,192,249171,1,8,0:0:0:0:
256,192,249343,1,8,0:0:0:0:
256,192,249428,1,8,0:0:0:0:
256,192,249514,1,0,0:0:0:0:
256,192,249686,1,0,0:0:0:0:
256,192,249857,1,8,0:0:0:0:
256,192,249943,1,0,0:0:0:0:
256,192,250028,1,0,0:0:0:0:
256,192,250114,1,0,0:0:0:0:
256,192,250200,1,8,0:0:0:0:
256,192,250371,1,0,0:0:0:0:
256,192,250457,1,0,0:0:0:0:
256,192,250543,1,8,0:0:0:0:
256,192,250714,1,0,0:0:0:0:
256,192,250886,1,8,0:0:0:0:
256,192,250971,1,8,0:0:0:0:
256,192,251057,1,0,0:0:0:0:
256,192,251143,1,0,0:0:0:0:
256,192,251228,1,8,0:0:0:0:
256,192,251400,1,8,0:0:0:0:
256,192,251571,1,0,0:0:0:0:
256,192,251743,1,0,0:0:0:0:
256,192,251828,1,0,0:0:0:0:
256,192,251914,1,8,0:0:0:0:
256,192,252086,1,0,0:0:0:0:
256,192,252257,1,8,0:0:0:0:
256,192,252343,1,0,0:0:0:0:
256,192,252428,1,0,0:0:0:0:
256,192,252514,1,0,0:0:0:0:
256,192,252600,1,8,0:0:0:0:
256,192,252771,1,8,0:0:0:0:
256,192,252857,1,8,0:0:0:0:
256,192,252943,1,0,0:0:0:0:
256,192,253114,1,0,0:0:0:0:
256,192,253200,1,0,0:0:0:0:
256,192,253286,1,8,0:0:0:0:
256,192,253457,1,8,0:0:0:0:
256,192,253543,1,0,0:0:0:0:
256,192,253628,1,8,0:0:0:0:
256,192,253714,1,0,0:0:0:0:
256,192,253800,1,0,0:0:0:0:
256,192,253886,1,0,0:0:0:0:
256,192,253971,1,8,0:0:0:0:
256,192,254143,1,8,0:0:0:0:
256,192,254228,1,8,0:0:0:0:
256,192,254314,1,0,0:0:0:0:
256,192,254400,1,0,0:0:0:0:
256,192,254486,1,0,0:0:0:0:
256,192,254571,1,0,0:0:0:0:
256,192,254657,1,8,0:0:0:0:
256,192,254743,1,8,0:0:0:0:
256,192,254829,1,0,0:0:0:0:
256,192,254914,1,0,0:0:0:0:
256,192,255000,1,8,0:0:0:0:
256,192,255086,1,0,0:0:0:0:
256,192,255172,1,0,0:0:0:0:
256,192,255257,1,0,0:0:0:0:
256,192,255343,1,8,0:0:0:0:
256,192,255429,1,0,0:0:0:0:
256,192,255514,1,8,0:0:0:0:
256,192,255600,1,8,0:0:0:0:
256,192,255686,1,0,0:0:0:0:
256,192,255772,1,0,0:0:0:0:
256,192,255856,1,0,0:0:0:0:
256,192,255943,1,0,0:0:0:0:
256,192,256028,1,8,0:0:0:0:
256,192,256114,1,0,0:0:0:0:
256,192,256200,1,0,0:0:0:0:
256,192,256285,1,0,0:0:0:0:
256,192,256371,1,8,0:0:0:0:
256,192,256457,1,8,0:0:0:0:
256,192,256542,1,0,0:0:0:0:
256,192,256628,1,0,0:0:0:0:
256,192,256714,1,8,0:0:0:0:
256,192,256800,1,8,0:0:0:0:
256,192,256885,1,8,0:0:0:0:
256,192,256971,1,8,0:0:0:0:
256,192,257057,1,0,0:0:0:0:
256,192,257228,1,0,0:0:0:0:
256,192,257314,1,0,0:0:0:0:
256,192,257400,1,8,0:0:0:0:
256,192,257571,1,0,0:0:0:0:
256,192,257657,1,8,0:0:0:0:
256,192,257743,1,0,0:0:0:0:
256,192,257914,1,0,0:0:0:0:
256,192,258086,1,8,0:0:0:0:
256,192,258171,1,0,0:0:0:0:
256,192,258257,1,8,0:0:0:0:
256,192,258343,1,8,0:0:0:0:
256,192,258428,1,0,0:0:0:0:
256,192,258600,1,0,0:0:0:0:
256,192,258686,1,0,0:0:0:0:
256,192,258771,1,8,0:0:0:0:
256,192,258943,1,0,0:0:0:0:
256,192,259114,1,8,0:0:0:0:
256,192,259200,1,0,0:0:0:0:
256,192,259286,1,0,0:0:0:0:
256,192,259371,1,0,0:0:0:0:
256,192,259457,1,8,0:0:0:0:
256,192,259628,1,8,0:0:0:0:
256,192,259714,1,8,0:0:0:0:
256,192,259800,1,0,0:0:0:0:
256,192,259971,1,0,0:0:0:0:
256,192,260057,1,0,0:0:0:0:
256,192,260143,1,8,0:0:0:0:
256,192,260314,1,8,0:0:0:0:
256,192,260400,1,8,0:0:0:0:
256,192,260486,1,0,0:0:0:0:
256,192,260571,1,0,0:0:0:0:
256,192,260657,1,8,0:0:0:0:
256,192,260743,1,0,0:0:0:0:
256,192,260828,1,8,0:0:0:0:
256,192,261000,1,0,0:0:0:0:
256,192,261171,1,8,0:0:0:0:
256,192,261343,1,0,0:0:0:0:
256,192,261428,1,0,0:0:0:0:
256,192,261514,1,8,0:0:0:0:
256,192,261600,1,0,0:0:0:0:
256,192,261686,1,0,0:0:0:0:
256,192,261771,1,0,0:0:0:0:
256,192,261857,1,8,0:0:0:0:
256,192,262028,1,0,0:0:0:0:
256,192,262200,1,8,0:0:0:0:
256,192,262371,1,8,0:0:0:0:
256,192,262457,1,8,0:0:0:0:
256,192,262543,1,0,0:0:0:0:
256,192,262714,1,0,0:0:0:0:
256,192,262800,1,0,0:0:0:0:
256,192,262886,1,8,0:0:0:0:
256,192,263057,1,0,0:0:0:0:
256,192,263228,1,8,0:0:0:0:
256,192,263314,1,8,0:0:0:0:
256,192,263400,1,0,0:0:0:0:
256,192,263486,1,0,0:0:0:0:
256,192,263571,1,8,0:0:0:0:
256,192,263743,1,0,0:0:0:0:
256,192,263914,1,8,0:0:0:0:
256,192,264086,1,0,0:0:0:0:
256,192,264171,1,0,0:0:0:0:
256,192,264257,1,8,0:0:0:0:
256,192,264428,1,0,0:0:0:0:
256,192,264600,1,8,0:0:0:0:
256,192,264686,1,0,0:0:0:0:
256,192,264771,1,0,0:0:0:0:
256,192,264857,1,0,0:0:0:0:
256,192,264943,1,8,0:0:0:0:
256,192,265028,1,0,0:0:0:0:
256,192,265114,1,8,0:0:0:0:
256,192,265200,1,8,0:0:0:0:
256,192,265286,1,0,0:0:0:0:
256,192,265457,1,0,0:0:0:0:
256,192,265543,1,0,0:0:0:0:
256,192,265628,1,8,0:0:0:0:
256,192,265800,1,0,0:0:0:0:
256,192,265886,1,8,0:0:0:0:
256,192,265971,1,0,0:0:0:0:
256,192,266143,1,0,0:0:0:0:
256,192,266314,1,8,0:0:0:0:
256,192,266400,1,8,0:0:0:0:
256,192,266486,1,0,0:0:0:0:
256,192,266571,1,0,0:0:0:0:
256,192,266657,1,8,0:0:0:0:
256,192,266828,1,0,0:0:0:0:
256,192,266914,1,0,0:0:0:0:
256,192,267000,1,8,0:0:0:0:
256,192,267171,1,0,0:0:0:0:
256,192,267343,1,8,0:0:0:0:
256,192,267428,1,8,0:0:0:0:
256,192,267514,1,0,0:0:0:0:
256,192,267600,1,0,0:0:0:0:
256,192,267686,1,8,0:0:0:0:
256,192,267771,1,8,0:0:0:0:
256,192,267857,1,8,0:0:0:0:
256,192,268028,1,4,0:0:0:0:
256,192,268200,1,0,0:0:0:0:
256,192,268286,1,0,0:0:0:0:
256,192,268371,1,8,0:0:0:0:
256,192,268543,1,0,0:0:0:0:
256,192,268714,1,8,0:0:0:0:
256,192,268800,1,8,0:0:0:0:
256,192,268886,1,0,0:0:0:0:
256,192,268971,1,0,0:0:0:0:
256,192,269057,1,8,0:0:0:0:
256,192,269228,1,8,0:0:0:0:
256,192,269400,1,0,0:0:0:0:
256,192,269571,1,0,0:0:0:0:
256,192,269657,1,0,0:0:0:0:
256,192,269743,1,8,0:0:0:0:
256,192,269828,1,0,0:0:0:0:
256,192,269914,1,0,0:0:0:0:
256,192,270000,1,0,0:0:0:0:
256,192,270086,1,8,0:0:0:0:
256,192,270171,1,8,0:0:0:0:
256,192,270257,1,0,0:0:0:0:
256,192,270343,1,0,0:0:0:0:
256,192,270428,1,8,0:0:0:0:
256,192,270600,1,8,0:0:0:0:
256,192,270771,1,0,0:0:0:0:
256,192,270857,1,0,0:0:0:0:
256,192,270943,1,0,0:0:0:0:
256,192,271114,1,8,0:0:0:0:
256,192,271286,1,8,0:0:0:0:
256,192,271371,1,8,0:0:0:0:
256,192,271457,1,0,0:0:0:0:
256,192,271543,1,8,0:0:0:0:
256,192,271628,1,0,0:0:0:0:
256,192,271714,1,0,0:0:0:0:
256,192,271800,1,8,0:0:0:0:
256,192,271971,1,8,0:0:0:0:
256,192,272057,1,8,0:0:0:0:
256,192,272143,1,0,0:0:0:0:
256,192,272314,1,0,0:0:0:0:
256,192,272486,1,8,0:0:0:0:
256,192,272571,1,0,0:0:0:0:
256,192,272657,1,0,0:0:0:0:
256,192,272743,1,0,0:0:0:0:
256,192,272828,1,8,0:0:0:0:
256,192,272914,1,8,0:0:0:0:
256,192,273000,1,0,0:0:0:0:
256,192,273086,1,0,0:0:0:0:
256,192,273171,1,8,0:0:0:0:
256,192,273257,1,8,0:0:0:0:
256,192,273343,1,0,0:0:0:0:
256,192,273428,1,8,0:0:0:0:
256,192,273514,1,0,0:0:0:0:
256,192,273686,1,0,0:0:0:0:
256,192,273771,1,0,0:0:0:0:
256,192,273857,1,8,0:0:0:0:
256,192,274028,1,8,0:0:0:0:
256,192,274114,1,8,0:0:0:0:
256,192,274200,1,0,0:0:0:0:
256,192,274286,1,0,0:0:0:0:
256,192,274371,1,8,0:0:0:0:
256,192,274457,1,0,0:0:0:0:
256,192,274543,1,8,0:0:0:0:
256,192,274714,1,8,0:0:0:0:
256,192,274800,1,8,0:0:0:0:
256,192,274886,1,0,0:0:0:0:
256,192,275057,1,0,0:0:0:0:
256,192,275143,1,0,0:0:0:0:
256,192,275228,1,8,0:0:0:0:
256,192,275400,1,8,0:0:0:0:
256,192,275486,1,8,0:0:0:0:
256,192,275571,1,0,0:0:0:0:
256,192,275657,1,0,0:0:0:0:
256,192,275743,1,0,0:0:0:0:
256,192,275828,1,0,0:0:0:0:
256,192,275914,1,8,0:0:0:0:
256,192,276086,1,8,0:0:0:0:
256,192,276171,1,8,0:0:0:0:
256,192,276257,1,0,0:0:0:0:
256,192,276343,1,0,0:0:0:0:
256,192,276428,1,0,0:0:0:0:
256,192,276514,1,0,0:0:0:0:
256,192,276600,1,8,0:0:0:0:
256,192,276686,1,8,0:0:0:0:
256,192,276771,1,0,0:0:0:0:
256,192,276857,1,0,0:0:0:0:
256,192,276943,1,8,0:0:0:0:
256,192,277029,1,0,0:0:0:0:
256,192,277114,1,8,0:0:0:0:
256,192,277200,1,8,0:0:0:0:
256,192,277286,1,8,0:0:0:0:
256,192,277372,1,0,0:0:0:0:
256,192,277457,1,8,0:0:0:0:
256,192,277543,1,8,0:0:0:0:
256,192,277628,1,0,0:0:0:0:
256,192,277714,1,0,0:0:0:0:
256,192,277799,1,0,0:0:0:0:
256,192,277885,1,0,0:0:0:0:
256,192,277971,1,8,0:0:0:0:
256,192,278057,1,0,0:0:0:0:
256,192,278142,1,0,0:0:0:0:
256,192,278228,1,0,0:0:0:0:
256,192,278314,1,8,0:0:0:0:
256,192,278400,1,8,0:0:0:0:
256,192,278485,1,0,0:0:0:0:
256,192,278571,1,0,0:0:0:0:
256,192,278657,1,8,0:0:0:0:
256,192,278743,1,8,0:0:0:0:
256,192,278828,1,8,0:0:0:0:
256,192,278914,1,8,0:0:0:0:
256,192,279000,1,0,0:0:0:0:
256,192,279343,1,8,0:0:0:0:
256,192,279514,1,0,0:0:0:0:
256,192,279600,1,8,0:0:0:0:
256,192,279686,1,0,0:0:0:0:
256,192,279857,1,0,0:0:0:0:
256,192,280028,1,8,0:0:0:0:
256,192,280200,1,0,0:0:0:0:
256,192,280286,1,0,0:0:0:0:
256,192,280371,1,0,0:0:0:0:
256,192,280543,1,0,0:0:0:0:
256,192,280714,1,8,0:0:0:0:
256,192,280800,1,8,0:0:0:0:
256,192,280886,1,0,0:0:0:0:
256,192,280971,1,0,0:0:0:0:
256,192,281057,1,8,0:0:0:0:
256,192,281228,1,0,0:0:0:0:
256,192,281400,1,8,0:0:0:0:
256,192,281571,1,8,0:0:0:0:
256,192,281657,1,8,0:0:0:0:
256,192,281743,1,0,0:0:0:0:
256,192,282086,1,8,0:0:0:0:
256,192,282257,1,0,0:0:0:0:
256,192,282343,1,8,0:0:0:0:
256,192,282428,1,0,0:0:0:0:
256,192,282600,1,0,0:0:0:0:
256,192,282771,1,8,0:0:0:0:
256,192,282857,1,0,0:0:0:0:
256,192,282943,1,8,0:0:0:0:
256,192,283028,1,8,0:0:0:0:
256,192,283114,1,0,0:0:0:0:
256,192,283286,1,0,0:0:0:0:
256,192,283457,1,8,0:0:0:0:
256,192,283628,1,0,0:0:0:0:
256,192,283714,1,0,0:0:0:0:
256,192,283800,1,8,0:0:0:0:
256,192,283971,1,0,0:0:0:0:
256,192,284143,1,8,0:0:0:0:
256,192,284228,1,8,0:0:0:0:
256,192,284314,1,8,0:0:0:0:
256,192,284400,1,8,0:0:0:0:
256,192,284486,1,0,0:0:0:0:
256,192,284828,1,8,0:0:0:0:
256,192,285000,1,0,0:0:0:0:
256,192,285086,1,0,0:0:0:0:
256,192,285171,1,0,0:0:0:0:
256,192,285343,1,0,0:0:0:0:
256,192,285514,1,8,0:0:0:0:
256,192,285686,1,0,0:0:0:0:
256,192,285771,1,8,0:0:0:0:
256,192,285857,1,0,0:0:0:0:
256,192,286028,1,0,0:0:0:0:
256,192,286200,1,8,0:0:0:0:
256,192,286286,1,0,0:0:0:0:
256,192,286371,1,0,0:0:0:0:
256,192,286457,1,0,0:0:0:0:
256,192,286543,1,8,0:0:0:0:
256,192,286714,1,0,0:0:0:0:
256,192,286886,1,8,0:0:0:0:
256,192,287057,1,8,0:0:0:0:
256,192,287143,1,8,0:0:0:0:
256,192,287228,1,0,0:0:0:0:
256,192,287400,1,0,0:0:0:0:
256,192,287571,1,8,0:0:0:0:
256,192,287743,1,0,0:0:0:0:
256,192,287828,1,0,0:0:0:0:
256,192,287914,1,8,0:0:0:0:
256,192,288000,1,8,0:0:0:0:
256,192,288086,1,0,0:0:0:0:
256,192,288257,1,8,0:0:0:0:
256,192,288428,1,0,0:0:0:0:
256,192,288514,1,0,0:0:0:0:
256,192,288600,1,8,0:0:0:0:
256,192,288771,1,0,0:0:0:0:
256,192,288943,1,8,0:0:0:0:
256,192,289028,1,0,0:0:0:0:
256,192,289114,1,0,0:0:0:0:
256,192,289200,1,0,0:0:0:0:
256,192,289286,1,8,0:0:0:0:
256,192,289371,1,8,0:0:0:0:
256,192,289457,1,0,0:0:0:0:
256,192,289543,1,0,0:0:0:0:
256,192,289628,1,8,0:0:0:0:
256,192,289714,1,8,0:0:0:0:
256,192,289800,1,8,0:0:0:0:
256,192,289971,1,4,0:0:0:0:
256,192,290314,1,8,0:0:0:0:
256,192,290486,1,0,0:0:0:0:
256,192,290571,1,8,0:0:0:0:
256,192,290657,1,0,0:0:0:0:
256,192,290828,1,0,0:0:0:0:
256,192,291000,1,8,0:0:0:0:
256,192,291171,1,8,0:0:0:0:
256,192,291257,1,8,0:0:0:0:
256,192,291343,1,0,0:0:0:0:
256,192,291514,1,0,0:0:0:0:
256,192,291686,1,8,0:0:0:0:
256,192,291771,1,8,0:0:0:0:
256,192,291857,1,0,0:0:0:0:
256,192,291943,1,0,0:0:0:0:
256,192,292028,1,8,0:0:0:0:
256,192,292200,1,0,0:0:0:0:
256,192,292371,1,8,0:0:0:0:
256,192,292543,1,8,0:0:0:0:
256,192,292628,1,8,0:0:0:0:
256,192,292714,1,0,0:0:0:0:
256,192,292886,1,0,0:0:0:0:
256,192,293057,1,8,0:0:0:0:
256,192,293228,1,0,0:0:0:0:
256,192,293314,1,8,0:0:0:0:
256,192,293400,1,0,0:0:0:0:
256,192,293571,1,0,0:0:0:0:
256,192,293743,1,8,0:0:0:0:
256,192,293828,1,0,0:0:0:0:
256,192,293914,1,0,0:0:0:0:
256,192,294000,1,0,0:0:0:0:
256,192,294086,1,8,0:0:0:0:
256,192,294257,1,0,0:0:0:0:
256,192,294428,1,8,0:0:0:0:
256,192,294600,1,0,0:0:0:0:
256,192,294686,1,0,0:0:0:0:
256,192,294771,1,8,0:0:0:0:
256,192,294943,1,0,0:0:0:0:
256,192,295114,1,8,0:0:0:0:
256,192,295200,1,8,0:0:0:0:
256,192,295286,1,0,0:0:0:0:
256,192,295371,1,8,0:0:0:0:
256,192,295457,1,0,0:0:0:0:
256,192,295628,1,0,0:0:0:0:
256,192,295714,1,0,0:0:0:0:
256,192,295800,1,8,0:0:0:0:
256,192,295971,1,0,0:0:0:0:
256,192,296143,1,8,0:0:0:0:
256,192,296228,1,8,0:0:0:0:
256,192,296314,1,0,0:0:0:0:
256,192,296400,1,0,0:0:0:0:
256,192,296486,1,8,0:0:0:0:
256,192,296657,1,8,0:0:0:0:
256,192,296828,1,0,0:0:0:0:
256,192,297000,1,0,0:0:0:0:
256,192,297086,1,0,0:0:0:0:
256,192,297171,1,8,0:0:0:0:
256,192,297343,1,0,0:0:0:0:
256,192,297514,1,8,0:0:0:0:
256,192,297600,1,0,0:0:0:0:
256,192,297686,1,0,0:0:0:0:
256,192,297771,1,0,0:0:0:0:
256,192,297857,1,8,0:0:0:0:
256,192,298028,1,8,0:0:0:0:
256,192,298114,1,8,0:0:0:0:
256,192,298200,1,0,0:0:0:0:
256,192,298286,1,0,0:0:0:0:
256,192,298371,1,0,0:0:0:0:
256,192,298457,1,0,0:0:0:0:
256,192,298543,1,8,0:0:0:0:
256,192,298629,1,8,0:0:0:0:
256,192,298714,1,0,0:0:0:0:
256,192,298800,1,0,0:0:0:0:
256,192,298886,1,8,0:0:0:0:
256,192,298972,1,0,0:0:0:0:
256,192,299057,1,8,0:0:0:0:
256,192,299143,1,8,0:0:0:0:
256,192,299228,1,0,0:0:0:0:
256,192,299314,1,0,0:0:0:0:
256,192,299399,1,0,0:0:0:0:
256,192,299485,1,0,0:0:0:0:
256,192,299571,1,8,0:0:0:0:
256,192,299657,1,8,0:0:0:0:
256,192,299742,1,0,0:0:0:0:
256,192,299828,1,0,0:0:0:0:
256,192,299914,1,8,0:0:0:0:
256,192,300000,1,0,0:0:0:0:
256,192,300085,1,0,0:0:0:0:
256,192,300171,1,0,0:0:0:0:
256,192,300257,1,8,0:0:0:0:
256,192,300343,1,8,0:0:0:0:
256,192,300428,1,0,0:0:0:0:
256,192,300514,1,0,0:0:0:0:
256,192,300600,1,8,0:0:0:0:
256,192,300686,1,8,0:0:0:0:
256,192,300771,1,8,0:0:0:0:
256,192,300857,1,8,0:0:0:0:
256,192,300943,1,0,0:0:0:0:
256,192,301286,1,8,0:0:0:0:
256,192,301457,1,0,0:0:0:0:
256,192,301543,1,0,0:0:0:0:
256,192,301628,1,0,0:0:0:0:
256,192,301800,1,0,0:0:0:0:
256,192,301971,1,8,0:0:0:0:
256,192,302314,1,0,0:0:0:0:
256,192,302486,1,0,0:0:0:0:
256,192,302657,1,8,0:0:0:0:
256,192,302828,1,0,0:0:0:0:
256,192,302914,1,8,0:0:0:0:
256,192,303000,1,0,0:0:0:0:
256,192,303171,1,0,0:0:0:0:
256,192,303343,1,8,0:0:0:0:
256,192,303686,1,0,0:0:0:0:
256,192,304028,1,8,0:0:0:0:
256,192,304200,1,8,0:0:0:0:
256,192,304286,1,8,0:0:0:0:
256,192,304371,1,0,0:0:0:0:
256,192,304543,1,0,0:0:0:0:
256,192,304714,1,8,0:0:0:0:
256,192,305057,1,0,0:0:0:0:
256,192,305228,1,0,0:0:0:0:
256,192,305400,1,8,0:0:0:0:
256,192,305571,1,0,0:0:0:0:
256,192,305657,1,8,0:0:0:0:
256,192,305743,1,0,0:0:0:0:
256,192,305914,1,0,0:0:0:0:
256,192,306086,1,8,0:0:0:0:
256,192,306257,1,0,0:0:0:0:
256,192,306428,1,0,0:0:0:0:
256,192,306771,1,8,0:0:0:0:
256,192,306943,1,0,0:0:0:0:
256,192,307028,1,0,0:0:0:0:
256,192,307114,1,0,0:0:0:0:
256,192,307286,1,0,0:0:0:0:
256,192,307457,1,8,0:0:0:0:
256,192,307800,1,0,0:0:0:0:
256,192,307971,1,0,0:0:0:0:
256,192,308143,1,8,0:0:0:0:
256,192,308314,1,0,0:0:0:0:
256,192,308400,1,8,0:0:0:0:
256,192,308486,1,0,0:0:0:0:
256,192,308657,1,0,0:0:0:0:
256,192,308828,1,8,0:0:0:0:
256,192,309171,1,0,0:0:0:0:
256,192,309514,1,8,0:0:0:0:
256,192,309686,1,8,0:0:0:0:
256,192,309771,1,8,0:0:0:0:
256,192,309857,1,0,0:0:0:0:
256,192,310028,1,0,0:0:0:0:
256,192,310200,1,8,0:0:0:0:
256,192,310543,1,0,0:0:0:0:
256,192,310714,1,0,0:0:0:0:
256,192,310886,1,8,0:0:0:0:
256,192,311057,1,0,0:0:0:0:
256,192,311143,1,8,0:0:0:0:
256,192,311228,1,0,0:0:0:0:
256,192,311400,1,0,0:0:0:0:
256,192,311571,1,8,0:0:0:0:
256,192,311657,1,8,0:0:0:0:
256,192,311743,1,8,0:0:0:0:
256,192,311914,1,4,0:0:0:0:
256,192,312257,1,8,0:0:0:0:
256,192,312428,1,0,0:0:0:0:
256,192,312514,1,0,0:0:0:0:
256,192,312600,1,0,0:0:0:0:
256,192,312771,1,0,0:0:0:0:
256,192,312943,1,8,0:0:0:0:
256,192,313286,1,0,0:0:0:0:
256,192,313457,1,0,0:0:0:0:
256,192,313628,1,8,0:0:0:0:
256,192,313800,1,0,0:0:0:0:
256,192,313886,1,8,0:0:0:0:
256,192,313971,1,0,0:0:0:0:
256,192,314143,1,0,0:0:0:0:
256,192,314314,1,8,0:0:0:0:
256,192,314486,1,8,0:0:0:0:
256,192,314571,1,8,0:0:0:0:
256,192,314657,1,0,0:0:0:0:
256,192,314828,1,0,0:0:0:0:
256,192,315000,1,8,0:0:0:0:
256,192,315171,1,0,0:0:0:0:
256,192,315257,1,0,0:0:0:0:
256,192,315343,1,0,0:0:0:0:
256,192,315514,1,0,0:0:0:0:
256,192,315686,1,8,0:0:0:0:
256,192,316028,1,0,0:0:0:0:
256,192,316200,1,0,0:0:0:0:
256,192,316371,1,8,0:0:0:0:
256,192,316543,1,0,0:0:0:0:
256,192,316628,1,8,0:0:0:0:
256,192,316714,1,8,0:0:0:0:
256,192,316886,1,0,0:0:0:0:
256,192,317057,1,8,0:0:0:0:
256,192,317228,1,8,0:0:0:0:
256,192,317314,1,8,0:0:0:0:
256,192,317400,1,0,0:0:0:0:
256,192,317571,1,0,0:0:0:0:
256,192,317657,1,0,0:0:0:0:
256,192,317743,1,8,0:0:0:0:
256,192,317914,1,8,0:0:0:0:
256,192,318086,1,0,0:0:0:0:
256,192,318171,1,0,0:0:0:0:
256,192,318257,1,0,0:0:0:0:
256,192,318343,1,0,0:0:0:0:
256,192,318428,1,8,0:0:0:0:
256,192,318600,1,8,0:0:0:0:
256,192,318771,1,0,0:0:0:0:
256,192,318943,1,0,0:0:0:0:
256,192,319028,1,0,0:0:0:0:
256,192,319114,1,8,0:0:0:0:
256,192,319286,1,8,0:0:0:0:
256,192,319371,1,8,0:0:0:0:
256,192,319457,1,0,0:0:0:0:
256,192,319543,1,0,0:0:0:0:
256,192,319628,1,0,0:0:0:0:
256,192,319714,1,0,0:0:0:0:
256,192,319800,1,8,0:0:0:0:
256,192,319971,1,8,0:0:0:0:
256,192,320143,1,0,0:0:0:0:
256,192,320314,1,0,0:0:0:0:
256,192,320400,1,0,0:0:0:0:
256,192,320486,1,8,0:0:0:0:
256,192,320657,1,8,0:0:0:0:
256,192,320743,1,8,0:0:0:0:
256,192,320828,1,0,0:0:0:0:
256,192,320914,1,0,0:0:0:0:
256,192,321000,1,8,0:0:0:0:
256,192,321086,1,0,0:0:0:0:
256,192,321171,1,8,0:0:0:0:
256,192,321343,1,8,0:0:0:0:
256,192,321428,1,8,0:0:0:0:
256,192,321514,1,0,0:0:0:0:
256,192,321600,1,0,0:0:0:0:
256,192,321686,1,0,0:0:0:0:
256,192,321771,1,0,0:0:0:0:
256,192,321857,1,8,0:0:0:0:
256,192,321943,1,0,0:0:0:0:
256,192,322028,1,0,0:0:0:0:
256,192,322114,1,0,0:0:0:0:
256,192,322200,1,8,0:0:0:0:
256,192,322286,1,8,0:0:0:0:
256,192,322371,1,0,0:0:0:0:
256,192,322457,1,0,0:0:0:0:
256,192,322543,1,8,0:0:0:0:
256,192,322628,1,8,0:0:0:0:
256,192,322714,1,8,0:0:0:0:
256,192,322800,1,8,0:0:0:0:
256,192,322886,1,0,0:0:0:0:
256,192,325285,12,0,332142,0:0:0:0:
