osu file format v14

[General]
AudioFilename: Our Stolen Theory-United (L.A.O.S Remix) [Full] (www.myfree.cc).mp3
AudioLeadIn: 0
PreviewTime: 125402
Countdown: 0
SampleSet: Normal
StackLeniency: 0.7
Mode: 1
LetterboxInBreaks: 0
WidescreenStoryboard: 1

[Editor]
Bookmarks: 15687,37630,59573,81516,103459,125402,147345,169288,191230,213173,235116,257059,279002,300945,322888,325630
DistanceSpacing: 1.4
BeatDivisor: 4
GridSize: 16
TimelineZoom: 3.379999

[Metadata]
Title:United (L.A.O.S Remix)
TitleUnicode:United (L.A.O.S Remix)
Artist:Our Stolen Theory
ArtistUnicode:Our Stolen Theory
Creator:Unmei Muma
Version:Ubiquity
Source:
Tags:large amount of soul drum and bass dnb technical
BeatmapID:1178141
BeatmapSetID:556731

[Difficulty]
HPDrainRate:5
CircleSize:2
OverallDifficulty:7
ApproachRate:10
SliderMultiplier:1.4
SliderTickRate:4

[Events]
//Background and Video events
0,0,"wallpaper-1322673.jpg",0,0
//Break Periods
//Storyboard Layer 0 (Background)
//Storyboard Layer 1 (Fail)
//Storyboard Layer 2 (Pass)
//Storyboard Layer 3 (Foreground)
//Storyboard Sound Samples

[TimingPoints]
14316,342.857142857143,4,1,0,80,1,0
14316,-200,4,1,0,80,0,0
37545,-133.333333333333,4,1,0,80,0,0
48773,-114.285714285714,4,1,0,80,0,0
59402,-100,4,1,0,90,0,0
81430,-90.9090909090909,4,1,0,90,0,0
81516,-90.9090909090909,4,1,0,100,0,1
103458,-90.9090909090909,4,1,0,90,0,0
103544,-100,4,1,0,90,0,0
125316,-90.9090909090909,4,1,0,90,0,0
125401,-90.9090909090909,4,1,0,100,0,1
147258,-83.3333333333333,4,1,0,100,0,1
169287,-83.3333333333333,4,1,0,80,0,0
169373,-90.9090909090909,4,1,0,80,0,0
170145,-100,4,1,0,80,0,0
170573,-111.111111111111,4,1,0,80,0,0
171173,-125,4,1,0,80,0,0
190888,-111.111111111111,4,1,0,80,0,0
213002,-100,4,1,0,90,0,0
235030,-86.9565217391304,4,1,0,90,0,0
235116,-86.9565217391304,4,1,0,100,0,1
256973,-80,4,1,0,100,0,1
279001,-80,4,1,0,100,0,0
279087,-83.3333333333333,4,1,0,100,0,0
289887,-90.9090909090909,4,1,0,95,0,0
300858,-100,4,1,0,90,0,0
325630,-100,4,1,0,25,0,0

[HitObjects]
256,192,15687,5,0,0:0:0:0:
256,192,16201,1,0,0:0:0:0:
256,192,16716,1,0,0:0:0:0:
256,192,17230,1,0,0:0:0:0:
256,192,17744,1,0,0:0:0:0:
256,192,18430,1,8,0:0:0:0:
256,192,18944,1,8,0:0:0:0:
256,192,19458,1,8,0:0:0:0:
256,192,19973,1,8,0:0:0:0:
256,192,20487,1,8,0:0:0:0:
256,192,21173,1,0,0:0:0:0:
256,192,21687,1,0,0:0:0:0:
256,192,22201,1,0,0:0:0:0:
256,192,22716,1,0,0:0:0:0:
256,192,23230,1,0,0:0:0:0:
256,192,23916,1,8,0:0:0:0:
256,192,24430,1,8,0:0:0:0:
256,192,24944,1,8,0:0:0:0:
256,192,25458,1,8,0:0:0:0:
256,192,25973,1,8,0:0:0:0:
256,192,26658,1,4,0:0:0:0:
256,192,27173,1,0,0:0:0:0:
256,192,27687,1,8,0:0:0:0:
256,192,28201,1,8,0:0:0:0:
256,192,28716,1,0,0:0:0:0:
256,192,29401,1,8,0:0:0:0:
256,192,29916,1,8,0:0:0:0:
256,192,30430,1,0,0:0:0:0:
256,192,30944,1,0,0:0:0:0:
256,192,31458,1,8,0:0:0:0:
256,192,32144,1,0,0:0:0:0:
256,192,32658,1,8,0:0:0:0:
256,192,33173,1,0,0:0:0:0:
256,192,33687,1,0,0:0:0:0:
256,192,34201,1,8,0:0:0:0:
256,192,34887,1,8,0:0:0:0:
256,192,35401,1,0,0:0:0:0:
256,192,35916,1,8,0:0:0:0:
256,192,36430,1,8,0:0:0:0:
256,192,36944,1,0,0:0:0:0:
256,192,37630,1,4,0:0:0:0:
256,192,37973,1,8,0:0:0:0:
256,192,38230,1,0,0:0:0:0:
256,192,38316,1,0,0:0:0:0:
256,192,38487,1,0,0:0:0:0:
256,192,38658,1,8,0:0:0:0:
256,192,39001,1,0,0:0:0:0:
256,192,39173,1,0,0:0:0:0:
256,192,39344,1,8,0:0:0:0:
256,192,39516,1,8,0:0:0:0:
256,192,39601,1,8,0:0:0:0:
256,192,39687,1,0,0:0:0:0:
256,192,39858,1,0,0:0:0:0:
256,192,40030,1,8,0:0:0:0:
256,192,40201,1,0,0:0:0:0:
256,192,40373,1,0,0:0:0:0:
256,192,40716,1,8,0:0:0:0:
256,192,40973,1,0,0:0:0:0:
256,192,41058,1,0,0:0:0:0:
256,192,41230,1,0,0:0:0:0:
256,192,41401,1,8,0:0:0:0:
256,192,41744,1,0,0:0:0:0:
256,192,41916,1,0,0:0:0:0:
256,192,42087,1,8,0:0:0:0:
256,192,42258,1,0,0:0:0:0:
256,192,42344,1,8,0:0:0:0:
256,192,42430,1,0,0:0:0:0:
256,192,42601,1,0,0:0:0:0:
256,192,42773,1,8,0:0:0:0:
256,192,42858,1,0,0:0:0:0:
256,192,42944,1,8,0:0:0:0:
256,192,43116,1,0,0:0:0:0:
256,192,43458,1,8,0:0:0:0:
256,192,43716,1,0,0:0:0:0:
256,192,43801,1,0,0:0:0:0:
256,192,43973,1,0,0:0:0:0:
256,192,44144,1,8,0:0:0:0:
256,192,44487,1,0,0:0:0:0:
256,192,44830,1,8,0:0:0:0:
256,192,45001,1,8,0:0:0:0:
256,192,45087,1,0,0:0:0:0:
256,192,45173,1,0,0:0:0:0:
256,192,45344,1,0,0:0:0:0:
256,192,45516,1,8,0:0:0:0:
256,192,45687,1,8,0:0:0:0:
256,192,45858,1,0,0:0:0:0:
256,192,46201,1,8,0:0:0:0:
256,192,46458,1,0,0:0:0:0:
256,192,46544,1,0,0:0:0:0:
256,192,46716,1,0,0:0:0:0:
256,192,46887,1,8,0:0:0:0:
256,192,47230,1,0,0:0:0:0:
256,192,47573,1,8,0:0:0:0:
256,192,47744,1,0,0:0:0:0:
256,192,47830,1,8,0:0:0:0:
256,192,47916,1,0,0:0:0:0:
256,192,48087,1,0,0:0:0:0:
256,192,48173,1,0,0:0:0:0:
256,192,48258,1,8,0:0:0:0:
256,192,48430,1,8,0:0:0:0:
256,192,48601,1,0,0:0:0:0:
256,192,48944,1,8,0:0:0:0:
256,192,49116,1,8,0:0:0:0:
256,192,49201,1,8,0:0:0:0:
256,192,49287,1,0,0:0:0:0:
256,192,49458,1,0,0:0:0:0:
256,192,49630,1,8,0:0:0:0:
256,192,49973,1,0,0:0:0:0:
256,192,50144,1,0,0:0:0:0:
256,192,50230,1,0,0:0:0:0:
256,192,50316,1,8,0:0:0:0:
256,192,50487,1,0,0:0:0:0:
256,192,50573,1,8,0:0:0:0:
256,192,50658,1,0,0:0:0:0:
256,192,50744,1,8,0:0:0:0:
256,192,50830,1,0,0:0:0:0:
256,192,51001,1,8,0:0:0:0:
256,192,51173,1,8,0:0:0:0:
256,192,51344,1,0,0:0:0:0:
256,192,51687,1,8,0:0:0:0:
256,192,51858,1,0,0:0:0:0:
256,192,51944,1,0,0:0:0:0:
256,192,52030,1,0,0:0:0:0:
256,192,52201,1,0,0:0:0:0:
256,192,52373,1,8,0:0:0:0:
256,192,52716,1,0,0:0:0:0:
256,192,52887,1,8,0:0:0:0:
256,192,52973,1,0,0:0:0:0:
256,192,53058,1,8,0:0:0:0:
256,192,53230,1,0,0:0:0:0:
256,192,53401,1,0,0:0:0:0:
256,192,53487,1,0,0:0:0:0:
256,192,53573,1,8,0:0:0:0:
256,192,53744,1,8,0:0:0:0:
256,192,53916,1,8,0:0:0:0:
256,192,54087,1,0,0:0:0:0:
256,192,54430,1,8,0:0:0:0:
256,192,54601,1,0,0:0:0:0:
256,192,54687,1,8,0:0:0:0:
256,192,54773,1,0,0:0:0:0:
256,192,54944,1,0,0:0:0:0:
256,192,55116,1,8,0:0:0:0:
256,192,55458,1,0,0:0:0:0:
256,192,55544,1,0,0:0:0:0:
256,192,55630,1,0,0:0:0:0:
256,192,55801,1,8,0:0:0:0:
256,192,55973,1,8,0:0:0:0:
256,192,56058,1,8,0:0:0:0:
256,192,56144,1,0,0:0:0:0:
256,192,56316,1,0,0:0:0:0:
256,192,56487,1,8,0:0:0:0:
256,192,56830,1,0,0:0:0:0:
256,192,56916,1,0,0:0:0:0:
256,192,57001,1,0,0:0:0:0:
256,192,57087,1,0,0:0:0:0:
256,192,57173,1,8,0:0:0:0:
256,192,57344,1,0,0:0:0:0:
256,192,57516,1,8,0:0:0:0:
256,192,57601,1,8,0:0:0:0:
256,192,57687,1,0,0:0:0:0:
256,192,57773,1,0,0:0:0:0:
256,192,57858,1,8,0:0:0:0:
256,192,58030,1,0,0:0:0:0:
256,192,58116,1,0,0:0:0:0:
256,192,58201,1,8,0:0:0:0:
256,192,58373,1,0,0:0:0:0:
256,192,58458,1,0,0:0:0:0:
256,192,58544,1,8,0:0:0:0:
256,192,58716,1,0,0:0:0:0:
256,192,58801,1,0,0:0:0:0:
256,192,58887,1,8,0:0:0:0:
256,192,58973,1,8,0:0:0:0:
256,192,59058,1,0,0:0:0:0:
256,192,59230,1,12,0:0:0:0:
256,192,59573,1,0,0:0:0:0:
256,192,59830,1,0,0:0:0:0:
256,192,59916,1,8,0:0:0:0:
256,192,60087,1,0,0:0:0:0:
256,192,60173,1,0,0:0:0:0:
256,192,60258,1,0,0:0:0:0:
256,192,60430,1,0,0:0:0:0:
256,192,60601,1,8,0:0:0:0:
256,192,60944,1,0,0:0:0:0:
256,192,61116,1,8,0:0:0:0:
256,192,61201,1,0,0:0:0:0:
256,192,61287,1,8,0:0:0:0:
256,192,61458,1,0,0:0:0:0:
256,192,61544,1,0,0:0:0:0:
256,192,61630,1,0,0:0:0:0:
256,192,61716,1,8,0:0:0:0:
256,192,61801,1,0,0:0:0:0:
256,192,61973,1,8,0:0:0:0:
256,192,62144,1,8,0:0:0:0:
256,192,62230,1,8,0:0:0:0:
256,192,62316,1,0,0:0:0:0:
256,192,62573,1,0,0:0:0:0:
256,192,62658,1,8,0:0:0:0:
256,192,62830,1,0,0:0:0:0:
256,192,62916,1,0,0:0:0:0:
256,192,63001,1,0,0:0:0:0:
256,192,63173,1,0,0:0:0:0:
256,192,63344,1,8,0:0:0:0:
256,192,63516,1,8,0:0:0:0:
256,192,63601,1,8,0:0:0:0:
256,192,63687,1,0,0:0:0:0:
256,192,63858,1,0,0:0:0:0:
256,192,63944,1,0,0:0:0:0:
256,192,64030,1,8,0:0:0:0:
256,192,64201,1,0,0:0:0:0:
256,192,64373,1,0,0:0:0:0:
256,192,64458,1,0,0:0:0:0:
256,192,64544,1,8,0:0:0:0:
256,192,64716,1,8,0:0:0:0:
256,192,64887,1,8,0:0:0:0:
256,192,65058,1,0,0:0:0:0:
256,192,65316,1,0,0:0:0:0:
256,192,65401,1,8,0:0:0:0:
256,192,65573,1,0,0:0:0:0:
256,192,65658,1,0,0:0:0:0:
256,192,65744,1,0,0:0:0:0:
256,192,65916,1,0,0:0:0:0:
256,192,66001,1,0,0:0:0:0:
256,192,66087,1,8,0:0:0:0:
256,192,66173,1,8,0:0:0:0:
256,192,66258,1,0,0:0:0:0:
256,192,66430,1,0,0:0:0:0:
256,192,66601,1,8,0:0:0:0:
256,192,66687,1,0,0:0:0:0:
256,192,66773,1,8,0:0:0:0:
256,192,66944,1,0,0:0:0:0:
256,192,67287,1,0,0:0:0:0:
256,192,67373,1,0,0:0:0:0:
256,192,67458,1,8,0:0:0:0:
256,192,67630,1,8,0:0:0:0:
256,192,67801,1,0,0:0:0:0:
256,192,68058,1,0,0:0:0:0:
256,192,68144,1,8,0:0:0:0:
256,192,68316,1,0,0:0:0:0:
256,192,68487,1,8,0:0:0:0:
256,192,68573,1,0,0:0:0:0:
256,192,68658,1,8,0:0:0:0:
256,192,68744,1,8,0:0:0:0:
256,192,68830,1,8,0:0:0:0:
256,192,69001,1,8,0:0:0:0:
256,192,69173,1,0,0:0:0:0:
256,192,69344,1,0,0:0:0:0:
256,192,69430,1,0,0:0:0:0:
256,192,69516,1,8,0:0:0:0:
256,192,69687,1,8,0:0:0:0:
256,192,69858,1,0,0:0:0:0:
256,192,70030,1,8,0:0:0:0:
256,192,70116,1,0,0:0:0:0:
256,192,70201,1,8,0:0:0:0:
256,192,70287,1,8,0:0:0:0:
256,192,70373,1,0,0:0:0:0:
256,192,70544,1,12,0:0:0:0:
256,192,70801,1,0,0:0:0:0:
256,192,70887,1,8,0:0:0:0:
256,192,71058,1,0,0:0:0:0:
256,192,71144,1,8,0:0:0:0:
256,192,71230,1,0,0:0:0:0:
256,192,71401,1,0,0:0:0:0:
256,192,71573,1,8,0:0:0:0:
256,192,71916,1,0,0:0:0:0:
256,192,72087,1,8,0:0:0:0:
256,192,72173,1,8,0:0:0:0:
256,192,72258,1,8,0:0:0:0:
256,192,72430,1,0,0:0:0:0:
256,192,72516,1,8,0:0:0:0:
256,192,72601,1,0,0:0:0:0:
256,192,72773,1,0,0:0:0:0:
256,192,72944,1,8,0:0:0:0:
256,192,73030,1,0,0:0:0:0:
256,192,73116,1,8,0:0:0:0:
256,192,73287,1,0,0:0:0:0:
256,192,73544,1,0,0:0:0:0:
256,192,73630,1,8,0:0:0:0:
256,192,73801,1,0,0:0:0:0:
256,192,73887,1,0,0:0:0:0:
256,192,73973,1,0,0:0:0:0:
256,192,74058,1,8,0:0:0:0:
256,192,74144,1,0,0:0:0:0:
256,192,74316,1,8,0:0:0:0:
256,192,74487,1,0,0:0:0:0:
256,192,74658,1,0,0:0:0:0:
256,192,74830,1,8,0:0:0:0:
256,192,74916,1,0,0:0:0:0:
256,192,75001,1,8,0:0:0:0:
256,192,75173,1,0,0:0:0:0:
256,192,75516,1,0,0:0:0:0:
256,192,75601,1,0,0:0:0:0:
256,192,75687,1,8,0:0:0:0:
256,192,75773,1,0,0:0:0:0:
256,192,75858,1,8,0:0:0:0:
256,192,76030,1,0,0:0:0:0:
256,192,76287,1,0,0:0:0:0:
256,192,76373,1,8,0:0:0:0:
256,192,76544,1,8,0:0:0:0:
256,192,76630,1,8,0:0:0:0:
256,192,76716,1,0,0:0:0:0:
256,192,76887,1,0,0:0:0:0:
256,192,77058,1,8,0:0:0:0:
256,192,77230,1,0,0:0:0:0:
256,192,77316,1,8,0:0:0:0:
256,192,77401,1,0,0:0:0:0:
256,192,77573,1,0,0:0:0:0:
256,192,77658,1,0,0:0:0:0:
256,192,77744,1,8,0:0:0:0:
256,192,77916,1,0,0:0:0:0:
256,192,78087,1,0,0:0:0:0:
256,192,78173,1,8,0:0:0:0:
256,192,78258,1,0,0:0:0:0:
256,192,78344,1,0,0:0:0:0:
256,192,78430,1,8,0:0:0:0:
256,192,78601,1,8,0:0:0:0:
256,192,78773,1,0,0:0:0:0:
256,192,78858,1,8,0:0:0:0:
256,192,78944,1,0,0:0:0:0:
256,192,79030,1,0,0:0:0:0:
256,192,79116,1,8,0:0:0:0:
256,192,79201,1,0,0:0:0:0:
256,192,79287,1,0,0:0:0:0:
256,192,79373,1,0,0:0:0:0:
256,192,79458,1,8,0:0:0:0:
256,192,79544,1,8,0:0:0:0:
256,192,79630,1,0,0:0:0:0:
256,192,79716,1,0,0:0:0:0:
256,192,79801,1,8,0:0:0:0:
256,192,79973,1,8,0:0:0:0:
256,192,80144,1,0,0:0:0:0:
256,192,80316,1,8,0:0:0:0:
256,192,80401,1,8,0:0:0:0:
256,192,80487,1,8,0:0:0:0:
256,192,80658,1,8,0:0:0:0:
256,192,80830,1,0,0:0:0:0:
256,192,80916,1,8,0:0:0:0:
256,192,81001,1,8,0:0:0:0:
256,192,81087,1,0,0:0:0:0:
256,192,81173,1,8,0:0:0:0:
256,192,81258,1,8,0:0:0:0:
256,192,81344,1,0,0:0:0:0:
256,192,81516,1,4,0:0:0:0:
256,192,81687,1,0,0:0:0:0:
256,192,81773,1,0,0:0:0:0:
256,192,81858,1,8,0:0:0:0:
256,192,82030,1,0,0:0:0:0:
256,192,82116,1,8,0:0:0:0:
256,192,82201,1,0,0:0:0:0:
256,192,82287,1,8,0:0:0:0:
256,192,82373,1,0,0:0:0:0:
256,192,82544,1,8,0:0:0:0:
256,192,82716,1,8,0:0:0:0:
256,192,82887,1,0,0:0:0:0:
256,192,83058,1,0,0:0:0:0:
256,192,83144,1,0,0:0:0:0:
256,192,83230,1,8,0:0:0:0:
256,192,83401,1,0,0:0:0:0:
256,192,83487,1,0,0:0:0:0:
256,192,83573,1,8,0:0:0:0:
256,192,83658,1,8,0:0:0:0:
256,192,83744,1,0,0:0:0:0:
256,192,83916,1,8,0:0:0:0:
256,192,84087,1,0,0:0:0:0:
256,192,84173,1,8,0:0:0:0:
256,192,84258,1,0,0:0:0:0:
256,192,84430,1,0,0:0:0:0:
256,192,84601,1,8,0:0:0:0:
256,192,84773,1,0,0:0:0:0:
256,192,84858,1,8,0:0:0:0:
256,192,84944,1,8,0:0:0:0:
256,192,85030,1,0,0:0:0:0:
256,192,85116,1,8,0:0:0:0:
256,192,85287,1,8,0:0:0:0:
256,192,85458,1,0,0:0:0:0:
256,192,85630,1,0,0:0:0:0:
256,192,85801,1,0,0:0:0:0:
256,192,85887,1,0,0:0:0:0:
256,192,85973,1,8,0:0:0:0:
256,192,86144,1,0,0:0:0:0:
256,192,86230,1,0,0:0:0:0:
256,192,86316,1,0,0:0:0:0:
256,192,86401,1,8,0:0:0:0:
256,192,86487,1,0,0:0:0:0:
256,192,86573,1,0,0:0:0:0:
256,192,86658,1,8,0:0:0:0:
256,192,86830,1,8,0:0:0:0:
256,192,87001,1,0,0:0:0:0:
256,192,87173,1,0,0:0:0:0:
256,192,87258,1,0,0:0:0:0:
256,192,87344,1,8,0:0:0:0:
256,192,87516,1,0,0:0:0:0:
256,192,87687,1,8,0:0:0:0:
256,192,87858,1,8,0:0:0:0:
256,192,87944,1,0,0:0:0:0:
256,192,88030,1,8,0:0:0:0:
256,192,88201,1,8,0:0:0:0:
256,192,88373,1,0,0:0:0:0:
256,192,88544,1,0,0:0:0:0:
256,192,88630,1,0,0:0:0:0:
256,192,88716,1,8,0:0:0:0:
256,192,88801,1,8,0:0:0:0:
256,192,88887,1,0,0:0:0:0:
256,192,88973,1,0,0:0:0:0:
256,192,89058,1,8,0:0:0:0:
256,192,89144,1,0,0:0:0:0:
256,192,89230,1,0,0:0:0:0:
256,192,89401,1,8,0:0:0:0:
256,192,89573,1,0,0:0:0:0:
256,192,89658,1,8,0:0:0:0:
256,192,89744,1,0,0:0:0:0:
256,192,89916,1,0,0:0:0:0:
256,192,90087,1,8,0:0:0:0:
256,192,90258,1,8,0:0:0:0:
256,192,90344,1,8,0:0:0:0:
256,192,90430,1,0,0:0:0:0:
256,192,90516,1,8,0:0:0:0:
256,192,90601,1,0,0:0:0:0:
256,192,90773,1,8,0:0:0:0:
256,192,90858,1,8,0:0:0:0:
256,192,90944,1,0,0:0:0:0:
256,192,91116,1,0,0:0:0:0:
256,192,91201,1,0,0:0:0:0:
256,192,91287,1,0,0:0:0:0:
256,192,91373,1,0,0:0:0:0:
256,192,91458,1,8,0:0:0:0:
256,192,91630,1,0,0:0:0:0:
256,192,91716,1,0,0:0:0:0:
256,192,91801,1,8,0:0:0:0:
256,192,91973,1,0,0:0:0:0:
256,192,92058,1,0,0:0:0:0:
256,192,92144,1,8,0:0:0:0:
256,192,92230,1,8,0:0:0:0:
256,192,92316,1,0,0:0:0:0:
256,192,92401,1,8,0:0:0:0:
256,192,92487,1,0,0:0:0:0:
256,192,92658,1,0,0:0:0:0:
256,192,92830,1,8,0:0:0:0:
256,192,93001,1,0,0:0:0:0:
256,192,93087,1,8,0:0:0:0:
256,192,93173,1,0,0:0:0:0:
256,192,93344,1,0,0:0:0:0:
256,192,93516,1,8,0:0:0:0:
256,192,93687,1,8,0:0:0:0:
256,192,93773,1,8,0:0:0:0:
256,192,93858,1,0,0:0:0:0:
256,192,94030,1,0,0:0:0:0:
256,192,94116,1,0,0:0:0:0:
256,192,94201,1,8,0:0:0:0:
256,192,94373,1,0,0:0:0:0:
256,192,94458,1,0,0:0:0:0:
256,192,94544,1,8,0:0:0:0:
256,192,94630,1,8,0:0:0:0:
256,192,94716,1,0,0:0:0:0:
256,192,94801,1,8,0:0:0:0:
256,192,94887,1,0,0:0:0:0:
256,192,95058,1,8,0:0:0:0:
256,192,95230,1,0,0:0:0:0:
256,192,95401,1,0,0:0:0:0:
256,192,95573,1,8,0:0:0:0:
256,192,95744,1,8,0:0:0:0:
256,192,95830,1,0,0:0:0:0:
256,192,95916,1,8,0:0:0:0:
256,192,96001,1,8,0:0:0:0:
256,192,96087,1,0,0:0:0:0:
256,192,96258,1,8,0:0:0:0:
256,192,96430,1,0,0:0:0:0:
256,192,96516,1,8,0:0:0:0:
256,192,96601,1,0,0:0:0:0:
256,192,96773,1,8,0:0:0:0:
256,192,96858,1,8,0:0:0:0:
256,192,96944,1,8,0:0:0:0:
256,192,97030,1,0,0:0:0:0:
256,192,97116,1,0,0:0:0:0:
256,192,97201,1,0,0:0:0:0:
256,192,97287,1,8,0:0:0:0:
256,192,97373,1,8,0:0:0:0:
256,192,97458,1,0,0:0:0:0:
256,192,97544,1,0,0:0:0:0:
256,192,97630,1,8,0:0:0:0:
256,192,97801,1,8,0:0:0:0:
256,192,97887,1,8,0:0:0:0:
256,192,97973,1,0,0:0:0:0:
256,192,98144,1,0,0:0:0:0:
256,192,98316,1,8,0:0:0:0:
256,192,98487,1,0,0:0:0:0:
256,192,98573,1,8,0:0:0:0:
256,192,98658,1,0,0:0:0:0:
256,192,98744,1,0,0:0:0:0:
256,192,98830,1,8,0:0:0:0:
256,192,99001,1,8,0:0:0:0:
256,192,99173,1,0,0:0:0:0:
256,192,99344,1,8,0:0:0:0:
256,192,99430,1,8,0:0:0:0:
256,192,99516,1,0,0:0:0:0:
256,192,99687,1,8,0:0:0:0:
256,192,99773,1,0,0:0:0:0:
256,192,99858,1,8,0:0:0:0:
256,192,99944,1,8,0:0:0:0:
256,192,100030,1,0,0:0:0:0:
256,192,100116,1,8,0:0:0:0:
256,192,100201,1,8,0:0:0:0:
256,192,100287,1,0,0:0:0:0:
256,192,100373,1,8,0:0:0:0:
256,192,100544,1,8,0:0:0:0:
256,192,100716,1,0,0:0:0:0:
256,192,100887,1,0,0:0:0:0:
256,192,100973,1,0,0:0:0:0:
256,192,101058,1,8,0:0:0:0:
256,192,101144,1,8,0:0:0:0:
256,192,101230,1,0,0:0:0:0:
256,192,101316,1,8,0:0:0:0:
256,192,101401,1,0,0:0:0:0:
256,192,101573,1,0,0:0:0:0:
256,192,101744,1,8,0:0:0:0:
256,192,101830,1,8,0:0:0:0:
256,192,101916,1,0,0:0:0:0:
256,192,102087,1,0,0:0:0:0:
256,192,102258,1,0,0:0:0:0:
256,192,102344,1,0,0:0:0:0:
256,192,102430,1,8,0:0:0:0:
256,192,102516,1,8,0:0:0:0:
256,192,102601,1,0,0:0:0:0:
256,192,102687,1,0,0:0:0:0:
256,192,102773,1,8,0:0:0:0:
256,192,102858,1,8,0:0:0:0:
256,192,102944,1,0,0:0:0:0:
256,192,103030,1,0,0:0:0:0:
256,192,103116,1,8,0:0:0:0:
256,192,103287,1,8,0:0:0:0:
256,192,103458,1,4,0:0:0:0:
256,192,103716,1,0,0:0:0:0:
256,192,103801,1,8,0:0:0:0:
256,192,103973,1,0,0:0:0:0:
256,192,104058,1,8,0:0:0:0:
256,192,104144,1,0,0:0:0:0:
256,192,104316,1,0,0:0:0:0:
256,192,104487,1,8,0:0:0:0:
256,192,104658,1,8,0:0:0:0:
256,192,104744,1,8,0:0:0:0:
256,192,104830,1,0,0:0:0:0:
256,192,105001,1,0,0:0:0:0:
256,192,105173,1,8,0:0:0:0:
256,192,105344,1,0,0:0:0:0:
256,192,105430,1,8,0:0:0:0:
256,192,105516,1,8,0:0:0:0:
256,192,105687,1,0,0:0:0:0:
256,192,105858,1,8,0:0:0:0:
256,192,106030,1,8,0:0:0:0:
256,192,106201,1,0,0:0:0:0:
256,192,106458,1,0,0:0:0:0:
256,192,106544,1,8,0:0:0:0:
256,192,106716,1,8,0:0:0:0:
256,192,106801,1,0,0:0:0:0:
256,192,106887,1,0,0:0:0:0:
256,192,107058,1,0,0:0:0:0:
256,192,107230,1,8,0:0:0:0:
256,192,107401,1,0,0:0:0:0:
256,192,107487,1,8,0:0:0:0:
256,192,107573,1,0,0:0:0:0:
256,192,107744,1,0,0:0:0:0:
256,192,107916,1,8,0:0:0:0:
256,192,108087,1,0,0:0:0:0:
256,192,108258,1,8,0:0:0:0:
256,192,108344,1,8,0:0:0:0:
256,192,108430,1,8,0:0:0:0:
256,192,108601,1,8,0:0:0:0:
256,192,108773,1,8,0:0:0:0:
256,192,108944,1,0,0:0:0:0:
256,192,109201,1,0,0:0:0:0:
256,192,109287,1,8,0:0:0:0:
256,192,109458,1,0,0:0:0:0:
256,192,109630,1,0,0:0:0:0:
256,192,109716,1,0,0:0:0:0:
256,192,109801,1,8,0:0:0:0:
256,192,109973,1,8,0:0:0:0:
256,192,110144,1,0,0:0:0:0:
256,192,110316,1,0,0:0:0:0:
256,192,110487,1,0,0:0:0:0:
256,192,110573,1,0,0:0:0:0:
256,192,110658,1,8,0:0:0:0:
256,192,110830,1,0,0:0:0:0:
256,192,111001,1,8,0:0:0:0:
256,192,111173,1,8,0:0:0:0:
256,192,111258,1,0,0:0:0:0:
256,192,111344,1,0,0:0:0:0:
256,192,111516,1,8,0:0:0:0:
256,192,111687,1,0,0:0:0:0:
256,192,111944,1,0,0:0:0:0:
256,192,112030,1,8,0:0:0:0:
256,192,112201,1,0,0:0:0:0:
256,192,112373,1,8,0:0:0:0:
256,192,112458,1,0,0:0:0:0:
256,192,112544,1,0,0:0:0:0:
256,192,112716,1,8,0:0:0:0:
256,192,112887,1,8,0:0:0:0:
256,192,113058,1,0,0:0:0:0:
256,192,113230,1,0,0:0:0:0:
256,192,113316,1,0,0:0:0:0:
256,192,113401,1,8,0:0:0:0:
256,192,113573,1,8,0:0:0:0:
256,192,113744,1,0,0:0:0:0:
256,192,113916,1,8,0:0:0:0:
256,192,114001,1,0,0:0:0:0:
256,192,114087,1,8,0:0:0:0:
256,192,114173,1,8,0:0:0:0:
256,192,114258,1,0,0:0:0:0:
256,192,114430,1,12,0:0:0:0:
256,192,114687,1,0,0:0:0:0:
256,192,114773,1,8,0:0:0:0:
256,192,114944,1,0,0:0:0:0:
256,192,115116,1,0,0:0:0:0:
256,192,115201,1,0,0:0:0:0:
256,192,115287,1,0,0:0:0:0:
256,192,115458,1,8,0:0:0:0:
256,192,115630,1,8,0:0:0:0:
256,192,115801,1,0,0:0:0:0:
256,192,115887,1,0,0:0:0:0:
256,192,115973,1,0,0:0:0:0:
256,192,116144,1,8,0:0:0:0:
256,192,116316,1,8,0:0:0:0:
256,192,116401,1,8,0:0:0:0:
256,192,116487,1,0,0:0:0:0:
256,192,116658,1,0,0:0:0:0:
256,192,116744,1,0,0:0:0:0:
256,192,116830,1,8,0:0:0:0:
256,192,117001,1,8,0:0:0:0:
256,192,117173,1,0,0:0:0:0:
256,192,117430,1,0,0:0:0:0:
256,192,117516,1,8,0:0:0:0:
256,192,117687,1,0,0:0:0:0:
256,192,117773,1,8,0:0:0:0:
256,192,117858,1,0,0:0:0:0:
256,192,118030,1,0,0:0:0:0:
256,192,118201,1,8,0:0:0:0:
256,192,118373,1,0,0:0:0:0:
256,192,118458,1,0,0:0:0:0:
256,192,118544,1,0,0:0:0:0:
256,192,118716,1,0,0:0:0:0:
256,192,118801,1,0,0:0:0:0:
256,192,118887,1,8,0:0:0:0:
256,192,119058,1,0,0:0:0:0:
256,192,119230,1,0,0:0:0:0:
256,192,119401,1,0,0:0:0:0:
256,192,119487,1,0,0:0:0:0:
256,192,119573,1,8,0:0:0:0:
256,192,119658,1,0,0:0:0:0:
256,192,119744,1,8,0:0:0:0:
256,192,119916,1,0,0:0:0:0:
256,192,120173,1,0,0:0:0:0:
256,192,120258,1,8,0:0:0:0:
256,192,120430,1,0,0:0:0:0:
256,192,120516,1,0,0:0:0:0:
256,192,120601,1,0,0:0:0:0:
256,192,120773,1,0,0:0:0:0:
256,192,120944,1,8,0:0:0:0:
256,192,121116,1,8,0:0:0:0:
256,192,121201,1,8,0:0:0:0:
256,192,121287,1,0,0:0:0:0:
256,192,121373,1,0,0:0:0:0:
256,192,121458,1,0,0:0:0:0:
256,192,121544,1,0,0:0:0:0:
256,192,121630,1,8,0:0:0:0:
256,192,121801,1,0,0:0:0:0:
256,192,121887,1,0,0:0:0:0:
256,192,121973,1,0,0:0:0:0:
256,192,122058,1,0,0:0:0:0:
256,192,122144,1,0,0:0:0:0:
256,192,122230,1,0,0:0:0:0:
256,192,122316,1,8,0:0:0:0:
256,192,122487,1,8,0:0:0:0:
256,192,122658,1,0,0:0:0:0:
256,192,122744,1,0,0:0:0:0:
256,192,122830,1,0,0:0:0:0:
256,192,122916,1,0,0:0:0:0:
256,192,123001,1,8,0:0:0:0:
256,192,123087,1,8,0:0:0:0:
256,192,123173,1,0,0:0:0:0:
256,192,123258,1,0,0:0:0:0:
256,192,123344,1,0,0:0:0:0:
256,192,123430,1,0,0:0:0:0:
256,192,123516,1,0,0:0:0:0:
256,192,123601,1,0,0:0:0:0:
256,192,123687,1,8,0:0:0:0:
256,192,123858,1,0,0:0:0:0:
256,192,123944,1,8,0:0:0:0:
256,192,124030,1,0,0:0:0:0:
256,192,124116,1,0,0:0:0:0:
256,192,124201,1,8,0:0:0:0:
256,192,124287,1,8,0:0:0:0:
256,192,124373,1,0,0:0:0:0:
256,192,124458,1,0,0:0:0:0:
256,192,124544,1,8,0:0:0:0:
256,192,124630,1,0,0:0:0:0:
256,192,124716,1,8,0:0:0:0:
256,192,124801,1,8,0:0:0:0:
256,192,124887,1,8,0:0:0:0:
256,192,124973,1,0,0:0:0:0:
256,192,125058,1,8,0:0:0:0:
256,192,125144,1,8,0:0:0:0:
256,192,125230,1,0,0:0:0:0:
256,192,125401,1,4,0:0:0:0:
256,192,125658,1,0,0:0:0:0:
256,192,125744,1,8,0:0:0:0:
256,192,125916,1,8,0:0:0:0:
256,192,126001,1,8,0:0:0:0:
256,192,126087,1,0,0:0:0:0:
256,192,126258,1,0,0:0:0:0:
256,192,126430,1,8,0:0:0:0:
256,192,126601,1,0,0:0:0:0:
256,192,126687,1,8,0:0:0:0:
256,192,126773,1,0,0:0:0:0:
256,192,126858,1,8,0:0:0:0:
256,192,126944,1,0,0:0:0:0:
256,192,127116,1,8,0:0:0:0:
256,192,127287,1,8,0:0:0:0:
256,192,127373,1,0,0:0:0:0:
256,192,127458,1,8,0:0:0:0:
256,192,127544,1,8,0:0:0:0:
256,192,127630,1,0,0:0:0:0:
256,192,127716,1,0,0:0:0:0:
256,192,127801,1,8,0:0:0:0:
256,192,127973,1,8,0:0:0:0:
256,192,128058,1,8,0:0:0:0:
256,192,128144,1,0,0:0:0:0:
256,192,128316,1,0,0:0:0:0:
256,192,128487,1,8,0:0:0:0:
256,192,128658,1,0,0:0:0:0:
256,192,128744,1,8,0:0:0:0:
256,192,128830,1,8,0:0:0:0:
256,192,128916,1,0,0:0:0:0:
256,192,129001,1,0,0:0:0:0:
256,192,129173,1,8,0:0:0:0:
256,192,129344,1,8,0:0:0:0:
256,192,129430,1,8,0:0:0:0:
256,192,129516,1,0,0:0:0:0:
256,192,129687,1,0,0:0:0:0:
256,192,129858,1,8,0:0:0:0:
256,192,130030,1,0,0:0:0:0:
256,192,130116,1,0,0:0:0:0:
256,192,130201,1,8,0:0:0:0:
256,192,130287,1,0,0:0:0:0:
256,192,130373,1,8,0:0:0:0:
256,192,130458,1,8,0:0:0:0:
256,192,130544,1,0,0:0:0:0:
256,192,130716,1,0,0:0:0:0:
256,192,130801,1,8,0:0:0:0:
256,192,130887,1,0,0:0:0:0:
256,192,131058,1,0,0:0:0:0:
256,192,131230,1,8,0:0:0:0:
256,192,131401,1,8,0:0:0:0:
256,192,131487,1,8,0:0:0:0:
256,192,131573,1,8,0:0:0:0:
256,192,131658,1,0,0:0:0:0:
256,192,131744,1,0,0:0:0:0:
256,192,131916,1,8,0:0:0:0:
256,192,132087,1,0,0:0:0:0:
256,192,132258,1,8,0:0:0:0:
256,192,132430,1,0,0:0:0:0:
256,192,132516,1,0,0:0:0:0:
256,192,132601,1,8,0:0:0:0:
256,192,132773,1,0,0:0:0:0:
256,192,132858,1,0,0:0:0:0:
256,192,132944,1,8,0:0:0:0:
256,192,133030,1,0,0:0:0:0:
256,192,133116,1,8,0:0:0:0:
256,192,133201,1,8,0:0:0:0:
256,192,133287,1,8,0:0:0:0:
256,192,133458,1,8,0:0:0:0:
256,192,133630,1,0,0:0:0:0:
256,192,133801,1,8,0:0:0:0:
256,192,133887,1,8,0:0:0:0:
256,192,133973,1,0,0:0:0:0:
256,192,134144,1,8,0:0:0:0:
256,192,134316,1,0,0:0:0:0:
256,192,134401,1,0,0:0:0:0:
256,192,134487,1,8,0:0:0:0:
256,192,134573,1,8,0:0:0:0:
256,192,134658,1,0,0:0:0:0:
256,192,134830,1,8,0:0:0:0:
256,192,134916,1,8,0:0:0:0:
256,192,135001,1,0,0:0:0:0:
256,192,135173,1,0,0:0:0:0:
256,192,135258,1,8,0:0:0:0:
256,192,135344,1,0,0:0:0:0:
256,192,135430,1,8,0:0:0:0:
256,192,135516,1,8,0:0:0:0:
256,192,135601,1,8,0:0:0:0:
256,192,135687,1,0,0:0:0:0:
256,192,135773,1,8,0:0:0:0:
256,192,135858,1,0,0:0:0:0:
256,192,135944,1,8,0:0:0:0:
256,192,136030,1,0,0:0:0:0:
256,192,136201,1,8,0:0:0:0:
256,192,136373,1,4,0:0:0:0:
256,192,136630,1,8,0:0:0:0:
256,192,136716,1,0,0:0:0:0:
256,192,136887,1,8,0:0:0:0:
256,192,137058,1,0,0:0:0:0:
256,192,137144,1,8,0:0:0:0:
256,192,137230,1,8,0:0:0:0:
256,192,137316,1,8,0:0:0:0:
256,192,137401,1,0,0:0:0:0:
256,192,137573,1,8,0:0:0:0:
256,192,137744,1,0,0:0:0:0:
256,192,137916,1,0,0:0:0:0:
256,192,138001,1,0,0:0:0:0:
256,192,138087,1,8,0:0:0:0:
256,192,138258,1,8,0:0:0:0:
256,192,138430,1,8,0:0:0:0:
256,192,138516,1,0,0:0:0:0:
256,192,138601,1,0,0:0:0:0:
256,192,138687,1,0,0:0:0:0:
256,192,138773,1,8,0:0:0:0:
256,192,138944,1,0,0:0:0:0:
256,192,139030,1,8,0:0:0:0:
256,192,139116,1,0,0:0:0:0:
256,192,139287,1,0,0:0:0:0:
256,192,139458,1,8,0:0:0:0:
256,192,139630,1,8,0:0:0:0:
256,192,139801,1,8,0:0:0:0:
256,192,139887,1,0,0:0:0:0:
256,192,139973,1,8,0:0:0:0:
256,192,140058,1,8,0:0:0:0:
256,192,140144,1,0,0:0:0:0:
256,192,140316,1,8,0:0:0:0:
256,192,140487,1,0,0:0:0:0:
256,192,140658,1,0,0:0:0:0:
256,192,140830,1,8,0:0:0:0:
256,192,141001,1,0,0:0:0:0:
256,192,141087,1,0,0:0:0:0:
256,192,141173,1,8,0:0:0:0:
256,192,141258,1,8,0:0:0:0:
256,192,141344,1,8,0:0:0:0:
256,192,141430,1,0,0:0:0:0:
256,192,141516,1,8,0:0:0:0:
256,192,141687,1,0,0:0:0:0:
256,192,141773,1,8,0:0:0:0:
256,192,141858,1,0,0:0:0:0:
256,192,142030,1,0,0:0:0:0:
256,192,142201,1,8,0:0:0:0:
256,192,142373,1,8,0:0:0:0:
256,192,142458,1,8,0:0:0:0:
256,192,142544,1,0,0:0:0:0:
256,192,142630,1,8,0:0:0:0:
256,192,142716,1,0,0:0:0:0:
256,192,142887,1,8,0:0:0:0:
256,192,143058,1,0,0:0:0:0:
256,192,143230,1,0,0:0:0:0:
256,192,143401,1,0,0:0:0:0:
256,192,143487,1,8,0:0:0:0:
256,192,143573,1,0,0:0:0:0:
256,192,143744,1,8,0:0:0:0:
256,192,143830,1,8,0:0:0:0:
256,192,143916,1,0,0:0:0:0:
256,192,144001,1,0,0:0:0:0:
256,192,144087,1,0,0:0:0:0:
256,192,144173,1,8,0:0:0:0:
256,192,144258,1,0,0:0:0:0:
256,192,144430,1,8,0:0:0:0:
256,192,144601,1,0,0:0:0:0:
256,192,144773,1,8,0:0:0:0:
256,192,144858,1,8,0:0:0:0:
256,192,144944,1,0,0:0:0:0:
256,192,145030,1,0,0:0:0:0:
256,192,145116,1,8,0:0:0:0:
256,192,145201,1,8,0:0:0:0:
256,192,145287,1,0,0:0:0:0:
256,192,145458,1,8,0:0:0:0:
256,192,145630,1,0,0:0:0:0:
256,192,145716,1,0,0:0:0:0:
256,192,145801,1,8,0:0:0:0:
256,192,145973,1,8,0:0:0:0:
256,192,146144,1,0,0:0:0:0:
256,192,146230,1,0,0:0:0:0:
256,192,146316,1,8,0:0:0:0:
256,192,146401,1,8,0:0:0:0:
256,192,146487,1,0,0:0:0:0:
256,192,146573,1,0,0:0:0:0:
256,192,146658,1,8,0:0:0:0:
256,192,146744,1,0,0:0:0:0:
256,192,146830,1,0,0:0:0:0:
256,192,146916,1,0,0:0:0:0:
256,192,147001,1,8,0:0:0:0:
256,192,147173,1,8,0:0:0:0:
256,192,147344,1,4,0:0:0:0:
256,192,147516,1,0,0:0:0:0:
256,192,147601,1,0,0:0:0:0:
256,192,147687,1,8,0:0:0:0:
256,192,147858,1,8,0:0:0:0:
256,192,147944,1,8,0:0:0:0:
256,192,148030,1,0,0:0:0:0:
256,192,148116,1,8,0:0:0:0:
256,192,148201,1,0,0:0:0:0:
256,192,148373,1,8,0:0:0:0:
256,192,148458,1,8,0:0:0:0:
256,192,148544,1,0,0:0:0:0:
256,192,148716,1,0,0:0:0:0:
256,192,148887,1,0,0:0:0:0:
256,192,148973,1,0,0:0:0:0:
256,192,149058,1,8,0:0:0:0:
256,192,149144,1,8,0:0:0:0:
256,192,149230,1,0,0:0:0:0:
256,192,149316,1,0,0:0:0:0:
256,192,149401,1,8,0:0:0:0:
256,192,149487,1,0,0:0:0:0:
256,192,149573,1,0,0:0:0:0:
256,192,149744,1,8,0:0:0:0:
256,192,149916,1,0,0:0:0:0:
256,192,150001,1,8,0:0:0:0:
256,192,150087,1,0,0:0:0:0:
256,192,150258,1,0,0:0:0:0:
256,192,150430,1,8,0:0:0:0:
256,192,150601,1,0,0:0:0:0:
256,192,150687,1,8,0:0:0:0:
256,192,150773,1,0,0:0:0:0:
256,192,150858,1,8,0:0:0:0:
256,192,150944,1,8,0:0:0:0:
256,192,151030,1,0,0:0:0:0:
256,192,151116,1,8,0:0:0:0:
256,192,151287,1,0,0:0:0:0:
256,192,151458,1,8,0:0:0:0:
256,192,151630,1,0,0:0:0:0:
256,192,151716,1,8,0:0:0:0:
256,192,151801,1,0,0:0:0:0:
256,192,151887,1,0,0:0:0:0:
256,192,151973,1,0,0:0:0:0:
256,192,152058,1,0,0:0:0:0:
256,192,152144,1,8,0:0:0:0:
256,192,152230,1,8,0:0:0:0:
256,192,152316,1,8,0:0:0:0:
256,192,152401,1,8,0:0:0:0:
256,192,152487,1,0,0:0:0:0:
256,192,152658,1,8,0:0:0:0:
256,192,152830,1,0,0:0:0:0:
256,192,153001,1,0,0:0:0:0:
256,192,153087,1,0,0:0:0:0:
256,192,153173,1,8,0:0:0:0:
256,192,153344,1,8,0:0:0:0:
256,192,153430,1,8,0:0:0:0:
256,192,153516,1,0,0:0:0:0:
256,192,153601,1,0,0:0:0:0:
256,192,153687,1,0,0:0:0:0:
256,192,153858,1,8,0:0:0:0:
256,192,154030,1,0,0:0:0:0:
256,192,154201,1,0,0:0:0:0:
256,192,154287,1,0,0:0:0:0:
256,192,154373,1,0,0:0:0:0:
256,192,154544,1,8,0:0:0:0:
256,192,154630,1,8,0:0:0:0:
256,192,154716,1,8,0:0:0:0:
256,192,154801,1,0,0:0:0:0:
256,192,154887,1,8,0:0:0:0:
256,192,154973,1,8,0:0:0:0:
256,192,155058,1,0,0:0:0:0:
256,192,155230,1,8,0:0:0:0:
256,192,155401,1,0,0:0:0:0:
256,192,155487,1,8,0:0:0:0:
256,192,155573,1,0,0:0:0:0:
256,192,155744,1,0,0:0:0:0:
256,192,155916,1,8,0:0:0:0:
256,192,156001,1,8,0:0:0:0:
256,192,156087,1,8,0:0:0:0:
256,192,156258,1,0,0:0:0:0:
256,192,156344,1,8,0:0:0:0:
256,192,156430,1,0,0:0:0:0:
256,192,156516,1,0,0:0:0:0:
256,192,156601,1,8,0:0:0:0:
256,192,156687,1,8,0:0:0:0:
256,192,156773,1,0,0:0:0:0:
256,192,156944,1,0,0:0:0:0:
256,192,157030,1,8,0:0:0:0:
256,192,157116,1,0,0:0:0:0:
256,192,157201,1,0,0:0:0:0:
256,192,157287,1,8,0:0:0:0:
256,192,157458,1,8,0:0:0:0:
256,192,157630,1,8,0:0:0:0:
256,192,157716,1,8,0:0:0:0:
256,192,157801,1,0,0:0:0:0:
256,192,157887,1,0,0:0:0:0:
256,192,157973,1,8,0:0:0:0:
256,192,158058,1,0,0:0:0:0:
256,192,158144,1,8,0:0:0:0:
256,192,158230,1,8,0:0:0:0:
256,192,158316,1,0,0:0:0:0:
256,192,158487,1,0,0:0:0:0:
256,192,158658,1,8,0:0:0:0:
256,192,158830,1,0,0:0:0:0:
256,192,158916,1,8,0:0:0:0:
256,192,159001,1,8,0:0:0:0:
256,192,159087,1,8,0:0:0:0:
256,192,159173,1,0,0:0:0:0:
256,192,159344,1,8,0:0:0:0:
256,192,159430,1,8,0:0:0:0:
256,192,159516,1,8,0:0:0:0:
256,192,159687,1,0,0:0:0:0:
256,192,159858,1,0,0:0:0:0:
256,192,159944,1,0,0:0:0:0:
256,192,160030,1,8,0:0:0:0:
256,192,160116,1,8,0:0:0:0:
256,192,160201,1,0,0:0:0:0:
256,192,160287,1,0,0:0:0:0:
256,192,160373,1,8,0:0:0:0:
256,192,160458,1,8,0:0:0:0:
256,192,160544,1,0,0:0:0:0:
256,192,160630,1,0,0:0:0:0:
256,192,160716,1,8,0:0:0:0:
256,192,160887,1,8,0:0:0:0:
256,192,160973,1,0,0:0:0:0:
256,192,161058,1,0,0:0:0:0:
256,192,161230,1,0,0:0:0:0:
256,192,161401,1,8,0:0:0:0:
256,192,161573,1,0,0:0:0:0:
256,192,161658,1,0,0:0:0:0:
256,192,161744,1,8,0:0:0:0:
256,192,161916,1,0,0:0:0:0:
256,192,162001,1,0,0:0:0:0:
256,192,162087,1,8,0:0:0:0:
256,192,162173,1,8,0:0:0:0:
256,192,162258,1,0,0:0:0:0:
256,192,162430,1,0,0:0:0:0:
256,192,162601,1,0,0:0:0:0:
256,192,162687,1,0,0:0:0:0:
256,192,162773,1,8,0:0:0:0:
256,192,162858,1,8,0:0:0:0:
256,192,162944,1,0,0:0:0:0:
256,192,163030,1,0,0:0:0:0:
256,192,163116,1,8,0:0:0:0:
256,192,163201,1,8,0:0:0:0:
256,192,163287,1,0,0:0:0:0:
256,192,163373,1,0,0:0:0:0:
256,192,163458,1,8,0:0:0:0:
256,192,163630,1,0,0:0:0:0:
256,192,163716,1,8,0:0:0:0:
256,192,163801,1,0,0:0:0:0:
256,192,163973,1,0,0:0:0:0:
256,192,164144,1,8,0:0:0:0:
256,192,164316,1,8,0:0:0:0:
256,192,164401,1,8,0:0:0:0:
256,192,164487,1,0,0:0:0:0:
256,192,164573,1,0,0:0:0:0:
256,192,164658,1,8,0:0:0:0:
256,192,164830,1,8,0:0:0:0:
256,192,165001,1,0,0:0:0:0:
256,192,165173,1,8,0:0:0:0:
256,192,165258,1,8,0:0:0:0:
256,192,165344,1,0,0:0:0:0:
256,192,165516,1,8,0:0:0:0:
256,192,165601,1,8,0:0:0:0:
256,192,165687,1,0,0:0:0:0:
256,192,165773,1,0,0:0:0:0:
256,192,165858,1,8,0:0:0:0:
256,192,165944,1,8,0:0:0:0:
256,192,166030,1,8,0:0:0:0:
256,192,166116,1,0,0:0:0:0:
256,192,166201,1,8,0:0:0:0:
256,192,166373,1,8,0:0:0:0:
256,192,166544,1,0,0:0:0:0:
256,192,166630,1,0,0:0:0:0:
256,192,166716,1,8,0:0:0:0:
256,192,166801,1,0,0:0:0:0:
256,192,166887,1,8,0:0:0:0:
256,192,166973,1,8,0:0:0:0:
256,192,167058,1,0,0:0:0:0:
256,192,167230,1,0,0:0:0:0:
256,192,167401,1,0,0:0:0:0:
256,192,167573,1,8,0:0:0:0:
256,192,167658,1,8,0:0:0:0:
256,192,167744,1,0,0:0:0:0:
256,192,167916,1,0,0:0:0:0:
256,192,168001,1,8,0:0:0:0:
256,192,168087,1,0,0:0:0:0:
256,192,168173,1,0,0:0:0:0:
256,192,168258,1,8,0:0:0:0:
256,192,168344,1,8,0:0:0:0:
256,192,168430,1,0,0:0:0:0:
256,192,168516,1,0,0:0:0:0:
256,192,168601,1,8,0:0:0:0:
256,192,168687,1,0,0:0:0:0:
256,192,168773,1,0,0:0:0:0:
256,192,168858,1,0,0:0:0:0:
256,192,168944,1,8,0:0:0:0:
256,192,169030,1,8,0:0:0:0:
256,192,169116,1,8,0:0:0:0:
256,192,169201,1,8,0:0:0:0:
256,192,169287,1,0,0:0:0:0:
256,192,169801,1,0,0:0:0:0:
256,192,170316,1,0,0:0:0:0:
256,192,170830,1,0,0:0:0:0:
256,192,171344,1,0,0:0:0:0:
256,192,172030,1,8,0:0:0:0:
256,192,172544,1,8,0:0:0:0:
256,192,173058,1,8,0:0:0:0:
256,192,173573,1,8,0:0:0:0:
256,192,174087,1,8,0:0:0:0:
256,192,174773,1,0,0:0:0:0:
256,192,175287,1,0,0:0:0:0:
256,192,175801,1,0,0:0:0:0:
256,192,176316,1,0,0:0:0:0:
256,192,176830,1,0,0:0:0:0:
256,192,177516,1,8,0:0:0:0:
256,192,178030,1,8,0:0:0:0:
256,192,178544,1,8,0:0:0:0:
256,192,179058,1,8,0:0:0:0:
256,192,179573,1,8,0:0:0:0:
256,192,180258,1,4,0:0:0:0:
256,192,180773,1,0,0:0:0:0:
256,192,181287,1,8,0:0:0:0:
256,192,181801,1,8,0:0:0:0:
256,192,182316,1,0,0:0:0:0:
256,192,183001,1,8,0:0:0:0:
256,192,183516,1,8,0:0:0:0:
256,192,184030,1,0,0:0:0:0:
256,192,184544,1,0,0:0:0:0:
256,192,185058,1,8,0:0:0:0:
256,192,185744,1,0,0:0:0:0:
256,192,186258,1,8,0:0:0:0:
256,192,186773,1,0,0:0:0:0:
256,192,187287,1,0,0:0:0:0:
256,192,187801,1,8,0:0:0:0:
256,192,188487,1,8,0:0:0:0:
256,192,189001,1,0,0:0:0:0:
256,192,189516,1,8,0:0:0:0:
256,192,190030,1,8,0:0:0:0:
256,192,190544,1,0,0:0:0:0:
256,192,191230,1,4,0:0:0:0:
256,192,191401,1,0,0:0:0:0:
256,192,191573,1,8,0:0:0:0:
256,192,191744,1,0,0:0:0:0:
256,192,191830,1,0,0:0:0:0:
256,192,191916,1,0,0:0:0:0:
256,192,192001,1,0,0:0:0:0:
256,192,192087,1,0,0:0:0:0:
256,192,192258,1,8,0:0:0:0:
256,192,192601,1,0,0:0:0:0:
256,192,192773,1,0,0:0:0:0:
256,192,192944,1,8,0:0:0:0:
256,192,193116,1,0,0:0:0:0:
256,192,193201,1,0,0:0:0:0:
256,192,193287,1,0,0:0:0:0:
256,192,193373,1,8,0:0:0:0:
256,192,193458,1,0,0:0:0:0:
256,192,193630,1,8,0:0:0:0:
256,192,193801,1,8,0:0:0:0:
256,192,193887,1,8,0:0:0:0:
256,192,193973,1,0,0:0:0:0:
256,192,194144,1,0,0:0:0:0:
256,192,194316,1,8,0:0:0:0:
256,192,194487,1,0,0:0:0:0:
256,192,194573,1,0,0:0:0:0:
256,192,194744,1,0,0:0:0:0:
256,192,194830,1,0,0:0:0:0:
256,192,195001,1,8,0:0:0:0:
256,192,195344,1,0,0:0:0:0:
256,192,195516,1,0,0:0:0:0:
256,192,195601,1,0,0:0:0:0:
256,192,195687,1,8,0:0:0:0:
256,192,195858,1,0,0:0:0:0:
256,192,195944,1,8,0:0:0:0:
256,192,196116,1,8,0:0:0:0:
256,192,196201,1,0,0:0:0:0:
256,192,196373,1,8,0:0:0:0:
256,192,196544,1,0,0:0:0:0:
256,192,196716,1,0,0:0:0:0:
256,192,196887,1,0,0:0:0:0:
256,192,197058,1,8,0:0:0:0:
256,192,197230,1,0,0:0:0:0:
256,192,197316,1,0,0:0:0:0:
256,192,197401,1,0,0:0:0:0:
256,192,197487,1,0,0:0:0:0:
256,192,197573,1,0,0:0:0:0:
256,192,197744,1,8,0:0:0:0:
256,192,198087,1,0,0:0:0:0:
256,192,198258,1,0,0:0:0:0:
256,192,198430,1,8,0:0:0:0:
256,192,198601,1,0,0:0:0:0:
256,192,198687,1,0,0:0:0:0:
256,192,198773,1,0,0:0:0:0:
256,192,198944,1,0,0:0:0:0:
256,192,199116,1,8,0:0:0:0:
256,192,199287,1,8,0:0:0:0:
256,192,199373,1,8,0:0:0:0:
256,192,199458,1,0,0:0:0:0:
256,192,199630,1,0,0:0:0:0:
256,192,199801,1,8,0:0:0:0:
256,192,199973,1,0,0:0:0:0:
256,192,200058,1,0,0:0:0:0:
256,192,200230,1,0,0:0:0:0:
256,192,200316,1,0,0:0:0:0:
256,192,200487,1,8,0:0:0:0:
256,192,200658,1,0,0:0:0:0:
256,192,200830,1,0,0:0:0:0:
256,192,200916,1,0,0:0:0:0:
256,192,201001,1,0,0:0:0:0:
256,192,201087,1,0,0:0:0:0:
256,192,201173,1,8,0:0:0:0:
256,192,201344,1,8,0:0:0:0:
256,192,201430,1,0,0:0:0:0:
256,192,201601,1,0,0:0:0:0:
256,192,201687,1,0,0:0:0:0:
256,192,201773,1,0,0:0:0:0:
256,192,201858,1,8,0:0:0:0:
256,192,202201,1,4,0:0:0:0:
256,192,202373,1,0,0:0:0:0:
256,192,202544,1,8,0:0:0:0:
256,192,202716,1,0,0:0:0:0:
256,192,202801,1,0,0:0:0:0:
256,192,202887,1,0,0:0:0:0:
256,192,202973,1,0,0:0:0:0:
256,192,203058,1,0,0:0:0:0:
256,192,203230,1,8,0:0:0:0:
256,192,203401,1,0,0:0:0:0:
256,192,203573,1,0,0:0:0:0:
256,192,203658,1,0,0:0:0:0:
256,192,203744,1,0,0:0:0:0:
256,192,203916,1,8,0:0:0:0:
256,192,204087,1,0,0:0:0:0:
256,192,204173,1,0,0:0:0:0:
256,192,204344,1,0,0:0:0:0:
256,192,204430,1,0,0:0:0:0:
256,192,204601,1,8,0:0:0:0:
256,192,204944,1,0,0:0:0:0:
256,192,205116,1,0,0:0:0:0:
256,192,205287,1,8,0:0:0:0:
256,192,205458,1,8,0:0:0:0:
256,192,205544,1,0,0:0:0:0:
256,192,205716,1,8,0:0:0:0:
256,192,205801,1,0,0:0:0:0:
256,192,205973,1,8,0:0:0:0:
256,192,206144,1,0,0:0:0:0:
256,192,206316,1,0,0:0:0:0:
256,192,206401,1,0,0:0:0:0:
256,192,206487,1,0,0:0:0:0:
256,192,206573,1,0,0:0:0:0:
256,192,206658,1,8,0:0:0:0:
256,192,206830,1,8,0:0:0:0:
256,192,206916,1,8,0:0:0:0:
256,192,207087,1,0,0:0:0:0:
256,192,207173,1,0,0:0:0:0:
256,192,207344,1,8,0:0:0:0:
256,192,207687,1,0,0:0:0:0:
256,192,207858,1,0,0:0:0:0:
256,192,207944,1,0,0:0:0:0:
256,192,208030,1,8,0:0:0:0:
256,192,208201,1,0,0:0:0:0:
256,192,208373,1,0,0:0:0:0:
256,192,208458,1,0,0:0:0:0:
256,192,208544,1,0,0:0:0:0:
256,192,208630,1,0,0:0:0:0:
256,192,208716,1,8,0:0:0:0:
256,192,208887,1,0,0:0:0:0:
256,192,209058,1,0,0:0:0:0:
256,192,209230,1,0,0:0:0:0:
256,192,209401,1,8,0:0:0:0:
256,192,209573,1,0,0:0:0:0:
256,192,209658,1,8,0:0:0:0:
256,192,209744,1,0,0:0:0:0:
256,192,209830,1,8,0:0:0:0:
256,192,209916,1,0,0:0:0:0:
256,192,210087,1,8,0:0:0:0:
256,192,210258,1,0,0:0:0:0:
256,192,210430,1,8,0:0:0:0:
256,192,210516,1,8,0:0:0:0:
256,192,210601,1,0,0:0:0:0:
256,192,210687,1,0,0:0:0:0:
256,192,210773,1,8,0:0:0:0:
256,192,210944,1,0,0:0:0:0:
256,192,211030,1,0,0:0:0:0:
256,192,211116,1,8,0:0:0:0:
256,192,211201,1,0,0:0:0:0:
256,192,211287,1,0,0:0:0:0:
256,192,211373,1,0,0:0:0:0:
256,192,211458,1,8,0:0:0:0:
256,192,211630,1,0,0:0:0:0:
256,192,211716,1,8,0:0:0:0:
256,192,211801,1,0,0:0:0:0:
256,192,211973,1,8,0:0:0:0:
256,192,212144,1,0,0:0:0:0:
256,192,212230,1,0,0:0:0:0:
256,192,212316,1,8,0:0:0:0:
256,192,212401,1,0,0:0:0:0:
256,192,212487,1,8,0:0:0:0:
256,192,212573,1,8,0:0:0:0:
256,192,212658,1,0,0:0:0:0:
256,192,212830,1,12,0:0:0:0:
256,192,213173,1,4,0:0:0:0:
256,192,213430,1,0,0:0:0:0:
256,192,213516,1,8,0:0:0:0:
256,192,213687,1,8,0:0:0:0:
256,192,213773,1,8,0:0:0:0:
256,192,213858,1,0,0:0:0:0:
256,192,214030,1,0,0:0:0:0:
256,192,214201,1,8,0:0:0:0:
256,192,214287,1,8,0:0:0:0:
256,192,214373,1,0,0:0:0:0:
256,192,214544,1,0,0:0:0:0:
256,192,214716,1,0,0:0:0:0:
256,192,214887,1,8,0:0:0:0:
256,192,215058,1,0,0:0:0:0:
256,192,215144,1,8,0:0:0:0:
256,192,215230,1,0,0:0:0:0:
256,192,215316,1,0,0:0:0:0:
256,192,215401,1,8,0:0:0:0:
256,192,215573,1,8,0:0:0:0:
256,192,215744,1,8,0:0:0:0:
256,192,215830,1,8,0:0:0:0:
256,192,215916,1,0,0:0:0:0:
256,192,216173,1,0,0:0:0:0:
256,192,216258,1,8,0:0:0:0:
256,192,216430,1,0,0:0:0:0:
256,192,216516,1,8,0:0:0:0:
256,192,216601,1,8,0:0:0:0:
256,192,216687,1,8,0:0:0:0:
256,192,216773,1,0,0:0:0:0:
256,192,216944,1,8,0:0:0:0:
256,192,217116,1,0,0:0:0:0:
256,192,217201,1,0,0:0:0:0:
256,192,217287,1,8,0:0:0:0:
256,192,217458,1,8,0:0:0:0:
256,192,217630,1,0,0:0:0:0:
256,192,217801,1,8,0:0:0:0:
256,192,217887,1,8,0:0:0:0:
256,192,217973,1,0,0:0:0:0:
256,192,218144,1,0,0:0:0:0:
256,192,218316,1,8,0:0:0:0:
256,192,218487,1,8,0:0:0:0:
256,192,218658,1,0,0:0:0:0:
256,192,218916,1,0,0:0:0:0:
256,192,219001,1,8,0:0:0:0:
256,192,219173,1,0,0:0:0:0:
256,192,219258,1,8,0:0:0:0:
256,192,219344,1,0,0:0:0:0:
256,192,219430,1,8,0:0:0:0:
256,192,219516,1,0,0:0:0:0:
256,192,219687,1,8,0:0:0:0:
256,192,219858,1,8,0:0:0:0:
256,192,219944,1,8,0:0:0:0:
256,192,220030,1,0,0:0:0:0:
256,192,220201,1,0,0:0:0:0:
256,192,220373,1,8,0:0:0:0:
256,192,220544,1,8,0:0:0:0:
256,192,220716,1,0,0:0:0:0:
256,192,220887,1,0,0:0:0:0:
256,192,220973,1,0,0:0:0:0:
256,192,221058,1,8,0:0:0:0:
256,192,221144,1,0,0:0:0:0:
256,192,221230,1,8,0:0:0:0:
256,192,221401,1,0,0:0:0:0:
256,192,221658,1,8,0:0:0:0:
256,192,221744,1,0,0:0:0:0:
256,192,221916,1,8,0:0:0:0:
256,192,222087,1,0,0:0:0:0:
256,192,222173,1,8,0:0:0:0:
256,192,222258,1,0,0:0:0:0:
256,192,222430,1,8,0:0:0:0:
256,192,222601,1,0,0:0:0:0:
256,192,222773,1,8,0:0:0:0:
256,192,222858,1,8,0:0:0:0:
256,192,222944,1,0,0:0:0:0:
256,192,223030,1,8,0:0:0:0:
256,192,223116,1,0,0:0:0:0:
256,192,223287,1,8,0:0:0:0:
256,192,223458,1,0,0:0:0:0:
256,192,223630,1,0,0:0:0:0:
256,192,223716,1,0,0:0:0:0:
256,192,223801,1,8,0:0:0:0:
256,192,223887,1,0,0:0:0:0:
256,192,223973,1,8,0:0:0:0:
256,192,224144,1,4,0:0:0:0:
256,192,224401,1,0,0:0:0:0:
256,192,224487,1,8,0:0:0:0:
256,192,224658,1,0,0:0:0:0:
256,192,224830,1,0,0:0:0:0:
256,192,224916,1,0,0:0:0:0:
256,192,225001,1,0,0:0:0:0:
256,192,225173,1,8,0:0:0:0:
256,192,225344,1,0,0:0:0:0:
256,192,225516,1,8,0:0:0:0:
256,192,225601,1,8,0:0:0:0:
256,192,225687,1,0,0:0:0:0:
256,192,225773,1,8,0:0:0:0:
256,192,225858,1,0,0:0:0:0:
256,192,226030,1,8,0:0:0:0:
256,192,226116,1,8,0:0:0:0:
256,192,226201,1,0,0:0:0:0:
256,192,226373,1,0,0:0:0:0:
256,192,226458,1,0,0:0:0:0:
256,192,226544,1,8,0:0:0:0:
256,192,226716,1,8,0:0:0:0:
256,192,226887,1,0,0:0:0:0:
256,192,227144,1,0,0:0:0:0:
256,192,227230,1,8,0:0:0:0:
256,192,227401,1,0,0:0:0:0:
256,192,227487,1,8,0:0:0:0:
256,192,227573,1,0,0:0:0:0:
256,192,227744,1,0,0:0:0:0:
256,192,227916,1,8,0:0:0:0:
256,192,228087,1,8,0:0:0:0:
256,192,228173,1,8,0:0:0:0:
256,192,228258,1,0,0:0:0:0:
256,192,228430,1,0,0:0:0:0:
256,192,228516,1,8,0:0:0:0:
256,192,228601,1,0,0:0:0:0:
256,192,228773,1,8,0:0:0:0:
256,192,228944,1,0,0:0:0:0:
256,192,229116,1,0,0:0:0:0:
256,192,229201,1,8,0:0:0:0:
256,192,229287,1,0,0:0:0:0:
256,192,229373,1,0,0:0:0:0:
256,192,229458,1,8,0:0:0:0:
256,192,229630,1,0,0:0:0:0:
256,192,229887,1,0,0:0:0:0:
256,192,229973,1,8,0:0:0:0:
256,192,230144,1,0,0:0:0:0:
256,192,230230,1,8,0:0:0:0:
256,192,230316,1,0,0:0:0:0:
256,192,230487,1,0,0:0:0:0:
256,192,230573,1,0,0:0:0:0:
256,192,230658,1,8,0:0:0:0:
256,192,230830,1,0,0:0:0:0:
256,192,230916,1,8,0:0:0:0:
256,192,231001,1,0,0:0:0:0:
256,192,231087,1,8,0:0:0:0:
256,192,231173,1,0,0:0:0:0:
256,192,231258,1,0,0:0:0:0:
256,192,231344,1,8,0:0:0:0:
256,192,231516,1,0,0:0:0:0:
256,192,231601,1,0,0:0:0:0:
256,192,231687,1,8,0:0:0:0:
256,192,231773,1,0,0:0:0:0:
256,192,231858,1,0,0:0:0:0:
256,192,231944,1,0,0:0:0:0:
256,192,232030,1,8,0:0:0:0:
256,192,232201,1,8,0:0:0:0:
256,192,232373,1,0,0:0:0:0:
256,192,232458,1,0,0:0:0:0:
256,192,232544,1,0,0:0:0:0:
256,192,232630,1,0,0:0:0:0:
256,192,232716,1,8,0:0:0:0:
256,192,232801,1,8,0:0:0:0:
256,192,232887,1,0,0:0:0:0:
256,192,232973,1,0,0:0:0:0:
256,192,233058,1,8,0:0:0:0:
256,192,233144,1,8,0:0:0:0:
256,192,233230,1,0,0:0:0:0:
256,192,233316,1,0,0:0:0:0:
256,192,233401,1,8,0:0:0:0:
256,192,233573,1,0,0:0:0:0:
256,192,233658,1,8,0:0:0:0:
256,192,233744,1,0,0:0:0:0:
256,192,233830,1,8,0:0:0:0:
256,192,233916,1,0,0:0:0:0:
256,192,234001,1,0,0:0:0:0:
256,192,234087,1,8,0:0:0:0:
256,192,234173,1,8,0:0:0:0:
256,192,234258,1,0,0:0:0:0:
256,192,234344,1,0,0:0:0:0:
256,192,234430,1,8,0:0:0:0:
256,192,234516,1,8,0:0:0:0:
256,192,234601,1,0,0:0:0:0:
256,192,234687,1,8,0:0:0:0:
256,192,234773,1,0,0:0:0:0:
256,192,234858,1,0,0:0:0:0:
256,192,234944,1,8,0:0:0:0:
256,192,235116,1,4,0:0:0:0:
256,192,235287,1,8,0:0:0:0:
256,192,235373,1,0,0:0:0:0:
256,192,235458,1,8,0:0:0:0:
256,192,235544,1,8,0:0:0:0:
256,192,235630,1,0,0:0:0:0:
256,192,235801,1,8,0:0:0:0:
256,192,235973,1,0,0:0:0:0:
256,192,236144,1,8,0:0:0:0:
256,192,236316,1,8,0:0:0:0:
256,192,236401,1,8,0:0:0:0:
256,192,236487,1,0,0:0:0:0:
256,192,236573,1,8,0:0:0:0:
256,192,236658,1,0,0:0:0:0:
256,192,236830,1,8,0:0:0:0:
256,192,236916,1,0,0:0:0:0:
256,192,237001,1,8,0:0:0:0:
256,192,237087,1,0,0:0:0:0:
256,192,237173,1,8,0:0:0:0:
256,192,237258,1,8,0:0:0:0:
256,192,237344,1,0,0:0:0:0:
256,192,237430,1,0,0:0:0:0:
256,192,237516,1,8,0:0:0:0:
256,192,237687,1,8,0:0:0:0:
256,192,237773,1,8,0:0:0:0:
256,192,237858,1,0,0:0:0:0:
256,192,238030,1,0,0:0:0:0:
256,192,238116,1,0,0:0:0:0:
256,192,238201,1,8,0:0:0:0:
256,192,238373,1,0,0:0:0:0:
256,192,238458,1,8,0:0:0:0:
256,192,238544,1,8,0:0:0:0:
256,192,238630,1,8,0:0:0:0:
256,192,238716,1,0,0:0:0:0:
256,192,238887,1,8,0:0:0:0:
256,192,239058,1,0,0:0:0:0:
256,192,239144,1,8,0:0:0:0:
256,192,239230,1,0,0:0:0:0:
256,192,239401,1,0,0:0:0:0:
256,192,239573,1,8,0:0:0:0:
256,192,239658,1,8,0:0:0:0:
256,192,239744,1,0,0:0:0:0:
256,192,239830,1,0,0:0:0:0:
256,192,239916,1,8,0:0:0:0:
256,192,240001,1,0,0:0:0:0:
256,192,240087,1,8,0:0:0:0:
256,192,240173,1,8,0:0:0:0:
256,192,240258,1,0,0:0:0:0:
256,192,240430,1,8,0:0:0:0:
256,192,240516,1,8,0:0:0:0:
256,192,240601,1,0,0:0:0:0:
256,192,240773,1,0,0:0:0:0:
256,192,240944,1,8,0:0:0:0:
256,192,241116,1,8,0:0:0:0:
256,192,241201,1,8,0:0:0:0:
256,192,241287,1,0,0:0:0:0:
256,192,241373,1,8,0:0:0:0:
256,192,241458,1,0,0:0:0:0:
256,192,241544,1,0,0:0:0:0:
256,192,241630,1,8,0:0:0:0:
256,192,241801,1,0,0:0:0:0:
256,192,241973,1,0,0:0:0:0:
256,192,242058,1,0,0:0:0:0:
256,192,242144,1,8,0:0:0:0:
256,192,242230,1,8,0:0:0:0:
256,192,242316,1,8,0:0:0:0:
256,192,242487,1,0,0:0:0:0:
256,192,242573,1,0,0:0:0:0:
256,192,242658,1,8,0:0:0:0:
256,192,242744,1,0,0:0:0:0:
256,192,242830,1,8,0:0:0:0:
256,192,242916,1,8,0:0:0:0:
256,192,243001,1,8,0:0:0:0:
256,192,243173,1,8,0:0:0:0:
256,192,243258,1,8,0:0:0:0:
256,192,243344,1,0,0:0:0:0:
256,192,243516,1,8,0:0:0:0:
256,192,243601,1,8,0:0:0:0:
256,192,243687,1,0,0:0:0:0:
256,192,243858,1,0,0:0:0:0:
256,192,244030,1,8,0:0:0:0:
256,192,244116,1,0,0:0:0:0:
256,192,244201,1,8,0:0:0:0:
256,192,244287,1,8,0:0:0:0:
256,192,244373,1,0,0:0:0:0:
256,192,244458,1,0,0:0:0:0:
256,192,244544,1,8,0:0:0:0:
256,192,244630,1,8,0:0:0:0:
256,192,244716,1,0,0:0:0:0:
256,192,244887,1,8,0:0:0:0:
256,192,244973,1,8,0:0:0:0:
256,192,245058,1,0,0:0:0:0:
256,192,245144,1,8,0:0:0:0:
256,192,245230,1,0,0:0:0:0:
256,192,245316,1,0,0:0:0:0:
256,192,245401,1,8,0:0:0:0:
256,192,245487,1,0,0:0:0:0:
256,192,245573,1,8,0:0:0:0:
256,192,245658,1,0,0:0:0:0:
256,192,245744,1,8,0:0:0:0:
256,192,245830,1,8,0:0:0:0:
256,192,245916,1,0,0:0:0:0:
256,192,246087,1,4,0:0:0:0:
256,192,246258,1,8,0:0:0:0:
256,192,246344,1,8,0:0:0:0:
256,192,246430,1,0,0:0:0:0:
256,192,246601,1,8,0:0:0:0:
256,192,246773,1,8,0:0:0:0:
256,192,246858,1,0,0:0:0:0:
256,192,246944,1,8,0:0:0:0:
256,192,247030,1,8,0:0:0:0:
256,192,247116,1,0,0:0:0:0:
256,192,247201,1,8,0:0:0:0:
256,192,247287,1,0,0:0:0:0:
256,192,247458,1,0,0:0:0:0:
256,192,247630,1,8,0:0:0:0:
256,192,247716,1,0,0:0:0:0:
256,192,247801,1,8,0:0:0:0:
256,192,247973,1,0,0:0:0:0:
256,192,248144,1,8,0:0:0:0:
256,192,248230,1,8,0:0:0:0:
256,192,248316,1,8,0:0:0:0:
256,192,248401,1,0,0:0:0:0:
256,192,248487,1,8,0:0:0:0:
256,192,248573,1,8,0:0:0:0:
256,192,248658,1,0,0:0:0:0:
256,192,248744,1,8,0:0:0:0:
256,192,248830,1,0,0:0:0:0:
256,192,249001,1,0,0:0:0:0:
256,192,249173,1,8,0:0:0:0:
256,192,249344,1,8,0:0:0:0:
256,192,249430,1,8,0:0:0:0:
256,192,249516,1,8,0:0:0:0:
256,192,249601,1,0,0:0:0:0:
256,192,249687,1,0,0:0:0:0:
256,192,249773,1,0,0:0:0:0:
256,192,249858,1,8,0:0:0:0:
256,192,250030,1,8,0:0:0:0:
256,192,250201,1,0,0:0:0:0:
256,192,250373,1,0,0:0:0:0:
256,192,250458,1,0,0:0:0:0:
256,192,250544,1,8,0:0:0:0:
256,192,250716,1,8,0:0:0:0:
256,192,250801,1,0,0:0:0:0:
256,192,250887,1,8,0:0:0:0:
256,192,250973,1,8,0:0:0:0:
256,192,251058,1,0,0:0:0:0:
256,192,251144,1,0,0:0:0:0:
256,192,251230,1,8,0:0:0:0:
256,192,251401,1,0,0:0:0:0:
256,192,251487,1,8,0:0:0:0:
256,192,251573,1,0,0:0:0:0:
256,192,251744,1,0,0:0:0:0:
256,192,251916,1,8,0:0:0:0:
256,192,252087,1,8,0:0:0:0:
256,192,252173,1,8,0:0:0:0:
256,192,252258,1,0,0:0:0:0:
256,192,252344,1,8,0:0:0:0:
256,192,252430,1,0,0:0:0:0:
256,192,252601,1,8,0:0:0:0:
256,192,252773,1,0,0:0:0:0:
256,192,252858,1,8,0:0:0:0:
256,192,252944,1,0,0:0:0:0:
256,192,253116,1,0,0:0:0:0:
256,192,253201,1,0,0:0:0:0:
256,192,253287,1,8,0:0:0:0:
256,192,253458,1,8,0:0:0:0:
256,192,253544,1,0,0:0:0:0:
256,192,253630,1,8,0:0:0:0:
256,192,253716,1,8,0:0:0:0:
256,192,253801,1,0,0:0:0:0:
256,192,253887,1,0,0:0:0:0:
256,192,253973,1,8,0:0:0:0:
256,192,254144,1,8,0:0:0:0:
256,192,254316,1,0,0:0:0:0:
256,192,254401,1,0,0:0:0:0:
256,192,254487,1,8,0:0:0:0:
256,192,254573,1,0,0:0:0:0:
256,192,254658,1,8,0:0:0:0:
256,192,254744,1,8,0:0:0:0:
256,192,254830,1,0,0:0:0:0:
256,192,254916,1,0,0:0:0:0:
256,192,255001,1,8,0:0:0:0:
256,192,255087,1,0,0:0:0:0:
256,192,255173,1,8,0:0:0:0:
256,192,255258,1,8,0:0:0:0:
256,192,255344,1,0,0:0:0:0:
256,192,255430,1,0,0:0:0:0:
256,192,255516,1,0,0:0:0:0:
256,192,255601,1,0,0:0:0:0:
256,192,255687,1,8,0:0:0:0:
256,192,255773,1,8,0:0:0:0:
256,192,255858,1,0,0:0:0:0:
256,192,255944,1,0,0:0:0:0:
256,192,256030,1,8,0:0:0:0:
256,192,256116,1,8,0:0:0:0:
256,192,256201,1,0,0:0:0:0:
256,192,256287,1,0,0:0:0:0:
256,192,256373,1,8,0:0:0:0:
256,192,256458,1,8,0:0:0:0:
256,192,256544,1,0,0:0:0:0:
256,192,256630,1,0,0:0:0:0:
256,192,256716,1,8,0:0:0:0:
256,192,256801,1,0,0:0:0:0:
256,192,256887,1,8,0:0:0:0:
256,192,257058,1,4,0:0:0:0:
256,192,257230,1,0,0:0:0:0:
256,192,257316,1,0,0:0:0:0:
256,192,257401,1,8,0:0:0:0:
256,192,257487,1,0,0:0:0:0:
256,192,257573,1,0,0:0:0:0:
256,192,257658,1,8,0:0:0:0:
256,192,257744,1,8,0:0:0:0:
256,192,257830,1,0,0:0:0:0:
256,192,257916,1,8,0:0:0:0:
256,192,258087,1,8,0:0:0:0:
256,192,258173,1,8,0:0:0:0:
256,192,258258,1,0,0:0:0:0:
256,192,258344,1,0,0:0:0:0:
256,192,258430,1,0,0:0:0:0:
256,192,258601,1,0,0:0:0:0:
256,192,258687,1,0,0:0:0:0:
256,192,258773,1,8,0:0:0:0:
256,192,258858,1,0,0:0:0:0:
256,192,258944,1,0,0:0:0:0:
256,192,259030,1,0,0:0:0:0:
256,192,259116,1,8,0:0:0:0:
256,192,259201,1,0,0:0:0:0:
256,192,259287,1,0,0:0:0:0:
256,192,259373,1,0,0:0:0:0:
256,192,259458,1,8,0:0:0:0:
256,192,259630,1,0,0:0:0:0:
256,192,259716,1,8,0:0:0:0:
256,192,259801,1,0,0:0:0:0:
256,192,259973,1,0,0:0:0:0:
256,192,260058,1,0,0:0:0:0:
256,192,260144,1,8,0:0:0:0:
256,192,260230,1,8,0:0:0:0:
256,192,260316,1,8,0:0:0:0:
256,192,260401,1,0,0:0:0:0:
256,192,260487,1,8,0:0:0:0:
256,192,260573,1,8,0:0:0:0:
256,192,260658,1,0,0:0:0:0:
256,192,260744,1,0,0:0:0:0:
256,192,260830,1,8,0:0:0:0:
256,192,261001,1,8,0:0:0:0:
256,192,261173,1,0,0:0:0:0:
256,192,261344,1,0,0:0:0:0:
256,192,261430,1,8,0:0:0:0:
256,192,261516,1,0,0:0:0:0:
256,192,261601,1,0,0:0:0:0:
256,192,261687,1,8,0:0:0:0:
256,192,261773,1,8,0:0:0:0:
256,192,261858,1,0,0:0:0:0:
256,192,261944,1,0,0:0:0:0:
256,192,262030,1,8,0:0:0:0:
256,192,262116,1,8,0:0:0:0:
256,192,262201,1,0,0:0:0:0:
256,192,262287,1,8,0:0:0:0:
256,192,262373,1,0,0:0:0:0:
256,192,262458,1,8,0:0:0:0:
256,192,262544,1,0,0:0:0:0:
256,192,262716,1,0,0:0:0:0:
256,192,262801,1,0,0:0:0:0:
256,192,262887,1,8,0:0:0:0:
256,192,263058,1,8,0:0:0:0:
256,192,263144,1,8,0:0:0:0:
256,192,263230,1,8,0:0:0:0:
256,192,263316,1,8,0:0:0:0:
256,192,263401,1,0,0:0:0:0:
256,192,263487,1,0,0:0:0:0:
256,192,263573,1,8,0:0:0:0:
256,192,263658,1,8,0:0:0:0:
256,192,263744,1,0,0:0:0:0:
256,192,263916,1,0,0:0:0:0:
256,192,264001,1,8,0:0:0:0:
256,192,264087,1,0,0:0:0:0:
256,192,264258,1,8,0:0:0:0:
256,192,264344,1,0,0:0:0:0:
256,192,264430,1,0,0:0:0:0:
256,192,264516,1,0,0:0:0:0:
256,192,264601,1,8,0:0:0:0:
256,192,264687,1,8,0:0:0:0:
256,192,264773,1,0,0:0:0:0:
256,192,264858,1,0,0:0:0:0:
256,192,264944,1,8,0:0:0:0:
256,192,265116,1,0,0:0:0:0:
256,192,265201,1,8,0:0:0:0:
256,192,265287,1,0,0:0:0:0:
256,192,265458,1,0,0:0:0:0:
256,192,265630,1,0,0:0:0:0:
256,192,265716,1,8,0:0:0:0:
256,192,265801,1,0,0:0:0:0:
256,192,265887,1,0,0:0:0:0:
256,192,265973,1,8,0:0:0:0:
256,192,266058,1,0,0:0:0:0:
256,192,266144,1,8,0:0:0:0:
256,192,266230,1,0,0:0:0:0:
256,192,266316,1,8,0:0:0:0:
256,192,266401,1,8,0:0:0:0:
256,192,266487,1,0,0:0:0:0:
256,192,266658,1,0,0:0:0:0:
256,192,266744,1,8,0:0:0:0:
256,192,266830,1,8,0:0:0:0:
256,192,266916,1,0,0:0:0:0:
256,192,267001,1,8,0:0:0:0:
256,192,267087,1,0,0:0:0:0:
256,192,267173,1,8,0:0:0:0:
256,192,267258,1,8,0:0:0:0:
256,192,267344,1,0,0:0:0:0:
256,192,267430,1,0,0:0:0:0:
256,192,267516,1,8,0:0:0:0:
256,192,267601,1,0,0:0:0:0:
256,192,267687,1,8,0:0:0:0:
256,192,267773,1,8,0:0:0:0:
256,192,267858,1,8,0:0:0:0:
256,192,267944,1,8,0:0:0:0:
256,192,268030,1,0,0:0:0:0:
256,192,268201,1,0,0:0:0:0:
256,192,268287,1,0,0:0:0:0:
256,192,268373,1,8,0:0:0:0:
256,192,268544,1,0,0:0:0:0:
256,192,268630,1,8,0:0:0:0:
256,192,268716,1,0,0:0:0:0:
256,192,268801,1,8,0:0:0:0:
256,192,268887,1,8,0:0:0:0:
256,192,268973,1,0,0:0:0:0:
256,192,269058,1,0,0:0:0:0:
256,192,269144,1,8,0:0:0:0:
256,192,269230,1,0,0:0:0:0:
256,192,269401,1,0,0:0:0:0:
256,192,269573,1,0,0:0:0:0:
256,192,269658,1,0,0:0:0:0:
256,192,269744,1,8,0:0:0:0:
256,192,269830,1,0,0:0:0:0:
256,192,269916,1,0,0:0:0:0:
256,192,270001,1,0,0:0:0:0:
256,192,270087,1,8,0:0:0:0:
256,192,270173,1,0,0:0:0:0:
256,192,270258,1,0,0:0:0:0:
256,192,270344,1,0,0:0:0:0:
256,192,270430,1,8,0:0:0:0:
256,192,270516,1,0,0:0:0:0:
256,192,270601,1,0,0:0:0:0:
256,192,270687,1,8,0:0:0:0:
256,192,270773,1,0,0:0:0:0:
256,192,270944,1,0,0:0:0:0:
256,192,271116,1,8,0:0:0:0:
256,192,271201,1,0,0:0:0:0:
256,192,271287,1,0,0:0:0:0:
256,192,271373,1,8,0:0:0:0:
256,192,271458,1,8,0:0:0:0:
256,192,271544,1,0,0:0:0:0:
256,192,271630,1,8,0:0:0:0:
256,192,271716,1,0,0:0:0:0:
256,192,271801,1,8,0:0:0:0:
256,192,271887,1,8,0:0:0:0:
256,192,271973,1,0,0:0:0:0:
256,192,272144,1,0,0:0:0:0:
256,192,272230,1,8,0:0:0:0:
256,192,272316,1,0,0:0:0:0:
256,192,272401,1,0,0:0:0:0:
256,192,272487,1,8,0:0:0:0:
256,192,272573,1,8,0:0:0:0:
256,192,272658,1,0,0:0:0:0:
256,192,272744,1,0,0:0:0:0:
256,192,272830,1,8,0:0:0:0:
256,192,272916,1,8,0:0:0:0:
256,192,273001,1,0,0:0:0:0:
256,192,273087,1,0,0:0:0:0:
256,192,273173,1,8,0:0:0:0:
256,192,273258,1,0,0:0:0:0:
256,192,273344,1,8,0:0:0:0:
256,192,273430,1,8,0:0:0:0:
256,192,273516,1,0,0:0:0:0:
256,192,273687,1,0,0:0:0:0:
256,192,273773,1,0,0:0:0:0:
256,192,273858,1,8,0:0:0:0:
256,192,273944,1,0,0:0:0:0:
256,192,274030,1,8,0:0:0:0:
256,192,274116,1,0,0:0:0:0:
256,192,274201,1,8,0:0:0:0:
256,192,274287,1,8,0:0:0:0:
256,192,274373,1,0,0:0:0:0:
256,192,274458,1,0,0:0:0:0:
256,192,274544,1,8,0:0:0:0:
256,192,274716,1,8,0:0:0:0:
256,192,274887,1,0,0:0:0:0:
256,192,274973,1,0,0:0:0:0:
256,192,275058,1,0,0:0:0:0:
256,192,275144,1,0,0:0:0:0:
256,192,275230,1,8,0:0:0:0:
256,192,275316,1,0,0:0:0:0:
256,192,275401,1,0,0:0:0:0:
256,192,275487,1,0,0:0:0:0:
256,192,275573,1,8,0:0:0:0:
256,192,275658,1,0,0:0:0:0:
256,192,275744,1,0,0:0:0:0:
256,192,275916,1,8,0:0:0:0:
256,192,276087,1,8,0:0:0:0:
256,192,276258,1,8,0:0:0:0:
256,192,276344,1,0,0:0:0:0:
256,192,276430,1,8,0:0:0:0:
256,192,276516,1,8,0:0:0:0:
256,192,276601,1,0,0:0:0:0:
256,192,276687,1,0,0:0:0:0:
256,192,276773,1,0,0:0:0:0:
256,192,276858,1,8,0:0:0:0:
256,192,276944,1,0,0:0:0:0:
256,192,277030,1,0,0:0:0:0:
256,192,277116,1,8,0:0:0:0:
256,192,277201,1,0,0:0:0:0:
256,192,277287,1,8,0:0:0:0:
256,192,277373,1,8,0:0:0:0:
256,192,277458,1,0,0:0:0:0:
256,192,277544,1,0,0:0:0:0:
256,192,277630,1,8,0:0:0:0:
256,192,277716,1,0,0:0:0:0:
256,192,277801,1,0,0:0:0:0:
256,192,277887,1,8,0:0:0:0:
256,192,277973,1,0,0:0:0:0:
256,192,278058,1,0,0:0:0:0:
256,192,278144,1,8,0:0:0:0:
256,192,278230,1,0,0:0:0:0:
256,192,278316,1,8,0:0:0:0:
256,192,278401,1,8,0:0:0:0:
256,192,278487,1,0,0:0:0:0:
256,192,278573,1,0,0:0:0:0:
256,192,278658,1,8,0:0:0:0:
256,192,278744,1,8,0:0:0:0:
256,192,278830,1,0,0:0:0:0:
256,192,278916,1,8,0:0:0:0:
256,192,279001,1,0,0:0:0:0:
256,192,279173,1,0,0:0:0:0:
256,192,279258,1,0,0:0:0:0:
256,192,279344,1,8,0:0:0:0:
256,192,279516,1,0,0:0:0:0:
256,192,279687,1,0,0:0:0:0:
256,192,279773,1,8,0:0:0:0:
256,192,279858,1,0,0:0:0:0:
256,192,279944,1,0,0:0:0:0:
256,192,280030,1,8,0:0:0:0:
256,192,280201,1,8,0:0:0:0:
256,192,280373,1,0,0:0:0:0:
256,192,280458,1,0,0:0:0:0:
256,192,280544,1,0,0:0:0:0:
256,192,280630,1,0,0:0:0:0:
256,192,280716,1,8,0:0:0:0:
256,192,280887,1,0,0:0:0:0:
256,192,280973,1,0,0:0:0:0:
256,192,281058,1,8,0:0:0:0:
256,192,281230,1,0,0:0:0:0:
256,192,281401,1,8,0:0:0:0:
256,192,281744,1,0,0:0:0:0:
256,192,281916,1,8,0:0:0:0:
256,192,282087,1,8,0:0:0:0:
256,192,282258,1,0,0:0:0:0:
256,192,282344,1,0,0:0:0:0:
256,192,282430,1,0,0:0:0:0:
256,192,282516,1,0,0:0:0:0:
256,192,282601,1,8,0:0:0:0:
256,192,282773,1,8,0:0:0:0:
256,192,282944,1,0,0:0:0:0:
256,192,283116,1,8,0:0:0:0:
256,192,283201,1,8,0:0:0:0:
256,192,283287,1,0,0:0:0:0:
256,192,283373,1,0,0:0:0:0:
256,192,283458,1,8,0:0:0:0:
256,192,283630,1,8,0:0:0:0:
256,192,283801,1,0,0:0:0:0:
256,192,283887,1,0,0:0:0:0:
256,192,283973,1,0,0:0:0:0:
256,192,284144,1,8,0:0:0:0:
256,192,284487,1,0,0:0:0:0:
256,192,284658,1,0,0:0:0:0:
256,192,284744,1,0,0:0:0:0:
256,192,284830,1,8,0:0:0:0:
256,192,285001,1,0,0:0:0:0:
256,192,285173,1,8,0:0:0:0:
256,192,285258,1,8,0:0:0:0:
256,192,285344,1,0,0:0:0:0:
256,192,285430,1,0,0:0:0:0:
256,192,285516,1,8,0:0:0:0:
256,192,285687,1,8,0:0:0:0:
256,192,285858,1,0,0:0:0:0:
256,192,285944,1,0,0:0:0:0:
256,192,286030,1,0,0:0:0:0:
256,192,286116,1,0,0:0:0:0:
256,192,286201,1,8,0:0:0:0:
256,192,286373,1,0,0:0:0:0:
256,192,286458,1,0,0:0:0:0:
256,192,286544,1,8,0:0:0:0:
256,192,286716,1,0,0:0:0:0:
256,192,286887,1,8,0:0:0:0:
256,192,287230,1,0,0:0:0:0:
256,192,287401,1,0,0:0:0:0:
256,192,287573,1,8,0:0:0:0:
256,192,287744,1,8,0:0:0:0:
256,192,287830,1,8,0:0:0:0:
256,192,287916,1,0,0:0:0:0:
256,192,288001,1,0,0:0:0:0:
256,192,288087,1,0,0:0:0:0:
256,192,288258,1,8,0:0:0:0:
256,192,288430,1,0,0:0:0:0:
256,192,288601,1,0,0:0:0:0:
256,192,288687,1,0,0:0:0:0:
256,192,288773,1,0,0:0:0:0:
256,192,288858,1,0,0:0:0:0:
256,192,288944,1,8,0:0:0:0:
256,192,289116,1,0,0:0:0:0:
256,192,289201,1,0,0:0:0:0:
256,192,289287,1,8,0:0:0:0:
256,192,289458,1,0,0:0:0:0:
256,192,289544,1,8,0:0:0:0:
256,192,289630,1,0,0:0:0:0:
256,192,289801,1,8,0:0:0:0:
256,192,289973,1,4,0:0:0:0:
256,192,290144,1,0,0:0:0:0:
256,192,290316,1,8,0:0:0:0:
256,192,290487,1,0,0:0:0:0:
256,192,290573,1,8,0:0:0:0:
256,192,290658,1,0,0:0:0:0:
256,192,290744,1,0,0:0:0:0:
256,192,290830,1,8,0:0:0:0:
256,192,291001,1,8,0:0:0:0:
256,192,291173,1,8,0:0:0:0:
256,192,291344,1,0,0:0:0:0:
256,192,291430,1,0,0:0:0:0:
256,192,291516,1,0,0:0:0:0:
256,192,291601,1,0,0:0:0:0:
256,192,291687,1,8,0:0:0:0:
256,192,291858,1,0,0:0:0:0:
256,192,292030,1,8,0:0:0:0:
256,192,292201,1,0,0:0:0:0:
256,192,292373,1,8,0:0:0:0:
256,192,292716,1,0,0:0:0:0:
256,192,292887,1,0,0:0:0:0:
256,192,293058,1,8,0:0:0:0:
256,192,293230,1,0,0:0:0:0:
256,192,293316,1,8,0:0:0:0:
256,192,293401,1,0,0:0:0:0:
256,192,293487,1,0,0:0:0:0:
256,192,293573,1,0,0:0:0:0:
256,192,293744,1,8,0:0:0:0:
256,192,293916,1,8,0:0:0:0:
256,192,294087,1,0,0:0:0:0:
256,192,294173,1,0,0:0:0:0:
256,192,294258,1,8,0:0:0:0:
256,192,294344,1,8,0:0:0:0:
256,192,294430,1,0,0:0:0:0:
256,192,294601,1,0,0:0:0:0:
256,192,294773,1,8,0:0:0:0:
256,192,294944,1,0,0:0:0:0:
256,192,295116,1,8,0:0:0:0:
256,192,295458,1,0,0:0:0:0:
256,192,295630,1,0,0:0:0:0:
256,192,295801,1,8,0:0:0:0:
256,192,295973,1,8,0:0:0:0:
256,192,296058,1,0,0:0:0:0:
256,192,296144,1,8,0:0:0:0:
256,192,296230,1,8,0:0:0:0:
256,192,296316,1,0,0:0:0:0:
256,192,296487,1,8,0:0:0:0:
256,192,296658,1,0,0:0:0:0:
256,192,296830,1,0,0:0:0:0:
256,192,296916,1,0,0:0:0:0:
256,192,297001,1,0,0:0:0:0:
256,192,297173,1,8,0:0:0:0:
256,192,297258,1,8,0:0:0:0:
256,192,297344,1,0,0:0:0:0:
256,192,297430,1,0,0:0:0:0:
256,192,297516,1,8,0:0:0:0:
256,192,297687,1,0,0:0:0:0:
256,192,297858,1,8,0:0:0:0:
256,192,298201,1,0,0:0:0:0:
256,192,298287,1,8,0:0:0:0:
256,192,298373,1,0,0:0:0:0:
256,192,298458,1,0,0:0:0:0:
256,192,298544,1,8,0:0:0:0:
256,192,298716,1,0,0:0:0:0:
256,192,298887,1,0,0:0:0:0:
256,192,299058,1,0,0:0:0:0:
256,192,299230,1,8,0:0:0:0:
256,192,299316,1,8,0:0:0:0:
256,192,299401,1,0,0:0:0:0:
256,192,299573,1,0,0:0:0:0:
256,192,299658,1,8,0:0:0:0:
256,192,299744,1,0,0:0:0:0:
256,192,299830,1,0,0:0:0:0:
256,192,299916,1,8,0:0:0:0:
256,192,300087,1,0,0:0:0:0:
256,192,300258,1,8,0:0:0:0:
256,192,300430,1,0,0:0:0:0:
256,192,300516,1,0,0:0:0:0:
256,192,300601,1,8,0:0:0:0:
256,192,300944,1,4,0:0:0:0:
256,192,301116,1,0,0:0:0:0:
256,192,301287,1,8,0:0:0:0:
256,192,301458,1,0,0:0:0:0:
256,192,301544,1,0,0:0:0:0:
256,192,301630,1,0,0:0:0:0:
256,192,301801,1,0,0:0:0:0:
256,192,301973,1,8,0:0:0:0:
256,192,302316,1,0,0:0:0:0:
256,192,302487,1,0,0:0:0:0:
256,192,302658,1,8,0:0:0:0:
256,192,302830,1,8,0:0:0:0:
256,192,302916,1,8,0:0:0:0:
256,192,303001,1,0,0:0:0:0:
256,192,303173,1,0,0:0:0:0:
256,192,303344,1,8,0:0:0:0:
256,192,303516,1,8,0:0:0:0:
256,192,303687,1,0,0:0:0:0:
256,192,303858,1,0,0:0:0:0:
256,192,304030,1,8,0:0:0:0:
256,192,304201,1,0,0:0:0:0:
256,192,304287,1,0,0:0:0:0:
256,192,304373,1,0,0:0:0:0:
256,192,304544,1,0,0:0:0:0:
256,192,304716,1,8,0:0:0:0:
256,192,305058,1,0,0:0:0:0:
256,192,305230,1,0,0:0:0:0:
256,192,305401,1,8,0:0:0:0:
256,192,305573,1,8,0:0:0:0:
256,192,305658,1,8,0:0:0:0:
256,192,305744,1,0,0:0:0:0:
256,192,305916,1,0,0:0:0:0:
256,192,306087,1,8,0:0:0:0:
256,192,306258,1,8,0:0:0:0:
256,192,306430,1,0,0:0:0:0:
256,192,306601,1,0,0:0:0:0:
256,192,306773,1,8,0:0:0:0:
256,192,306944,1,0,0:0:0:0:
256,192,307030,1,0,0:0:0:0:
256,192,307116,1,0,0:0:0:0:
256,192,307287,1,0,0:0:0:0:
256,192,307458,1,8,0:0:0:0:
256,192,307801,1,0,0:0:0:0:
256,192,307973,1,0,0:0:0:0:
256,192,308144,1,8,0:0:0:0:
256,192,308316,1,0,0:0:0:0:
256,192,308401,1,0,0:0:0:0:
256,192,308487,1,0,0:0:0:0:
256,192,308658,1,0,0:0:0:0:
256,192,308830,1,8,0:0:0:0:
256,192,309001,1,8,0:0:0:0:
256,192,309173,1,0,0:0:0:0:
256,192,309344,1,0,0:0:0:0:
256,192,309430,1,0,0:0:0:0:
256,192,309516,1,8,0:0:0:0:
256,192,309687,1,8,0:0:0:0:
256,192,309858,1,0,0:0:0:0:
256,192,309944,1,0,0:0:0:0:
256,192,310030,1,0,0:0:0:0:
256,192,310201,1,8,0:0:0:0:
256,192,310544,1,0,0:0:0:0:
256,192,310716,1,0,0:0:0:0:
256,192,310801,1,0,0:0:0:0:
256,192,310887,1,8,0:0:0:0:
256,192,311058,1,0,0:0:0:0:
256,192,311230,1,0,0:0:0:0:
256,192,311316,1,0,0:0:0:0:
256,192,311401,1,0,0:0:0:0:
256,192,311573,1,8,0:0:0:0:
256,192,311744,1,8,0:0:0:0:
256,192,311916,1,4,0:0:0:0:
256,192,312087,1,0,0:0:0:0:
256,192,312258,1,8,0:0:0:0:
256,192,312430,1,8,0:0:0:0:
256,192,312601,1,0,0:0:0:0:
256,192,312687,1,0,0:0:0:0:
256,192,312773,1,0,0:0:0:0:
256,192,312944,1,8,0:0:0:0:
256,192,313287,1,0,0:0:0:0:
256,192,313458,1,0,0:0:0:0:
256,192,313630,1,8,0:0:0:0:
256,192,313801,1,8,0:0:0:0:
256,192,313887,1,8,0:0:0:0:
256,192,313973,1,0,0:0:0:0:
256,192,314144,1,0,0:0:0:0:
256,192,314316,1,8,0:0:0:0:
256,192,314487,1,0,0:0:0:0:
256,192,314658,1,0,0:0:0:0:
256,192,314830,1,0,0:0:0:0:
256,192,315001,1,8,0:0:0:0:
256,192,315173,1,0,0:0:0:0:
256,192,315258,1,8,0:0:0:0:
256,192,315344,1,0,0:0:0:0:
256,192,315430,1,8,0:0:0:0:
256,192,315516,1,0,0:0:0:0:
256,192,315687,1,8,0:0:0:0:
256,192,316030,1,0,0:0:0:0:
256,192,316201,1,0,0:0:0:0:
256,192,316373,1,8,0:0:0:0:
256,192,316544,1,8,0:0:0:0:
256,192,316716,1,0,0:0:0:0:
256,192,316801,1,0,0:0:0:0:
256,192,316887,1,0,0:0:0:0:
256,192,317058,1,8,0:0:0:0:
256,192,317230,1,8,0:0:0:0:
256,192,317401,1,0,0:0:0:0:
256,192,317573,1,0,0:0:0:0:
256,192,317744,1,8,0:0:0:0:
256,192,317916,1,0,0:0:0:0:
256,192,318001,1,0,0:0:0:0:
256,192,318087,1,0,0:0:0:0:
256,192,318258,1,0,0:0:0:0:
256,192,318430,1,8,0:0:0:0:
256,192,318601,1,0,0:0:0:0:
256,192,318773,1,0,0:0:0:0:
256,192,318944,1,0,0:0:0:0:
256,192,319030,1,0,0:0:0:0:
256,192,319116,1,8,0:0:0:0:
256,192,319287,1,8,0:0:0:0:
256,192,319373,1,8,0:0:0:0:
256,192,319458,1,0,0:0:0:0:
256,192,319544,1,0,0:0:0:0:
256,192,319630,1,0,0:0:0:0:
256,192,319801,1,8,0:0:0:0:
256,192,319973,1,0,0:0:0:0:
256,192,320144,1,0,0:0:0:0:
256,192,320230,1,0,0:0:0:0:
256,192,320316,1,0,0:0:0:0:
256,192,320401,1,0,0:0:0:0:
256,192,320487,1,8,0:0:0:0:
256,192,320658,1,0,0:0:0:0:
256,192,320744,1,0,0:0:0:0:
256,192,320830,1,0,0:0:0:0:
256,192,320916,1,0,0:0:0:0:
256,192,321001,1,0,0:0:0:0:
256,192,321087,1,0,0:0:0:0:
256,192,321173,1,8,0:0:0:0:
256,192,321344,1,0,0:0:0:0:
256,192,321430,1,0,0:0:0:0:
256,192,321516,1,0,0:0:0:0:
256,192,321601,1,0,0:0:0:0:
256,192,321687,1,8,0:0:0:0:
256,192,321858,1,0,0:0:0:0:
256,192,321944,1,0,0:0:0:0:
256,192,322030,1,8,0:0:0:0:
256,192,322201,1,8,0:0:0:0:
256,192,322373,1,0,0:0:0:0:
256,192,322458,1,0,0:0:0:0:
256,192,322544,1,8,0:0:0:0:
256,192,322630,1,8,0:0:0:0:
256,192,322716,1,8,0:0:0:0:
256,192,322887,1,4,0:0:0:0:
256,192,323230,1,8,0:0:0:0:
256,192,323573,1,8,0:0:0:0:
256,192,323744,1,8,0:0:0:0:
256,192,323916,1,0,0:0:0:0:
256,192,324087,1,8,0:0:0:0:
256,192,324258,1,0,0:0:0:0:
256,192,324344,1,0,0:0:0:0:
256,192,324430,1,0,0:0:0:0:
256,192,324516,1,0,0:0:0:0:
256,192,324601,1,8,0:0:0:0:
256,192,324944,1,8,0:0:0:0:
256,192,325287,1,8,0:0:0:0:
256,192,325630,8,0,332144,0:0:0:0:
