osu file format v14

[General]
AudioFilename: audio.mp3
AudioLeadIn: 0
PreviewTime:131938
Countdown: 0
SampleSet: Normal
StackLeniency: 0.7
Mode: 1
LetterboxInBreaks: 0
WidescreenStoryboard: 1

[Editor]
Bookmarks: 22266,44209,66152,88095,110038,131981,153924,164895,175866,197809,219752,241695,263638,285581,307524
DistanceSpacing: 1
BeatDivisor: 4
GridSize: 32
TimelineZoom: 1.599999

[Metadata]
Title:United (L.A.O.S Remix)
TitleUnicode:United (L.A.O.S Remix)
Artist:Our Stolen Theory
ArtistUnicode:Our Stolen Theory
Creator:Hivie
Version:Futsuu
Source:
Tags:osu! fa featured artist electronic english dnb drum and & n' bass laos marathon mappers' guild large amount of phob soul mpg mg
BeatmapID:3227208
BeatmapSetID:1580377

[Difficulty]
HPDrainRate:6.5
CircleSize:2
OverallDifficulty:4
ApproachRate:9
SliderMultiplier:1.4
SliderTickRate:1

[Events]
//Background and Video events
0,0,"we kicked a kid united.jpg",0,-132
//Break Periods
2,154124,164295
//Storyboard Layer 0 (Background)
//Storyboard Layer 1 (Fail)
//Storyboard Layer 2 (Pass)
//Storyboard Layer 3 (Foreground)
//Storyboard Layer 4 (Overlay)
//Storyboard Sound Samples

[TimingPoints]
324,342.857142857143,4,1,0,60,1,0
324,-125,4,1,0,60,0,0
11252,-117.64705882353,4,1,0,70,0,0
22224,-111.111111111111,4,1,0,90,0,0
32681,-109.89010989011,4,1,0,90,0,0
32853,-108.695652173913,4,1,0,90,0,0
32938,-107.52688172043,4,1,0,90,0,0
33024,-106.382978723404,4,1,0,90,0,0
33196,-105.263157894737,4,1,0,90,0,0
41510,-105.090808968029,4,1,0,90,0,0
41596,-104.918913417765,4,1,0,90,0,0
41767,-104.576913182338,4,1,0,90,0,0
41939,-104.237135313352,4,1,0,90,0,0
42110,-103.899558219078,4,1,0,90,0,0
42196,-103.731642092641,4,1,0,90,0,0
42282,-103.564267842052,4,1,0,90,0,0
42453,-103.231027943607,4,1,0,90,0,0
42624,-102.899925706254,4,1,0,90,0,0
42796,-102.570940626811,4,1,0,90,0,0
42967,-102.244052463468,4,1,0,90,0,0
43053,-102.081440573289,4,1,0,90,0,0
43139,-101.919241231633,4,1,0,90,0,0
43310,-101.596487199859,4,1,0,90,0,0
43396,-101.435926982362,4,1,0,90,0,0
43482,-101.275770885849,4,1,0,90,0,0
43653,-100.957174975947,4,1,0,90,0,0
43824,-100.640475989195,4,1,0,90,0,0
44166,-100,4,1,0,90,0,0
66152,-100,4,1,0,100,0,1
88095,-100,4,1,0,100,0,0
131981,-100,4,1,0,100,0,1
153924,-100,4,1,0,100,0,0
154009,-133.333333333333,4,1,0,50,0,0
164852,-117.647058823529,4,1,0,70,0,0
175824,-111.111111111111,4,1,0,90,0,0
186795,-105.263157894737,4,1,0,90,0,0
195196,-104.918913417765,4,1,0,90,0,0
195367,-104.576913182338,4,1,0,90,0,0
195453,-104.406802311984,4,1,0,90,0,0
195539,-104.237135313352,4,1,0,90,0,0
195710,-103.899558219078,4,1,0,90,0,0
195882,-103.564267842052,4,1,0,90,0,0
196053,-103.231027943607,4,1,0,90,0,0
196139,-103.065157792757,4,1,0,90,0,0
196224,-102.899925706254,4,1,0,90,0,0
196396,-102.570940626811,4,1,0,90,0,0
196567,-102.244052463468,4,1,0,90,0,0
196739,-101.919241231633,4,1,0,90,0,0
196824,-101.757660062255,4,1,0,90,0,0
196910,-101.596487199859,4,1,0,90,0,0
197082,-101.275770885849,4,1,0,90,0,0
197167,-101.116221974375,4,1,0,90,0,0
197253,-100.957174975947,4,1,0,90,0,0
197424,-100.640475989195,4,1,0,90,0,0
197767,-100.01300169022,4,1,0,90,0,0
241695,-100,4,1,0,100,0,1
263638,-100,4,1,0,100,0,0

[HitObjects]
256,192,324,5,8,0:0:0:0:
256,192,838,1,8,0:0:0:0:
256,192,1352,1,8,0:0:0:0:
256,192,1866,1,8,0:0:0:0:
256,192,2381,1,8,0:0:0:0:
256,192,3066,1,0,0:0:0:0:
256,192,3581,1,0,0:0:0:0:
256,192,4095,1,0,0:0:0:0:
256,192,4609,1,0,0:0:0:0:
256,192,5124,1,0,0:0:0:0:
256,192,5809,1,8,0:0:0:0:
256,192,6324,1,8,0:0:0:0:
256,192,6838,1,8,0:0:0:0:
256,192,7352,1,8,0:0:0:0:
256,192,7866,1,8,0:0:0:0:
256,192,8552,1,0,0:0:0:0:
256,192,9066,1,0,0:0:0:0:
256,192,9581,1,0,0:0:0:0:
256,192,10095,1,0,0:0:0:0:
256,192,10609,1,0,0:0:0:0:
256,96,11295,1,12,0:0:0:0:
256,192,11809,1,8,0:0:0:0:
256,192,12324,1,8,0:0:0:0:
256,192,12838,1,8,0:0:0:0:
256,192,13352,1,8,0:0:0:0:
256,192,14038,1,0,0:0:0:0:
256,192,14552,1,0,0:0:0:0:
256,192,15066,1,0,0:0:0:0:
256,192,15581,1,0,0:0:0:0:
256,192,16095,1,0,0:0:0:0:
256,192,16781,1,8,0:0:0:0:
256,192,17295,1,8,0:0:0:0:
256,192,17809,1,8,0:0:0:0:
256,192,18324,1,8,0:0:0:0:
256,192,18838,1,8,0:0:0:0:
256,192,19524,1,0,0:0:0:0:
256,192,20038,1,0,0:0:0:0:
256,192,20552,1,0,0:0:0:0:
256,192,21066,1,0,0:0:0:0:
256,192,21581,1,0,0:0:0:0:
256,96,22266,1,4,0:0:0:0:
256,192,22952,1,0,0:0:0:0:
256,192,23295,1,8,0:0:0:0:
256,192,23638,1,0,0:0:0:0:
256,192,23809,1,8,0:0:0:0:
256,192,24152,1,8,0:0:0:0:
256,192,24324,1,0,0:0:0:0:
256,192,24666,1,0,0:0:0:0:
256,192,25009,1,0,0:0:0:0:
256,192,25695,1,8,0:0:0:0:
256,192,26038,1,8,0:0:0:0:
256,192,26381,1,0,0:0:0:0:
256,192,26552,1,8,0:0:0:0:
256,192,26895,1,8,0:0:0:0:
256,192,27066,1,0,0:0:0:0:
256,192,27409,1,8,0:0:0:0:
256,192,27752,1,0,0:0:0:0:
256,192,28438,1,0,0:0:0:0:
256,192,28781,1,8,0:0:0:0:
256,192,29124,1,0,0:0:0:0:
256,192,29295,1,8,0:0:0:0:
256,192,29638,1,0,0:0:0:0:
256,192,29809,1,0,0:0:0:0:
256,192,30152,1,8,0:0:0:0:
256,192,30495,1,0,0:0:0:0:
256,192,31181,1,8,0:0:0:0:
256,192,31524,1,8,0:0:0:0:
256,192,31866,1,0,0:0:0:0:
256,192,32038,1,8,0:0:0:0:
256,192,32381,1,0,0:0:0:0:
256,192,32552,1,0,0:0:0:0:
256,192,32895,1,8,0:0:0:0:
256,96,33238,1,4,0:0:0:0:
256,192,33924,1,0,0:0:0:0:
256,192,34266,1,8,0:0:0:0:
256,192,34609,1,0,0:0:0:0:
256,192,34781,1,8,0:0:0:0:
256,192,34952,1,0,0:0:0:0:
256,192,35295,1,8,0:0:0:0:
256,192,35638,1,8,0:0:0:0:
256,192,35981,1,0,0:0:0:0:
256,192,36152,1,8,0:0:0:0:
256,192,36495,1,8,0:0:0:0:
256,192,36666,1,0,0:0:0:0:
256,192,37009,1,8,0:0:0:0:
256,192,37352,1,0,0:0:0:0:
256,192,37524,1,8,0:0:0:0:
256,192,37866,1,8,0:0:0:0:
256,192,38038,1,0,0:0:0:0:
256,192,38381,1,8,0:0:0:0:
256,192,38724,1,0,0:0:0:0:
256,192,39409,1,0,0:0:0:0:
256,192,39752,1,8,0:0:0:0:
256,192,40095,1,0,0:0:0:0:
256,192,40266,1,8,0:0:0:0:
256,192,40438,1,0,0:0:0:0:
256,192,40781,1,8,0:0:0:0:
256,192,41124,1,8,0:0:0:0:
256,192,41466,1,8,0:0:0:0:
256,192,41638,1,8,0:0:0:0:
256,192,41809,1,0,0:0:0:0:
256,192,41981,1,0,0:0:0:0:
256,192,42152,1,8,0:0:0:0:
256,192,42495,1,8,0:0:0:0:
256,192,42838,1,0,0:0:0:0:
256,192,43009,1,8,0:0:0:0:
256,192,43181,1,0,0:0:0:0:
256,192,43352,1,0,0:0:0:0:
256,192,43524,1,8,0:0:0:0:
256,192,43866,1,8,0:0:0:0:
256,96,44209,1,4,0:0:0:0:
256,192,44552,1,8,0:0:0:0:
256,192,45238,1,8,0:0:0:0:
256,192,45409,1,8,0:0:0:0:
256,192,45752,1,0,0:0:0:0:
256,192,45924,1,8,0:0:0:0:
256,192,46095,1,0,0:0:0:0:
256,192,46438,1,8,0:0:0:0:
256,192,46781,1,0,0:0:0:0:
256,192,46952,1,8,0:0:0:0:
256,192,47295,1,8,0:0:0:0:
256,192,47638,1,0,0:0:0:0:
256,192,47981,1,8,0:0:0:0:
256,192,48152,1,8,0:0:0:0:
256,192,48495,1,8,0:0:0:0:
256,192,48666,1,0,0:0:0:0:
256,192,48838,1,8,0:0:0:0:
256,192,49181,1,0,0:0:0:0:
256,192,49352,1,0,0:0:0:0:
256,192,49695,1,8,0:0:0:0:
256,192,50038,1,0,0:0:0:0:
256,192,50724,1,8,0:0:0:0:
256,192,50895,1,8,0:0:0:0:
256,192,51238,1,0,0:0:0:0:
256,192,51409,1,8,0:0:0:0:
256,192,51581,1,0,0:0:0:0:
256,192,51924,1,8,0:0:0:0:
256,192,52095,1,8,0:0:0:0:
256,192,52438,1,0,0:0:0:0:
256,192,52781,1,8,0:0:0:0:
256,192,52952,1,0,0:0:0:0:
256,192,53295,1,0,0:0:0:0:
256,192,53466,1,8,0:0:0:0:
256,192,53638,1,8,0:0:0:0:
256,192,53809,1,0,0:0:0:0:
256,192,54152,1,8,0:0:0:0:
256,192,54495,1,0,0:0:0:0:
256,192,54838,1,8,0:0:0:0:
256,192,55009,1,8,0:0:0:0:
256,96,55181,1,4,0:0:0:0:
256,192,55524,1,8,0:0:0:0:
256,192,56209,1,8,0:0:0:0:
256,192,56381,1,8,0:0:0:0:
256,192,56724,1,0,0:0:0:0:
256,192,56895,1,8,0:0:0:0:
256,192,57066,1,0,0:0:0:0:
256,192,57409,1,8,0:0:0:0:
256,192,57581,1,8,0:0:0:0:
256,192,57752,1,0,0:0:0:0:
256,192,57924,1,8,0:0:0:0:
256,192,58266,1,8,0:0:0:0:
256,192,58781,1,0,0:0:0:0:
256,192,58952,1,8,0:0:0:0:
256,192,59295,1,0,0:0:0:0:
256,192,59638,1,8,0:0:0:0:
256,192,59809,1,0,0:0:0:0:
256,192,60152,1,8,0:0:0:0:
256,192,60324,1,8,0:0:0:0:
256,192,60495,5,0,0:0:0:0:
256,192,60666,1,8,0:0:0:0:
256,192,61009,1,8,0:0:0:0:
256,192,61695,1,8,0:0:0:0:
256,192,61866,5,0,0:0:0:0:
256,192,62209,1,8,0:0:0:0:
256,192,62381,1,0,0:0:0:0:
256,192,62552,1,8,0:0:0:0:
256,192,62895,1,0,0:0:0:0:
256,192,63066,1,8,0:0:0:0:
256,192,63238,1,0,0:0:0:0:
256,192,63581,1,8,0:0:0:0:
256,192,63752,1,0,0:0:0:0:
256,192,64095,1,8,0:0:0:0:
256,192,64438,1,0,0:0:0:0:
256,192,64609,1,8,0:0:0:0:
256,192,64781,1,0,0:0:0:0:
256,192,64952,1,0,0:0:0:0:
256,192,65124,1,8,0:0:0:0:
256,192,65466,1,0,0:0:0:0:
256,192,65638,1,0,0:0:0:0:
256,192,65809,1,8,0:0:0:0:
256,192,65981,1,8,0:0:0:0:
256,96,66152,1,4,0:0:0:0:
256,192,66838,1,8,0:0:0:0:
256,192,67181,1,0,0:0:0:0:
256,192,67352,1,8,0:0:0:0:
256,192,67524,1,0,0:0:0:0:
256,192,67866,1,0,0:0:0:0:
256,192,68209,1,8,0:0:0:0:
256,192,68381,1,8,0:0:0:0:
256,192,68552,1,0,0:0:0:0:
256,192,68895,1,8,0:0:0:0:
256,192,69238,1,8,0:0:0:0:
256,192,69581,1,0,0:0:0:0:
256,192,69752,1,8,0:0:0:0:
256,192,69924,1,8,0:0:0:0:
256,192,70266,1,0,0:0:0:0:
256,192,70609,1,8,0:0:0:0:
256,192,70781,1,0,0:0:0:0:
256,192,70952,1,8,0:0:0:0:
256,192,71124,1,8,0:0:0:0:
256,192,71295,1,0,0:0:0:0:
256,192,71638,1,0,0:0:0:0:
256,192,72324,1,8,0:0:0:0:
256,192,72666,1,0,0:0:0:0:
256,192,72838,1,8,0:0:0:0:
256,192,73009,1,0,0:0:0:0:
256,192,73352,1,0,0:0:0:0:
256,192,73695,1,8,0:0:0:0:
256,192,73866,1,0,0:0:0:0:
256,192,74038,1,8,0:0:0:0:
256,192,74381,1,0,0:0:0:0:
256,192,74724,1,8,0:0:0:0:
256,192,75066,1,0,0:0:0:0:
256,192,75238,1,8,0:0:0:0:
256,192,75409,1,8,0:0:0:0:
256,192,75752,1,0,0:0:0:0:
256,192,76095,1,8,0:0:0:0:
256,192,76266,1,0,0:0:0:0:
256,192,76438,1,8,0:0:0:0:
256,192,76609,1,0,0:0:0:0:
256,192,76781,1,8,0:0:0:0:
256,96,77124,1,4,0:0:0:0:
256,192,77809,1,8,0:0:0:0:
256,192,78152,1,0,0:0:0:0:
256,192,78324,1,8,0:0:0:0:
256,192,78495,1,0,0:0:0:0:
256,192,78838,1,0,0:0:0:0:
256,192,79181,1,8,0:0:0:0:
256,192,79352,1,8,0:0:0:0:
256,192,79524,1,0,0:0:0:0:
256,192,79695,1,0,0:0:0:0:
256,192,79866,1,8,0:0:0:0:
256,192,80209,1,8,0:0:0:0:
256,192,80552,1,0,0:0:0:0:
256,192,80724,1,8,0:0:0:0:
256,192,80895,1,8,0:0:0:0:
256,192,81238,1,0,0:0:0:0:
256,192,81581,1,8,0:0:0:0:
256,192,81752,1,0,0:0:0:0:
256,192,81924,1,8,0:0:0:0:
256,192,82095,1,8,0:0:0:0:
256,192,82266,1,0,0:0:0:0:
256,192,82609,1,0,0:0:0:0:
256,192,83295,1,8,0:0:0:0:
256,192,83638,1,0,0:0:0:0:
256,192,83809,1,8,0:0:0:0:
256,192,83981,1,0,0:0:0:0:
256,192,84324,1,0,0:0:0:0:
256,192,84495,1,0,0:0:0:0:
256,192,84666,1,8,0:0:0:0:
256,192,84838,1,0,0:0:0:0:
256,192,85009,1,8,0:0:0:0:
256,192,85352,1,0,0:0:0:0:
256,192,85695,1,8,0:0:0:0:
256,192,86038,1,0,0:0:0:0:
256,192,86209,1,8,0:0:0:0:
256,192,86381,1,8,0:0:0:0:
256,192,86724,1,0,0:0:0:0:
256,192,87066,1,8,0:0:0:0:
256,192,87238,1,0,0:0:0:0:
256,192,87409,1,8,0:0:0:0:
256,192,87581,1,0,0:0:0:0:
256,192,87752,1,8,0:0:0:0:
256,96,88095,1,4,0:0:0:0:
256,192,88438,1,8,0:0:0:0:
256,192,89124,1,0,0:0:0:0:
256,192,89295,1,8,0:0:0:0:
256,192,89638,1,0,0:0:0:0:
256,192,89809,1,8,0:0:0:0:
256,192,89981,1,0,0:0:0:0:
256,192,90324,1,8,0:0:0:0:
256,192,90666,1,0,0:0:0:0:
256,192,90838,1,8,0:0:0:0:
256,192,91181,1,8,0:0:0:0:
256,192,91866,1,8,0:0:0:0:
256,192,92038,1,0,0:0:0:0:
256,192,92381,1,8,0:0:0:0:
256,192,92552,1,0,0:0:0:0:
256,192,92724,1,8,0:0:0:0:
256,192,93066,1,0,0:0:0:0:
256,192,93238,1,0,0:0:0:0:
256,192,93581,1,8,0:0:0:0:
256,192,94095,1,0,0:0:0:0:
256,192,94438,1,8,0:0:0:0:
256,192,94609,1,8,0:0:0:0:
256,192,94781,1,0,0:0:0:0:
256,192,95124,1,0,0:0:0:0:
256,192,95295,1,8,0:0:0:0:
256,192,95638,1,0,0:0:0:0:
256,192,95809,1,8,0:0:0:0:
256,192,95981,1,8,0:0:0:0:
256,192,96324,1,0,0:0:0:0:
256,192,96666,1,8,0:0:0:0:
256,192,97009,1,8,0:0:0:0:
256,192,97352,1,0,0:0:0:0:
256,192,97524,1,0,0:0:0:0:
256,192,97695,1,8,0:0:0:0:
256,192,98038,1,0,0:0:0:0:
256,192,98381,1,0,0:0:0:0:
256,192,98724,1,8,0:0:0:0:
256,192,98895,1,8,0:0:0:0:
256,96,99066,1,4,0:0:0:0:
256,192,99409,1,8,0:0:0:0:
256,192,100095,1,8,0:0:0:0:
256,192,100266,1,8,0:0:0:0:
256,192,100609,1,0,0:0:0:0:
256,192,100781,1,8,0:0:0:0:
256,192,100952,1,0,0:0:0:0:
256,192,101295,1,8,0:0:0:0:
256,192,101466,1,8,0:0:0:0:
256,192,101638,1,0,0:0:0:0:
256,192,101809,1,8,0:0:0:0:
256,192,102152,1,8,0:0:0:0:
256,192,102666,1,0,0:0:0:0:
256,192,102838,1,8,0:0:0:0:
256,192,103181,1,0,0:0:0:0:
256,192,103524,1,8,0:0:0:0:
256,192,103695,1,0,0:0:0:0:
256,192,104038,1,8,0:0:0:0:
256,192,104209,1,8,0:0:0:0:
256,192,104381,5,0,0:0:0:0:
256,192,104552,1,8,0:0:0:0:
256,192,104895,1,8,0:0:0:0:
256,192,105581,1,8,0:0:0:0:
256,192,105752,5,0,0:0:0:0:
256,192,106095,1,8,0:0:0:0:
256,192,106438,1,0,0:0:0:0:
256,192,106609,1,8,0:0:0:0:
256,192,106781,1,0,0:0:0:0:
256,192,107124,1,8,0:0:0:0:
256,192,107466,1,8,0:0:0:0:
256,192,107638,1,0,0:0:0:0:
256,192,107981,1,8,0:0:0:0:
256,192,108324,1,0,0:0:0:0:
256,192,108495,1,8,0:0:0:0:
256,192,108666,1,0,0:0:0:0:
256,192,108838,1,0,0:0:0:0:
256,192,109009,1,8,0:0:0:0:
256,192,109352,1,0,0:0:0:0:
256,192,109524,1,0,0:0:0:0:
256,192,109695,1,8,0:0:0:0:
256,192,109866,1,8,0:0:0:0:
256,96,110038,5,4,0:0:0:0:
256,192,110724,1,8,0:0:0:0:
256,192,111066,1,0,0:0:0:0:
256,192,111238,1,8,0:0:0:0:
256,192,111409,1,0,0:0:0:0:
256,192,111752,1,0,0:0:0:0:
256,192,111924,1,0,0:0:0:0:
256,192,112095,1,8,0:0:0:0:
256,192,112438,1,8,0:0:0:0:
256,192,112781,1,0,0:0:0:0:
256,192,112952,1,8,0:0:0:0:
256,192,113295,1,0,0:0:0:0:
256,192,113466,1,8,0:0:0:0:
256,192,113809,1,8,0:0:0:0:
256,192,113981,1,8,0:0:0:0:
256,192,114152,1,0,0:0:0:0:
256,192,114495,1,0,0:0:0:0:
256,192,114838,1,8,0:0:0:0:
256,192,115181,1,8,0:0:0:0:
256,192,115352,1,8,0:0:0:0:
256,192,115524,1,0,0:0:0:0:
256,192,116209,1,8,0:0:0:0:
256,192,116552,1,0,0:0:0:0:
256,192,116724,1,8,0:0:0:0:
256,192,116895,1,8,0:0:0:0:
256,192,117238,1,0,0:0:0:0:
256,192,117581,1,8,0:0:0:0:
256,192,117752,1,0,0:0:0:0:
256,192,117924,1,8,0:0:0:0:
256,192,118266,1,0,0:0:0:0:
256,192,118438,1,8,0:0:0:0:
256,192,118609,1,0,0:0:0:0:
256,192,118952,1,8,0:0:0:0:
256,192,119295,1,8,0:0:0:0:
256,192,119466,1,8,0:0:0:0:
256,192,119638,1,0,0:0:0:0:
256,192,119981,1,0,0:0:0:0:
256,192,120324,1,8,0:0:0:0:
256,192,120495,1,0,0:0:0:0:
256,192,120666,1,8,0:0:0:0:
256,192,120838,1,8,0:0:0:0:
256,96,121009,5,4,0:0:0:0:
256,192,121695,1,8,0:0:0:0:
256,192,122038,1,0,0:0:0:0:
256,192,122209,1,8,0:0:0:0:
256,192,122381,1,0,0:0:0:0:
256,192,122724,1,0,0:0:0:0:
256,192,122895,1,0,0:0:0:0:
256,192,123066,1,8,0:0:0:0:
256,192,123409,1,8,0:0:0:0:
256,192,123752,1,0,0:0:0:0:
256,192,123924,1,8,0:0:0:0:
256,192,124266,1,8,0:0:0:0:
256,192,124438,1,0,0:0:0:0:
256,192,124781,1,0,0:0:0:0:
256,192,124952,1,8,0:0:0:0:
256,192,125124,1,0,0:0:0:0:
256,192,125466,1,0,0:0:0:0:
256,192,125809,1,8,0:0:0:0:
256,192,126152,1,8,0:0:0:0:
256,192,126324,1,8,0:0:0:0:
256,192,126495,1,0,0:0:0:0:
256,192,127181,1,8,0:0:0:0:
256,192,127524,1,0,0:0:0:0:
256,192,127695,1,8,0:0:0:0:
256,192,127866,1,8,0:0:0:0:
256,192,128209,1,0,0:0:0:0:
256,192,128552,1,8,0:0:0:0:
256,192,128724,1,0,0:0:0:0:
256,192,128895,5,8,0:0:0:0:
256,192,129238,1,0,0:0:0:0:
256,192,129581,1,8,0:0:0:0:
256,192,129752,1,8,0:0:0:0:
256,192,129924,1,0,0:0:0:0:
256,192,130095,1,8,0:0:0:0:
256,192,130266,1,0,0:0:0:0:
256,192,130609,1,8,0:0:0:0:
256,192,130952,1,8,0:0:0:0:
256,192,131124,1,8,0:0:0:0:
256,192,131295,1,0,0:0:0:0:
256,192,131466,1,0,0:0:0:0:
256,192,131638,1,8,0:0:0:0:
256,96,131981,1,4,0:0:0:0:
256,192,132666,1,8,0:0:0:0:
256,192,133009,1,0,0:0:0:0:
256,192,133181,1,8,0:0:0:0:
256,192,133352,1,0,0:0:0:0:
256,192,133695,1,0,0:0:0:0:
256,192,133866,1,0,0:0:0:0:
256,192,134038,1,8,0:0:0:0:
256,192,134209,1,8,0:0:0:0:
256,192,134381,1,0,0:0:0:0:
256,192,134724,1,8,0:0:0:0:
256,192,135066,1,8,0:0:0:0:
256,192,135409,1,0,0:0:0:0:
256,192,135581,1,8,0:0:0:0:
256,192,135752,1,8,0:0:0:0:
256,192,136095,1,0,0:0:0:0:
256,192,136438,1,8,0:0:0:0:
256,192,136609,1,0,0:0:0:0:
256,192,136781,1,8,0:0:0:0:
256,192,136952,1,8,0:0:0:0:
256,192,137124,1,0,0:0:0:0:
256,192,137466,1,0,0:0:0:0:
256,192,138152,1,8,0:0:0:0:
256,192,138495,1,0,0:0:0:0:
256,192,138666,1,8,0:0:0:0:
256,192,138838,1,0,0:0:0:0:
256,192,139181,1,0,0:0:0:0:
256,192,139352,1,0,0:0:0:0:
256,192,139524,1,8,0:0:0:0:
256,192,139695,1,0,0:0:0:0:
256,192,139866,1,8,0:0:0:0:
256,192,140209,1,0,0:0:0:0:
256,192,140552,1,8,0:0:0:0:
256,192,140895,1,0,0:0:0:0:
256,192,141066,1,8,0:0:0:0:
256,192,141238,1,8,0:0:0:0:
256,192,141581,1,0,0:0:0:0:
256,192,141924,1,8,0:0:0:0:
256,192,142095,1,0,0:0:0:0:
256,192,142266,1,8,0:0:0:0:
256,192,142438,1,0,0:0:0:0:
256,192,142609,1,8,0:0:0:0:
256,96,142952,1,4,0:0:0:0:
256,192,143638,1,8,0:0:0:0:
256,192,143981,1,0,0:0:0:0:
256,192,144152,1,8,0:0:0:0:
256,192,144324,1,0,0:0:0:0:
256,192,144666,1,0,0:0:0:0:
256,192,145009,1,8,0:0:0:0:
256,192,145181,1,8,0:0:0:0:
256,192,145352,1,0,0:0:0:0:
256,192,145524,1,0,0:0:0:0:
256,192,145695,1,8,0:0:0:0:
256,192,146038,1,8,0:0:0:0:
256,192,146381,1,0,0:0:0:0:
256,192,146552,1,8,0:0:0:0:
256,192,146724,1,8,0:0:0:0:
256,192,147066,1,0,0:0:0:0:
256,192,147409,1,8,0:0:0:0:
256,192,147581,5,8,0:0:0:0:
256,192,147752,1,0,0:0:0:0:
256,192,147924,1,8,0:0:0:0:
256,192,148095,1,8,0:0:0:0:
256,192,148438,1,0,0:0:0:0:
256,192,149124,1,8,0:0:0:0:
256,192,149466,1,0,0:0:0:0:
256,192,149638,1,8,0:0:0:0:
256,192,149809,1,0,0:0:0:0:
256,192,150152,1,0,0:0:0:0:
256,192,150324,1,0,0:0:0:0:
256,192,150495,1,8,0:0:0:0:
256,192,150666,1,0,0:0:0:0:
256,192,150838,1,8,0:0:0:0:
256,192,151181,1,0,0:0:0:0:
256,192,151524,1,8,0:0:0:0:
256,192,151695,1,8,0:0:0:0:
256,192,151866,1,0,0:0:0:0:
256,192,152038,1,0,0:0:0:0:
256,192,152209,1,8,0:0:0:0:
256,192,152552,1,0,0:0:0:0:
256,192,152895,1,8,0:0:0:0:
256,192,153066,1,0,0:0:0:0:
256,192,153238,1,8,0:0:0:0:
256,192,153409,1,0,0:0:0:0:
256,192,153581,1,8,0:0:0:0:
256,96,153924,1,4,0:0:0:0:
256,96,164895,5,12,0:0:0:0:
256,192,165409,1,8,0:0:0:0:
256,192,165924,1,8,0:0:0:0:
256,192,166438,1,8,0:0:0:0:
256,192,166952,1,8,0:0:0:0:
256,192,167638,1,0,0:0:0:0:
256,192,168152,1,0,0:0:0:0:
256,192,168666,1,0,0:0:0:0:
256,192,169181,1,0,0:0:0:0:
256,192,169695,1,0,0:0:0:0:
256,192,170381,1,8,0:0:0:0:
256,192,170895,1,8,0:0:0:0:
256,192,171409,1,8,0:0:0:0:
256,192,171924,1,8,0:0:0:0:
256,192,172438,1,8,0:0:0:0:
256,192,173124,1,0,0:0:0:0:
256,192,173638,1,0,0:0:0:0:
256,192,174152,1,0,0:0:0:0:
256,192,174666,1,0,0:0:0:0:
256,192,175181,1,0,0:0:0:0:
256,96,175866,5,4,0:0:0:0:
256,192,176209,5,8,0:0:0:0:
256,192,176552,1,0,0:0:0:0:
256,192,176895,1,8,0:0:0:0:
256,192,177066,1,0,0:0:0:0:
256,192,177581,1,8,0:0:0:0:
256,192,177924,1,8,0:0:0:0:
256,192,178095,1,0,0:0:0:0:
256,192,178266,1,8,0:0:0:0:
256,192,178609,1,0,0:0:0:0:
256,192,178952,1,8,0:0:0:0:
256,192,179295,1,0,0:0:0:0:
256,192,179638,1,8,0:0:0:0:
256,192,179809,1,8,0:0:0:0:
256,192,180324,1,8,0:0:0:0:
256,192,180495,1,0,0:0:0:0:
256,192,180666,1,8,0:0:0:0:
256,192,181352,1,0,0:0:0:0:
256,192,181695,1,8,0:0:0:0:
256,192,182038,1,0,0:0:0:0:
256,192,182381,1,8,0:0:0:0:
256,192,182552,1,0,0:0:0:0:
256,192,183066,1,8,0:0:0:0:
256,192,183238,1,8,0:0:0:0:
256,192,183409,1,0,0:0:0:0:
256,192,183752,1,8,0:0:0:0:
256,192,184095,1,0,0:0:0:0:
256,192,184438,1,8,0:0:0:0:
256,192,184781,1,0,0:0:0:0:
256,192,185124,1,8,0:0:0:0:
256,192,185295,1,8,0:0:0:0:
256,192,185809,1,0,0:0:0:0:
256,192,185981,1,0,0:0:0:0:
256,192,186152,1,8,0:0:0:0:
256,96,186838,5,4,0:0:0:0:
256,192,187181,5,8,0:0:0:0:
256,192,187524,1,0,0:0:0:0:
256,192,187695,1,0,0:0:0:0:
256,192,187866,1,8,0:0:0:0:
256,192,188038,1,0,0:0:0:0:
256,192,188552,1,8,0:0:0:0:
256,192,188895,1,8,0:0:0:0:
256,192,189066,1,0,0:0:0:0:
256,192,189238,1,8,0:0:0:0:
256,192,189581,1,0,0:0:0:0:
256,192,189924,1,8,0:0:0:0:
256,192,190266,1,0,0:0:0:0:
256,192,190438,1,0,0:0:0:0:
256,192,190609,1,8,0:0:0:0:
256,192,190781,1,8,0:0:0:0:
256,192,191295,1,8,0:0:0:0:
256,192,191466,1,0,0:0:0:0:
256,192,191638,1,8,0:0:0:0:
256,192,192324,1,0,0:0:0:0:
256,192,192666,1,8,0:0:0:0:
256,192,193009,1,8,0:0:0:0:
256,192,193181,1,0,0:0:0:0:
256,192,193352,1,8,0:0:0:0:
256,192,193524,1,8,0:0:0:0:
256,192,194038,1,0,0:0:0:0:
256,192,194381,1,8,0:0:0:0:
256,192,194552,1,0,0:0:0:0:
256,192,194724,1,8,0:0:0:0:
256,192,195066,1,0,0:0:0:0:
256,192,195238,1,8,0:0:0:0:
256,192,195409,1,0,0:0:0:0:
256,192,195581,1,0,0:0:0:0:
256,192,195752,1,8,0:0:0:0:
256,192,196095,1,8,0:0:0:0:
256,192,196438,1,0,0:0:0:0:
256,192,196609,1,0,0:0:0:0:
256,192,196781,1,8,0:0:0:0:
256,192,196952,1,8,0:0:0:0:
256,192,197124,1,0,0:0:0:0:
256,192,197466,1,8,0:0:0:0:
256,96,197809,1,4,0:0:0:0:
256,192,198152,1,8,0:0:0:0:
256,192,198838,1,8,0:0:0:0:
256,192,199009,1,8,0:0:0:0:
256,192,199352,1,0,0:0:0:0:
256,192,199524,1,8,0:0:0:0:
256,192,199695,1,0,0:0:0:0:
256,192,200038,1,8,0:0:0:0:
256,192,200381,1,0,0:0:0:0:
256,192,200552,1,8,0:0:0:0:
256,192,200895,1,8,0:0:0:0:
256,192,201238,1,0,0:0:0:0:
256,192,201581,1,8,0:0:0:0:
256,192,201752,1,8,0:0:0:0:
256,192,202266,1,0,0:0:0:0:
256,192,202438,1,8,0:0:0:0:
256,192,202609,1,8,0:0:0:0:
256,192,202781,1,0,0:0:0:0:
256,192,203124,1,0,0:0:0:0:
256,192,203295,1,8,0:0:0:0:
256,192,203638,1,0,0:0:0:0:
256,192,204324,1,0,0:0:0:0:
256,192,204495,1,8,0:0:0:0:
256,192,204838,1,0,0:0:0:0:
256,192,205009,1,8,0:0:0:0:
256,192,205181,1,0,0:0:0:0:
256,192,205524,1,8,0:0:0:0:
256,192,205695,1,8,0:0:0:0:
256,192,206038,1,0,0:0:0:0:
256,192,206381,1,8,0:0:0:0:
256,192,206552,1,0,0:0:0:0:
256,192,206895,1,0,0:0:0:0:
256,192,207066,1,8,0:0:0:0:
256,192,207238,1,8,0:0:0:0:
256,192,207409,1,0,0:0:0:0:
256,192,207752,1,8,0:0:0:0:
256,192,208095,1,0,0:0:0:0:
256,192,208266,1,0,0:0:0:0:
256,192,208438,1,8,0:0:0:0:
256,192,208609,1,8,0:0:0:0:
256,96,208781,1,4,0:0:0:0:
256,192,209124,1,8,0:0:0:0:
256,192,209809,1,8,0:0:0:0:
256,192,209981,1,8,0:0:0:0:
256,192,210324,1,0,0:0:0:0:
256,192,210495,1,8,0:0:0:0:
256,192,210666,1,0,0:0:0:0:
256,192,211009,1,8,0:0:0:0:
256,192,211181,1,8,0:0:0:0:
256,192,211352,1,0,0:0:0:0:
256,192,211524,1,0,0:0:0:0:
256,192,211866,1,8,0:0:0:0:
256,192,212209,1,0,0:0:0:0:
256,192,212552,1,8,0:0:0:0:
256,192,212724,1,0,0:0:0:0:
256,192,213238,1,8,0:0:0:0:
256,192,213409,1,0,0:0:0:0:
256,192,213581,1,8,0:0:0:0:
256,192,213752,1,8,0:0:0:0:
256,192,214095,5,0,0:0:0:0:
256,192,214266,1,8,0:0:0:0:
256,192,214609,1,8,0:0:0:0:
256,192,215295,1,8,0:0:0:0:
256,192,215466,5,0,0:0:0:0:
256,192,215809,1,8,0:0:0:0:
256,192,215981,1,0,0:0:0:0:
256,192,216152,1,8,0:0:0:0:
256,192,216495,1,0,0:0:0:0:
256,192,216666,1,8,0:0:0:0:
256,192,216838,1,0,0:0:0:0:
256,192,217009,1,8,0:0:0:0:
256,192,217352,1,0,0:0:0:0:
256,192,217695,1,8,0:0:0:0:
256,192,218038,1,0,0:0:0:0:
256,192,218209,1,8,0:0:0:0:
256,192,218381,1,0,0:0:0:0:
256,192,218552,1,0,0:0:0:0:
256,192,218724,1,8,0:0:0:0:
256,192,219066,1,0,0:0:0:0:
256,192,219238,5,0,0:0:0:0:
256,192,219409,1,8,0:0:0:0:
256,192,219581,1,8,0:0:0:0:
256,96,219752,5,4,0:0:0:0:
256,192,220438,1,8,0:0:0:0:
256,192,220781,1,0,0:0:0:0:
256,192,220952,1,8,0:0:0:0:
256,192,221124,1,0,0:0:0:0:
256,192,221466,1,0,0:0:0:0:
256,192,221638,1,0,0:0:0:0:
256,192,221809,1,8,0:0:0:0:
256,192,221981,1,0,0:0:0:0:
256,192,222152,1,8,0:0:0:0:
256,192,222495,1,0,0:0:0:0:
256,192,222838,1,0,0:0:0:0:
256,192,223181,1,8,0:0:0:0:
256,192,223524,1,0,0:0:0:0:
256,192,223695,1,0,0:0:0:0:
256,192,223866,1,8,0:0:0:0:
256,192,224209,1,0,0:0:0:0:
256,192,224552,1,8,0:0:0:0:
256,192,224895,1,8,0:0:0:0:
256,192,225066,1,8,0:0:0:0:
256,192,225238,1,0,0:0:0:0:
256,192,225924,1,8,0:0:0:0:
256,192,226266,1,0,0:0:0:0:
256,192,226438,1,8,0:0:0:0:
256,192,226609,1,8,0:0:0:0:
256,192,226952,1,0,0:0:0:0:
256,192,227295,1,8,0:0:0:0:
256,192,227466,1,0,0:0:0:0:
256,192,227638,1,8,0:0:0:0:
256,192,227981,1,0,0:0:0:0:
256,192,228324,1,8,0:0:0:0:
256,192,228495,1,0,0:0:0:0:
256,192,228666,1,8,0:0:0:0:
256,192,229009,1,8,0:0:0:0:
256,192,229181,1,8,0:0:0:0:
256,192,229352,1,0,0:0:0:0:
256,192,229695,1,0,0:0:0:0:
256,192,230038,1,8,0:0:0:0:
256,192,230209,1,0,0:0:0:0:
256,192,230381,1,8,0:0:0:0:
256,192,230552,1,8,0:0:0:0:
256,96,230724,5,4,0:0:0:0:
256,192,231409,1,8,0:0:0:0:
256,192,231752,1,0,0:0:0:0:
256,192,231924,1,8,0:0:0:0:
256,192,232095,1,0,0:0:0:0:
256,192,232438,1,0,0:0:0:0:
256,192,232609,1,0,0:0:0:0:
256,192,232781,1,8,0:0:0:0:
256,192,232952,1,0,0:0:0:0:
256,192,233124,1,8,0:0:0:0:
256,192,233466,1,0,0:0:0:0:
256,192,233809,1,8,0:0:0:0:
256,192,234152,1,0,0:0:0:0:
256,192,234495,1,8,0:0:0:0:
256,192,234666,1,0,0:0:0:0:
256,192,234838,1,8,0:0:0:0:
256,192,235181,1,0,0:0:0:0:
256,192,235524,1,8,0:0:0:0:
256,192,235866,1,8,0:0:0:0:
256,192,236038,1,8,0:0:0:0:
256,192,236209,1,0,0:0:0:0:
256,192,236895,1,8,0:0:0:0:
256,192,237238,1,0,0:0:0:0:
256,192,237409,1,8,0:0:0:0:
256,192,237581,1,8,0:0:0:0:
256,192,237924,1,0,0:0:0:0:
256,192,238266,1,8,0:0:0:0:
256,192,238438,1,0,0:0:0:0:
256,192,238609,5,8,0:0:0:0:
256,192,238952,1,0,0:0:0:0:
256,192,239295,1,8,0:0:0:0:
256,192,239466,1,8,0:0:0:0:
256,192,239638,1,0,0:0:0:0:
256,192,239809,1,8,0:0:0:0:
256,192,239981,1,0,0:0:0:0:
256,192,240324,1,8,0:0:0:0:
256,192,240666,1,8,0:0:0:0:
256,192,240838,1,8,0:0:0:0:
256,192,241009,1,0,0:0:0:0:
256,192,241181,1,0,0:0:0:0:
256,192,241352,1,8,0:0:0:0:
256,96,241695,1,4,0:0:0:0:
256,192,242381,1,8,0:0:0:0:
256,192,242724,1,0,0:0:0:0:
256,192,242895,1,8,0:0:0:0:
256,192,243066,1,0,0:0:0:0:
256,192,243409,1,0,0:0:0:0:
256,192,243581,1,0,0:0:0:0:
256,192,243752,1,8,0:0:0:0:
256,192,243924,1,8,0:0:0:0:
256,192,244095,1,0,0:0:0:0:
256,192,244438,1,8,0:0:0:0:
256,192,244781,1,8,0:0:0:0:
256,192,245124,1,0,0:0:0:0:
256,192,245295,1,8,0:0:0:0:
256,192,245466,1,8,0:0:0:0:
256,192,245809,1,0,0:0:0:0:
256,192,246152,1,8,0:0:0:0:
256,192,246324,1,0,0:0:0:0:
256,192,246495,1,8,0:0:0:0:
256,192,246666,1,8,0:0:0:0:
256,192,246838,1,0,0:0:0:0:
256,192,247181,1,0,0:0:0:0:
256,192,247866,1,8,0:0:0:0:
256,192,248209,1,0,0:0:0:0:
256,192,248381,1,8,0:0:0:0:
256,192,248552,1,0,0:0:0:0:
256,192,248895,1,0,0:0:0:0:
256,192,249066,1,0,0:0:0:0:
256,192,249238,1,8,0:0:0:0:
256,192,249409,1,0,0:0:0:0:
256,192,249581,1,8,0:0:0:0:
256,192,249924,1,0,0:0:0:0:
256,192,250266,1,8,0:0:0:0:
256,192,250609,1,0,0:0:0:0:
256,192,250781,1,8,0:0:0:0:
256,192,250952,1,8,0:0:0:0:
256,192,251295,1,0,0:0:0:0:
256,192,251638,1,8,0:0:0:0:
256,192,251809,1,0,0:0:0:0:
256,192,251981,1,8,0:0:0:0:
256,192,252152,1,0,0:0:0:0:
256,192,252324,1,8,0:0:0:0:
256,96,252666,1,4,0:0:0:0:
256,192,253352,1,8,0:0:0:0:
256,192,253695,1,0,0:0:0:0:
256,192,253866,1,8,0:0:0:0:
256,192,254038,1,0,0:0:0:0:
256,192,254381,1,0,0:0:0:0:
256,192,254724,1,8,0:0:0:0:
256,192,254895,1,8,0:0:0:0:
256,192,255066,1,0,0:0:0:0:
256,192,255238,1,0,0:0:0:0:
256,192,255409,1,8,0:0:0:0:
256,192,255752,1,8,0:0:0:0:
256,192,256095,1,0,0:0:0:0:
256,192,256266,1,8,0:0:0:0:
256,192,256438,1,8,0:0:0:0:
256,192,256781,1,0,0:0:0:0:
256,192,257124,1,8,0:0:0:0:
256,192,257295,5,8,0:0:0:0:
256,192,257466,1,0,0:0:0:0:
256,192,257638,1,8,0:0:0:0:
256,192,257809,1,0,0:0:0:0:
256,192,258152,1,0,0:0:0:0:
256,192,258838,1,8,0:0:0:0:
256,192,259181,1,0,0:0:0:0:
256,192,259352,1,8,0:0:0:0:
256,192,259524,1,0,0:0:0:0:
256,192,259866,1,0,0:0:0:0:
256,192,260038,1,0,0:0:0:0:
256,192,260209,1,8,0:0:0:0:
256,192,260381,1,0,0:0:0:0:
256,192,260552,1,8,0:0:0:0:
256,192,260895,1,0,0:0:0:0:
256,192,261238,1,8,0:0:0:0:
256,192,261409,1,8,0:0:0:0:
256,192,261581,1,0,0:0:0:0:
256,192,261752,1,0,0:0:0:0:
256,192,261924,1,8,0:0:0:0:
256,192,262266,1,0,0:0:0:0:
256,192,262609,1,8,0:0:0:0:
256,192,262781,1,0,0:0:0:0:
256,192,262952,1,8,0:0:0:0:
256,192,263124,1,0,0:0:0:0:
256,192,263295,1,8,0:0:0:0:
256,96,263638,5,4,0:0:0:0:
256,192,264324,1,8,0:0:0:0:
256,192,264666,1,0,0:0:0:0:
256,192,264838,1,8,0:0:0:0:
256,192,265009,1,0,0:0:0:0:
256,192,265352,1,0,0:0:0:0:
256,192,265695,1,8,0:0:0:0:
256,192,266038,1,0,0:0:0:0:
256,192,266381,1,8,0:0:0:0:
256,192,266724,1,8,0:0:0:0:
256,192,267066,1,0,0:0:0:0:
256,192,267238,1,8,0:0:0:0:
256,192,267409,1,8,0:0:0:0:
256,192,267752,1,0,0:0:0:0:
256,192,268095,1,8,0:0:0:0:
256,192,268266,1,0,0:0:0:0:
256,192,268438,1,8,0:0:0:0:
256,192,268781,1,0,0:0:0:0:
256,192,269124,1,8,0:0:0:0:
256,192,269809,1,8,0:0:0:0:
256,192,270152,1,0,0:0:0:0:
256,192,270324,1,8,0:0:0:0:
256,192,270495,1,0,0:0:0:0:
256,192,270838,1,0,0:0:0:0:
256,192,271181,1,8,0:0:0:0:
256,192,271524,1,8,0:0:0:0:
256,192,271866,1,0,0:0:0:0:
256,192,272209,1,8,0:0:0:0:
256,192,272552,1,0,0:0:0:0:
256,192,272724,1,8,0:0:0:0:
256,192,272895,1,8,0:0:0:0:
256,192,273238,1,0,0:0:0:0:
256,192,273581,1,8,0:0:0:0:
256,192,273752,1,0,0:0:0:0:
256,192,273924,1,8,0:0:0:0:
256,192,274266,1,8,0:0:0:0:
256,96,274609,1,4,0:0:0:0:
256,192,275295,1,8,0:0:0:0:
256,192,275638,1,0,0:0:0:0:
256,192,275809,1,8,0:0:0:0:
256,192,275981,1,0,0:0:0:0:
256,192,276324,1,0,0:0:0:0:
256,192,276666,1,8,0:0:0:0:
256,192,276838,1,8,0:0:0:0:
256,192,277009,1,0,0:0:0:0:
256,192,277352,1,8,0:0:0:0:
256,192,277695,1,8,0:0:0:0:
256,192,278038,1,0,0:0:0:0:
256,192,278381,1,8,0:0:0:0:
256,192,278724,1,0,0:0:0:0:
256,192,279066,1,8,0:0:0:0:
256,192,279238,1,0,0:0:0:0:
256,192,279409,1,8,0:0:0:0:
256,192,279752,1,8,0:0:0:0:
256,192,280095,1,0,0:0:0:0:
256,192,280781,1,8,0:0:0:0:
256,192,281124,1,0,0:0:0:0:
256,192,281295,1,8,0:0:0:0:
256,192,281466,1,0,0:0:0:0:
256,192,281809,1,0,0:0:0:0:
256,192,282152,1,8,0:0:0:0:
256,192,282324,1,0,0:0:0:0:
256,192,282495,1,8,0:0:0:0:
256,192,282838,1,0,0:0:0:0:
256,192,283181,1,8,0:0:0:0:
256,192,283524,1,0,0:0:0:0:
256,192,283695,1,0,0:0:0:0:
256,192,283866,1,8,0:0:0:0:
256,192,284038,1,8,0:0:0:0:
256,192,284209,1,0,0:0:0:0:
256,192,284552,1,8,0:0:0:0:
256,192,284724,1,0,0:0:0:0:
256,192,284895,1,8,0:0:0:0:
256,192,285066,1,0,0:0:0:0:
256,192,285238,1,8,0:0:0:0:
256,96,285581,5,4,0:0:0:0:
256,192,286266,1,0,0:0:0:0:
256,192,286609,1,8,0:0:0:0:
256,192,286952,1,0,0:0:0:0:
256,192,287124,1,8,0:0:0:0:
256,192,287466,1,0,0:0:0:0:
256,192,287638,1,8,0:0:0:0:
256,192,287981,1,0,0:0:0:0:
256,192,288324,1,8,0:0:0:0:
256,192,289009,1,0,0:0:0:0:
256,192,289352,1,8,0:0:0:0:
256,192,289695,1,0,0:0:0:0:
256,192,289866,1,8,0:0:0:0:
256,192,290209,1,8,0:0:0:0:
256,192,290381,1,8,0:0:0:0:
256,192,290724,1,0,0:0:0:0:
256,192,291066,1,8,0:0:0:0:
256,192,291752,1,0,0:0:0:0:
256,192,292095,1,8,0:0:0:0:
256,192,292438,1,0,0:0:0:0:
256,192,292609,1,0,0:0:0:0:
256,192,292952,1,8,0:0:0:0:
256,192,293124,1,8,0:0:0:0:
256,192,293466,1,0,0:0:0:0:
256,192,293809,1,8,0:0:0:0:
256,192,294495,1,0,0:0:0:0:
256,192,294838,1,8,0:0:0:0:
256,192,295181,1,0,0:0:0:0:
256,192,295352,1,8,0:0:0:0:
256,192,295695,1,0,0:0:0:0:
256,192,295866,1,8,0:0:0:0:
256,192,296209,1,8,0:0:0:0:
256,192,296381,1,8,0:0:0:0:
256,96,296552,1,4,0:0:0:0:
256,192,297238,1,0,0:0:0:0:
256,192,297581,1,8,0:0:0:0:
256,192,297924,1,0,0:0:0:0:
256,192,298095,1,8,0:0:0:0:
256,192,298438,1,8,0:0:0:0:
256,192,298609,1,0,0:0:0:0:
256,192,298952,1,8,0:0:0:0:
256,192,299295,1,0,0:0:0:0:
256,192,299981,1,0,0:0:0:0:
256,192,300324,1,8,0:0:0:0:
256,192,300666,1,0,0:0:0:0:
256,192,300838,1,8,0:0:0:0:
256,192,301181,1,8,0:0:0:0:
256,192,301352,1,8,0:0:0:0:
256,192,301695,1,0,0:0:0:0:
256,192,302038,1,8,0:0:0:0:
256,192,302724,1,0,0:0:0:0:
256,192,303066,1,8,0:0:0:0:
256,192,303409,1,0,0:0:0:0:
256,192,303581,1,0,0:0:0:0:
256,192,303924,1,8,0:0:0:0:
256,192,304095,1,8,0:0:0:0:
256,192,304266,1,0,0:0:0:0:
256,192,304438,5,8,0:0:0:0:
256,192,304781,5,0,0:0:0:0:
256,192,305124,1,0,0:0:0:0:
256,192,305295,1,8,0:0:0:0:
256,192,305466,1,0,0:0:0:0:
256,192,305638,1,0,0:0:0:0:
256,192,305809,1,8,0:0:0:0:
256,192,306152,1,0,0:0:0:0:
256,192,306324,1,0,0:0:0:0:
256,192,306495,1,8,0:0:0:0:
256,192,306838,1,8,0:0:0:0:
256,192,307009,1,8,0:0:0:0:
256,192,307181,1,0,0:0:0:0:
256,192,307352,1,8,0:0:0:0:
256,192,307524,1,0,0:0:0:0:
