osu file format v14

[General]
AudioFilename: Our Stolen Theory-United (L.A.O.S Remix) [Full] (www.myfree.cc).mp3
AudioLeadIn: 0
PreviewTime: 147345
Countdown: 0
SampleSet: None
StackLeniency: 0.7
Mode: 2
LetterboxInBreaks: 0
EpilepsyWarning: 1
WidescreenStoryboard: 1

[Editor]
Bookmarks: 48602,207688,212830
DistanceSpacing: 0.8
BeatDivisor: 4
GridSize: 16
TimelineZoom: 1.7

[Metadata]
Title:United (L.A.O.S Remix)
TitleUnicode:United (L.A.O.S Remix)
Artist:Our Stolen Theory
ArtistUnicode:Our Stolen Theory
Creator:CLSW
Version:Vanquisher
Source:
Tags:drum and bass dnb examination
BeatmapID:1119645
BeatmapSetID:527777

[Difficulty]
HPDrainRate:6.5
CircleSize:4
OverallDifficulty:9.5
ApproachRate:9.5
SliderMultiplier:1.92
SliderTickRate:2

[Events]
//Background and Video events
0,0,"10.jpg",0,0
//Break Periods
2,169488,179573
//Storyboard Layer 0 (Background)
//Storyboard Layer 1 (Fail)
//Storyboard Layer 2 (Pass)
//Storyboard Layer 3 (Foreground)
//Storyboard Sound Samples

[TimingPoints]
15688,342.857142857143,4,2,0,70,1,0
15688,-120.481927710843,4,2,0,70,0,0
26659,-120.481927710843,4,2,99,70,0,0
26830,-120.481927710843,4,2,0,70,0,0
37630,-100,4,2,1,70,0,0
48516,-100,4,2,1,30,0,0
48602,-100,4,2,1,70,0,0
54088,-100,4,2,4,30,0,0
54773,-100,4,2,4,35,0,0
55459,-100,4,2,4,40,0,0
56145,-100,4,2,4,45,0,0
56830,-100,4,2,4,50,0,0
59230,-100,4,1,1,50,0,0
59573,-100,4,2,99,60,0,0
59745,-100,4,2,2,60,0,0
76545,-100,4,1,1,40,0,0
77402,-100,4,1,1,45,0,0
78088,-100,4,1,1,50,0,0
78773,-100,4,1,1,55,0,0
79459,-100,4,1,1,60,0,0
80830,-100,4,1,1,65,0,0
81516,-100,4,1,99,70,0,1
81688,-100,4,1,1,70,0,1
102088,-100,4,2,4,70,0,1
103459,-100,4,2,99,60,0,0
103630,-100,4,2,2,60,0,0
120430,-100,4,1,1,50,0,0
124030,-100,4,1,1,60,0,0
125402,-100,4,1,99,60,0,1
125573,-100,4,1,1,60,0,0
143230,-100,4,1,1,60,0,0
145973,-100,4,2,4,60,0,0
146659,-100,4,2,4,65,0,0
147345,-100,4,2,99,70,0,1
147516,-100,4,1,1,70,0,1
167916,-100,4,2,4,70,0,1
168945,-62.5,4,2,4,70,0,1
169288,-100,4,1,99,80,0,0
180259,-120.481927710843,4,2,99,70,0,0
180430,-120.481927710843,4,2,0,70,0,0
191230,-120.481927710843,4,2,3,75,0,0
210430,-100,4,1,1,60,0,0
211116,-100,4,1,1,65,0,0
211802,-100,4,1,1,70,0,0
213173,-73.5294117647059,4,2,99,60,0,0
213345,-73.5294117647059,4,1,1,60,0,0
233745,-73.5294117647059,4,2,4,60,0,0
235116,-100,4,2,99,60,0,0
235288,-100,4,1,1,60,0,0
252945,-100,4,1,1,60,0,0
254830,-72.463768115942,4,1,1,60,0,0
255002,-100,4,1,1,60,0,0
255516,-72.463768115942,4,1,1,60,0,0
255688,-100,4,2,4,60,0,0
257059,-100,4,2,99,70,0,1
257230,-100,4,1,1,70,0,1
277630,-100,4,2,4,70,0,0
279002,-100,4,2,99,80,0,0
279173,-100,4,2,4,80,0,0
296830,-100,4,1,1,60,0,0
297516,-100,4,1,1,65,0,0
298202,-100,4,1,1,70,0,0
299573,-100,4,2,4,70,0,0
300945,-120.481927710843,4,2,99,80,0,0
301116,-120.481927710843,4,2,4,80,0,0
311916,-120.481927710843,4,2,99,80,0,0
312088,-120.481927710843,4,2,4,80,0,0
318088,-120.481927710843,4,1,1,45,0,0
318773,-100,4,1,1,50,0,0
319459,-100,4,1,1,55,0,0
320145,-100,4,1,1,60,0,0
320830,-100,4,1,1,65,0,0
321516,-100,4,2,4,70,0,0
322888,-120.481927710843,4,2,99,80,0,0
323059,-120.481927710843,4,2,0,80,0,0
327002,-120.481927710843,4,2,0,60,0,0
328373,-120.481927710843,4,2,0,40,0,0
329402,-120.481927710843,4,2,0,20,0,0
329745,-120.481927710843,4,2,0,15,0,0
330430,-120.481927710843,4,2,0,10,0,0
331116,-120.481927710843,4,2,0,5,0,0

[Colours]
Combo1 : 72,62,134
Combo2 : 156,46,203
Combo3 : 179,64,138
Combo4 : 181,21,78

[HitObjects]
176,176,15687,5,2,0:0:0:0:
256,240,15859,2,0,L|176:240,1,79.6800011550293,0|0,0:0|0:0,0:0:0:0:
336,176,16202,2,0,P|400:176|448:256,1,159.360002310059,2|0,0:0|0:0,0:0:0:0:
288,320,16716,6,0,L|208:320,1,79.6800011550293,2|0,0:0|0:0,0:0:0:0:
368,288,17059,1,0,0:0:0:0:
208,240,17230,2,0,P|144:240|96:320,1,159.360002310059,2|0,0:0|0:0,0:0:0:0:
256,320,17745,6,0,L|336:320,1,79.6800011550293,2|0,0:0|0:0,0:0:0:0:
176,304,18087,2,0,L|96:304,1,79.6800011550293,0|2,0:0|0:0,0:0:0:0:
336,272,18430,6,0,L|352:192,2,79.6800011550293,2|0|0,0:0|0:0|0:0,0:0:0:0:
176,224,18945,2,0,L|336:224,1,159.360002310059,2|0,0:0|0:0,0:0:0:0:
176,208,19459,6,0,L|160:128,2,79.6800011550293,2|0|0,0:0|0:0|0:0,0:0:0:0:
336,208,19973,2,0,L|176:208,1,159.360002310059,2|0,0:0|0:0,0:0:0:0:
336,208,20487,6,0,L|352:128,1,79.6800011550293,2|0,0:0|0:0,0:0:0:0:
176,128,20830,2,0,L|160:208,1,79.6800011550293,0|2,0:0|0:0,0:0:0:0:
416,208,21173,6,0,L|336:208,2,79.6800011550293,2|0|0,0:0|0:0|0:0,0:0:0:0:
256,208,21687,2,0,P|208:192|256:128,1,159.360002310059,2|0,0:0|0:0,0:0:0:0:
96,128,22202,6,0,L|176:128,2,79.6800011550293,2|0|0,0:0|0:0|0:0,0:0:0:0:
256,208,22716,2,0,P|304:192|256:128,1,159.360002310059,2|0,0:0|0:0,0:0:0:0:
416,128,23230,6,0,L|336:128,1,79.6800011550293,2|0,0:0|0:0,0:0:0:0:
256,128,23573,1,0,0:0:0:0:
416,96,23745,1,2,0:0:0:0:
96,128,23916,6,0,L|80:208,1,79.6800011550293,2|0,0:0|0:0,0:0:0:0:
176,208,24259,1,0,0:0:0:0:
336,208,24430,2,0,L|176:208,1,159.360002310059,2|0,0:0|0:0,0:0:0:0:
336,208,24945,5,2,0:0:0:0:
431,206,25116,2,0,L|416:128,1,79.6800011550293
256,112,25459,2,0,L|256:288,1,159.360002310059,2|0,0:0|0:0,0:0:0:0:
96,240,25973,6,0,L|176:240,1,79.6800011550293,2|0,0:0|0:0,0:0:0:0:
336,240,26316,1,0,0:0:0:0:
176,208,26488,1,2,0:0:0:0:
416,192,26659,6,0,L|256:192,1,159.360002310059,6|0,0:0|0:0,0:0:0:0:
416,144,27173,2,0,L|320:144,2,79.6800011550293,2|0|0,0:0|0:0|0:0,0:0:0:0:
256,96,27688,2,0,L|416:96,1,159.360002310059,2|0,0:0|0:0,0:0:0:0:
256,48,28202,6,0,L|336:48,2,79.6800011550293,2|0|0,0:0|0:0|0:0,0:0:0:0:
96,48,28716,2,0,L|112:128,1,79.6800011550293,2|0,0:0|0:0,0:0:0:0:
272,128,29059,2,0,L|256:208,1,79.6800011550293,0|2,0:0|0:0,0:0:0:0:
96,192,29402,6,0,L|256:192,1,159.360002310059,2|0,0:0|0:0,0:0:0:0:
96,240,29916,2,0,L|192:240,2,79.6800011550293,2|0|0,0:0|0:0|0:0,0:0:0:0:
256,288,30431,2,0,L|96:288,1,159.360002310059,2|0,0:0|0:0,0:0:0:0:
256,336,30945,6,0,L|176:336,2,79.6800011550293,2|0|0,0:0|0:0|0:0,0:0:0:0:
416,336,31459,2,0,L|400:256,1,79.6800011550293,2|0,0:0|0:0,0:0:0:0:
240,256,31802,2,0,L|256:176,1,79.6800011550293,0|2,0:0|0:0,0:0:0:0:
416,144,32145,6,0,L|256:144,1,159.360002310059,2|0,0:0|0:0,0:0:0:0:
96,144,32659,2,0,L|112:224,1,79.6800011550293,2|0,0:0|0:0,0:0:0:0:
208,224,33002,1,0,0:0:0:0:
368,224,33173,2,0,L|208:224,1,159.360002310059,2|0,0:0|0:0,0:0:0:0:
368,224,33688,6,0,L|384:144,1,79.6800011550293,2|0,0:0|0:0,0:0:0:0:
288,128,34030,1,0,0:0:0:0:
128,128,34202,2,0,L|48:128,1,79.6800011550293,2|0,0:0|0:0,0:0:0:0:
208,160,34545,2,0,L|304:160,1,79.6800011550293,0|2,0:0|0:0,0:0:0:0:
128,208,34888,6,0,L|304:208,1,159.360002310059,2|0,0:0|0:0,0:0:0:0:
128,256,35402,2,0,L|224:256,1,79.6800011550293,2|0,0:0|0:0,0:0:0:0:
368,256,35745,1,0,0:0:0:0:
208,208,35916,2,0,L|16:208,1,159.360002310059,2|0,0:0|0:0,0:0:0:0:
208,144,36430,6,0,L|128:144,2,79.6800011550293,2|0|0,0:0|0:0|0:0,0:0:0:0:
368,128,36945,2,0,L|272:128,1,79.6800011550293,2|0,0:0|0:0,0:0:0:0:
128,96,37288,2,0,L|208:96,1,79.6800011550293,0|0,0:0|0:0,0:0:0:0:
464,128,37630,5,4,0:0:0:0:
208,128,37973,1,8,0:0:0:0:
448,160,38145,2,0,L|464:208,2,48,0|0|0,0:0|0:0|0:0,0:0:0:0:
192,160,38488,1,0,0:0:0:0:
432,192,38659,1,8,0:0:0:0:
176,192,39002,6,0,L|160:288,1,96,0|0,0:0|0:0,0:0:0:0:
416,224,39345,1,8,0:0:0:0:
160,224,39516,2,0,L|144:272,1,48
224,272,39688,1,0,0:0:0:0:
400,272,39859,1,0,0:0:0:0:
144,272,40030,1,8,0:0:0:0:
384,304,40373,5,0,0:0:0:0:
128,304,40716,1,8,0:0:0:0:
368,336,40888,2,0,L|384:288,2,48
112,336,41230,1,0,0:0:0:0:
352,304,41402,1,8,0:0:0:0:
96,288,41745,6,0,L|80:192,1,96
336,192,42088,1,8,0:0:0:0:
80,192,42259,2,0,L|64:144,1,48
144,144,42430,1,0,0:0:0:0:
320,128,42602,1,0,0:0:0:0:
64,128,42773,1,8,0:0:0:0:
320,144,43116,5,0,0:0:0:0:
64,146,43459,1,8,0:0:0:0:
320,176,43631,2,0,L|335:221,2,48
80,192,43974,1,0,0:0:0:0:
336,240,44145,1,8,0:0:0:0:
96,240,44488,6,0,L|111:334,1,96
352,336,44831,1,8,0:0:0:0:
112,288,45002,2,0,L|127:333,1,48
208,336,45173,1,0,0:0:0:0:
368,304,45345,1,0,0:0:0:0:
128,336,45516,1,8,0:0:0:0:
384,256,45859,5,0,0:0:0:0:
144,256,46202,1,8,0:0:0:0:
400,224,46374,2,0,L|415:178,2,48
160,208,46716,1,0,0:0:0:0:
416,160,46888,1,8,0:0:0:0:
176,160,47230,6,0,L|192:64,1,96
432,64,47573,1,8,0:0:0:0:
192,128,47745,2,0,L|208:80,1,48
288,80,47916,1,0,0:0:0:0:
448,80,48088,1,0,0:0:0:0:
192,128,48259,2,0,P|160:176|224:224,1,144,8|0,0:0|2:0,0:0:0:0:
464,176,48602,5,4,0:0:0:0:
368,128,48773,2,0,L|480:128,1,96,0|8,0:0|0:0,0:0:0:0:
304,192,49116,2,0,L|256:192,2,48
144,144,49459,2,0,L|240:144,1,96,0|8,0:0|0:0,0:0:0:0:
80,144,49802,1,0,0:0:0:0:
240,176,49973,6,0,L|352:176,1,96
176,144,50316,1,8,0:0:0:0:
336,128,50488,2,0,L|384:128,2,48,0|0|0,0:0|0:0|0:0,0:0:0:0:
176,96,50830,1,0,0:0:0:0:
432,96,51002,2,0,L|320:96,1,96,8|0,0:0|0:0,0:0:0:0:
176,64,51345,6,0,L|272:64,1,96,0|0,0:0|0:0,0:0:0:0:
112,64,51688,1,8,0:0:0:0:
272,80,51859,2,0,L|320:80,2,48,0|0|0,0:0|0:0|0:0,0:0:0:0:
112,112,52202,2,0,L|208:112,1,96,0|8,0:0|0:0,0:0:0:0:
48,112,52545,1,0,0:0:0:0:
208,160,52716,6,0,L|320:160,1,96
144,160,53059,1,8,0:0:0:0:
304,144,53230,2,0,L|352:144,2,48
224,144,53573,1,0,0:0:0:0:
384,176,53745,2,0,L|288:176,1,96,8|0,0:0|0:0,0:0:0:0:
48,176,54088,6,0,L|32:272,1,96,2|0,1:2|1:0,0:0:0:0:
160,256,54430,2,0,L|176:352,1,96,10|2,1:2|1:2,0:0:0:0:
336,352,54773,1,0,1:0:0:0:
376,327,54858,1,0,1:0:0:0:
404,288,54945,1,2,1:2:0:0:
413,241,55030,1,0,1:0:0:0:
404,195,55115,1,10,1:2:0:0:
376,156,55201,1,0,1:0:0:0:
288,128,55288,1,2,1:2:0:0:
241,122,55372,1,0,1:0:0:0:
161,125,55459,6,0,L|97:125,3,48,0|0|2|0,1:0|1:0|1:2|1:0,0:0:0:0:
33,125,55802,2,0,L|17:173,1,48,8|0,1:2|1:0,0:0:0:0:
97,189,55973,2,0,L|161:189,1,48,0|0,1:0|1:0,0:0:0:0:
225,189,56145,6,0,L|273:189,3,48,2|0|2|0,1:2|1:0|1:2|1:0,0:0:0:0:
357,192,56488,2,0,L|373:144,1,48,8|0,1:2|1:0,0:0:0:0:
288,128,56659,2,0,L|225:125,1,48,2|0,1:2|1:0,0:0:0:0:
480,128,56830,6,0,L|464:176,1,48,0|0,1:0|1:0,0:0:0:0:
384,176,57002,2,0,L|368:224,1,48,2|0,1:2|1:0,0:0:0:0:
288,224,57173,2,0,L|304:272,1,48,8|0,1:2|1:0,0:0:0:0:
384,272,57345,2,0,L|400:320,1,48,0|0,1:0|1:0,0:0:0:0:
160,320,57516,6,0,L|176:272,1,48,2|0,1:2|1:0,0:0:0:0:
256,272,57688,2,0,L|272:224,1,48,0|0,1:0|1:0,0:0:0:0:
352,224,57859,2,0,L|336:176,1,48,8|0,1:2|1:0,0:0:0:0:
256,176,58031,2,0,L|240:128,1,48,2|0,1:2|1:0,0:0:0:0:
432,128,58202,6,0,L|448:176,3,48,4|0|0|0,1:2|1:0|1:0|1:0,0:0:0:0:
256,160,58545,2,0,L|256:208,3,48,4|0|0|0,1:2|1:0|1:0|1:0,0:0:0:0:
80,128,58888,6,0,L|64:176,3,48,6|0|0|0,1:2|1:0|1:0|1:0,0:0:0:0:
384,160,59230,1,4,0:0:0:0:
128,208,59573,5,6,0:0:0:0:
384,208,59745,2,0,L|272:208,2,96,0|8|0,0:0|0:0|0:0,0:0:0:0:
224,160,60259,2,0,L|320:160,2,96,0|0|8,0:0|0:0|0:0,0:0:0:0:
384,224,60773,6,0,L|400:320,1,96,0|0,0:0|0:0,0:0:0:0:
240,320,61116,2,0,L|224:224,1,96,0|8,0:0|0:0,0:0:0:0:
384,176,61459,1,0,0:0:0:0:
224,160,61630,1,0,0:0:0:0:
384,144,61802,2,0,L|480:144,1,96,0|8,0:0|0:0,0:0:0:0:
320,144,62145,6,0,L|224:144,2,96,0|0|0,0:0|0:0|0:0,0:0:0:0:
160,144,62659,2,0,L|144:240,1,96,8|0,0:0|0:0,0:0:0:0:
304,240,63002,2,0,L|400:240,1,96,0|0,0:0|0:0,0:0:0:0:
240,240,63345,1,8,0:0:0:0:
400,208,63516,6,0,L|416:304,1,96,0|0,0:0|0:0,0:0:0:0:
256,304,63859,2,0,L|368:304,1,96,0|8,0:0|0:0,0:0:0:0:
192,304,64202,2,0,L|176:208,1,96,0|0,0:0|0:0,0:0:0:0:
336,144,64545,2,0,L|240:144,1,96,0|8,0:0|0:0,0:0:0:0:
336,240,64888,5,0,0:0:0:0:
176,240,65059,2,0,L|80:240,1,96,0|0,0:0|0:0,0:0:0:0:
240,192,65402,1,8,0:0:0:0:
80,192,65573,2,0,L|32:192,2,48,0|0|0,0:0|0:0|0:0,0:0:0:0:
240,144,65916,2,0,L|144:144,1,96,0|8,0:0|0:0,0:0:0:0:
304,144,66259,6,0,L|416:144,1,96,0|0,0:0|0:0,0:0:0:0:
240,144,66602,2,0,L|224:240,1,96,0|8,0:0|0:0,0:0:0:0:
384,240,66945,2,0,L|400:336,1,96,0|0,0:0|0:0,0:0:0:0:
240,336,67288,2,0,L|128:336,1,96,0|8,0:0|0:0,0:0:0:0:
303,334,67630,6,0,L|399:334,2,96
464,288,68145,2,0,L|352:288,1,96,8|0,0:0|0:0,0:0:0:0:
208,288,68488,1,0,0:0:0:0:
368,224,68659,2,0,L|272:224,1,96,0|8,0:0|0:0,0:0:0:0:
112,224,69002,6,0,L|96:320,1,96,0|0,0:0|0:0,0:0:0:0:
224,304,69345,2,0,L|240:208,1,96,0|8,0:0|0:0,0:0:0:0:
80,208,69688,1,0,0:0:0:0:
240,208,69859,2,0,L|128:208,1,96
304,208,70202,2,0,L|352:208,1,48,8|0,0:0|0:0,0:0:0:0:
384,160,70373,1,0,0:0:0:0:
112,160,70545,5,4,0:2:0:0:
272,160,70716,2,0,L|176:160,2,96,0|8|0,0:0|0:0|0:0,0:0:0:0:
112,160,71230,2,0,L|128:256,1,96
288,256,71573,1,8,0:0:0:0:
192,224,71745,6,0,L|288:224,1,96,0|0,0:0|0:0,0:0:0:0:
128,192,72088,1,0,0:0:0:0:
288,192,72259,1,8,0:0:0:0:
32,224,72430,2,0,L|16:128,1,96,0|0,0:0|0:0,0:0:0:0:
288,224,72773,2,0,L|304:128,1,96,0|8,0:0|0:0,0:0:0:0:
144,96,73116,5,0,0:0:0:0:
304,96,73288,2,0,L|400:96,1,96,0|0,0:0|0:0,0:0:0:0:
240,96,73630,1,8,0:0:0:0:
400,96,73802,2,0,L|416:192,1,96,0|0,0:0|0:0,0:0:0:0:
256,192,74145,2,0,L|352:192,1,96,0|8,0:0|0:0,0:0:0:0:
192,224,74488,1,0,0:0:0:0:
352,240,74659,6,0,L|464:240,1,96,0|0,0:0|0:0,0:0:0:0:
288,240,75002,1,8,0:0:0:0:
448,240,75173,2,0,L|432:336,1,96,0|0,0:0|0:0,0:0:0:0:
272,336,75516,2,0,L|368:336,1,96,0|8,0:0|0:0,0:0:0:0:
208,336,75859,2,0,L|160:336,2,48,0|0|0,0:0|0:0|0:0,0:0:0:0:
304,304,76202,5,0,0:0:0:0:
144,272,76373,1,8,0:0:0:0:
304,272,76545,2,0,L|320:224,1,48,2|0,1:2|1:0,1:0:0:0:
240,224,76716,6,0,L|192:224,1,48,0|0,1:0|1:0,1:0:0:0:
208,176,76888,2,0,L|256:176,1,48,2|0,1:2|1:0,1:0:0:0:
176,176,77059,2,0,L|160:128,1,48,0|0,1:0|1:0,1:0:0:0:
336,176,77230,2,0,L|352:128,1,48,2|0,1:2|1:0,1:0:0:0:
272,80,77402,5,0,0:0:0:0:
226,93,77487,1,0,0:0:0:0:
201,133,77573,1,2,0:2:0:0:
206,179,77659,1,0,0:0:0:0:
368,208,77745,2,0,L|448:208,1,48,8|0,0:0|0:0,0:0:0:0:
144,208,77916,2,0,L|64:208,1,48
288,144,78088,6,0,L|304:192,1,48,2|0,0:2|0:2,0:0:0:0:
224,208,78259,2,0,L|176:208,1,48,2|0,0:2|0:0,0:0:0:0:
96,240,78430,2,0,L|80:288,1,48,8|0,0:0|0:0,0:0:0:0:
320,240,78602,2,0,L|336:288,1,48,2|0,0:2|0:0,0:0:0:0:
128,352,78773,6,0,L|112:304,1,48
176,288,78945,2,0,L|160:240,1,48,2|0,0:2|0:0,0:0:0:0:
224,240,79116,2,0,L|208:192,1,48
128,192,79288,2,0,L|112:144,1,48
288,176,79459,6,0,L|304:128,1,48,2|0,0:2|0:0,0:0:0:0:
240,128,79630,2,0,L|256:80,1,48,0|0,0:0|0:0,0:0:0:0:
192,80,79802,2,0,L|208:32,1,48,0|0,0:0|0:0,0:0:0:0:
288,32,79973,2,0,L|304:80,1,48,2|0,0:2|0:0,0:0:0:0:
144,80,80145,6,0,L|96:80,1,48
368,80,80316,2,0,L|416:80,1,48,2|0,0:2|0:0,0:0:0:0:
352,112,80488,2,0,L|304:112,1,48,8|0,0:0|0:0,0:0:0:0:
368,144,80659,2,0,L|416:144,1,48
144,160,80830,6,0,L|96:160,1,48,2|0,0:2|0:0,0:0:0:0:
160,128,81002,2,0,L|208:128,1,48
144,80,81173,2,0,L|96:80,1,48,8|0,0:0|0:0,0:0:0:0:
368,144,81344,2,0,L|416:144,1,48,2|0,0:2|0:0,0:0:0:0:
224,176,81516,6,0,L|128:176,1,96,6|2,0:2|0:2,0:0:0:0:
288,144,81859,1,8,0:0:0:0:
128,144,82030,2,0,L|112:192,1,48,2|0,0:2|0:0,0:0:0:0:
192,224,82202,2,0,L|240:224,1,48,2|0,0:2|0:0,0:0:0:0:
320,224,82373,1,2,0:2:0:0:
160,272,82545,2,0,L|64:272,1,96,8|2,0:0|0:2,0:0:0:0:
224,272,82888,6,0,L|320:272,1,96,0|2,0:0|0:2,0:0:0:0:
160,240,83230,1,8,0:0:0:0:
320,224,83402,2,0,L|368:224,2,48,0|0|2,0:0|0:0|0:2,0:0:0:0:
160,192,83745,1,2,0:2:0:0:
336,176,83916,2,0,L|240:176,1,96,8|2,0:0|0:2,0:0:0:0:
160,128,84259,5,0,0:0:0:0:
336,128,84430,2,0,L|352:240,1,96,2|8,0:2|0:0,0:0:0:0:
176,144,84773,2,0,L|112:144,1,48,2|0,0:2|0:0,0:0:0:0:
48,144,84945,2,0,L|64:192,1,48,2|0,0:2|0:0,0:0:0:0:
144,192,85116,1,2,0:2:0:0:
272,256,85288,2,0,L|176:256,1,96,8|2,0:0|0:2,0:0:0:0:
336,256,85630,6,0,L|352:352,1,96,0|2,0:0|0:2,0:0:0:0:
192,352,85973,1,8,0:0:0:0:
352,304,86145,2,0,L|432:304,2,48,2|0|2,0:2|0:0|0:2,0:0:0:0:
192,304,86488,1,2,0:2:0:0:
352,240,86659,2,0,L|368:192,1,48,8|0,0:0|0:0,0:0:0:0:
320,144,86830,2,0,L|240:144,1,48,2|0,0:2|0:0,0:0:0:0:
192,144,87002,6,0,L|96:144,1,96,0|0,0:0|0:0,0:0:0:0:
256,144,87345,2,0,L|304:144,2,48,8|0|2,0:0|0:0|0:2,0:0:0:0:
96,96,87688,2,0,L|192:96,1,96,0|2,0:0|0:2,0:0:0:0:
352,96,88030,2,0,L|256:96,1,96,8|2,0:0|0:2,0:0:0:0:
416,96,88373,6,0,L|432:144,1,48,2|0,0:2|0:0,0:0:0:0:
352,160,88545,2,0,L|336:208,1,48,2|0,0:2|0:0,0:0:0:0:
416,208,88716,1,8,0:0:0:0:
256,208,88888,1,0,0:0:0:0:
128,192,89059,2,0,L|224:192,1,96,2|0,0:2|0:0,0:0:0:0:
384,192,89402,2,0,L|368:240,1,48,8|0,0:0|0:0,0:0:0:0:
288,240,89573,1,2,0:2:0:0:
128,224,89745,6,0,L|240:224,1,96,0|0,0:0|0:0,0:0:0:0:
64,224,90088,2,0,L|48:176,1,48,8|0,0:0|0:0,0:0:0:0:
112,176,90259,2,0,L|96:128,1,48,2|0,0:2|0:0,0:0:0:0:
192,128,90430,2,0,L|288:128,1,96,2|0,0:2|0:0,0:0:0:0:
128,96,90773,1,8,0:0:0:0:
288,80,90945,1,2,0:2:0:0:
448,80,91116,6,0,L|432:128,1,48,2|0,0:2|0:0,0:0:0:0:
352,128,91288,2,0,L|336:176,1,48,2|0,0:2|0:0,0:0:0:0:
256,176,91459,2,0,L|160:176,1,96,8|2,0:0|0:2,0:0:0:0:
320,208,91802,1,0,0:0:0:0:
160,208,91973,1,2,0:2:0:0:
448,240,92145,1,8,0:0:0:0:
288,240,92316,1,2,0:2:0:0:
32,240,92488,6,0,L|128:240,1,96,4|2,0:0|0:2,0:0:0:0:
288,208,92830,1,8,0:0:0:0:
128,208,93002,2,0,L|144:160,1,48,2|0,0:2|0:0,0:0:0:0:
224,144,93173,2,0,L|272:144,1,48,2|0,0:2|0:0,0:0:0:0:
352,144,93345,2,0,L|448:144,1,96,2|8,0:2|0:0,0:0:0:0:
288,112,93688,1,2,0:2:0:0:
448,96,93859,6,0,L|352:96,1,96,0|2,0:0|0:2,0:0:0:0:
192,96,94202,2,0,L|176:144,1,48,8|0,0:0|0:0,0:0:0:0:
256,144,94373,2,0,L|272:192,1,48,0|0,0:0|0:0,0:0:0:0:
192,192,94545,2,0,L|96:192,1,96,2|2,0:2|0:2,0:0:0:0:
256,192,94888,2,0,L|368:192,1,96,8|2,0:0|0:2,0:0:0:0:
192,224,95230,1,0,0:0:0:0:
352,224,95402,6,0,L|400:224,2,48,2|0|8,0:2|0:0|0:0,0:0:0:0:
192,224,95745,2,0,L|208:176,1,48,2|0,0:2|0:0,0:0:0:0:
288,176,95916,2,0,L|336:176,1,48
416,176,96088,2,0,L|432:128,1,48,2|0,0:2|0:0,0:0:0:0:
352,112,96259,2,0,L|224:112,1,96,8|2,0:0|0:2,0:0:0:0:
416,112,96602,1,0,0:0:0:0:
256,112,96773,6,0,L|160:112,1,96,2|8,0:2|0:0,0:0:0:0:
320,96,97116,2,0,L|368:96,2,48,0|0|2,0:0|0:0|0:2,0:0:0:0:
160,80,97459,1,2,0:2:0:0:
320,48,97630,2,0,L|224:48,1,96,8|2,0:0|0:2,0:0:0:0:
384,49,97973,6,0,L|400:145,1,96,0|2,0:0|0:2,0:0:0:0:
240,144,98316,1,8,0:0:0:0:
400,144,98488,2,0,L|384:192,1,48,2|0,0:2|0:0,0:0:0:0:
304,208,98659,6,0,L|256:208,1,48
176,208,98830,2,0,L|160:256,1,48,2|0,0:2|0:0,0:0:0:0:
400,144,99002,2,0,L|384:192,1,48,8|0,0:0|0:0,0:0:0:0:
176,208,99173,2,0,L|160:256,1,48,2|0,0:2|0:0,0:0:0:0:
320,256,99345,5,0,0:0:0:0:
357,227,99430,1,0,0:0:0:0:
371,182,99516,1,2,0:2:0:0:
355,138,99602,1,0,0:0:0:0:
192,112,99687,1,8,0:0:0:0:
145,115,99773,1,0,0:0:0:0:
432,112,99859,2,0,L|448:160,1,48,2|0,0:2|0:0,0:0:0:0:
192,256,100030,5,2,0:2:0:0:
154,227,100115,1,0,0:0:0:0:
140,182,100201,1,0,0:0:0:0:
156,138,100287,1,0,0:0:0:0:
320,112,100372,1,8,0:0:0:0:
367,115,100458,1,0,0:0:0:0:
80,112,100545,2,0,L|64:160,1,48,2|0,0:2|0:0,0:0:0:0:
288,208,100716,6,0,L|352:208,1,48
256,240,100888,2,0,L|240:288,1,48,2|0,0:2|0:0,0:0:0:0:
80,288,101059,2,0,L|16:288,1,48,8|0,0:0|0:0,0:0:0:0:
384,208,101230,2,0,L|432:208,1,48,2|0,0:2|0:0,0:0:0:0:
224,208,101402,6,0,L|160:208,1,48,2|0,0:2|0:0,0:0:0:0:
256,240,101574,2,0,L|272:288,1,48,2|0,0:2|0:0,0:0:0:0:
432,288,101745,2,0,L|496:288,1,48,8|0,0:0|0:0,0:0:0:0:
128,288,101916,2,0,L|80:288,1,48,2|0,0:2|0:0,0:0:0:0:
280,144,102088,6,0,L|296:192,1,48,2|0,1:2|1:0,0:0:0:0:
216,192,102259,2,0,L|200:240,1,48,2|0,1:2|1:0,0:0:0:0:
432,144,102430,2,0,L|416:96,1,48,14|0,1:2|1:0,0:0:0:0:
336,80,102602,2,0,L|272:80,1,48,2|0,1:2|1:0,0:0:0:0:
80,144,102773,6,0,L|96:96,1,48,6|0,1:2|1:0,0:0:0:0:
176,80,102945,2,0,L|240:80,1,48,2|0,1:2|1:0,0:0:0:0:
480,144,103116,2,0,L|464:96,1,48,14|0,1:2|1:0,0:0:0:0:
384,80,103288,2,0,L|320:80,1,48,2|0,1:2|1:0,0:0:0:0:
176,96,103459,6,0,L|288:96,2,96,6|0|8,0:0|0:0|0:0,0:0:0:0:
16,80,103973,2,0,L|32:176,1,96,0|0,0:0|0:0,0:0:0:0:
192,176,104316,2,0,L|96:176,1,96,0|8,0:0|0:0,0:0:0:0:
256,176,104659,6,0,L|240:272,1,96,0|0,0:0|0:0,0:0:0:0:
80,272,105002,2,0,L|176:272,1,96,0|8,0:0|0:0,0:0:0:0:
336,272,105345,1,0,0:0:0:0:
176,272,105516,2,0,L|160:176,1,96,0|0,0:0|0:0,0:0:0:0:
320,176,105859,1,8,0:0:0:0:
160,144,106030,1,0,0:0:0:0:
320,144,106202,6,0,L|416:144,1,96,0|0,0:0|0:0,0:0:0:0:
256,128,106545,1,8,0:0:0:0:
416,96,106716,1,0,0:0:0:0:
256,96,106888,2,0,L|160:96,2,96,0|0|8,0:0|0:0|0:0,0:0:0:0:
96,96,107402,6,0,L|80:192,1,96,0|0,0:0|0:0,0:0:0:0:
256,192,107745,2,0,L|256:304,1,96,0|8,0:0|0:0,0:0:0:0:
416,96,108088,2,0,L|432:192,1,96,0|0,0:0|0:0,0:0:0:0:
256,192,108430,2,0,L|256:304,1,96,0|8,0:0|0:0,0:0:0:0:
96,144,108773,5,0,0:0:0:0:
256,144,108945,2,0,L|352:144,2,96,0|0|8,0:0|0:0|0:0,0:0:0:0:
416,144,109459,1,0,0:0:0:0:
256,144,109630,2,0,L|160:144,2,96,0|0|8,0:0|0:0|0:0,0:0:0:0:
96,176,110145,6,0,L|112:272,1,96,0|0,0:0|0:0,0:0:0:0:
272,272,110488,1,0,0:0:0:0:
112,240,110659,2,0,L|208:240,1,96,8|0,0:0|0:0,0:0:0:0:
368,240,111002,2,0,L|256:240,2,96,0|0|8,0:0|0:0|0:0,0:0:0:0:
208,240,111516,6,0,L|192:144,1,96,0|0,0:0|0:0,0:0:0:0:
352,144,111859,2,0,L|368:240,1,96,0|8,0:0|0:0,0:0:0:0:
240,240,112202,2,0,L|224:336,1,96
352,320,112545,2,0,L|256:320,1,96,0|8,0:0|0:0,0:0:0:0:
96,304,112888,6,0,L|208:304,2,96
224,256,113402,1,8,0:0:0:0:
64,256,113573,1,0,0:0:0:0:
192,176,113745,2,0,L|288:176,2,96,0|0|8,0:0|0:0|0:0,0:0:0:0:
352,176,114259,1,0,0:0:0:0:
96,128,114430,6,0,L|112:224,1,96,4|0,0:0|0:0,0:0:0:0:
272,224,114773,2,0,L|176:224,1,96,8|0,0:0|0:0,0:0:0:0:
336,224,115116,2,0,L|352:128,1,96,0|0,0:0|0:0,0:0:0:0:
192,128,115459,1,8,0:0:0:0:
351,129,115630,6,0,L|367:225,1,96,0|0,0:0|0:0,0:0:0:0:
208,224,115973,2,0,L|192:320,1,96,0|8,0:0|0:0,0:0:0:0:
352,320,116316,1,0,0:0:0:0:
192,320,116488,1,0,0:0:0:0:
448,320,116659,2,0,L|352:320,1,96,0|8,0:0|0:0,0:0:0:0:
192,272,117002,6,0,L|288:272,1,96,0|0,0:0|0:0,0:0:0:0:
128,272,117345,1,0,0:0:0:0:
288,224,117516,1,8,0:0:0:0:
128,224,117688,2,0,L|80:224,2,48,0|0|0,0:0|0:0|0:0,0:0:0:0:
288,192,118030,2,0,L|192:192,1,96,0|8,0:0|0:0,0:0:0:0:
32,176,118373,6,0,L|144:176,2,96,0|0|0,0:0|0:0|0:0,0:0:0:0:
192,176,118888,1,8,0:0:0:0:
352,176,119059,2,0,L|256:176,2,96,0|0|0,0:0|0:0|0:0,0:0:0:0:
192,144,119573,1,8,0:0:0:0:
32,160,119745,2,0,L|48:112,1,48,0|0,0:0|0:0,0:0:0:0:
112,112,119916,5,0,0:0:0:0:
272,96,120088,1,0,0:0:0:0:
112,80,120259,1,8,0:0:0:0:
368,80,120430,2,0,L|384:128,1,48,2|0,0:2|0:0,0:0:0:0:
224,128,120602,6,0,L|208:176,1,48
272,176,120773,2,0,L|256:224,1,48,2|0,0:2|0:0,0:0:0:0:
320,224,120945,2,0,L|304:272,1,48,8|0,0:0|0:0,0:0:0:0:
144,272,121116,2,0,L|128:320,1,48,2|0,0:2|0:0,0:0:0:0:
384,336,121288,5,2,0:2:0:0:
421,307,121373,1,0,0:0:0:0:
436,262,121459,1,0,0:0:0:0:
422,217,121545,1,0,0:0:0:0:
386,187,121630,1,8,0:0:0:0:
338,184,121716,1,0,0:0:0:0:
256,192,121802,2,0,L|192:192,1,48,2|0,0:2|0:0,0:0:0:0:
128,192,121973,5,2,0:2:0:0:
166,163,122058,1,0,0:0:0:0:
181,118,122144,1,0,0:0:0:0:
167,73,122230,1,0,0:0:0:0:
131,43,122315,1,8,0:0:0:0:
83,40,122401,1,0,0:0:0:0:
160,48,122487,2,0,L|224:48,1,48,2|0,0:2|0:0,0:0:0:0:
384,112,122659,6,0,L|400:160,1,48,2|0,0:2|0:0,0:0:0:0:
224,208,122830,2,0,L|208:256,1,48,0|0,0:0|0:0,0:0:0:0:
288,256,123002,2,0,L|352:256,1,48,8|0,0:0|0:0,0:0:0:0:
256,256,123173,2,0,L|240:304,1,48
414,203,123345,6,0,L|398:155,1,48,0|0,0:0|0:0,0:0:0:0:
240,160,123516,2,0,L|176:160,1,48,0|0,0:0|0:0,0:0:0:0:
272,160,123688,2,0,L|288:112,1,48,8|0,0:0|0:0,0:0:0:0:
128,112,123859,2,0,L|80:112,1,48,0|0,0:0|0:0,0:0:0:0:
352,32,124030,6,0,L|336:80,1,48
256,80,124202,2,0,L|240:128,1,48,0|0,0:0|0:0,0:0:0:0:
160,128,124373,2,0,L|176:176,1,48,8|0,0:0|0:0,0:0:0:0:
255,174,124545,2,0,L|271:222,1,48,0|0,0:0|0:0,0:0:0:0:
112,224,124716,5,0,0:0:0:0:
80,257,124801,1,0,0:0:0:0:
96,299,124887,1,0,0:0:0:0:
141,305,124973,1,0,0:0:0:0:
320,304,125059,2,0,L|368:304,1,48,8|0,0:0|0:0,0:0:0:0:
144,272,125230,2,0,L|96:272,1,48,0|0,0:0|0:0,0:0:0:0:
320,256,125402,6,0,L|416:256,1,96,6|0,0:2|0:0,0:0:0:0:
256,240,125745,1,8,0:0:0:0:
416,208,125916,1,0,0:0:0:0:
160,176,126088,2,0,L|64:176,1,96,0|0,0:0|0:0,0:0:0:0:
352,176,126430,2,0,L|448:176,1,96,8|0,0:0|0:0,0:0:0:0:
176,112,126773,5,0,0:0:0:0:
336,112,126945,1,0,0:0:0:0:
176,112,127116,1,8,0:0:0:0:
336,144,127288,2,0,L|400:144,2,48,0|0|0,0:0|0:0|0:0,0:0:0:0:
176,144,127630,1,0,0:0:0:0:
432,192,127802,2,0,L|336:192,1,96,8|0,0:0|0:0,0:0:0:0:
80,192,128145,6,0,L|176:192,2,96,0|0|8,0:0|0:0|0:0,0:0:0:0:
240,192,128659,2,0,L|256:240,1,48,0|0,0:0|0:0,0:0:0:0:
96,240,128830,2,0,L|80:144,1,96,0|0,0:0|0:0,0:0:0:0:
416,144,129173,2,0,L|432:240,1,96,8|0,0:0|0:0,0:0:0:0:
176,144,129516,5,0,0:0:0:0:
336,144,129688,1,0,0:0:0:0:
176,112,129859,2,0,L|80:112,1,96,8|0,0:0|0:0,0:0:0:0:
240,80,130202,1,0,0:0:0:0:
80,80,130373,1,0,0:0:0:0:
336,112,130545,2,0,L|432:112,1,96,8|0,0:0|0:0,0:0:0:0:
176,80,130888,5,0,0:0:0:0:
336,80,131059,2,0,L|384:80,2,48,0|0|8,0:0|0:0|0:0,0:0:0:0:
176,64,131402,1,0,0:0:0:0:
480,64,131573,2,0,L|464:160,1,96,0|0,0:0|0:0,0:0:0:0:
208,176,131916,2,0,L|304:176,1,96,8|0,0:0|0:0,0:0:0:0:
144,176,132259,6,0,L|128:80,1,96,0|0,0:0|0:0,0:0:0:0:
288,80,132602,1,8,0:0:0:0:
128,80,132773,2,0,L|112:128,2,48,0|0|0,0:0|0:0|0:0,0:0:0:0:
288,112,133116,1,0,0:0:0:0:
128,128,133288,2,0,L|240:128,1,96,8|0,0:0|0:0,0:0:0:0:
384,128,133630,6,0,L|288:128,1,96,0|0,0:0|0:0,0:0:0:0:
32,80,133973,1,8,0:0:0:0:
192,80,134145,1,0,0:0:0:0:
448,48,134316,2,0,L|352:48,1,96,0|0,0:0|0:0,0:0:0:0:
192,48,134659,2,0,L|288:48,1,96,8|0,0:0|0:0,0:0:0:0:
128,80,135002,5,0,0:0:0:0:
288,80,135173,1,0,0:0:0:0:
48,128,135345,1,8,0:0:0:0:
368,128,135516,2,0,L|384:176,2,48,0|0|0,0:0|0:0|0:0,0:0:0:0:
208,128,135859,1,0,0:0:0:0:
448,128,136030,2,0,L|432:176,1,48,8|0,0:0|0:0,0:0:0:0:
352,192,136202,2,0,L|272:192,1,48
48,192,136373,6,0,L|160:192,1,96,4|0,0:0|0:0,0:0:0:0:
304,192,136716,2,0,L|208:192,1,96,8|0,0:0|0:0,0:0:0:0:
464,192,137059,1,0,0:0:0:0:
176,128,137230,1,0,0:0:0:0:
336,128,137402,2,0,L|352:224,1,96,8|0,0:0|0:0,0:0:0:0:
192,304,137745,6,0,L|80:304,1,96,0|0,0:0|0:0,0:0:0:0:
256,304,138088,1,8,0:0:0:0:
96,272,138259,2,0,L|48:272,2,48,0|0|0,0:0|0:0|0:0,0:0:0:0:
256,256,138602,1,0,0:0:0:0:
416,256,138773,1,8,0:0:0:0:
256,208,138945,1,0,0:0:0:0:
416,208,139116,6,0,L|432:112,1,96,0|0,0:0|0:0,0:0:0:0:
272,112,139459,1,8,0:0:0:0:
432,112,139630,2,0,L|448:160,2,48,0|0|0,0:0|0:0|0:0,0:0:0:0:
112,112,139973,1,0,0:0:0:0:
432,112,140145,1,8,0:0:0:0:
272,112,140316,1,0,0:0:0:0:
112,112,140488,6,0,L|96:208,1,96,0|0,0:0|0:0,0:0:0:0:
256,208,140830,1,8,0:0:0:0:
96,206,141002,1,0,0:0:0:0:
352,240,141173,2,0,L|448:240,1,96
160,240,141516,2,0,L|64:240,1,96,8|0,0:0|0:0,0:0:0:0:
224,240,141859,5,0,0:0:0:0:
285,173,142030,1,0,0:0:0:0:
246,92,142201,1,8,0:0:0:0:
156,99,142373,1,0,0:0:0:0:
320,96,142545,2,0,L|336:192,1,96,0|0,0:0|0:0,0:0:0:0:
176,208,142888,2,0,L|160:112,1,96,8|0,0:0|0:0,0:0:0:0:
416,96,143230,6,0,L|432:144,3,48,0|0|2|0,0:0|0:0|0:2|0:0,0:0:0:0:
336,160,143573,2,0,L|352:240,3,48,8|0|2|0,0:0|0:0|0:2|0:0,0:0:0:0:
256,208,143916,6,0,L|256:256,3,48,0|0|2|0,0:0|0:0|0:2|0:0,0:0:0:0:
176,160,144259,2,0,L|160:240,3,48,8|0|2|0,0:0|0:0|0:2|0:0,0:0:0:0:
96,96,144602,6,0,L|80:144,1,48,0|0,0:0|0:0,0:0:0:0:
176,160,144773,2,0,L|160:240,1,48,2|0,0:2|0:0,0:0:0:0:
256,208,144945,2,0,L|256:256,1,48,8|0,0:0|0:0,0:0:0:0:
336,160,145116,2,0,L|352:240,1,48,2|0,0:2|0:0,0:0:0:0:
416,96,145288,6,0,L|432:144,1,48,0|0,0:0|0:0,0:0:0:0:
176,160,145459,2,0,L|160:240,1,48,2|0,0:2|0:0,0:0:0:0:
336,160,145630,2,0,L|352:240,1,48,8|0,0:0|0:0,0:0:0:0:
96,96,145802,2,0,L|80:144,1,48,2|0,0:2|0:0,0:0:0:0:
432,128,145973,5,2,1:2:0:0:
452,169,146058,1,0,1:0:0:0:
433,212,146144,1,2,1:2:0:0:
388,224,146230,1,0,1:0:0:0:
144,144,146316,1,14,1:2:0:0:
123,185,146401,1,0,1:0:0:0:
142,228,146487,1,2,1:2:0:0:
187,240,146573,1,0,1:0:0:0:
368,240,146659,5,6,1:2:0:0:
389,199,146744,1,0,1:0:0:0:
370,156,146830,1,2,1:2:0:0:
325,144,146916,1,0,1:0:0:0:
80,256,147002,1,14,1:2:0:0:
59,214,147087,1,0,1:0:0:0:
78,171,147173,1,2,1:2:0:0:
123,159,147259,1,0,1:0:0:0:
384,48,147345,6,0,L|400:144,1,96,6|2,1:2|0:2,0:0:0:0:
224,96,147688,1,8,0:0:0:0:
384,96,147859,2,0,L|368:144,1,48,2|0,0:2|0:0,0:0:0:0:
288,160,148030,2,0,L|240:160,1,48,0|0,0:0|0:0,0:0:0:0:
160,176,148202,2,0,L|144:224,1,48,2|0,0:2|0:0,0:0:0:0:
224,224,148373,2,0,L|336:224,1,96,8|2,0:0|0:2,0:0:0:0:
176,224,148716,6,0,L|160:176,1,48,0|0,0:0|0:0,0:0:0:0:
240,176,148888,1,2,0:2:0:0:
400,176,149059,2,0,L|304:176,2,96,8|2|2,0:0|0:2|0:2,0:0:0:0:
240,176,149573,1,0,0:0:0:0:
160,176,149660,2,0,L|144:222,1,48,0|8,0:0|0:0,0:0:0:0:
304,224,149916,1,2,0:2:0:0:
176,256,150088,6,0,L|80:256,1,96,0|2,0:0|0:2,0:0:0:0:
240,256,150430,2,0,L|224:208,1,48,8|0,0:0|0:0,0:0:0:0:
144,208,150602,2,0,L|160:160,1,48,2|0,0:2|0:0,0:0:0:0:
240,144,150773,2,0,L|336:144,1,96,0|2,0:0|0:2,0:0:0:0:
176,112,151116,2,0,L|80:112,1,96,8|2,0:0|0:2,0:0:0:0:
240,96,151459,5,0,0:0:0:0:
80,96,151630,2,0,L|32:96,2,48,2|0|8,0:2|0:0|0:0,0:0:0:0:
240,64,151973,1,2,0:2:0:0:
80,48,152145,2,0,L|176:48,1,96,2|2,0:2|0:2,0:0:0:0:
336,48,152488,2,0,L|240:48,1,96,8|2,0:0|0:2,0:0:0:0:
400,48,152830,6,0,L|416:144,1,96,0|0,0:0|0:0,0:0:0:0:
256,144,153173,2,0,L|240:192,1,48,8|0,0:0|0:0,0:0:0:0:
304,192,153345,2,0,L|288:240,1,48,2|0,0:2|0:0,0:0:0:0:
368,240,153516,1,0,0:0:0:0:
192,240,153688,2,0,L|80:240,1,96,2|8,0:2|0:0,0:0:0:0:
256,240,154030,2,0,L|240:288,1,48,2|0,0:2|0:0,0:0:0:0:
304,288,154202,5,0,0:0:0:0:
144,288,154373,2,0,L|48:288,1,96,0|8,0:0|0:0,0:0:0:0:
208,288,154716,1,0,0:0:0:0:
48,288,154888,1,2,0:2:0:0:
208,256,155059,2,0,L|304:256,2,96,0|8|2,0:0|0:0|0:2,0:0:0:0:
464,240,155573,5,0,0:0:0:0:
208,208,155745,2,0,L|144:208,2,48,2|0|8,0:2|0:0|0:0,0:0:0:0:
368,192,156088,1,0,0:0:0:0:
48,176,156259,1,0,0:0:0:0:
208,160,156430,2,0,L|256:160,2,48,2|0|8,0:2|0:0|0:0,0:0:0:0:
48,144,156773,1,2,0:2:0:0:
328,128,156945,6,0,L|312:176,1,48,2|0,0:2|0:0,0:0:0:0:
232,192,157116,2,0,L|184:192,1,48,2|0,0:2|0:0,0:0:0:0:
272,192,157288,1,8,0:0:0:0:
112,192,157459,2,0,L|208:192,1,96,2|2,0:2|0:2,0:0:0:0:
368,192,157802,1,0,0:0:0:0:
208,192,157973,2,0,L|224:240,1,48,8|0,0:0|0:0,0:0:0:0:
320,240,158145,2,0,L|336:288,1,48,2|0,0:2|0:0,0:0:0:0:
144,256,158316,6,0,L|48:256,1,96,4|0,0:0|0:0,0:0:0:0:
208,256,158659,2,0,L|256:256,1,48,8|0,0:0|0:0,0:0:0:0:
176,208,158830,2,0,L|192:160,1,48,2|0,0:2|0:0,0:0:0:0:
272,160,159002,2,0,L|368:160,2,96,0|2|8,0:0|0:2|0:0,0:0:0:0:
432,160,159516,2,0,L|496:160,1,48,2|0,0:2|0:0,0:0:0:0:
400,144,159688,6,0,L|384:96,1,48
304,96,159859,2,0,L|208:96,2,96,2|8|0,0:2|0:0|0:0,0:0:0:0:
144,96,160373,2,0,L|128:192,1,96,2|0,0:2|0:2,0:0:0:0:
288,192,160716,2,0,L|304:288,1,96,8|2,0:0|0:2,0:0:0:0:
144,288,161059,6,0,L|16:288,1,96,0|2,0:0|0:2,0:0:0:0:
208,240,161402,2,0,L|256:240,1,48,8|0,0:0|0:0,0:0:0:0:
176,256,161573,2,0,L|160:304,1,48,2|0,0:2|0:0,0:0:0:0:
240,320,161745,2,0,L|336:320,1,96,2|2,0:2|0:2,0:0:0:0:
176,320,162088,2,0,L|80:320,1,96,8|2,0:0|0:2,0:0:0:0:
240,272,162430,5,0,0:0:0:0:
80,272,162602,2,0,L|16:272,2,48,2|0|8,0:2|0:0|0:0,0:0:0:0:
240,224,162945,1,0,0:0:0:0:
80,224,163116,2,0,L|176:224,1,96,2|2,0:2|0:2,0:0:0:0:
336,208,163459,2,0,L|224:208,1,96,8|2,0:0|0:2,0:0:0:0:
480,176,163802,6,0,L|384:176,1,96,0|0,0:0|0:0,0:0:0:0:
224,176,164145,1,8,0:0:0:0:
384,144,164316,1,2,0:2:0:0:
32,176,164488,2,0,L|128:176,1,96,0|2,0:0|0:2,0:0:0:0:
288,176,164831,1,8,0:0:0:0:
128,144,165002,1,2,0:2:0:0:
480,96,165173,5,0,0:0:0:0:
320,96,165345,1,2,0:2:0:0:
160,96,165516,1,8,0:0:0:0:
320,96,165688,1,2,0:2:0:0:
32,96,165859,1,0,0:0:0:0:
192,96,166031,1,2,0:2:0:0:
352,96,166202,1,8,0:0:0:0:
192,96,166374,1,2,0:2:0:0:
464,224,166545,5,8,0:0:0:0:
320,224,166716,1,10,0:2:0:0:
48,272,166888,1,8,0:0:0:0:
192,272,167059,1,10,0:2:0:0:
32,224,167230,1,8,0:0:0:0:
176,224,167401,1,10,0:2:0:0:
480,224,167573,1,8,0:0:0:0:
336,224,167744,1,10,0:2:0:0:
80,208,167916,6,0,L|16:208,1,48,2|0,1:2|1:0,0:0:0:0:
112,224,168088,2,0,L|128:272,1,48,2|0,1:2|1:0,0:0:0:0:
432,208,168259,2,0,L|480:208,1,48,14|0,1:2|1:0,0:0:0:0:
400,224,168431,2,0,L|384:272,1,48,2|0,1:2|1:0,0:0:0:0:
176,304,168602,6,0,L|128:304,1,48,6|0,1:2|1:0,0:0:0:0:
336,304,168773,2,0,L|384:304,1,48,2|0,1:2|1:0,0:0:0:0:
128,176,168945,2,0,L|76:239,1,76.8,14|0,1:2|1:0,0:0:0:0:
384,176,169116,2,0,L|435:238,1,76.8,2|0,1:2|1:0,0:0:0:0:
256,272,169288,5,6,0:2:0:0:
336,144,180259,6,0,L|176:144,1,159.360002310059,6|0,0:0|0:0,0:0:0:0:
336,176,180773,2,0,L|432:176,2,79.6800011550293,2|0|0,0:0|0:0|0:0,0:0:0:0:
176,176,181288,6,0,L|336:176,1,159.360002310059,2|0,0:0|0:0,0:0:0:0:
176,176,181802,2,0,L|96:176,2,79.6800011550293,2|0|0,0:0|0:0|0:0,0:0:0:0:
336,176,182316,6,0,L|320:256,1,79.6800011550293,2|0,0:0|0:0,0:0:0:0:
192,256,182659,2,0,L|176:336,1,79.6800011550293,0|2,0:0|0:0,0:0:0:0:
336,336,183002,6,0,L|496:336,1,159.360002310059,2|0,0:0|0:0,0:0:0:0:
336,288,183516,2,0,L|240:288,2,79.6800011550293,2|0|0,0:0|0:0|0:0,0:0:0:0:
176,336,184030,6,0,L|16:336,1,159.360002310059,2|0,0:0|0:0,0:0:0:0:
176,288,184545,2,0,L|272:288,2,79.6800011550293,2|0|0,0:0|0:0|0:0,0:0:0:0:
336,240,185059,6,0,L|240:240,1,79.6800011550293,2|0,0:0|0:0,0:0:0:0:
96,240,185402,2,0,L|176:240,1,79.6800011550293,0|2,0:0|0:0,0:0:0:0:
336,192,185745,6,0,P|384:192|448:96,1,159.360002310059,2|0,0:0|0:0,0:0:0:0:
288,112,186259,2,0,L|192:112,2,79.6800011550293,2|0|0,0:0|0:0|0:0,0:0:0:0:
176,192,186773,6,0,P|128:192|64:96,1,159.360002310059,2|0,0:0|0:0,0:0:0:0:
224,112,187287,2,0,L|320:112,2,79.6800011550293,2|0|0,0:0|0:0|0:0,0:0:0:0:
384,112,187802,6,0,L|400:192,1,79.6800011550293,2|0,0:0|0:0,0:0:0:0:
272,208,188145,2,0,L|288:288,1,79.6800011550293,0|2,0:0|0:0,0:0:0:0:
448,288,188488,6,0,L|288:288,1,159.360002310059,2|0,0:0|0:0,0:0:0:0:
128,288,189002,2,0,L|48:288,2,79.6800011550293,2|0|0,0:0|0:0|0:0,0:0:0:0:
288,256,189516,6,0,L|448:256,1,159.360002310059,2|0,0:0|0:0,0:0:0:0:
288,224,190030,2,0,L|192:224,2,79.6800011550293,2|0|0,0:0|0:0|0:0,0:0:0:0:
448,208,190545,6,0,L|432:128,1,79.6800011550293,2|0,0:0|0:0,0:0:0:0:
272,128,190888,2,0,L|272:208,1,79.6800011550293,0|0,0:0|0:0,0:0:0:0:
112,192,191230,6,0,L|192:192,1,79.6800011550293,4|0,0:0|0:0,0:0:0:0:
32,144,191573,1,8,0:0:0:0:
112,144,191745,1,0,0:0:0:0:
151,144,191830,1,0,0:0:0:0:
191,144,191916,1,0,0:0:0:0:
32,80,192088,2,0,L|128:80,2,79.6800011550293,0|8|0,0:0|0:0|0:0,0:0:0:0:
192,80,192602,6,0,L|112:80,1,79.6800011550293,0|0,0:0|0:0,0:0:0:0:
272,128,192945,1,8,0:0:0:0:
232,128,193030,1,0,0:0:0:0:
192,128,193116,1,0,0:0:0:0:
152,128,193202,1,0,0:0:0:0:
112,128,193287,1,0,0:0:0:0:
272,176,193459,2,0,L|192:176,2,79.6800011550293,0|8|0,0:0|0:0|0:0,0:0:0:0:
112,176,193973,6,0,L|192:176,1,79.6800011550293,0|0,0:0|0:0,0:0:0:0:
352,176,194316,2,0,L|272:176,1,79.6800011550293,8|0,0:0|0:0,0:0:0:0:
432,128,194659,1,0,0:0:0:0:
392,128,194744,1,0,0:0:0:0:
352,128,194830,1,0,0:0:0:0:
312,128,194916,1,0,0:0:0:0:
272,128,195001,1,8,0:0:0:0:
192,128,195173,1,0,0:0:0:0:
352,80,195345,6,0,L|272:80,1,79.6800011550293,0|0,0:0|0:0,0:0:0:0:
432,80,195688,1,8,0:0:0:0:
352,80,195859,1,0,0:0:0:0:
312,80,195944,1,0,0:0:0:0:
272,80,196030,1,0,0:0:0:0:
432,176,196202,2,0,L|352:176,2,79.6800011550293,0|8|0,0:0|0:0|0:0,0:0:0:0:
272,208,196716,6,0,L|352:208,1,79.6800011550293,0|0,0:0|0:0,0:0:0:0:
192,224,197059,1,8,0:0:0:0:
231,224,197144,1,0,0:0:0:0:
271,224,197230,1,0,0:0:0:0:
352,224,197402,1,0,0:0:0:0:
192,272,197573,2,0,L|272:272,2,79.6800011550293,0|8|0,0:0|0:0|0:0,0:0:0:0:
352,320,198088,5,0,0:0:0:0:
312,320,198173,1,0,0:0:0:0:
272,320,198259,1,0,0:0:0:0:
232,320,198345,1,0,0:0:0:0:
192,320,198430,1,8,0:0:0:0:
112,320,198602,1,0,0:0:0:0:
272,272,198773,2,0,L|192:272,1,79.6800011550293,0|0,0:0|0:0,0:0:0:0:
32,272,199116,2,0,L|112:272,1,79.6800011550293,8|0,0:0|0:0,0:0:0:0:
272,224,199459,5,0,0:0:0:0:
232,224,199544,1,0,0:0:0:0:
192,224,199630,1,0,0:0:0:0:
352,176,199802,1,8,0:0:0:0:
272,176,199973,1,0,0:0:0:0:
232,176,200058,1,0,0:0:0:0:
192,176,200144,1,0,0:0:0:0:
152,176,200230,1,0,0:0:0:0:
112,176,200315,1,0,0:0:0:0:
272,128,200488,2,0,L|176:128,1,79.6800011550293,8|0,0:0|0:0,0:0:0:0:
352,128,200830,6,0,L|448:128,1,79.6800011550293,0|0,0:0|0:0,0:0:0:0:
272,96,201173,1,8,0:0:0:0:
351,96,201344,1,0,0:0:0:0:
391,96,201430,1,0,0:0:0:0:
431,96,201515,1,0,0:0:0:0:
272,64,201688,2,0,L|352:64,2,79.6800011550293,0|8|0,0:0|0:0|0:0,0:0:0:0:
32,64,202202,6,0,L|48:144,1,79.6800011550293,4|0,0:0|0:0,0:0:0:0:
208,144,202545,1,8,0:0:0:0:
48,176,202716,2,0,L|32:224,2,39.8400005775147,0|0|0,0:0|0:0|0:0,0:0:0:0:
208,176,203059,1,0,0:0:0:0:
48,208,203230,2,0,L|144:208,1,79.6800011550293,8|0,0:0|0:0,0:0:0:0:
288,208,203573,6,0,L|272:256,1,39.8400005775147,0|0,0:0|0:0,0:0:0:0:
192,256,203745,2,0,L|208:304,1,39.8400005775147,0|0,0:0|0:0,0:0:0:0:
288,288,203916,2,0,L|384:288,1,79.6800011550293,8|0,0:0|0:0,0:0:0:0:
208,272,204259,2,0,L|112:272,1,79.6800011550293,0|0,0:0|0:0,0:0:0:0:
288,256,204602,2,0,L|368:256,1,79.6800011550293,8|0,0:0|0:0,0:0:0:0:
208,224,204945,6,0,L|192:144,1,79.6800011550293,0|0,0:0|0:0,0:0:0:0:
352,128,205288,1,8,0:0:0:0:
192,128,205459,2,0,L|208:80,1,39.8400005775147,0|0,0:0|0:0,0:0:0:0:
288,80,205630,1,0,0:0:0:0:
448,80,205802,1,0,0:0:0:0:
288,80,205973,1,8,0:0:0:0:
448,80,206145,1,0,0:0:0:0:
288,128,206316,6,0,L|304:176,1,39.8400005775147,0|0,0:0|0:0,0:0:0:0:
240,176,206488,2,0,L|256:224,1,39.8400005775147,0|0,0:0|0:0,0:0:0:0:
192,224,206659,2,0,L|112:224,1,79.6800011550293,8|0,0:0|0:0,0:0:0:0:
272,256,207002,1,0,0:0:0:0:
112,256,207173,1,0,0:0:0:0:
272,304,207345,2,0,L|192:304,1,79.6800011550293,8|0,0:0|0:0,0:0:0:0:
464,304,207688,6,0,L|480:224,1,79.6800011550293,0|2,0:0|0:0,0:0:0:0:
336,224,208030,2,0,L|320:144,1,79.6800011550293,0|2,0:0|0:0,0:0:0:0:
176,144,208373,2,0,L|192:224,1,79.6800011550293,0|2,0:0|0:0,0:0:0:0:
479,225,208716,2,0,L|464:304,1,79.6800011550293,0|2,0:0|0:0,0:0:0:0:
32,225,209059,6,0,L|48:304,1,79.6800011550293,0|2,0:0|0:0,0:0:0:0:
191,145,209401,2,0,L|176:224,1,79.6800011550293,0|2,0:0|0:0,0:0:0:0:
320,222,209744,2,0,L|336:144,1,79.6800011550293,0|2,0:0|0:0,0:0:0:0:
48,304,210087,2,0,L|32:225,1,79.6800011550293,0|2,0:0|0:0,0:0:0:0:
400,304,210430,6,0,L|416:256,1,48,0|0,0:0|0:0,0:0:0:0:
352,256,210602,2,0,L|368:208,1,48,2|0,0:2|0:0,0:0:0:0:
304,208,210773,2,0,L|320:160,1,48,0|0,0:0|0:0,0:0:0:0:
256,160,210945,2,0,L|272:112,1,48,2|0,0:2|0:0,0:0:0:0:
112,304,211116,6,0,L|96:256,1,48,0|0,0:0|0:0,0:0:0:0:
160,256,211288,2,0,L|144:208,1,48,2|0,0:2|0:0,0:0:0:0:
208,208,211459,2,0,L|192:160,1,48,0|0,0:0|0:0,0:0:0:0:
256,160,211631,2,0,L|240:112,1,48,2|0,0:2|0:0,0:0:0:0:
400,304,211802,6,0,L|416:256,1,48,6|0,0:2|0:0,0:0:0:0:
352,256,211973,2,0,L|336:208,1,48,2|0,0:2|0:0,0:0:0:0:
112,304,212145,6,0,L|96:256,1,48,6|0,0:2|0:0,0:0:0:0:
160,256,212316,2,0,L|176:208,1,48,2|0,0:2|0:0,0:0:0:0:
400,304,212488,6,0,L|416:256,1,48,6|0,0:2|0:0,0:0:0:0:
112,304,212659,6,0,L|96:256,1,48,2|0,0:2|0:0,0:0:0:0:
352,192,212830,5,4,0:0:0:0:
128,160,213173,5,6,0:0:0:0:
496,160,213345,2,0,L|352:160,2,130.560000796875,0|8|0,0:0|0:0|0:0,0:0:0:0:
192,160,213859,2,0,L|336:160,1,130.560000796875
16,160,214202,1,8,0:0:0:0:
390,144,214373,6,0,L|400:288,1,130.560000796875
128,144,214716,2,0,L|112:288,1,130.560000796875,0|8,0:0|0:0,0:0:0:0:
400,304,215059,1,0,0:0:0:0:
112,304,215230,1,0,0:0:0:0:
496,128,215402,2,0,L|352:128,2,130.560000796875,0|8|0,0:0|0:0|0:0,0:0:0:0:
16,96,215916,6,0,L|160:96,1,130.560000796875
320,96,216259,2,0,L|160:96,1,130.560000796875,8|0,0:0|0:0,0:0:0:0:
368,96,216602,2,0,L|528:96,1,130.560000796875
16,112,216945,1,8,0:0:0:0:
304,96,217116,6,0,L|320:240,1,130.560000796875
480,224,217459,1,0,0:0:0:0:
208,96,217630,2,0,L|192:240,1,130.560000796875,8|0,0:0|0:0,0:0:0:0:
32,224,217973,1,0,0:0:0:0:
480,224,218145,1,0,0:0:0:0:
192,128,218316,2,0,L|336:128,1,130.560000796875
32,192,218659,6,0,L|176:192,1,130.560000796875
480,192,219002,2,0,L|336:192,1,130.560000796875,8|0,0:0|0:0,0:0:0:0:
192,144,219345,2,0,L|368:144,1,130.560000796875
32,160,219688,1,8,0:0:0:0:
416,160,219859,1,0,0:0:0:0:
256,128,220030,5,0,0:0:0:0:
96,128,220202,1,0,0:0:0:0:
416,96,220373,1,8,0:0:0:0:
112,96,220545,2,0,L|256:96,1,130.560000796875
400,96,220888,2,0,L|256:96,2,130.560000796875,0|8|0,0:0|0:0|0:0,0:0:0:0:
48,192,221402,6,0,L|192:192,3,130.560000796875,0|0|8|0,0:0|0:0|0:0|0:0,0:0:0:0:
339,192,222088,2,0,L|195:192,2,130.560000796875,0|0|8,0:0|0:0|0:0,0:0:0:0:
179,192,222602,6,0,L|35:192,1,130.560000796875
464,192,222945,1,0,0:0:0:0:
179,96,223116,2,0,L|323:96,1,130.560000796875,8|0,0:0|0:0,0:0:0:0:
467,96,223459,2,0,L|307:96,2,130.560000796875,0|0|8,0:0|0:0|0:0,0:0:0:0:
192,96,223973,2,0,L|112:96,1,65.2800003984375
349,96,224145,6,0,L|493:96,2,130.560000796875,4|0|8,0:0|0:0|0:0,0:0:0:0:
192,144,224659,2,0,L|336:144,2,130.560000796875
480,144,225173,1,8,0:0:0:0:
48,352,225345,6,0,L|32:208,1,130.560000796875
192,208,225688,1,0,0:0:0:0:
32,144,225859,1,8,0:0:0:0:
320,144,226030,2,0,L|176:144,1,130.560000796875
480,208,226373,1,0,0:0:0:0:
320,208,226545,1,8,0:0:0:0:
160,208,226716,1,0,0:0:0:0:
464,208,226888,6,0,L|480:64,1,130.560000796875
192,64,227230,2,0,L|352:64,1,130.560000796875,8|0,0:0|0:0,0:0:0:0:
48,208,227573,2,0,L|32:64,1,130.560000796875
336,64,227916,1,8,0:0:0:0:
176,64,228088,1,0,0:0:0:0:
464,192,228259,6,0,L|480:48,1,130.560000796875
48,64,228602,2,0,L|32:208,1,130.560000796875,8|0,0:0|0:0,0:0:0:0:
336,176,228945,1,0,0:0:0:0:
176,176,229116,1,0,0:0:0:0:
432,144,229288,1,8,0:0:0:0:
80,144,229459,1,0,0:0:0:0:
384,112,229630,6,0,L|96:112,1,261.12000159375,0|8,0:0|0:0,0:0:0:0:
288,80,230145,1,0,0:0:0:0:
122,112,230316,2,0,L|106:192,1,65.2800003984375
192,176,230488,2,0,L|208:256,1,65.2800003984375
48,256,230659,2,0,L|32:336,1,65.2800003984375,8|0,0:0|0:0,0:0:0:0:
192,368,230830,2,0,L|272:368,1,65.2800003984375
416,368,231002,5,0,0:0:0:0:
460,322,231087,1,0,0:0:0:0:
453,259,231173,1,0,0:0:0:0:
401,224,231259,1,0,0:0:0:0:
320,208,231345,2,0,L|224:208,1,65.2800003984375,8|0,0:0|0:0,0:0:0:0:
416,208,231516,2,0,L|512:208,1,65.2800003984375
144,128,231688,6,0,L|160:192,1,65.2800003984375
256,192,231859,2,0,L|336:192,1,65.2800003984375
480,208,232030,2,0,L|464:272,1,65.2800003984375,8|0,0:0|0:0,0:0:0:0:
304,272,232202,2,0,L|224:272,1,65.2800003984375
80,208,232373,6,0,L|0:208,1,65.2800003984375
304,192,232545,2,0,L|384:192,1,65.2800003984375,2|0,0:2|0:0,0:0:0:0:
208,192,232716,2,0,L|128:192,1,65.2800003984375,8|0,0:0|0:0,0:0:0:0:
432,176,232888,2,0,L|512:176,1,65.2800003984375
176,80,233059,6,0,L|160:144,1,65.2800003984375
256,160,233230,2,0,L|256:240,1,65.2800003984375,2|0,0:2|0:0,0:0:0:0:
352,224,233402,2,0,L|368:288,1,65.2800003984375,8|0,0:0|0:0,0:0:0:0:
80,256,233573,1,0,0:0:0:0:
22,234,233658,1,0,0:0:0:0:
17,172,233744,5,2,1:2:0:0:
71,142,233830,1,0,1:0:0:0:
432,160,233916,2,0,L|512:160,1,65.2800003984375,2|0,1:2|1:0,0:0:0:0:
80,96,234088,2,0,L|0:96,1,65.2800003984375,8|0,1:2|1:0,0:0:0:0:
224,64,234259,2,0,L|304:64,1,65.2800003984375,2|0,1:2|1:0,0:0:0:0:
496,64,234430,6,0,L|480:128,1,65.2800003984375,2|0,1:2|1:0,0:0:0:0:
288,144,234602,2,0,L|208:144,1,65.2800003984375,2|0,1:2|1:0,0:0:0:0:
32,144,234773,2,0,L|16:224,1,65.2800003984375,10|0,1:2|1:0,0:0:0:0:
480,160,234945,2,0,L|496:224,1,65.2800003984375,2|0,1:2|1:0,0:0:0:0:
192,256,235116,6,0,L|96:256,1,96,6|0,1:2|0:0,0:0:0:0:
256,240,235459,1,8,0:0:0:0:
96,208,235630,1,0,0:0:0:0:
352,176,235802,2,0,L|448:176,1,96,0|0,0:0|0:0,0:0:0:0:
160,176,236144,2,0,L|64:176,1,96,8|0,0:0|0:0,0:0:0:0:
336,112,236487,5,0,0:0:0:0:
176,112,236659,1,0,0:0:0:0:
336,112,236830,1,8,0:0:0:0:
176,144,237002,2,0,L|112:144,2,48,0|0|0,0:0|0:0|0:0,0:0:0:0:
336,144,237344,1,0,0:0:0:0:
80,192,237516,2,0,L|176:192,1,96,8|0,0:0|0:0,0:0:0:0:
432,192,237859,6,0,L|336:192,2,96,0|0|8,0:0|0:0|0:0,0:0:0:0:
272,192,238373,2,0,L|256:240,1,48,0|0,0:0|0:0,0:0:0:0:
416,240,238544,2,0,L|448:144,1,96
96,144,238887,2,0,L|64:240,1,96,8|0,0:0|0:0,0:0:0:0:
336,144,239230,5,0,0:0:0:0:
96,112,239402,1,0,0:0:0:0:
336,112,239573,2,0,L|432:112,1,96,8|0,0:0|0:0,0:0:0:0:
272,80,239916,1,0,0:0:0:0:
432,80,240087,1,0,0:0:0:0:
176,112,240259,2,0,L|80:112,1,96,8|0,0:0|0:0,0:0:0:0:
336,80,240602,5,0,0:0:0:0:
176,80,240773,2,0,L|128:80,2,48,0|0|8,0:0|0:0|0:0,0:0:0:0:
336,64,241116,1,0,0:0:0:0:
32,64,241287,2,0,L|48:160,1,96,0|0,0:0|0:0,0:0:0:0:
304,176,241630,2,0,L|208:176,1,96,8|0,0:0|0:0,0:0:0:0:
368,176,241973,6,0,L|384:80,1,96,0|0,0:0|0:0,0:0:0:0:
224,80,242316,1,8,0:0:0:0:
384,80,242487,2,0,L|400:128,2,48,0|0|0,0:0|0:0|0:0,0:0:0:0:
128,80,242830,1,0,0:0:0:0:
384,128,243002,2,0,L|272:128,1,96,8|0,0:0|0:0,0:0:0:0:
128,128,243344,6,0,L|224:128,1,96,0|0,0:0|0:0,0:0:0:0:
384,48,243687,1,8,0:0:0:0:
224,48,243859,1,0,0:0:0:0:
64,48,244030,2,0,L|160:48,1,96,0|0,0:0|0:0,0:0:0:0:
320,48,244373,2,0,L|224:48,1,96,8|0,0:0|0:0,0:0:0:0:
480,80,244716,5,0,0:0:0:0:
320,80,244887,1,0,0:0:0:0:
480,128,245059,1,8,0:0:0:0:
64,128,245230,2,0,L|48:176,2,48,0|0|0,0:0|0:0|0:0,0:0:0:0:
224,128,245573,1,0,0:0:0:0:
64,128,245744,2,0,L|80:176,1,48,8|0,0:0|0:0,0:0:0:0:
160,192,245916,2,0,L|240:192,1,48,0|0,0:0|0:0,0:0:0:0:
368,192,246087,6,0,L|480:192,1,96,4|0,0:0|0:0,0:0:0:0:
304,192,246430,1,8,0:0:0:0:
464,128,246602,1,0,0:0:0:0:
144,144,246773,2,0,L|32:144,1,96
368,144,247116,2,0,L|464:143,1,96,8|0,0:0|0:0,0:0:0:0:
208,240,247459,6,0,L|320:240,1,96,0|0,0:0|0:0,0:0:0:0:
144,240,247802,1,8,0:0:0:0:
304,272,247973,2,0,L|352:272,2,48,0|0|0,0:0|0:0|0:0,0:0:0:0:
144,272,248316,1,0,0:0:0:0:
416,224,248487,1,8,0:0:0:0:
256,208,248659,1,0,0:0:0:0:
96,208,248830,6,0,L|80:112,1,96,0|0,0:0|0:0,0:0:0:0:
240,112,249173,1,8,0:0:0:0:
80,112,249344,2,0,L|64:160,2,48,0|0|0,0:0|0:0|0:0,0:0:0:0:
240,112,249687,1,0,0:0:0:0:
400,112,249859,1,8,0:0:0:0:
80,112,250030,1,0,0:0:0:0:
400,112,250202,6,0,L|416:208,1,96,0|0,0:0|0:0,0:0:0:0:
256,208,250544,1,8,0:0:0:0:
416,206,250716,1,0,0:0:0:0:
256,240,250887,2,0,L|160:240,1,96,0|0,0:0|0:0,0:0:0:0:
320,240,251230,2,0,L|416:240,1,96,8|0,0:0|0:0,0:0:0:0:
176,256,251573,6,0,L|64:256,1,96
240,192,251915,1,8,0:0:0:0:
80,192,252087,1,0,0:0:0:0:
352,96,252259,2,0,L|368:192,1,96,0|0,0:0|0:0,0:0:0:0:
208,192,252602,2,0,L|192:96,1,96,8|0,0:0|0:0,0:0:0:0:
432,96,252945,6,0,L|448:144,1,48,0|0,0:0|0:0,0:0:0:0:
368,144,253116,2,0,L|352:192,1,48,2|0,0:2|0:0,0:0:0:0:
432,192,253288,2,0,L|448:240,1,48,8|0,0:0|0:0,0:0:0:0:
288,240,253459,1,2,0:2:0:0:
241,235,253544,1,0,0:0:0:0:
207,202,253630,5,0,0:0:0:0:
202,155,253716,1,0,0:0:0:0:
228,115,253801,1,2,0:2:0:0:
272,101,253887,1,0,0:0:0:0:
352,80,253973,2,0,L|288:80,1,48,8|0,0:0|0:0,0:0:0:0:
224,80,254145,2,0,L|144:80,1,48,2|0,0:2|0:0,0:0:0:0:
16,80,254316,6,0,L|32:128,1,48,0|0,0:0|0:0,0:0:0:0:
112,144,254488,2,0,L|160:144,1,48,2|0,0:2|0:0,0:0:0:0:
80,160,254659,2,0,L|96:208,1,48,8|0,0:0|0:0,0:0:0:0:
256,208,254830,2,0,L|352:208,1,66.2400001010742,2|0,0:2|0:0,0:0:0:0:
496,192,255002,6,0,L|480:240,1,48
400,240,255174,2,0,L|352:240,1,48,2|0,0:2|0:0,0:0:0:0:
432,256,255345,2,0,L|416:304,1,48,8|0,0:0|0:0,0:0:0:0:
256,272,255516,2,0,L|176:272,1,66.2400001010742,2|0,0:2|0:0,0:0:0:0:
448,256,255688,6,0,L|432:208,1,48,2|0,1:2|1:0,0:0:0:0:
336,208,255859,2,0,L|320:160,1,48,2|0,1:2|1:0,0:0:0:0:
224,160,256030,2,0,L|208:112,1,48,14|0,1:2|1:0,0:0:0:0:
112,112,256202,2,0,L|96:64,1,48,2|0,1:2|1:0,0:0:0:0:
448,256,256373,6,0,L|400:256,1,48,6|0,1:2|1:0,0:0:0:0:
224,160,256544,2,0,L|176:160,1,48,2|0,1:2|1:0,0:0:0:0:
336,208,256716,2,0,L|272:208,1,48,14|0,1:2|1:0,0:0:0:0:
112,112,256887,2,0,L|64:112,1,48,2|0,1:2|1:0,0:0:0:0:
320,96,257059,6,0,L|416:96,1,96,6|2,1:2|0:2,0:0:0:0:
256,96,257402,1,8,0:0:0:0:
416,96,257573,2,0,L|400:144,1,48,2|0,0:2|0:0,0:0:0:0:
240,144,257744,2,0,L|192:144,1,48
352,192,257916,2,0,L|336:240,1,48,2|0,0:2|0:0,0:0:0:0:
256,256,258087,2,0,L|144:256,1,96,8|2,0:0|0:2,0:0:0:0:
400,256,258430,6,0,L|416:208,1,48,0|0,0:0|0:0,0:0:0:0:
336,192,258602,1,2,0:2:0:0:
96,176,258773,2,0,L|192:176,2,96,8|0|2,0:0|0:0|0:2,0:0:0:0:
352,176,259288,2,0,L|336:224,1,48,2|0,0:2|0:0,0:0:0:0:
288,224,259459,1,8,0:0:0:0:
448,256,259630,1,2,0:2:0:0:
192,256,259802,6,0,L|96:256,1,96,0|2,0:0|0:2,0:0:0:0:
256,256,260144,2,0,L|272:208,1,48,8|0,0:0|0:0,0:0:0:0:
464,192,260316,2,0,L|448:144,1,48,2|0,0:2|0:0,0:0:0:0:
272,144,260487,2,0,L|176:144,1,96,2|2,0:2|0:2,0:0:0:0:
336,112,260830,2,0,L|432:112,1,96,8|2,0:0|0:2,0:0:0:0:
176,112,261173,5,0,0:0:0:0:
432,96,261344,2,0,L|480:96,2,48,2|0|8,0:2|0:0|0:0,0:0:0:0:
272,64,261687,1,0,0:0:0:0:
432,48,261859,2,0,L|336:48,1,96,2|2,0:2|0:2,0:0:0:0:
176,48,262202,2,0,L|272:48,1,96,8|2,0:0|0:2,0:0:0:0:
112,48,262544,6,0,L|96:144,1,96,0|0,0:0|0:0,0:0:0:0:
256,144,262887,2,0,L|320:144,1,48,8|0,0:0|0:0,0:0:0:0:
144,192,263059,2,0,L|128:240,1,48,2|0,0:2|0:0,0:0:0:0:
208,240,263230,1,0,0:0:0:0:
368,240,263402,2,0,L|480:240,1,96,2|8,0:2|0:0,0:0:0:0:
304,240,263744,2,0,L|288:288,1,48,0|0,0:0|0:0,0:0:0:0:
368,288,263916,5,0,0:0:0:0:
128,288,264087,2,0,L|32:288,1,96,2|8,0:2|0:0,0:0:0:0:
272,288,264430,1,0,0:0:0:0:
432,288,264602,1,2,0:2:0:0:
272,256,264773,2,0,L|176:256,2,96,2|8|2,0:2|0:0|0:2,0:0:0:0:
32,256,265287,5,0,0:0:0:0:
272,208,265459,2,0,L|384:208,1,96,2|8,0:2|0:0,0:0:0:0:
112,208,265802,2,0,L|128:160,1,48,2|0,0:2|0:0,0:0:0:0:
368,160,265973,2,0,L|352:112,1,48,0|0,0:0|0:0,0:0:0:0:
272,112,266145,2,0,L|224:112,1,48,2|0,0:2|0:0,0:0:0:0:
64,96,266316,2,0,L|176:96,1,96,8|2,0:0|0:2,0:2:0:0:
416,96,266659,6,0,L|400:144,1,48
240,176,266830,2,0,L|192:176,1,48,2|0,0:2|0:0,0:0:0:0:
400,176,267002,2,0,L|496:176,1,96,8|2,0:0|0:2,0:0:0:0:
336,176,267345,2,0,L|240:176,1,96,0|2,0:0|0:2,0:0:0:0:
80,176,267687,2,0,L|96:224,1,48,8|0,0:0|0:0,0:0:0:0:
256,224,267859,2,0,L|320:224,1,48,2|0,0:2|0:0,0:0:0:0:
112,272,268030,6,0,L|16:272,1,96,4|0,0:0|0:0,0:0:0:0:
256,256,268373,2,0,L|304:256,1,48,8|0,0:0|0:0,0:0:0:0:
112,176,268544,2,0,L|32:176,1,48,2|0,0:2|0:0,0:0:0:0:
224,176,268716,2,0,L|320:176,2,96,0|2|10,0:0|0:2|0:2,0:0:0:0:
64,160,269230,2,0,L|80:112,1,48,2|0,0:2|0:0,0:0:0:0:
240,112,269402,6,0,L|320:112,1,48,0|0,0:0|0:0,0:0:0:0:
208,80,269573,2,0,L|112:80,2,96,2|8|0,0:2|0:0|0:0,0:0:0:0:
48,96,270087,2,0,L|64:192,1,96,2|2,0:2|0:2,0:0:0:0:
224,192,270430,2,0,L|128:192,1,96,8|2,0:0|0:2,0:0:0:0:
368,192,270773,6,0,L|496:192,1,96,0|2,0:0|0:2,0:0:0:0:
304,240,271116,2,0,L|256:240,1,48,8|0,0:0|0:0,0:0:0:0:
96,208,271287,2,0,L|112:256,1,48,2|0,0:2|0:0,0:0:0:0:
288,256,271459,2,0,L|384:256,1,96,0|2,0:0|0:2,0:0:0:0:
96,224,271802,1,8,0:0:0:0:
192,256,271973,1,2,0:2:0:0:
80,304,272144,5,0,0:0:0:0:
352,304,272316,2,0,L|416:304,2,48,2|0|8,0:2|0:0|0:0,0:0:0:0:
192,240,272659,1,0,0:0:0:0:
352,224,272830,2,0,L|256:224,1,96,2|2,0:2|0:2,0:0:0:0:
416,224,273173,2,0,L|432:320,1,96,8|2,0:0|0:2,0:0:0:0:
128,176,273516,6,0,L|224:176,1,96,0|0,0:0|0:0,0:0:0:0:
64,144,273859,1,8,0:0:0:0:
224,144,274030,1,2,0:2:0:0:
384,176,274202,2,0,L|288:176,1,96,0|2,0:0|0:2,0:0:0:0:
448,144,274545,1,8,0:0:0:0:
288,144,274716,1,2,0:2:0:0:
128,144,274888,6,0,L|112:192,1,48,0|0,0:0|0:0,0:0:0:0:
272,192,275059,2,0,L|288:240,1,48,2|0,0:2|0:0,0:0:0:0:
208,240,275230,2,0,L|192:288,1,48,8|0,0:0|0:0,0:0:0:0:
352,288,275402,1,0,0:0:0:0:
393,264,275487,1,0,0:0:0:0:
411,221,275573,5,2,0:2:0:0:
401,175,275659,1,0,0:0:0:0:
364,145,275744,1,2,0:2:0:0:
317,143,275830,1,0,0:0:0:0:
240,144,275916,2,0,L|160:144,1,48,8|0,0:0|0:0,0:0:0:0:
352,96,276088,2,0,L|400:96,1,48,2|0,0:2|0:0,0:0:0:0:
152,48,276259,6,0,L|136:96,1,48,0|0,0:0|0:0,0:0:0:0:
216,112,276430,2,0,L|264:112,1,48,2|0,0:2|0:0,0:0:0:0:
424,128,276602,2,0,L|408:176,1,48,8|0,0:0|0:0,0:0:0:0:
248,176,276773,2,0,L|200:176,1,48,2|0,0:2|0:0,0:0:0:0:
408,192,276945,6,0,L|392:240,1,48
232,240,277116,2,0,L|168:240,1,48,2|0,0:2|0:0,0:0:0:0:
104,256,277288,2,0,L|88:304,1,48,8|0,0:0|0:0,0:0:0:0:
248,320,277459,2,0,L|296:320,1,48,2|0,0:2|0:0,0:0:0:0:
32,240,277630,6,0,L|48:192,1,48,2|0,1:2|1:0,0:0:0:0:
128,192,277802,2,0,L|144:144,1,48,2|0,1:2|1:0,0:0:0:0:
416,224,277973,2,0,L|400:176,1,48,14|0,1:2|1:0,0:0:0:0:
320,176,278145,2,0,L|304:128,1,48,2|0,1:2|1:0,0:0:0:0:
480,160,278316,6,0,L|464:112,1,48,6|0,1:2|1:0,0:0:0:0:
384,112,278488,2,0,L|368:64,1,48,2|0,1:2|1:0,0:0:0:0:
96,160,278659,2,0,L|112:112,1,48,14|0,1:2|1:0,0:0:0:0:
192,112,278831,2,0,L|208:64,1,48,2|0,1:2|1:0,0:0:0:0:
384,66,279002,6,0,L|288:66,2,96,6|0|8,0:0|0:0|0:0,0:0:0:0:
224,80,279516,2,0,L|240:128,1,48,0|0,0:0|0:0,0:0:0:0:
304,144,279688,2,0,L|352:144,1,48,0|0,0:0|0:0,0:0:0:0:
416,144,279859,1,0,0:0:0:0:
256,176,280031,2,0,L|160:176,1,96,8|0,0:0|0:0,0:0:0:0:
320,208,280374,6,0,L|416:208,1,96,0|0,0:0|0:0,0:0:0:0:
256,224,280716,1,8,0:0:0:0:
416,224,280888,2,0,L|464:224,2,48,0|0|0,0:0|0:0|0:0,0:0:0:0:
320,224,281231,1,0,0:0:0:0:
160,224,281402,2,0,L|256:224,1,96,8|0,0:0|0:0,0:0:0:0:
96,224,281745,5,0,0:0:0:0:
256,176,281916,2,0,L|320:176,2,48,0|0|8,0:0|0:0|0:0,0:0:0:0:
96,96,282259,2,0,L|80:144,1,48
144,144,282431,2,0,L|128:192,1,48
64,192,282602,1,0,0:0:0:0:
224,192,282774,2,0,L|320:192,1,96,8|0,0:0|0:0,0:0:0:0:
160,208,283116,6,0,L|144:304,1,96
304,336,283459,1,8,0:0:0:0:
144,336,283631,2,0,L|64:336,2,48
304,288,283974,1,0,0:0:0:0:
144,272,284145,2,0,L|128:224,1,48,8|0,0:0|0:0,0:0:0:0:
200,192,284316,2,0,L|264:192,1,48
320,160,284488,6,0,L|416:160,1,96
256,144,284831,2,0,L|208:144,2,48,8|0|0,0:0|0:0|0:0,0:0:0:0:
416,96,285174,2,0,L|320:96,1,96
160,96,285516,2,0,L|256:96,1,96,8|0,0:0|0:0,0:0:0:0:
96,96,285859,6,0,L|80:144,1,48
128,160,286031,2,0,L|176:160,1,48,0|0,0:0|0:0,0:0:0:0:
240,160,286202,1,8,0:0:0:0:
80,192,286374,1,0,0:0:0:0:
240,192,286545,2,0,L|336:192,1,96,0|0,0:0|0:0,0:0:0:0:
176,192,286888,2,0,L|112:192,2,48,8|0|0,0:0|0:0|0:0,0:0:0:0:
336,224,287231,6,0,L|224:224,1,96,0|0,0:0|0:0,0:0:0:0:
400,224,287574,2,0,L|416:176,1,48,8|0,0:0|0:0,0:0:0:0:
352,176,287745,2,0,L|336:128,1,48,0|0,0:0|0:0,0:0:0:0:
400,96,287916,2,0,L|304:96,2,96,0|0|8,0:0|0:0|0:0,0:0:0:0:
240,96,288431,1,0,0:0:0:0:
80,96,288602,6,0,L|96:144,1,48,0|0,0:0|0:0,0:0:0:0:
160,128,288774,2,0,L|176:176,1,48,0|0,0:0|0:0,0:0:0:0:
240,176,288945,2,0,L|336:176,1,96,8|0,0:0|0:0,0:0:0:0:
176,208,289288,1,0,0:0:0:0:
336,208,289459,1,0,0:0:0:0:
256,240,289631,1,8,0:0:0:0:
416,240,289802,1,0,0:0:0:0:
80,304,289974,6,0,L|176:304,1,96,4|0,0:0|0:0,0:0:0:0:
336,288,290316,1,8,0:0:0:0:
176,256,290488,2,0,L|192:208,1,48,0|0,0:0|0:0,0:0:0:0:
256,176,290659,2,0,L|208:176,1,48,0|0,0:0|0:0,0:0:0:0:
144,176,290831,2,0,L|48:176,1,96,0|8,0:0|0:0,0:0:0:0:
208,128,291174,1,0,0:0:0:0:
48,96,291345,6,0,L|144:96,1,96,0|0,0:0|0:0,0:0:0:0:
304,80,291688,2,0,L|320:128,1,48,8|0,0:0|0:0,0:0:0:0:
256,144,291859,2,0,L|240:192,1,48,0|0,0:0|0:0,0:0:0:0:
304,192,292031,2,0,L|400:192,1,96,0|0,0:0|0:0,0:0:0:0:
240,189,292374,2,0,L|128:189,1,96,8|0,0:0|0:0,0:0:0:0:
304,224,292716,5,0,0:0:0:0:
144,224,292888,2,0,L|96:224,2,48,0|0|8,0:0|0:0|0:0,0:0:0:0:
304,224,293231,2,0,L|288:176,1,48,0|0,0:0|0:0,0:0:0:0:
224,176,293402,2,0,L|176:176,1,48,0|0,0:0|0:0,0:0:0:0:
240,160,293574,2,0,L|256:112,1,48
320,112,293745,2,0,L|448:112,1,96,8|0,0:0|0:0,0:0:0:0:
256,80,294088,1,0,0:0:0:0:
384,64,294259,6,0,L|480:64,1,96,0|8,0:0|0:0,0:0:0:0:
320,64,294602,2,0,L|272:64,2,48,0|0|0,0:0|0:0|0:0,0:0:0:0:
480,64,294945,1,0,0:0:0:0:
320,48,295116,2,0,L|224:48,1,96,8|0,0:0|0:0,0:0:0:0:
64,48,295459,6,0,L|48:144,1,96,0|0,0:0|0:0,0:0:0:0:
208,144,295802,2,0,L|224:240,1,96,8|0,0:0|0:0,0:0:0:0:
384,240,296145,2,0,L|480:240,1,96,0|0,0:0|0:0,0:0:0:0:
320,192,296488,2,0,L|224:192,1,96,8|0,0:0|0:0,0:0:0:0:
64,192,296830,5,0,0:0:0:0:
48,148,296915,1,0,0:0:0:0:
73,109,297001,1,2,0:2:0:0:
119,107,297087,1,0,0:0:0:0:
208,112,297173,2,0,L|224:160,1,48,8|0,0:0|0:0,0:0:0:0:
304,160,297345,2,0,L|320:208,1,48,2|0,0:2|0:0,0:0:0:0:
400,208,297516,5,0,0:0:0:0:
446,210,297602,1,0,0:0:0:0:
471,248,297688,1,2,0:2:0:0:
455,292,297773,1,0,0:0:0:0:
368,304,297859,2,0,L|304:304,1,48,8|0,0:0|0:0,0:0:0:0:
240,304,298030,2,0,L|192:304,1,48,2|0,0:2|0:0,0:0:0:0:
368,224,298202,6,0,L|416:224,1,48
240,224,298373,2,0,L|192:224,1,48,2|0,0:2|0:0,0:0:0:0:
384,176,298545,2,0,L|448:176,1,48,8|0,0:0|0:0,0:0:0:0:
224,176,298716,2,0,L|144:176,1,48,2|0,0:2|0:0,0:0:0:0:
400,128,298888,6,0,L|464:128,1,48
208,128,299059,2,0,L|144:128,1,48,2|0,0:2|0:0,0:0:0:0:
416,80,299230,2,0,L|496:80,1,48,8|0,0:0|0:0,0:0:0:0:
192,80,299402,2,0,L|128:80,1,48,2|0,0:2|0:0,0:0:0:0:
432,48,299573,6,0,L|416:112,1,48,2|0,1:2|1:0,0:0:0:0:
336,112,299745,2,0,L|288:112,1,48,2|0,1:2|1:0,0:0:0:0:
128,112,299916,2,0,L|112:160,1,48,14|0,1:2|1:0,0:0:0:0:
352,144,300088,2,0,L|416:144,1,48,2|0,1:2|1:0,0:0:0:0:
160,224,300259,6,0,L|176:176,1,48,6|0,1:2|1:0,0:0:0:0:
256,176,300430,2,0,L|320:176,1,48,2|0,1:2|1:0,0:0:0:0:
144,256,300602,2,0,L|80:256,1,48,14|0,1:2|1:0,0:0:0:0:
368,256,300773,2,0,L|416:256,1,48,2|0,1:2|1:0,0:0:0:0:
256,128,300945,5,6,0:0:0:0:
96,128,301116,2,0,L|0:128,1,79.6800011550293,0|8,0:0|0:0,0:0:0:0:
256,176,301459,1,0,0:0:0:0:
96,176,301630,1,0,0:0:0:0:
336,208,301802,1,0,0:0:0:0:
176,208,301973,1,8,0:0:0:0:
416,240,302145,1,0,0:0:0:0:
256,240,302316,5,0,0:0:0:0:
496,272,302488,1,0,0:0:0:0:
336,272,302659,2,0,L|256:272,1,79.6800011550293,8|0,0:0|0:0,0:0:0:0:
496,208,303002,1,0,0:0:0:0:
336,208,303173,1,0,0:0:0:0:
496,160,303345,2,0,L|400:160,1,79.6800011550293,8|0,0:0|0:0,0:0:0:0:
256,96,303688,6,0,L|336:96,1,79.6800011550293,0|0,0:0|0:0,0:0:0:0:
496,96,304030,1,8,0:0:0:0:
256,144,304202,2,0,L|336:144,1,79.6800011550293,0|0,0:0|0:0,0:0:0:0:
176,192,304545,2,0,L|256:192,1,79.6800011550293,0|8,0:0|0:0,0:0:0:0:
96,240,304888,6,0,L|176:240,1,79.6800011550293,0|0,0:0|0:0,0:0:0:0:
16,288,305230,2,0,L|96:288,2,79.6800011550293,0|8|0,0:0|0:0|0:0,0:0:0:0:
256,288,305745,2,0,L|176:288,1,79.6800011550293
16,256,306088,2,0,L|96:256,1,79.6800011550293,8|0,0:0|0:0,0:0:0:0:
416,192,306430,5,0,0:0:0:0:
256,192,306602,1,0,0:0:0:0:
416,160,306773,1,8,0:0:0:0:
176,144,306945,1,0,0:0:0:0:
336,144,307116,1,0,0:0:0:0:
96,192,307288,1,0,0:0:0:0:
256,192,307459,1,8,0:0:0:0:
16,240,307630,1,0,0:0:0:0:
176,240,307802,5,0,0:0:0:0:
416,240,307973,1,0,0:0:0:0:
256,240,308145,1,8,0:0:0:0:
416,208,308316,1,0,0:0:0:0:
96,208,308488,1,0,0:0:0:0:
256,208,308659,1,0,0:0:0:0:
496,208,308830,1,8,0:0:0:0:
336,208,309002,1,0,0:0:0:0:
96,208,309173,6,0,L|176:208,2,79.6800011550293,0|0|8,0:0|0:0|0:0,0:0:0:0:
256,160,309688,2,0,L|160:160,1,79.6800011550293,0|0,0:0|0:0,0:0:0:0:
336,112,310030,2,0,L|256:112,1,79.6800011550293,0|8,0:0|0:0,0:0:0:0:
416,64,310373,6,0,L|336:64,1,79.6800011550293,0|0,0:0|0:0,0:0:0:0:
176,64,310716,2,0,L|256:64,2,79.6800011550293,0|8|0,0:0|0:0|0:0,0:0:0:0:
336,144,311230,2,0,L|256:144,1,79.6800011550293,0|0,0:0|0:0,0:0:0:0:
96,160,311573,2,0,L|176:160,1,79.6800011550293,8|0,0:0|0:0,0:0:0:0:
496,160,311916,6,0,L|320:160,1,159.360002310059,6|8,0:0|0:0,0:0:0:0:
496,208,312430,2,0,L|480:256,1,39.8400005775147,0|0,0:0|0:0,0:0:0:0:
432,240,312602,1,0,0:0:0:0:
272,240,312773,2,0,L|176:240,1,79.6800011550293,0|8,0:0|0:0,0:0:0:0:
352,192,313116,6,0,L|272:192,1,79.6800011550293,0|0,0:0|0:0,0:0:0:0:
112,192,313459,2,0,L|192:192,1,79.6800011550293,0|8,0:0|0:0,0:0:0:0:
32,192,313802,2,0,L|16:240,2,39.8400005775147,0|0|0,0:0|0:0|0:0,0:0:0:0:
192,160,314145,1,0,0:0:0:0:
32,128,314316,2,0,L|112:128,1,79.6800011550293,8|0,0:0|0:0,0:0:0:0:
272,128,314659,6,0,L|192:128,1,79.6800011550293,0|0,0:0|0:0,0:0:0:0:
352,128,315002,1,8,0:0:0:0:
192,128,315173,2,0,L|176:176,2,39.8400005775147,0|0|0,0:0|0:0|0:0,0:0:0:0:
352,160,315516,2,0,L|256:160,1,79.6800011550293,0|8,0:0|0:0,0:0:0:0:
432,160,315859,2,0,L|448:240,1,79.6800011550293,0|0,0:0|0:0,0:0:0:0:
368,240,316202,5,0,0:0:0:0:
208,240,316373,2,0,L|304:240,1,79.6800011550293,8|0,0:0|0:0,0:0:0:0:
128,240,316716,2,0,L|112:320,1,79.6800011550293,0|0,0:0|0:0,0:0:0:0:
272,272,317059,2,0,L|288:352,1,79.6800011550293,8|0,0:0|0:0,0:0:0:0:
128,352,317402,6,0,L|48:352,3,79.6800011550293,0|0|8|0,0:0|0:0|0:0|0:0,0:0:0:0:
304,336,318088,6,0,L|320:288,3,39.8400005775147,0|0|2|0,0:0|0:0|0:2|0:0,0:0:0:0:
224,288,318430,2,0,L|240:240,3,39.8400005775147,8|0|2|0,0:0|0:0|0:2|0:0,0:0:0:0:
144,240,318773,5,0,0:0:0:0:
128,196,318858,1,0,0:0:0:0:
150,155,318944,1,2,0:2:0:0:
195,144,319030,1,0,0:0:0:0:
288,144,319116,2,0,L|336:144,1,48,8|0,0:0|0:0,0:0:0:0:
144,112,319288,2,0,L|96:112,1,48,2|0,0:2|0:0,0:0:0:0:
368,240,319459,5,0,0:0:0:0:
385,196,319544,1,0,0:0:0:0:
363,155,319630,1,2,0:2:0:0:
318,144,319716,1,0,0:0:0:0:
224,144,319802,2,0,L|176:144,1,48,8|0,0:0|0:0,0:0:0:0:
368,112,319974,2,0,L|416:112,1,48,2|0,0:2|0:0,0:0:0:0:
128,80,320145,6,0,L|144:128,1,48
240,128,320316,2,0,L|304:128,1,48,2|0,0:2|0:0,0:0:0:0:
384,144,320488,2,0,L|400:192,1,48,8|0,0:0|0:0,0:0:0:0:
304,208,320659,2,0,L|240:208,1,48,2|0,0:2|0:0,0:0:0:0:
352,224,320830,6,0,L|368:272,1,48
272,272,321002,2,0,L|224:272,1,48,2|0,0:2|0:0,0:0:0:0:
128,272,321173,2,0,L|144:320,1,48,8|0,0:0|0:0,0:0:0:0:
240,320,321345,2,0,L|320:320,1,48,2|0,0:2|0:0,0:0:0:0:
80,304,321516,6,0,L|16:304,1,48,2|0,1:2|1:0,0:0:0:0:
208,304,321688,2,0,L|256:304,1,48,2|0,1:2|1:0,0:0:0:0:
176,272,321859,2,0,L|192:208,1,48,10|0,1:2|1:0,0:0:0:0:
272,224,322030,2,0,L|336:224,1,48,2|0,1:2|1:0,0:0:0:0:
480,224,322202,6,0,L|464:176,1,48,2|0,1:2|1:0,0:0:0:0:
384,160,322373,2,0,L|336:160,1,48,2|0,1:2|1:0,0:0:0:0:
176,160,322545,2,0,L|160:112,1,48,10|0,1:2|1:0,0:0:0:0:
464,178,322716,2,0,L|480:226,1,48,2|0,1:2|1:0,0:0:0:0:
176,160,322888,6,0,P|128:208|176:240,1,119.520001732544,6|0,0:0|0:0,0:0:0:0:
224,240,323230,2,0,L|384:240,1,159.360002310059
224,192,323745,2,0,L|304:192,2,79.6800011550293
384,192,324259,6,0,L|368:144,1,39.8400005775147,0|0,0:0|0:0,0:0:0:0:
304,144,324430,2,0,L|256:144,1,39.8400005775147,0|0,0:0|0:0,0:0:0:0:
192,144,324602,2,0,L|176:64,1,79.6800011550293
320,64,324945,2,0,L|336:144,1,79.6800011550293
192,144,325288,1,0,0:0:0:0:
192,144,325630,5,0,0:0:0:0:
256,192,325716,12,0,332145,0:0:0:0:
