osu file format v14

[General]
AudioFilename: audio.mp3
AudioLeadIn: 0
PreviewTime: 235459
Countdown: 0
SampleSet: Normal
StackLeniency: 0.7
Mode: 0
LetterboxInBreaks: 0
WidescreenStoryboard: 0

[Editor]
DistanceSpacing: 1.4
BeatDivisor: 8
GridSize: 4
TimelineZoom: 2.2

[Metadata]
Title:United (L.A.O.S Remix)
TitleUnicode:United (L.A.O.S Remix)
Artist:Our Stolen Theory
ArtistUnicode:Our Stolen Theory
Creator:- HellBird -
Version:Consolidation
Source:
Tags:DnB Drum and Bass EDM Electronic Dance Music Remapped
BeatmapID:1022306
BeatmapSetID:478687

[Difficulty]
HPDrainRate:6
CircleSize:4
OverallDifficulty:8
ApproachRate:9
SliderMultiplier:1.4
SliderTickRate:1

[Events]
//Background and Video events
0,0,"fantasy-art-sylar-evening-anime-2799x1493.jpg",0,0
//Break Periods
//Storyboard Layer 0 (Background)
//Storyboard Layer 1 (Fail)
//Storyboard Layer 2 (Pass)
//Storyboard Layer 3 (Foreground)
//Storyboard Sound Samples

[TimingPoints]
602,342.857142857143,4,1,1,50,1,0
15687,-100,4,2,1,50,0,0
37630,-76.9230769230769,4,1,1,50,0,0
54088,-76.9230769230769,4,1,1,50,0,0
59573,-76.9230769230769,4,1,1,65,0,0
81516,-66.6666666666667,4,1,1,80,0,1
103459,-76.9230769230769,4,1,1,65,0,0

[HitObjects]
104,56,15688,5,2,0:0:0:0:
160,112,15860,1,0,0:0:0:0:
236,132,16031,2,0,P|288:124|324:104,1,70,0|2,0:0|0:0,0:0:0:0:
440,76,16374,5,0,0:0:0:0:
424,152,16545,1,0,0:0:0:0:
428,228,16717,2,0,B|432:280|432:280|424:320,1,70,2|0,0:0|0:0,0:0:0:0:
336,200,17060,5,0,0:0:0:0:
268,240,17231,1,2,0:0:0:0:
200,200,17403,2,0,B|180:248|180:248|176:288,1,70
80,352,17745,6,0,P|60:312|60:268,1,70,2|0,0:0|0:0,0:0:0:0:
68,208,18088,1,0,0:0:0:0:
104,136,18260,1,2,0:0:0:0:
248,48,18431,6,0,L|268:136,1,70,2|0,0:0|0:0,0:0:0:0:
351,131,18774,2,0,L|331:219,1,70,0|2,0:0|0:0,0:0:0:0:
248,200,19117,5,0,0:0:0:0:
196,260,19288,2,0,B|208:300|208:300|240:316,1,70,0|2,0:0|0:0,0:0:0:0:
312,328,19631,1,0,0:0:0:0:
196,380,19803,5,0,0:0:0:0:
136,328,19974,2,0,B|92:344|92:344|60:332,1,70,2|0,0:0|0:0,0:0:0:0:
40,264,20317,1,0,0:0:0:0:
96,156,20488,6,0,P|148:156|196:140,1,70,2|0,0:0|0:0,0:0:0:0:
232,112,20831,1,0,0:0:0:0:
280,52,21003,1,2,0:0:0:0:
376,216,21174,5,2,0:0:0:0:
376,216,21345,1,0,0:0:0:0:
260,208,21517,2,0,L|168:200,1,70,0|2,0:0|0:0,0:0:0:0:
316,308,21860,5,0,0:0:0:0:
316,308,22031,1,0,0:0:0:0:
136,296,22203,2,0,L|228:304,1,70,2|0,0:0|0:0,0:0:0:0:
260,208,22545,5,0,0:0:0:0:
205,302,22717,1,2,0:0:0:0:
192,184,22888,5,0,0:0:0:0:
205,302,23060,1,0,0:0:0:0:
272,176,23231,5,2,0:0:0:0:
205,302,23403,1,0,0:0:0:0:
184,152,23574,5,0,0:0:0:0:
205,302,23745,1,2,0:0:0:0:
108,204,23917,6,0,P|88:172|72:124,1,70,2|0,0:0|0:0,0:0:0:0:
116,56,24260,1,0,0:0:0:0:
212,72,24431,1,2,0:0:0:0:
340,28,24603,6,0,P|400:32|424:36,1,70
472,104,24945,1,2,0:0:0:0:
440,188,25117,1,0,0:0:0:0:
288,208,25288,6,0,P|292:148|288:120,1,70,0|2,0:0|0:0,0:0:0:0:
196,168,25631,1,0,0:0:0:0:
208,260,25803,1,0,0:0:0:0:
300,200,25974,6,0,P|304:140|300:112,1,70,2|0,0:0|0:0,0:0:0:0:
184,176,26317,1,0,0:0:0:0:
196,268,26489,1,2,0:0:0:0:
64,260,26660,5,6,0:0:0:0:
172,184,26831,1,0,0:0:0:0:
68,100,27003,2,0,P|132:92|152:92,1,70,0|2,0:0|0:0,0:0:0:0:
264,212,27345,5,0,0:0:0:0:
336,120,27517,1,0,0:0:0:0:
292,280,27688,2,0,P|252:288|220:272,1,70,2|0,0:0|0:0,0:0:0:0:
260,136,28031,5,0,0:0:0:0:
352,220,28203,2,0,P|376:260|372:308,1,70,2|0,0:0|0:0,0:0:0:0:
312,352,28545,1,0,0:0:0:0:
260,208,28717,5,2,0:0:0:0:
88,320,28888,2,0,L|184:356,1,70
148,260,29231,1,2,0:0:0:0:
308,200,29403,6,0,L|212:236,1,70,2|0,0:0|0:0,0:0:0:0:
148,172,29745,1,0,0:0:0:0:
212,64,29917,1,2,0:0:0:0:
300,216,30088,6,0,L|204:252,1,70
140,164,30431,1,2,0:0:0:0:
204,56,30603,1,0,0:0:0:0:
316,184,30774,6,0,L|412:220,1,70,0|2,0:0|0:0,0:0:0:0:
280,72,31117,1,0,0:0:0:0:
216,180,31289,1,0,0:0:0:0:
324,204,31460,6,0,L|420:240,1,70,2|0,0:0|0:0,0:0:0:0:
288,92,31803,1,0,0:0:0:0:
224,200,31975,1,2,0:0:0:0:
92,108,32145,6,0,B|84:88|84:88|104:32,2,70,2|0|0,0:0|0:0|0:0,0:0:0:0:
188,76,32660,1,2,0:0:0:0:
148,184,32831,1,0,0:0:0:0:
200,92,33003,6,0,L|164:188,1,70,0|2,0:0|0:0,0:0:0:0:
228,252,33345,1,0,0:0:0:0:
275,122,33516,1,0,0:0:0:0:
148,224,33688,6,0,L|112:320,1,70,2|0,0:0|0:0,0:0:0:0:
208,320,34031,1,0,0:0:0:0:
72,224,34203,1,2,0:0:0:0:
72,224,34374,5,0,0:0:0:0:
232,200,34545,1,0,0:0:0:0:
232,200,34717,1,2,0:0:0:0:
256,192,34888,12,0,37288,0:0:0:0:
356,136,37631,5,4,0:0:0:0:
356,136,37803,2,0,B|372:200|372:200|356:232,1,90.9999958343508,0|8,0:0|0:0,0:0:0:0:
264,120,38145,1,0,0:0:0:0:
276,92,38231,1,0,0:0:0:0:
296,68,38317,1,0,0:0:0:0:
324,52,38403,1,0,0:0:0:0:
352,48,38488,1,0,0:0:0:0:
280,200,38660,1,8,0:0:0:0:
356,136,38831,1,0,0:0:0:0:
272,272,39003,6,0,P|228:248|208:200,1,90.9999958343508
152,32,39345,2,0,L|124:144,1,90.9999958343508,8|0,0:0|0:0,0:0:0:0:
124,148,39603,1,0,0:0:0:0:
116,180,39688,1,0,0:0:0:0:
108,212,39774,1,0,0:0:0:0:
100,244,39860,1,0,0:0:0:0:
224,164,40031,1,8,0:0:0:0:
36,188,40203,1,0,0:0:0:0:
240,184,40374,6,0,L|324:224,1,90.9999958343508
280,80,40717,1,8,0:0:0:0:
208,248,40888,1,0,0:0:0:0:
180,220,40974,1,0,0:0:0:0:
172,184,41060,1,0,0:0:0:0:
180,148,41145,1,0,0:0:0:0:
208,124,41231,1,0,0:0:0:0:
268,288,41403,2,0,P|220:320|176:312,1,90.9999958343508,8|0,0:0|0:0,0:0:0:0:
312,180,41745,6,0,P|360:148|404:156,1,90.9999958343508
268,288,42088,2,0,L|232:196,1,90.9999958343508,8|0,0:0|0:0,0:0:0:0:
224,176,42345,1,0,0:0:0:0:
212,148,42431,1,0,0:0:0:0:
200,120,42517,1,0,0:0:0:0:
188,92,42603,1,0,0:0:0:0:
104,200,42773,2,0,B|88:240|88:240|108:292,1,90.9999958343508,8|0,0:0|0:0,0:0:0:0:
256,76,43116,6,0,P|232:36|120:76,1,181.999991668702,0|8,0:0|0:0,0:0:0:0:
208,232,43630,1,0,0:0:0:0:
228,248,43716,1,0,0:0:0:0:
252,256,43802,1,0,0:0:0:0:
280,252,43888,1,0,0:0:0:0:
304,236,43973,1,0,0:0:0:0:
384,112,44145,1,8,0:0:0:0:
436,304,44316,1,0,0:0:0:0:
288,152,44488,5,0,0:0:0:0:
464,196,44659,1,0,0:0:0:0:
268,148,44830,1,8,0:0:0:0:
212,324,45002,2,0,L|224:372,1,45.4999979171754
315,280,45173,2,0,L|303:232,1,45.4999979171754
120,264,45345,2,0,L|151:389,1,90.9999958343508,0|8,0:0|0:0,0:0:0:0:
200,208,45688,1,0,0:0:0:0:
364,332,45859,6,0,P|384:292|372:240,1,90.9999958343508
248,72,46202,1,8,0:0:0:0:
200,280,46373,1,0,0:0:0:0:
240,268,46459,1,0,0:0:0:0:
264,240,46545,1,0,0:0:0:0:
268,200,46630,1,0,0:0:0:0:
256,168,46716,2,0,B|192:156|192:156|212:196,1,90.9999958343508,0|8,0:0|0:0,0:0:0:0:
272,352,47059,1,0,0:0:0:0:
124,248,47230,5,0,0:0:0:0:
336,232,47402,1,0,0:0:0:0:
160,312,47573,2,0,P|112:320|64:288,1,90.9999958343508,8|0,0:0|0:0,0:0:0:0:
28,172,47830,2,0,L|12:124,1,45.4999979171754
176,72,48002,2,0,L|160:120,1,45.4999979171754
245,228,48259,2,0,L|341:232,1,90.9999958343508,8|0,0:0|0:0,0:0:0:0:
176,72,48602,6,0,L|112:256,1,181.999991668702,4|8,0:0|0:0,0:0:0:0:
312,172,49116,2,0,L|360:144,2,45.4999979171754
252,60,49459,1,0,0:0:0:0:
192,248,49630,1,8,0:0:0:0:
384,232,49802,6,0,L|432:260,2,45.4999979171754
280,104,50145,1,0,0:0:0:0:
220,292,50316,1,8,0:0:0:0:
172,140,50488,5,0,0:0:0:0:
184,152,50573,1,0,0:0:0:0:
196,164,50659,1,0,0:0:0:0:
304,280,50830,2,0,B|280:376,1,90.9999958343508,0|8,0:0|0:0,0:0:0:0:
88,248,51174,5,0,0:0:0:0:
100,236,51259,1,0,0:0:0:0:
112,224,51345,1,0,0:0:0:0:
304,280,51516,2,0,L|392:260,1,90.9999958343508,0|8,0:0|0:0,0:0:0:0:
352,80,51859,5,0,0:0:0:0:
340,92,51944,1,0,0:0:0:0:
328,104,52030,1,0,0:0:0:0:
304,280,52202,2,0,B|240:200,1,90.9999958343508,0|8,0:0|0:0,0:0:0:0:
128,72,52545,5,0,0:0:0:0:
128,72,52630,1,0,0:0:0:0:
128,72,52716,2,0,L|112:184,1,90.9999958343508
32,324,53059,2,0,L|16:212,1,90.9999958343508,8|0,0:0|0:0,0:0:0:0:
19,233,53316,5,0,0:0:0:0:
19,233,53402,1,0,0:0:0:0:
180,204,53573,1,0,0:0:0:0:
44,168,53745,1,8,0:0:0:0:
160,276,53916,1,0,0:0:0:0:
212,120,54088,6,0,L|200:64,3,45.4999979171754,2|0|0|0,0:0|0:0|0:0|0:0,0:0:0:0:
296,216,54430,2,0,L|308:272,3,45.4999979171754,8|0|2|0,0:0|0:0|0:0|0:0,0:0:0:0:
312,288,54773,5,0,0:0:0:0:
328,312,54859,1,0,0:0:0:0:
360,320,54945,1,0,0:0:0:0:
392,312,55030,1,0,0:0:0:0:
416,288,55116,1,10,0:0:0:0:
424,256,55202,1,0,0:0:0:0:
416,224,55288,1,0,0:0:0:0:
400,200,55373,1,0,0:0:0:0:
384,184,55459,5,0,0:0:0:0:
368,168,55545,1,0,0:0:0:0:
352,152,55630,1,2,0:0:0:0:
336,136,55716,1,0,0:0:0:0:
320,120,55802,1,8,0:0:0:0:
304,104,55888,1,0,0:0:0:0:
256,128,55973,1,0,0:0:0:0:
208,152,56059,1,0,0:0:0:0:
160,176,56145,6,0,L|112:160,3,45.4999979171754,2|0|0|0,0:0|0:0|0:0|0:0,0:0:0:0:
176,320,56488,2,0,L|224:336,3,45.4999979171754,8|0|2|0,0:0|0:0|0:0|0:0,0:0:0:0:
136,304,56830,5,0,0:0:0:0:
100,280,56916,1,0,0:0:0:0:
76,244,57002,1,2,0:0:0:0:
40,220,57088,1,0,0:0:0:0:
36,176,57173,1,8,0:0:0:0:
52,136,57259,1,0,0:0:0:0:
80,104,57345,1,0,0:0:0:0:
116,88,57430,1,0,0:0:0:0:
152,112,57516,5,2,0:0:0:0:
188,136,57602,1,0,0:0:0:0:
224,112,57688,1,0,0:0:0:0:
256,84,57773,1,0,0:0:0:0:
288,56,57859,1,8,0:0:0:0:
304,108,57945,1,0,0:0:0:0:
320,160,58030,1,2,0:0:0:0:
336,212,58116,1,0,0:0:0:0:
352,264,58202,6,0,L|312:288,1,45.4999979171754,4|0,0:0|0:0,0:0:0:0:
408,144,58373,2,0,L|448:120,1,45.4999979171754
346,276,58544,6,0,L|298:304,1,45.4999979171754,4|0,0:0|0:0,0:0:0:0:
413,132,58716,2,0,L|461:103,1,45.4999979171754
339,290,58888,6,0,L|282:324,1,45.4999979171754,4|0,0:0|0:0,0:0:0:0:
420,117,59059,2,0,L|477:83,1,45.4999979171754
252,208,59230,1,4,0:0:0:0:
88,344,59573,6,0,L|68:160,1,181.999991668702,6|8,0:0|0:0,0:0:0:0:
212,88,60087,1,2,0:0:0:0:
208,104,60173,1,0,0:0:0:0:
204,120,60259,1,0,0:0:0:0:
100,56,60430,1,0,0:0:0:0:
156,224,60602,2,0,B|172:272|172:272|204:296,1,90.9999958343508,10|0,0:0|0:0,0:0:0:0:
424,304,60944,6,0,L|324:312,1,90.9999958343508,0|2,0:0|0:0,0:0:0:0:
480,348,61287,2,0,P|496:308|480:260,1,90.9999958343508,8|0,0:0|0:0,0:0:0:0:
464,244,61544,1,0,0:0:0:0:
440,236,61630,1,2,0:0:0:0:
252,376,61802,2,0,L|352:384,1,90.9999958343508,0|8,0:0|0:0,0:0:0:0:
208,292,62144,1,2,0:0:0:0:
116,248,62316,6,0,P|112:196|128:136,1,90.9999958343508,2|2,0:0|0:0,0:0:0:0:
264,64,62659,1,8,0:0:0:0:
104,28,62830,2,0,L|52:20,2,45.4999979171754,2|0|2,0:0|0:0|0:0,0:0:0:0:
240,208,63173,1,0,0:0:0:0:
240,40,63344,1,8,0:0:0:0:
119,158,63516,1,2,0:0:0:0:
308,136,63687,6,0,L|412:104,1,90.9999958343508,0|2,0:0|0:0,0:0:0:0:
332,272,64030,2,0,L|228:304,1,90.9999958343508,8|0,0:0|0:0,0:0:0:0:
245,298,64287,1,0,0:0:0:0:
245,298,64373,1,2,0:0:0:0:
408,264,64544,2,0,P|380:212|328:196,1,90.9999958343508,0|10,0:0|0:0,0:0:0:0:
320,368,64887,1,2,0:0:0:0:
240,192,65059,5,2,0:0:0:0:
332,272,65230,1,0,0:0:0:0:
272,128,65402,2,0,P|212:124|176:160,1,90.9999958343508,8|2,0:0|0:0,0:0:0:0:
172,172,65659,1,0,0:0:0:0:
176,208,65744,1,0,0:0:0:0:
260,332,65916,1,0,0:0:0:0:
328,200,66087,1,10,0:0:0:0:
328,200,66259,1,0,0:0:0:0:
160,288,66430,6,0,L|64:280,2,90.9999958343508,0|2|8,0:0|0:0|0:0,0:0:0:0:
328,364,66944,1,0,0:0:0:0:
328,364,67030,1,0,0:0:0:0:
328,364,67116,1,2,0:0:0:0:
248,256,67287,1,0,0:0:0:0:
396,328,67459,1,8,0:0:0:0:
204,356,67630,1,2,0:0:0:0:
324,256,67802,6,0,P|308:208|272:184,1,90.9999958343508,2|2,0:0|0:0,0:0:0:0:
128,268,68144,1,8,0:0:0:0:
200,84,68316,1,2,0:0:0:0:
200,84,68402,1,0,0:0:0:0:
200,84,68487,1,2,0:0:0:0:
220,196,68659,1,0,0:0:0:0:
100,148,68830,1,8,0:0:0:0:
276,132,69002,1,2,0:0:0:0:
104,76,69173,6,0,P|32:124|88:220,1,181.999991668702,2|8,0:0|0:0,0:0:0:0:
168,276,69687,2,0,L|180:328,2,45.4999979171754,2|0|2,0:0|0:0|0:0,0:0:0:0:
324,208,70030,2,0,L|296:327,1,90.9999958343508,0|8,0:0|0:0,0:0:0:0:
212,200,70373,1,2,0:0:0:0:
380,124,70544,6,0,L|499:96,1,90.9999958343508,6|0,0:0|0:0,0:0:0:0:
240,40,70887,1,8,0:0:0:0:
208,216,71059,1,2,0:0:0:0:
204,236,71144,1,0,0:0:0:0:
200,252,71230,1,0,0:0:0:0:
300,124,71402,1,0,0:0:0:0:
144,104,71573,1,10,0:0:0:0:
144,104,71744,1,0,0:0:0:0:
316,204,71916,6,0,L|424:216,1,90.9999958343508,0|2,0:0|0:0,0:0:0:0:
176,316,72259,2,0,L|68:304,1,90.9999958343508,8|0,0:0|0:0,0:0:0:0:
85,305,72516,1,0,0:0:0:0:
85,305,72602,1,2,0:0:0:0:
212,192,72773,1,0,0:0:0:0:
300,332,72944,1,8,0:0:0:0:
200,168,73116,1,2,0:0:0:0:
212,276,73287,6,0,P|264:260|288:232,1,90.9999958343508,2|2,0:0|0:0,0:0:0:0:
256,68,73630,1,8,0:0:0:0:
76,148,73802,1,2,0:0:0:0:
84,172,73887,1,0,0:0:0:0:
92,196,73973,1,2,0:0:0:0:
256,148,74144,1,0,0:0:0:0:
128,92,74316,2,0,P|80:72|36:84,1,90.9999958343508,8|2,0:0|0:0,0:0:0:0:
204,208,74659,6,0,P|252:228|296:216,1,90.9999958343508,2|2,0:0|0:0,0:0:0:0:
408,64,75002,1,8,0:0:0:0:
428,240,75173,2,0,L|436:288,2,45.4999979171754,2|0|2,0:0|0:0|0:0,0:0:0:0:
324,120,75516,1,0,0:0:0:0:
324,120,75687,2,0,L|216:128,1,90.9999958343508,10|2,0:0|0:0,0:0:0:0:
408,64,76030,6,0,L|436:184,1,90.9999958343508,2|0,0:0|0:0,0:0:0:0:
304,296,76373,2,0,L|332:176,1,90.9999958343508,8|2,0:0|0:0,0:0:0:0:
324,207,76630,1,0,0:0:0:0:
324,207,76716,1,0,0:0:0:0:
400,296,76887,1,0,0:0:0:0:
356,116,77059,1,10,0:0:0:0:
356,116,77144,1,0,0:0:0:0:
356,116,77230,1,0,0:0:0:0:
356,116,77316,1,0,0:0:0:0:
356,116,77402,6,0,L|304:104,3,45.4999979171754,0|0|2|0,0:0|0:0|0:0|0:0,0:0:0:0:
232,228,77744,2,0,L|180:240,3,45.4999979171754,8|0|0|0,0:0|0:0|0:0|0:0,0:0:0:0:
224,80,78087,6,0,L|212:28,3,45.4999979171754,2|0|0|0,0:0|0:0|0:0|0:0,0:0:0:0:
100,140,78430,2,0,L|88:192,3,45.4999979171754,8|0|2|0,0:0|0:0|0:0|0:0,0:0:0:0:
92,216,78773,5,2,0:0:0:0:
96,248,78859,1,0,0:0:0:0:
100,280,78944,1,2,0:0:0:0:
104,312,79030,1,0,0:0:0:0:
140,304,79116,1,8,0:0:0:0:
176,296,79202,1,0,0:0:0:0:
208,288,79287,1,2,0:0:0:0:
240,280,79373,1,0,0:0:0:0:
268,272,79459,6,0,L|320:276,1,45.4999979171754,2|0,0:0|0:0,0:0:0:0:
240,192,79630,2,0,L|292:196,1,45.4999979171754
212,112,79802,2,0,L|264:116,1,45.4999979171754,10|0,0:0|0:0,0:0:0:0:
180,32,79973,2,0,L|232:36,1,45.4999979171754,2|0,0:0|0:0,0:0:0:0:
268,32,80144,5,2,0:0:0:0:
312,40,80230,1,0,0:0:0:0:
348,68,80316,1,2,0:0:0:0:
368,108,80402,1,0,0:0:0:0:
368,152,80487,1,4,0:0:0:0:
356,196,80573,1,0,0:0:0:0:
360,204,80659,1,2,0:0:0:0:
364,212,80744,1,0,0:0:0:0:
368,220,80830,6,0,L|416:212,1,45.4999979171754,6|0,0:0|0:0,0:0:0:0:
332,336,81002,2,0,L|284:328,1,45.4999979171754
204,232,81173,6,0,L|252:224,1,45.4999979171754,6|0,0:0|0:0,0:0:0:0:
168,348,81345,2,0,L|120:340,1,45.4999979171754
348,68,81516,6,0,L|196:93,1,105.000004005432,6|0,0:0|0:0,0:0:0:0:
96,108,81859,1,8,0:0:0:0:
248,268,82030,1,0,0:0:0:0:
176,40,82202,2,0,P|148:32|120:32,1,52.5000020027161
88,136,82373,2,0,P|80:164|80:192,1,52.5000020027161
244,85,82544,2,0,P|272:93|300:93,2,52.5000020027161,8|0|0,0:0|0:0|0:0,0:0:0:0:
248,268,82887,5,0,0:0:0:0:
282,282,82973,1,0,0:0:0:0:
318,278,83059,1,0,0:0:0:0:
346,261,83144,1,0,0:0:0:0:
363,234,83230,1,8,0:0:0:0:
236,172,83402,1,0,0:0:0:0:
304,352,83573,1,0,0:0:0:0:
436,224,83744,2,0,P|388:164|332:168,1,105.000004005432,0|8,0:0|0:0,0:0:0:0:
224,184,84087,1,0,0:0:0:0:
96,336,84259,6,0,B|80:256|80:256|92:208,1,105.000004005432
228,88,84602,2,0,B|276:68|276:68|356:92,1,105.000004005432,8|0,0:0|0:0,0:0:0:0:
452,174,84944,2,0,P|434:225|406:259,1,52.5000020027161
229,259,85116,2,0,P|280:241|314:213,1,52.5000020027161
343,332,85287,2,0,P|394:349|428:377,2,52.5000020027161,8|0|0,0:0|0:0|0:0,0:0:0:0:
132,284,85630,5,0,0:0:0:0:
124,248,85716,1,0,0:0:0:0:
128,208,85802,1,0,0:0:0:0:
144,172,85887,1,0,0:0:0:0:
176,148,85973,2,0,B|248:120|248:120|248:168,1,105.000004005432,8|0,0:0|0:0,0:0:0:0:
208,272,86316,1,0,0:0:0:0:
72,160,86487,1,0,0:0:0:0:
280,244,86659,2,0,P|276:312|224:348,1,105.000004005432,8|0,0:0|0:0,0:0:0:0:
168,64,87002,6,0,L|384:84,1,210.000008010865,0|8,0:0|0:0,0:0:0:0:
424,196,87516,1,0,0:0:0:0:
216,152,87687,2,0,L|316:160,1,52.5000020027161
440,208,87859,2,0,L|340:200,1,52.5000020027161
280,244,88030,2,0,L|180:236,2,52.5000020027161,8|0|0,0:0|0:0|0:0,0:0:0:0:
88,336,88373,5,0,0:0:0:0:
92,300,88459,1,0,0:0:0:0:
96,264,88544,1,0,0:0:0:0:
100,228,88630,1,0,0:0:0:0:
104,192,88716,1,8,0:0:0:0:
280,64,88887,2,0,L|392:48,1,105.000004005432
280,244,89230,2,0,L|168:260,1,105.000004005432,0|8,0:0|0:0,0:0:0:0:
332,184,89573,2,0,L|360:236,1,52.5000020027161
216,20,89744,6,0,L|144:151,1,105.000004005432
280,244,90087,1,8,0:0:0:0:
280,64,90259,1,0,0:0:0:0:
208,224,90430,2,0,P|208:272|220:292,1,52.5000020027161
348,84,90602,2,0,P|348:36|336:16,1,52.5000020027161
192,248,90773,2,0,P|192:296|204:316,2,52.5000020027161,8|0|0,0:0|0:0|0:0,0:0:0:0:
400,344,91116,5,0,0:0:0:0:
427,321,91202,1,0,0:0:0:0:
442,290,91288,1,0,0:0:0:0:
443,251,91374,1,0,0:0:0:0:
428,216,91459,2,0,P|376:168|344:160,1,105.000004005432,8|0,0:0|0:0,0:0:0:0:
304,316,91802,1,0,0:0:0:0:
256,100,91973,1,0,0:0:0:0:
372,272,92144,1,8,0:0:0:0:
192,248,92316,2,0,L|128:244,1,52.5000020027161
308,40,92487,6,0,L|328:164,1,105.000004005432,4|0,0:0|0:0,0:0:0:0:
175,351,92830,2,0,L|195:227,1,105.000004005432,8|0,0:0|0:0,0:0:0:0:
360,128,93173,2,0,P|420:160|424:184,1,52.5000020027161
176,168,93344,2,0,P|116:136|112:112,1,52.5000020027161
392,56,93516,1,8,0:0:0:0:
392,56,93602,2,0,P|452:88|456:112,1,52.5000020027161
328,376,93859,5,0,0:0:0:0:
316,332,93944,1,0,0:0:0:0:
304,288,94030,1,0,0:0:0:0:
292,244,94116,1,0,0:0:0:0:
280,200,94202,1,8,0:0:0:0:
160,68,94373,1,0,0:0:0:0:
136,304,94544,1,0,0:0:0:0:
172,80,94716,1,0,0:0:0:0:
224,280,94887,1,8,0:0:0:0:
184,92,95059,1,0,0:0:0:0:
412,32,95230,6,0,L|392:136,1,105.000004005432
224,280,95573,2,0,P|280:244|348:244,1,105.000004005432,8|0,0:0|0:0,0:0:0:0:
240,96,95916,1,0,0:0:0:0:
240,96,96002,1,0,0:0:0:0:
240,96,96087,2,0,L|216:48,1,52.5000020027161
392,216,96259,2,0,L|416:264,2,52.5000020027161,8|0|0,0:0|0:0|0:0,0:0:0:0:
188,164,96602,5,0,0:0:0:0:
142,176,96688,1,0,0:0:0:0:
114,213,96774,1,0,0:0:0:0:
110,260,96859,1,0,0:0:0:0:
132,300,96944,1,8,0:0:0:0:
148,104,97116,1,0,0:0:0:0:
180,240,97287,1,0,0:0:0:0:
48,168,97459,1,0,0:0:0:0:
200,56,97630,2,0,P|216:124|188:164,1,105.000004005432,8|0,0:0|0:0,0:0:0:0:
256,348,97973,6,0,B|424:316|424:316|352:312,1,210.000008010865,0|8,0:0|0:0,0:0:0:0:
288,92,98487,1,0,0:0:0:0:
244,224,98659,2,0,P|200:256|176:260,1,52.5000020027161
416,192,98830,2,0,P|448:148|452:124,1,52.5000020027161
288,92,99002,2,0,P|256:48|252:24,2,52.5000020027161,8|0|0,0:0|0:0|0:0,0:0:0:0:
256,348,99344,5,0,0:0:0:0:
224,340,99430,1,0,0:0:0:0:
192,332,99516,1,0,0:0:0:0:
160,324,99602,1,0,0:0:0:0:
128,316,99687,1,8,0:0:0:0:
184,136,99859,2,0,L|272:156,1,52.5000020027161
248,152,100030,1,0,0:0:0:0:
284,280,100202,1,0,0:0:0:0:
232,72,100373,1,8,0:0:0:0:
156,232,100544,1,0,0:0:0:0:
380,244,100716,5,0,0:0:0:0:
392,212,100802,1,0,0:0:0:0:
392,176,100887,1,0,0:0:0:0:
376,144,100973,1,0,0:0:0:0:
344,128,101059,1,8,0:0:0:0:
316,104,101144,1,0,0:0:0:0:
300,72,101230,1,0,0:0:0:0:
272,48,101316,1,0,0:0:0:0:
236,40,101402,5,0,0:0:0:0:
200,52,101487,1,0,0:0:0:0:
176,80,101573,1,0,0:0:0:0:
168,116,101659,1,0,0:0:0:0:
180,152,101744,1,8,0:0:0:0:
208,176,101830,1,0,0:0:0:0:
244,184,101916,1,0,0:0:0:0:
280,176,102002,1,0,0:0:0:0:
272,208,102087,5,0,0:0:0:0:
256,236,102173,1,0,0:0:0:0:
224,248,102259,1,0,0:0:0:0:
192,248,102344,1,0,0:0:0:0:
160,236,102430,1,4,0:0:0:0:
136,212,102516,1,0,0:0:0:0:
116,184,102602,1,0,0:0:0:0:
108,152,102687,1,0,0:0:0:0:
108,120,102773,6,0,L|88:80,6,26.2500010013581,4|0|0|0|0|0|0,0:0|0:0|0:0|0:0|0:0|0:0|0:0,0:0:0:0:
80,320,103116,2,0,L|100:360,6,26.2500010013581,4|0|0|0|0|0|0,0:0|0:0|0:0|0:0|0:0|0:0|0:0,0:0:0:0:
