osu file format v14

[General]
AudioFilename: train.mp3
AudioLeadIn: 0
PreviewTime: 14942
Countdown: 0
SampleSet: Normal
StackLeniency: 0.7
Mode: 1
LetterboxInBreaks: 0
WidescreenStoryboard: 1

[Editor]
Bookmarks: 7557,14942,22326,29711,37096
DistanceSpacing: 1.1
BeatDivisor: 2
GridSize: 32
TimelineZoom: 0.7999998

[Metadata]
Title:prends le train
TitleUnicode:prends le train
Artist:Oui
ArtistUnicode:Oui
Creator:Oui
Version:Futsuu
Source:
Tags:livraison gachi electronic instrumental
BeatmapID:2208051
BeatmapSetID:1011376

[Difficulty]
HPDrainRate:7
CircleSize:5
OverallDifficulty:4
ApproachRate:10
SliderMultiplier:1.4
SliderTickRate:1

[Events]
//Background and Video events
0,0,"chho.png",0,25
//Break Periods
//Storyboard Layer 0 (Background)
//Storyboard Layer 1 (Fail)
//Storyboard Layer 2 (Pass)
//Storyboard Layer 3 (Foreground)
//Storyboard Layer 4 (Overlay)
//Storyboard Sound Samples

[TimingPoints]
173,461.538461538462,4,1,0,70,1,0
7557,-100,4,1,0,90,0,0
14942,-100,4,1,0,90,0,1
29711,-100,4,1,0,90,0,0
37096,-100,4,1,0,70,0,0

[HitObjects]
256,192,173,5,0,0:0:0:0:
256,192,403,1,0,0:0:0:0:
256,192,634,1,8,0:0:0:0:
256,192,1096,1,0,0:0:0:0:
256,192,1557,1,8,0:0:0:0:
256,192,1788,1,0,0:0:0:0:
256,192,2019,1,0,0:0:0:0:
256,192,2480,1,8,0:0:0:0:
256,192,2942,1,0,0:0:0:0:
256,192,3865,1,0,0:0:0:0:
256,192,4096,1,0,0:0:0:0:
256,192,4326,1,8,0:0:0:0:
256,192,4788,1,0,0:0:0:0:
256,192,5249,1,8,0:0:0:0:
256,192,5480,1,8,0:0:0:0:
256,192,5711,1,0,0:0:0:0:
256,192,6173,1,8,0:0:0:0:
256,192,6634,1,0,0:0:0:0:
256,192,7557,1,0,0:0:0:0:
256,192,8019,1,8,0:0:0:0:
256,192,8711,1,0,0:0:0:0:
256,192,8942,1,8,0:0:0:0:
256,192,9403,1,0,0:0:0:0:
256,192,9865,1,8,0:0:0:0:
256,192,10096,1,8,0:0:0:0:
256,192,10557,1,0,0:0:0:0:
256,192,10788,1,8,0:0:0:0:
256,192,11249,1,0,0:0:0:0:
256,192,11711,1,8,0:0:0:0:
256,192,11942,1,0,0:0:0:0:
256,192,12403,1,0,0:0:0:0:
256,192,12634,1,8,0:0:0:0:
256,192,13096,1,0,0:0:0:0:
256,192,13557,1,8,0:0:0:0:
256,192,14019,1,8,0:0:0:0:
256,192,14249,1,0,0:0:0:0:
256,192,14480,1,8,0:0:0:0:
256,192,14942,1,0,0:0:0:0:
256,192,15403,1,8,0:0:0:0:
256,192,16096,1,0,0:0:0:0:
256,192,16326,1,8,0:0:0:0:
256,192,16788,1,0,0:0:0:0:
256,192,17249,1,8,0:0:0:0:
256,192,17480,1,8,0:0:0:0:
256,192,17942,1,0,0:0:0:0:
256,192,18173,1,8,0:0:0:0:
256,192,18634,1,0,0:0:0:0:
256,192,19096,1,8,0:0:0:0:
256,192,19326,1,0,0:0:0:0:
256,192,19557,1,8,0:0:0:0:
256,192,19788,1,0,0:0:0:0:
256,192,20019,1,8,0:0:0:0:
256,192,20480,1,0,0:0:0:0:
256,192,20942,1,8,0:0:0:0:
256,192,21173,1,8,0:0:0:0:
256,192,21403,1,0,0:0:0:0:
256,192,21634,1,0,0:0:0:0:
256,192,21865,1,8,0:0:0:0:
256,192,22326,1,0,0:0:0:0:
256,192,22788,1,8,0:0:0:0:
256,192,23480,1,0,0:0:0:0:
256,192,23711,1,8,0:0:0:0:
256,192,24173,1,0,0:0:0:0:
256,192,24634,1,8,0:0:0:0:
256,192,24865,1,8,0:0:0:0:
256,192,25326,1,0,0:0:0:0:
256,192,25557,1,8,0:0:0:0:
256,192,26019,1,0,0:0:0:0:
256,192,26480,1,8,0:0:0:0:
256,192,26711,1,0,0:0:0:0:
256,192,26942,1,8,0:0:0:0:
256,192,27173,1,0,0:0:0:0:
256,192,27403,1,8,0:0:0:0:
256,192,27865,1,0,0:0:0:0:
256,192,28326,1,8,0:0:0:0:
256,192,28557,1,8,0:0:0:0:
256,192,28788,1,0,0:0:0:0:
256,192,29019,1,0,0:0:0:0:
256,192,29249,1,8,0:0:0:0:
256,192,29711,1,0,0:0:0:0:
256,192,30173,1,8,0:0:0:0:
256,192,30865,1,0,0:0:0:0:
256,192,31096,1,8,0:0:0:0:
256,192,31557,1,0,0:0:0:0:
256,192,32019,1,8,0:0:0:0:
256,192,32249,1,8,0:0:0:0:
256,192,32711,1,0,0:0:0:0:
256,192,32942,1,8,0:0:0:0:
256,192,33403,1,0,0:0:0:0:
256,192,33865,1,8,0:0:0:0:
256,192,34096,1,0,0:0:0:0:
256,192,34557,1,0,0:0:0:0:
256,192,34788,1,8,0:0:0:0:
256,192,35249,1,0,0:0:0:0:
256,192,35711,1,8,0:0:0:0:
256,192,36173,1,8,0:0:0:0:
256,192,36403,1,0,0:0:0:0:
256,192,36634,1,8,0:0:0:0:
256,192,37096,1,0,0:0:0:0:
256,192,37326,1,0,0:0:0:0:
256,192,37557,1,8,0:0:0:0:
256,192,38019,1,0,0:0:0:0:
256,192,38480,1,8,0:0:0:0:
256,192,38711,1,0,0:0:0:0:
256,192,38942,1,0,0:0:0:0:
256,192,39403,1,8,0:0:0:0:
256,192,39865,1,0,0:0:0:0:
256,192,40788,1,0,0:0:0:0:
256,192,41019,1,0,0:0:0:0:
256,192,41249,1,8,0:0:0:0:
256,192,41711,1,0,0:0:0:0:
256,192,42173,1,8,0:0:0:0:
256,192,42403,1,8,0:0:0:0:
256,192,42634,1,0,0:0:0:0:
256,192,43096,1,8,0:0:0:0:
256,192,43557,1,0,0:0:0:0:
