osu file format v14

[General]
AudioFilename: audio.mp3
AudioLeadIn: 0
PreviewTime: 48326
Countdown: 0
SampleSet: Normal
StackLeniency: 0.7
Mode: 1
LetterboxInBreaks: 0
WidescreenStoryboard: 1

[Editor]
DistanceSpacing: 0.7
BeatDivisor: 2
GridSize: 32
TimelineZoom: 1.5

[Metadata]
Title:Apocrypha
TitleUnicode:Apocrypha
Artist:Otsukisama Koukyoukyoku
ArtistUnicode:お月さま交響曲
Creator:Linkff001
Version:dtn's Futsuu
Source:SOUND VOLTEX IV HEAVENLY HAVEN
Tags:moon symphony konami the 6th kac オリジナル楽曲コンテスト monologia engawa342 大宮 水那瀬 minase omiya レマノルド remanorudo ゆーじ yuji 342 大久保潤 okubo jun かそかそ kaso kaso 上園千紗 chisa uezono ケィニ keini 小鳥遊めぐみ megumi takanashi 西風s nishikazes sdvx_iv latin video game orchestral symphonic metal Ognjen3800 Hana Hayashi Hana_Hayashi dtn Dtnt0r SenSenko Tatara Kogasa slyme mari_0hara mari 0hara
BeatmapID:4312170
BeatmapSetID:2039040

[Difficulty]
HPDrainRate:7
CircleSize:5
OverallDifficulty:4
ApproachRate:5
SliderMultiplier:1.4
SliderTickRate:1

[Events]
//Background and Video events
0,0,"Fubuki_1.jpg",0,120
//Break Periods
//Storyboard Layer 0 (Background)
//Storyboard Layer 1 (Fail)
//Storyboard Layer 2 (Pass)
//Storyboard Layer 3 (Foreground)
//Storyboard Layer 4 (Overlay)
//Storyboard Sound Samples

[TimingPoints]
617,254.237288135593,3,1,0,60,1,0
617,-100,3,1,0,60,0,0
6718,-100,4,1,0,60,0,0
6845,-100,4,1,0,63,0,0
6972,-100,4,1,0,67,0,0
7100,-100,4,1,0,70,0,0
7227,-100,4,1,0,73,0,0
7354,-100,4,1,0,77,0,0
7481,-100,4,1,0,80,0,0
7735,-100,3,1,0,60,0,0
13583,-100,4,1,0,60,0,0
13710,-100,4,1,0,63,0,0
13837,-100,4,1,0,67,0,0
13965,-100,4,1,0,70,0,0
14092,-100,4,1,0,73,0,0
14219,-100,4,1,0,77,0,0
14854,-100,4,1,0,70,0,0
15871,-100,4,1,0,60,0,0
16633,-100,4,1,0,50,0,0
18159,-100,4,1,0,50,0,0
18286,-100,4,1,0,53,0,0
18413,-100,4,1,0,57,0,0
18540,-100,4,1,0,60,0,0
18667,-100,4,1,0,63,0,0
18731,-100,4,1,0,65,0,0
18794,-100,4,1,0,67,0,0
18858,-100,4,1,0,68,0,0
18922,254.237288135593,4,1,0,70,1,0
18922,-100,4,1,0,70,0,0
20193,-100,4,1,0,70,0,0
20277,-100,4,1,0,67,0,0
20362,-100,4,1,0,63,0,0
20447,-100,4,1,0,60,0,0
20532,-100,4,1,0,57,0,0
20616,-100,4,1,0,53,0,0
20701,-100,4,1,0,50,0,0
20955,-100,4,1,0,70,0,0
21972,-100,4,1,0,70,0,0
22057,-100,4,1,0,68,0,0
22142,-100,4,1,0,66,0,0
22227,-100,4,1,0,63,0,0
22311,-100,4,1,0,61,0,0
22396,-100,4,1,0,59,0,0
22481,-100,4,1,0,57,0,0
22566,-100,4,1,0,54,0,0
22650,-100,4,1,0,52,0,0
22735,-100,4,1,0,50,0,0
22989,254.237288135593,3,1,0,70,1,0
22989,-100,4,1,0,70,0,0
23370,-100,4,1,0,50,0,0
23497,-100,4,1,0,57,0,0
23561,-100,4,1,0,60,0,0
23624,-100,4,1,0,63,0,0
23751,-100,4,1,0,70,0,0
24133,-100,4,1,0,50,0,0
24260,-100,4,1,0,57,0,0
24323,-100,4,1,0,60,0,0
24387,-100,4,1,0,63,0,0
24514,-100,4,1,0,70,0,0
24641,-100,4,1,0,50,0,0
24768,-100,4,1,0,53,0,0
24832,-100,4,1,0,55,0,0
24895,-100,4,1,0,57,0,0
25022,-100,4,1,0,60,0,0
25531,-100,4,1,0,60,0,0
25616,-100,4,1,0,59,0,0
25700,-100,4,1,0,59,0,0
25785,-100,4,1,0,58,0,0
25870,-100,4,1,0,58,0,0
25955,-100,4,1,0,57,0,0
26039,-100,4,1,0,56,0,0
26166,-100,4,1,0,55,0,0
26294,-100,4,1,0,55,0,0
26378,-100,4,1,0,54,0,0
26463,-100,4,1,0,53,0,0
26548,-100,4,1,0,53,0,0
26633,-100,4,1,0,52,0,0
26717,-100,4,1,0,52,0,0
26802,-100,4,1,0,51,0,0
26887,-100,4,1,0,50,0,0
26972,-100,4,1,0,52,0,0
27056,-100,4,1,0,56,0,0
27141,-100,4,1,0,60,0,0
27226,-100,4,1,0,64,0,0
27311,-100,4,1,0,68,0,0
27374,-100,4,1,0,71,0,0
27438,-100,4,1,0,74,0,0
27501,-100,4,1,0,77,0,0
27565,254.237288135593,4,1,0,80,1,0
27565,-100,4,1,0,80,0,0
30615,-100,4,1,0,80,0,0
30700,-100,4,1,0,81,0,0
30785,-100,4,1,0,82,0,0
30870,-100,4,1,0,83,0,0
30954,-100,4,1,0,84,0,0
31039,-100,4,1,0,86,0,0
31124,-100,4,1,0,87,0,0
31209,-100,4,1,0,88,0,0
31293,-100,4,1,0,89,0,0
31378,-100,4,1,0,90,0,0
31632,254.237288135593,3,1,0,90,1,0
31632,-100,4,1,0,90,0,0
32013,-100,4,1,0,80,0,0
32140,-100,4,1,0,83,0,0
32267,-100,4,1,0,87,0,0
32394,-100,4,1,0,90,0,0
32776,-100,4,1,0,80,0,0
32903,-100,4,1,0,83,0,0
33030,-100,4,1,0,87,0,0
33157,-100,4,1,0,90,0,0
33538,-100,4,1,0,80,0,0
33665,-100,4,1,0,83,0,0
33793,-100,4,1,0,87,0,0
33920,-100,4,1,0,90,0,0
34301,-100,4,1,0,80,0,0
34428,-100,4,1,0,83,0,0
34492,-100,4,1,0,85,0,0
34555,-100,4,1,0,87,0,0
34682,-100,4,1,0,90,0,0
34809,-100,4,1,0,87,0,0
34937,-100,4,1,0,85,0,0
35000,-100,4,1,0,83,0,0
35064,-100,4,1,0,82,0,0
35191,-100,4,1,0,79,0,0
35318,-100,4,1,0,76,0,0
35445,-100,4,1,0,74,0,0
35572,-100,4,1,0,71,0,0
35636,-100,4,1,0,70,0,0
35699,-100,4,1,0,68,0,0
35826,-100,4,1,0,65,0,0
35954,-100,4,1,0,63,0,0
36081,-100,4,1,0,60,0,0
36208,-100,4,1,0,70,0,0
36462,-100,4,1,0,70,0,0
36589,-100,4,1,0,70,0,0
36716,-100,4,1,0,71,0,0
36780,-100,4,1,0,71,0,0
36843,-100,4,1,0,71,0,0
36970,-100,4,1,0,71,0,0
37034,-100,4,1,0,71,0,0
37098,-100,4,1,0,71,0,0
37225,-100,4,1,0,72,0,0
37352,-100,4,1,0,72,0,0
37415,-100,4,1,0,72,0,0
37479,-100,4,1,0,72,0,0
37543,-100,4,1,0,72,0,0
37606,-100,4,1,0,73,0,0
37648,-100,4,1,0,73,0,0
37691,-100,4,1,0,73,0,0
37733,-100,4,1,0,73,0,0
37860,-100,4,1,0,73,0,0
37987,-100,4,1,0,73,0,0
38051,-100,4,1,0,74,0,0
38115,-100,4,1,0,74,0,0
38242,-100,4,1,0,74,0,0
38326,-100,4,1,0,74,0,0
38411,-100,4,1,0,74,0,0
38496,-100,4,1,0,75,0,0
38623,-100,4,1,0,75,0,0
38750,-100,4,1,0,75,0,0
38877,-100,4,1,0,75,0,0
38941,-100,4,1,0,76,0,0
39004,-100,4,1,0,76,0,0
39068,-100,4,1,0,76,0,0
39131,-100,4,1,0,76,0,0
39174,-100,4,1,0,76,0,0
39216,-100,4,1,0,76,0,0
39259,-100,4,1,0,76,0,0
39386,-100,4,1,0,77,0,0
39513,-100,4,1,0,77,0,0
39576,-100,4,1,0,77,0,0
39640,-100,4,1,0,77,0,0
39767,-100,4,1,0,77,0,0
39852,-100,4,1,0,78,0,0
39937,-100,4,1,0,78,0,0
40021,-100,4,1,0,78,0,0
40085,-100,4,1,0,78,0,0
40148,-100,4,1,0,78,0,0
40276,-100,4,1,0,79,0,0
40403,-100,4,1,0,79,0,0
40466,-100,4,1,0,79,0,0
40530,-100,4,1,0,79,0,0
40593,-100,4,1,0,79,0,0
40657,-100,4,1,0,79,0,0
40699,-100,4,1,0,80,0,0
40742,-100,4,1,0,80,0,0
40784,-100,4,1,0,80,0,0
40911,-100,4,1,0,80,0,0
41038,-100,4,1,0,80,0,0
41101,-100,4,1,0,80,0,0
41165,-100,4,1,0,81,0,0
41292,-100,4,1,0,81,0,0
41377,-100,4,1,0,81,0,0
41462,-100,4,1,0,81,0,0
41546,-100,4,1,0,81,0,0
41673,-100,4,1,0,82,0,0
41801,-100,4,1,0,82,0,0
41928,-100,4,1,0,82,0,0
41991,-100,4,1,0,82,0,0
42055,-100,4,1,0,83,0,0
42119,-100,4,1,0,83,0,0
42182,-100,4,1,0,83,0,0
42224,-100,4,1,0,83,0,0
42267,-100,4,1,0,83,0,0
42309,-100,4,1,0,83,0,0
42437,-100,4,1,0,83,0,0
42564,-100,4,1,0,84,0,0
42627,-100,4,1,0,84,0,0
42691,-100,4,1,0,84,0,0
42818,-100,4,1,0,84,0,0
42903,-100,4,1,0,84,0,0
42988,-100,4,1,0,85,0,0
43072,-100,4,1,0,85,0,0
43136,-100,4,1,0,85,0,0
43199,-100,4,1,0,85,0,0
43327,-100,4,1,0,85,0,0
43454,-100,4,1,0,86,0,0
43517,-100,4,1,0,86,0,0
43581,-100,4,1,0,86,0,0
43644,-100,4,1,0,86,0,0
43708,-100,4,1,0,86,0,0
43750,-100,4,1,0,86,0,0
43793,-100,4,1,0,86,0,0
43835,-100,4,1,0,87,0,0
43962,-100,4,1,0,87,0,0
44089,-100,4,1,0,87,0,0
44152,-100,4,1,0,87,0,0
44216,-100,4,1,0,87,0,0
44343,-100,4,1,0,88,0,0
44428,-100,4,1,0,88,0,0
44513,-100,4,1,0,88,0,0
44597,-100,4,1,0,88,0,0
44724,-100,4,1,0,89,0,0
44852,-100,4,1,0,89,0,0
44979,-100,4,1,0,89,0,0
45042,-100,4,1,0,89,0,0
45106,-100,4,1,0,89,0,0
45170,-100,4,1,0,90,0,0
45233,-100,4,1,0,90,0,0
45275,-100,4,1,0,90,0,0
45318,-100,4,1,0,90,0,0
45360,-100,4,1,0,90,0,0
47648,-100,4,1,0,80,0,0
48411,254.237288135593,4,1,0,60,1,0
48411,-100,4,1,0,60,0,0
60614,254.237288135593,3,1,0,90,1,0
60614,-100,4,1,0,90,0,0
60741,-100,4,1,0,88,0,0
60868,-100,4,1,0,87,0,0
60995,-100,4,1,0,85,0,0
61122,-100,4,1,0,83,0,0
61249,-100,4,1,0,81,0,0
61376,-100,4,1,0,80,0,0
61461,-100,4,1,0,78,0,0
61546,-100,4,1,0,77,0,0
61630,-100,4,1,0,76,0,0
61715,-100,4,1,0,75,0,0
61800,-100,4,1,0,74,0,0
61885,-100,4,1,0,73,0,0
61969,-100,4,1,0,71,0,0
62054,-100,4,1,0,70,0,0
62139,254.237288135593,4,1,0,90,1,1
62139,-100,4,1,0,90,0,1
66206,254.237288135593,3,1,0,90,1,0
66206,-100,4,1,0,90,0,0
66460,-100,4,1,0,87,0,0
66587,-100,4,1,0,85,0,0
66650,-100,4,1,0,84,0,0
66714,-100,4,1,0,83,0,0
66778,-100,4,1,0,82,0,0
66841,-100,4,1,0,82,0,0
66905,-100,4,1,0,81,0,0
66968,-100,4,1,0,80,0,0
67095,-100,4,1,0,78,0,0
67222,-100,4,1,0,77,0,0
67350,-100,4,1,0,75,0,0
67413,-100,4,1,0,74,0,0
67477,-100,4,1,0,73,0,0
67541,-100,4,1,0,72,0,0
67604,-100,4,1,0,72,0,0
67668,-100,4,1,0,71,0,0
67731,-100,4,1,0,70,0,0
67985,-100,4,1,0,70,0,0
68049,-100,4,1,0,71,0,0
68112,-100,4,1,0,71,0,0
68239,-100,4,1,0,72,0,0
68303,-100,4,1,0,73,0,0
68367,-100,4,1,0,73,0,0
68494,-100,4,1,0,74,0,0
68557,-100,4,1,0,75,0,0
68621,-100,4,1,0,75,0,0
68684,-100,4,1,0,75,0,0
68748,-100,4,1,0,76,0,0
68875,-100,4,1,0,77,0,0
69002,-100,4,1,0,78,0,0
69066,-100,4,1,0,79,0,0
69129,-100,4,1,0,79,0,0
69256,-100,4,1,0,80,0,0
69511,-100,4,1,0,80,0,0
69574,-100,4,1,0,81,0,0
69638,-100,4,1,0,81,0,0
69701,-100,4,1,0,82,0,0
69765,-100,4,1,0,82,0,0
69828,-100,4,1,0,83,0,0
69892,-100,4,1,0,84,0,0
69956,-100,4,1,0,84,0,0
70019,-100,4,1,0,85,0,0
70083,-100,4,1,0,86,0,0
70146,-100,4,1,0,86,0,0
70210,-100,4,1,0,87,0,0
70273,-100,4,1,0,87,0,0
70337,-100,4,1,0,88,0,0
70400,-100,4,1,0,89,0,0
70464,-100,4,1,0,89,0,0
70528,-100,4,1,0,90,0,0
70782,254.237288135593,4,1,0,90,1,1
70782,-100,4,1,0,90,0,1
71036,-100,4,1,0,90,0,1
75866,-100,4,1,0,90,0,1
75951,-100,4,1,0,90,0,1
76036,-100,4,1,0,90,0,1
76121,-100,4,1,0,90,0,1
76205,-100,4,1,0,90,0,1
76290,-100,4,1,0,90,0,1
76375,-100,4,1,0,90,0,1
76460,-100,4,1,0,90,0,1
76502,-100,4,1,0,90,0,1
76544,-100,4,1,0,90,0,1
76587,-100,4,1,0,90,0,1
76629,-100,4,1,0,90,0,1
76883,-100,4,1,0,70,0,1
76968,-100,4,1,0,70,0,1
77053,-100,4,1,0,71,0,1
77137,-100,4,1,0,71,0,1
77222,-100,4,1,0,71,0,1
77307,-100,4,1,0,72,0,1
77392,-100,4,1,0,72,0,1
77476,-100,4,1,0,72,0,1
77561,-100,4,1,0,73,0,1
77646,-100,4,1,0,73,0,1
77773,-100,4,1,0,74,0,1
77900,-100,4,1,0,74,0,1
77985,-100,4,1,0,75,0,1
78070,-100,4,1,0,75,0,1
78154,-100,4,1,0,75,0,1
78239,-100,4,1,0,76,0,1
78324,-100,4,1,0,76,0,1
78409,-100,4,1,0,76,0,1
78493,-100,4,1,0,77,0,1
78578,-100,4,1,0,77,0,1
78663,-100,4,1,0,77,0,1
78790,-100,4,1,0,78,0,1
78917,-100,4,1,0,78,0,1
79002,-100,4,1,0,79,0,1
79087,-100,4,1,0,79,0,1
79171,-100,4,1,0,79,0,1
79256,-100,4,1,0,80,0,1
79341,-100,4,1,0,80,0,1
79426,-100,4,1,0,81,0,1
79510,-100,4,1,0,81,0,1
79595,-100,4,1,0,81,0,1
79680,-100,4,1,0,82,0,1
79807,-100,4,1,0,82,0,1
79934,-100,4,1,0,83,0,1
80019,-100,4,1,0,83,0,1
80104,-100,4,1,0,83,0,1
80188,-100,4,1,0,84,0,1
80273,-100,4,1,0,84,0,1
80358,-100,4,1,0,84,0,1
80443,-100,4,1,0,85,0,1
80527,-100,4,1,0,85,0,1
80612,-100,4,1,0,85,0,1
80697,-100,4,1,0,86,0,1
80824,-100,4,1,0,86,0,1
80951,-100,4,1,0,87,0,1
81036,-100,4,1,0,87,0,1
81120,-100,4,1,0,88,0,1
81205,-100,4,1,0,88,0,1
81290,-100,4,1,0,88,0,1
81375,-100,4,1,0,89,0,1
81459,-100,4,1,0,89,0,1
81544,-100,4,1,0,89,0,1
81629,-100,4,1,0,90,0,1
81714,-100,4,1,0,90,0,1
81968,254.237288135593,3,1,0,65,1,0
81968,-100,4,1,0,90,0,0
82222,-100,4,1,0,88,0,0
82349,-100,4,1,0,87,0,0
82603,-100,4,1,0,85,0,0
82730,-100,4,1,0,84,0,0
82857,-100,4,1,0,83,0,0
82984,-100,4,1,0,82,0,0
83112,-100,4,1,0,81,0,0
83239,-100,4,1,0,80,0,0
83366,-100,4,1,0,80,0,0
83493,-100,4,1,0,79,0,0
83620,-100,4,1,0,78,0,0
83747,-100,4,1,0,77,0,0
83874,-100,4,1,0,76,0,0
84001,-100,4,1,0,75,0,0
84129,-100,4,1,0,74,0,0
84256,-100,4,1,0,73,0,0
84383,-100,4,1,0,72,0,0
84510,-100,4,1,0,71,0,0
84637,-100,4,1,0,70,0,0
84764,-100,4,1,0,73,0,0
84891,-100,4,1,0,77,0,0
85018,-100,4,1,0,80,0,0
87306,-100,4,1,0,70,0,0
87434,-100,4,1,0,73,0,0
87497,-100,4,1,0,75,0,0
87561,-100,4,1,0,77,0,0
87624,-100,4,1,0,78,0,0
87688,-100,4,1,0,80,0,0
87751,-100,4,1,0,82,0,0
87815,-100,4,1,0,83,0,0
87879,-100,4,1,0,85,0,0
87942,-100,4,1,0,87,0,0
88006,-100,4,1,0,88,0,0
88069,-100,4,1,0,90,0,0
92645,-100,4,1,0,90,0,0
92709,-100,4,1,0,89,0,0
92773,-100,4,1,0,88,0,0
92836,-100,4,1,0,87,0,0
92900,-100,4,1,0,87,0,0
92984,-100,4,1,0,86,0,0
93069,-100,4,1,0,84,0,0
93154,-100,4,1,0,83,0,0
93239,-100,4,1,0,82,0,0
93323,-100,4,1,0,81,0,0
93408,-100,4,1,0,80,0,0
93472,-100,4,1,0,79,0,0
93535,-100,4,1,0,78,0,0
93599,-100,4,1,0,77,0,0
93662,-100,4,1,0,77,0,0
93747,-100,4,1,0,76,0,0
93832,-100,4,1,0,74,0,0
93917,-100,4,1,0,73,0,0
94001,-100,4,1,0,72,0,0
94086,-100,4,1,0,71,0,0
94171,-100,4,1,0,70,0,0
94679,-100,4,1,0,70,0,0
94743,-100,4,1,0,75,0,0
94806,-100,4,1,0,80,0,0
94870,-100,4,1,0,85,0,0
94934,-100,4,1,0,90,0,0
98239,-100,4,1,0,90,0,0
98303,-100,4,1,0,90,0,0
98366,-100,4,1,0,90,0,0
98494,-100,4,1,0,90,0,0
98621,-100,4,1,0,90,0,0
98748,-100,4,1,0,90,0,0
98811,-100,4,1,0,90,0,0
98875,-100,4,1,0,90,0,0
98938,-100,4,1,0,90,0,0
99002,-100,4,1,0,90,0,0
99129,-100,4,1,0,90,0,0
99256,-100,4,1,0,90,0,0
99320,-100,4,1,0,90,0,0
99383,-100,4,1,0,90,0,0
99510,-100,4,1,0,90,0,0
99574,-100,4,1,0,90,0,0
99638,-100,4,1,0,90,0,0
99701,-100,4,1,0,90,0,0
99765,-100,4,1,0,90,0,0
99849,-100,4,1,0,90,0,0
99934,-100,4,1,0,90,0,0
100019,-100,4,1,0,90,0,0
100104,-100,4,1,0,90,0,0
100188,-100,4,1,0,90,0,0
100273,-100,4,1,0,90,0,0
100337,-100,4,1,0,90,0,0
100400,-100,4,1,0,90,0,0
100464,-100,4,1,0,90,0,0
100527,-100,4,1,0,90,0,0
100612,-100,4,1,0,90,0,0
100697,-100,4,1,0,90,0,0
100782,-100,4,1,0,90,0,0
100866,-100,4,1,0,90,0,0
101036,-100,4,1,0,90,0,0
101163,-100,4,1,0,90,0,0
101290,-100,4,1,0,90,0,0
101353,-100,4,1,0,90,0,0
101417,-100,4,1,0,90,0,0
101544,-100,4,1,0,90,0,0
101608,-100,4,1,0,90,0,0
101671,-100,4,1,0,90,0,0
101735,-100,4,1,0,90,0,0
102561,-100,4,1,0,90,0,0
102624,-100,4,1,0,90,0,0
102688,-100,4,1,0,90,0,0
102751,-100,4,1,0,90,0,0
102815,-100,4,1,0,90,0,0
102900,-100,4,1,0,90,0,0
102984,-100,4,1,0,90,0,0
103069,-100,4,1,0,90,0,0
103154,-100,4,1,0,90,0,0
103239,-100,4,1,0,90,0,0
103323,-100,4,1,0,90,0,0
103408,-100,4,1,0,90,0,0
103493,-100,4,1,0,90,0,0
103578,-100,4,1,0,90,0,0
103662,-100,4,1,0,90,0,0
103747,-100,4,1,0,90,0,0
103832,-100,4,1,0,90,0,0
103917,-100,4,1,0,90,0,0
104001,-100,4,1,0,90,0,0
104086,-100,4,1,0,90,0,0
105103,-100,4,1,0,90,0,0
105188,-100,4,1,0,90,0,0
105273,-100,4,1,0,90,0,0
105357,-100,4,1,0,90,0,0
105442,-100,4,1,0,90,0,0
105527,-100,4,1,0,90,0,0
105612,254.237288135593,4,1,0,90,1,0
105612,-100,4,1,0,90,0,0
105866,-100,4,1,0,80,0,0
108662,-100,4,1,0,80,0,0
108832,-100,4,1,0,82,0,0
108917,-100,4,1,0,83,0,0
109001,-100,4,1,0,83,0,0
109086,-100,4,1,0,84,0,0
109171,-100,4,1,0,85,0,0
109256,-100,4,1,0,86,0,0
109340,-100,4,1,0,87,0,0
109425,-100,4,1,0,88,0,0
109510,-100,4,1,0,88,0,0
109595,-100,4,1,0,89,0,0
109679,-100,4,1,0,90,0,0
109934,-100,4,1,0,90,0,0
110188,-100,4,1,0,86,0,0
110442,-100,4,1,0,81,0,0
110696,-100,4,1,0,77,0,0
110950,-100,4,1,0,73,0,0
111205,-100,4,1,0,69,0,0
111459,-100,4,1,0,64,0,0
111713,-100,4,1,0,60,0,0

[HitObjects]
256,192,617,5,4,0:0:0:0:
256,192,871,1,8,0:0:0:0:
256,192,1125,1,8,0:0:0:0:
256,192,1379,1,0,0:0:0:0:
256,192,1633,1,8,0:0:0:0:
256,192,2396,1,8,0:0:0:0:
256,192,2650,1,8,0:0:0:0:
256,192,2905,1,0,0:0:0:0:
256,192,3159,1,8,0:0:0:0:
256,192,3922,1,0,0:0:0:0:
256,192,4176,1,0,0:0:0:0:
256,192,4430,1,8,0:0:0:0:
256,192,4684,1,0,0:0:0:0:
256,192,4939,1,8,0:0:0:0:
256,192,5193,1,0,0:0:0:0:
256,192,5955,1,0,0:0:0:0:
256,192,6718,1,8,0:0:0:0:
256,192,6845,1,8,0:0:0:0:
256,192,6972,1,8,0:0:0:0:
256,192,7227,1,8,0:0:0:0:
256,192,7481,1,4,0:0:0:0:
256,192,7989,1,0,0:0:0:0:
256,192,8244,1,8,0:0:0:0:
256,192,8498,1,0,0:0:0:0:
256,192,9261,1,0,0:0:0:0:
256,192,9515,1,8,0:0:0:0:
256,192,9769,1,8,0:0:0:0:
256,192,10023,1,0,0:0:0:0:
256,192,10786,1,8,0:0:0:0:
256,192,11040,1,8,0:0:0:0:
256,192,11294,1,0,0:0:0:0:
256,192,11549,1,0,0:0:0:0:
256,192,11803,1,8,0:0:0:0:
256,192,12057,1,0,0:0:0:0:
256,192,12820,1,8,0:0:0:0:
256,192,13328,1,8,0:0:0:0:
256,192,13583,1,0,0:0:0:0:
256,192,13837,1,8,0:0:0:0:
256,192,14091,1,8,0:0:0:0:
256,192,14345,1,0,0:0:0:0:
256,192,14854,1,0,0:0:0:0:
256,192,15108,1,8,0:0:0:0:
256,192,15871,1,0,0:0:0:0:
256,192,16633,1,8,0:0:0:0:
256,192,18159,1,0,0:0:0:0:
256,192,18286,1,0,0:0:0:0:
256,192,18413,1,0,0:0:0:0:
256,192,18667,1,0,0:0:0:0:
256,192,18922,1,8,0:0:0:0:
256,192,19303,1,8,0:0:0:0:
256,192,19430,1,8,0:0:0:0:
256,192,19684,1,8,0:0:0:0:
256,192,19938,1,0,0:0:0:0:
256,192,20193,1,8,0:0:0:0:
256,192,20447,1,0,0:0:0:0:
256,192,20955,1,0,0:0:0:0:
256,192,21337,1,8,0:0:0:0:
256,192,21464,1,8,0:0:0:0:
256,192,21718,1,0,0:0:0:0:
256,192,21972,1,8,0:0:0:0:
256,192,22227,1,0,0:0:0:0:
256,192,22481,1,8,0:0:0:0:
256,192,22989,1,4,0:0:0:0:
256,192,23751,1,12,0:0:0:0:
256,192,24514,1,4,0:0:0:0:
256,192,24895,1,8,0:0:0:0:
256,192,25150,1,0,0:0:0:0:
256,192,25277,1,0,0:0:0:0:
256,192,25531,1,8,0:0:0:0:
256,192,25785,1,0,0:0:0:0:
256,192,26294,1,8,0:0:0:0:
256,192,26548,1,8,0:0:0:0:
256,192,26802,1,0,0:0:0:0:
256,192,27056,1,0,0:0:0:0:
256,192,27311,1,8,0:0:0:0:
256,192,27565,1,0,0:0:0:0:
256,192,28073,1,8,0:0:0:0:
256,192,28327,1,0,0:0:0:0:
256,192,28454,1,0,0:0:0:0:
256,192,28581,1,0,0:0:0:0:
256,192,28836,1,8,0:0:0:0:
256,192,29090,1,0,0:0:0:0:
256,192,29598,1,8,0:0:0:0:
256,192,30107,1,0,0:0:0:0:
256,192,30361,1,8,0:0:0:0:
256,192,30488,1,8,0:0:0:0:
256,192,30615,1,8,0:0:0:0:
256,192,30870,1,0,0:0:0:0:
256,192,31124,1,8,0:0:0:0:
256,192,31632,1,4,0:0:0:0:
256,192,32394,1,12,0:0:0:0:
256,192,33157,1,12,0:0:0:0:
256,192,33920,1,4,0:0:0:0:
256,192,34682,1,12,0:0:0:0:
256,192,35445,1,0,0:0:0:0:
256,192,35699,1,0,0:0:0:0:
256,192,36208,1,8,0:0:0:0:
256,192,36589,1,8,0:0:0:0:
256,192,36716,1,8,0:0:0:0:
256,192,36970,1,0,0:0:0:0:
256,192,37479,1,0,0:0:0:0:
256,192,37733,1,8,0:0:0:0:
256,192,37860,1,8,0:0:0:0:
256,192,37987,1,8,0:0:0:0:
256,192,38242,1,8,0:0:0:0:
256,192,38496,1,0,0:0:0:0:
256,192,39004,1,0,0:0:0:0:
256,192,39259,1,0,0:0:0:0:
256,192,39386,1,0,0:0:0:0:
256,192,39513,1,0,0:0:0:0:
256,192,39767,1,0,0:0:0:0:
256,192,40021,1,8,0:0:0:0:
256,192,40530,1,8,0:0:0:0:
256,192,40784,1,0,0:0:0:0:
256,192,40911,1,0,0:0:0:0:
256,192,41038,1,0,0:0:0:0:
256,192,41293,1,0,0:0:0:0:
256,192,41547,1,8,0:0:0:0:
256,192,42055,1,8,0:0:0:0:
256,192,42309,1,0,0:0:0:0:
256,192,42691,1,8,0:0:0:0:
256,192,42818,1,8,0:0:0:0:
256,192,43072,1,0,0:0:0:0:
256,192,43581,1,0,0:0:0:0:
256,192,43835,1,8,0:0:0:0:
256,192,43962,1,8,0:0:0:0:
256,192,44089,1,8,0:0:0:0:
256,192,44343,1,0,0:0:0:0:
256,192,44598,1,8,0:0:0:0:
256,192,45106,1,8,0:0:0:0:
256,192,45360,1,0,0:0:0:0:
256,192,45487,1,0,0:0:0:0:
256,192,45615,1,0,0:0:0:0:
256,192,45869,1,0,0:0:0:0:
256,192,46123,1,8,0:0:0:0:
256,192,46504,1,0,0:0:0:0:
256,192,46631,1,0,0:0:0:0:
256,192,46886,1,8,0:0:0:0:
256,192,47648,1,0,0:0:0:0:
256,192,48411,1,12,0:0:0:0:
256,192,48919,1,0,0:0:0:0:
256,192,49427,1,0,0:0:0:0:
256,192,49936,1,8,0:0:0:0:
256,192,50444,1,0,0:0:0:0:
256,192,50953,1,8,0:0:0:0:
256,192,51461,1,8,0:0:0:0:
256,192,52478,1,8,0:0:0:0:
256,192,52987,1,8,0:0:0:0:
256,192,53495,1,8,0:0:0:0:
256,192,54004,1,8,0:0:0:0:
256,192,54512,1,0,0:0:0:0:
256,192,55021,1,0,0:0:0:0:
256,192,55529,1,8,0:0:0:0:
256,192,56546,1,0,0:0:0:0:
256,192,57055,1,0,0:0:0:0:
256,192,57563,1,8,0:0:0:0:
256,192,58072,1,8,0:0:0:0:
256,192,58580,1,0,0:0:0:0:
256,192,59597,1,8,0:0:0:0:
256,192,60614,5,8,0:0:0:0:
256,192,60741,1,8,0:0:0:0:
256,192,60868,1,8,0:0:0:0:
256,192,61122,1,8,0:0:0:0:
256,192,61376,1,8,0:0:0:0:
256,192,61885,1,0,0:0:0:0:
256,192,62139,1,12,0:0:0:0:
256,192,62647,1,8,0:0:0:0:
256,192,62901,1,0,0:0:0:0:
256,192,63155,1,8,0:0:0:0:
256,192,63410,1,0,0:0:0:0:
256,192,63537,1,0,0:0:0:0:
256,192,63664,1,0,0:0:0:0:
256,192,63918,1,8,0:0:0:0:
256,192,64427,1,8,0:0:0:0:
256,192,64681,1,8,0:0:0:0:
256,192,64935,1,0,0:0:0:0:
256,192,65189,1,8,0:0:0:0:
256,192,65316,1,8,0:0:0:0:
256,192,65444,1,8,0:0:0:0:
256,192,65698,1,0,0:0:0:0:
256,192,66206,1,12,0:0:0:0:
256,192,66968,1,4,0:0:0:0:
256,192,67731,1,12,0:0:0:0:
256,192,68494,1,12,0:0:0:0:
256,192,69256,1,0,0:0:0:0:
256,192,69511,1,0,0:0:0:0:
256,192,69638,1,0,0:0:0:0:
256,192,69765,1,0,0:0:0:0:
256,192,69892,1,0,0:0:0:0:
256,192,70019,1,8,0:0:0:0:
256,192,70273,1,8,0:0:0:0:
256,192,70528,1,0,0:0:0:0:
256,192,70782,1,12,0:0:0:0:
256,192,71290,1,8,0:0:0:0:
256,192,71544,1,0,0:0:0:0:
256,192,71798,1,8,0:0:0:0:
256,192,72053,1,0,0:0:0:0:
256,192,72180,1,0,0:0:0:0:
256,192,72307,1,0,0:0:0:0:
256,192,72561,1,8,0:0:0:0:
256,192,73070,1,8,0:0:0:0:
256,192,73324,1,8,0:0:0:0:
256,192,73578,1,0,0:0:0:0:
256,192,73832,1,8,0:0:0:0:
256,192,73959,1,8,0:0:0:0:
256,192,74087,1,8,0:0:0:0:
256,192,74341,1,0,0:0:0:0:
256,192,74849,1,8,0:0:0:0:
256,192,75358,1,8,0:0:0:0:
256,192,75612,1,8,0:0:0:0:
256,192,75866,1,0,0:0:0:0:
256,192,76120,1,0,0:0:0:0:
256,192,76248,1,0,0:0:0:0:
256,192,76375,1,0,0:0:0:0:
256,192,76629,1,8,0:0:0:0:
256,192,76883,1,0,0:0:0:0:
256,192,77010,1,0,0:0:0:0:
256,192,77137,1,0,0:0:0:0:
256,192,77392,1,8,0:0:0:0:
256,192,77900,1,8,0:0:0:0:
256,192,78027,1,8,0:0:0:0:
256,192,78154,1,8,0:0:0:0:
256,192,78409,1,0,0:0:0:0:
256,192,78917,1,8,0:0:0:0:
256,192,79044,1,8,0:0:0:0:
256,192,79171,1,8,0:0:0:0:
256,192,79426,1,8,0:0:0:0:
256,192,79934,1,0,0:0:0:0:
256,192,80061,1,0,0:0:0:0:
256,192,80188,1,0,0:0:0:0:
256,192,80443,1,0,0:0:0:0:
256,192,80697,1,0,0:0:0:0:
256,192,80951,12,0,81714,0:0:0:0:
256,192,81968,5,12,0:0:0:0:
256,192,82730,1,4,0:0:0:0:
256,192,83493,1,12,0:0:0:0:
256,192,84256,1,4,0:0:0:0:
256,192,85018,1,12,0:0:0:0:
256,192,85781,1,4,0:0:0:0:
256,192,86544,1,4,0:0:0:0:
256,192,87306,1,12,0:0:0:0:
256,192,87688,1,8,0:0:0:0:
256,192,87815,1,8,0:0:0:0:
256,192,88069,1,4,0:0:0:0:
256,192,88323,1,8,0:0:0:0:
256,192,88451,1,8,0:0:0:0:
256,192,88578,1,8,0:0:0:0:
256,192,88832,1,8,0:0:0:0:
256,192,89086,1,0,0:0:0:0:
256,192,89595,1,8,0:0:0:0:
256,192,89849,1,0,0:0:0:0:
256,192,89976,1,0,0:0:0:0:
256,192,90103,1,0,0:0:0:0:
256,192,90357,1,0,0:0:0:0:
256,192,90612,1,8,0:0:0:0:
256,192,91120,1,8,0:0:0:0:
256,192,91247,1,8,0:0:0:0:
256,192,91374,1,8,0:0:0:0:
256,192,91501,1,8,0:0:0:0:
256,192,91629,1,0,0:0:0:0:
256,192,91883,1,8,0:0:0:0:
256,192,92137,1,0,0:0:0:0:
256,192,92391,1,0,0:0:0:0:
256,192,92645,1,8,0:0:0:0:
256,192,93154,1,0,0:0:0:0:
256,192,93408,1,8,0:0:0:0:
256,192,93535,1,0,0:0:0:0:
256,192,93662,1,0,0:0:0:0:
256,192,93790,1,0,0:0:0:0:
256,192,93917,1,8,0:0:0:0:
256,192,94171,1,0,0:0:0:0:
256,192,94425,1,0,0:0:0:0:
256,192,94679,1,8,0:0:0:0:
256,192,94806,1,8,0:0:0:0:
256,192,94934,1,0,0:0:0:0:
256,192,95315,1,8,0:0:0:0:
256,192,95442,1,0,0:0:0:0:
256,192,95696,1,8,0:0:0:0:
256,192,95951,1,8,0:0:0:0:
256,192,96459,1,8,0:0:0:0:
256,192,96586,1,8,0:0:0:0:
256,192,96713,1,0,0:0:0:0:
256,192,96967,1,8,0:0:0:0:
256,192,97222,1,0,0:0:0:0:
256,192,97476,1,8,0:0:0:0:
256,192,97984,1,0,0:0:0:0:
256,192,98112,1,0,0:0:0:0:
256,192,98239,1,8,0:0:0:0:
256,192,98493,1,8,0:0:0:0:
256,192,98747,1,0,0:0:0:0:
256,192,99001,1,0,0:0:0:0:
256,192,99256,1,0,0:0:0:0:
256,192,99510,1,8,0:0:0:0:
256,192,100018,1,0,0:0:0:0:
256,192,100273,1,8,0:0:0:0:
256,192,100527,1,0,0:0:0:0:
256,192,100781,1,8,0:0:0:0:
256,192,100908,1,8,0:0:0:0:
256,192,101035,1,8,0:0:0:0:
256,192,101290,1,0,0:0:0:0:
256,192,101544,1,8,0:0:0:0:
256,192,101798,1,0,0:0:0:0:
256,192,101925,1,0,0:0:0:0:
256,192,102052,1,0,0:0:0:0:
256,192,102179,1,0,0:0:0:0:
256,192,102306,1,0,0:0:0:0:
256,192,102561,1,8,0:0:0:0:
256,192,102815,1,0,0:0:0:0:
256,192,102942,1,0,0:0:0:0:
256,192,103069,1,0,0:0:0:0:
256,192,103323,1,8,0:0:0:0:
256,192,103832,1,0,0:0:0:0:
256,192,104086,2,4,L|181:198,10,70
256,192,105612,1,12,0:0:0:0:
256,192,105993,1,8,0:0:0:0:
256,192,106628,1,4,0:0:0:0:
256,192,107010,1,0,0:0:0:0:
256,192,107645,1,12,0:0:0:0:
256,192,108027,1,8,0:0:0:0:
256,192,108662,1,4,0:0:0:0:
256,192,109044,1,0,0:0:0:0:
256,192,109425,1,0,0:0:0:0:
256,192,109679,1,12,0:0:0:0:
256,192,109934,12,0,111459,0:0:0:0:
89,171,111713,5,12,0:0:0:0:
