osu file format v14

[General]
AudioFilename: audio.mp3
AudioLeadIn: 0
PreviewTime: 48326
Countdown: 0
SampleSet: Normal
StackLeniency: 0.7
Mode: 1
LetterboxInBreaks: 0
WidescreenStoryboard: 1

[Editor]
Bookmarks: 26887
DistanceSpacing: 0.7
BeatDivisor: 3
GridSize: 32
TimelineZoom: 2.599999

[Metadata]
Title:Apocrypha
TitleUnicode:Apocrypha
Artist:Otsukisama Koukyoukyoku
ArtistUnicode:お月さま交響曲
Creator:Linkff001
Version:Ognjen's Oni
Source:SOUND VOLTEX IV HEAVENLY HAVEN
Tags:moon symphony konami the 6th kac オリジナル楽曲コンテスト monologia engawa342 大宮 水那瀬 minase omiya レマノルド remanorudo ゆーじ yuji 342 大久保潤 okubo jun かそかそ kaso kaso 上園千紗 chisa uezono ケィニ keini 小鳥遊めぐみ megumi takanashi 西風s nishikazes sdvx_iv latin video game orchestral symphonic metal Ognjen3800 Hana Hayashi Hana_Hayashi dtn Dtnt0r SenSenko Tatara Kogasa slyme mari_0hara mari 0hara
BeatmapID:4324021
BeatmapSetID:2039040

[Difficulty]
HPDrainRate:5.5
CircleSize:5
OverallDifficulty:6
ApproachRate:5
SliderMultiplier:1.4
SliderTickRate:1

[Events]
//Background and Video events
0,0,"Fubuki_1.jpg",0,120
//Break Periods
//Storyboard Layer 0 (Background)
//Storyboard Layer 1 (Fail)
//Storyboard Layer 2 (Pass)
//Storyboard Layer 3 (Foreground)
//Storyboard Layer 4 (Overlay)
//Storyboard Sound Samples

[TimingPoints]
617,254.237288135593,3,1,0,80,1,0
617,-133.333333333333,3,1,0,80,0,0
6718,-129.87012987013,3,1,0,80,0,0
6834,-127.676686438122,3,1,0,80,0,0
6961,-125.5395564928,3,1,0,80,0,0
7089,-123.456790123457,3,1,0,80,0,0
7216,-121.457489878543,3,1,0,80,0,0
7343,-119.521912350598,3,1,0,80,0,0
7470,-117.647058823529,3,1,0,80,0,0
13317,-119.034085209681,3,1,0,80,0,0
13402,-120.19555411501,3,1,0,80,0,0
13487,-121.379912306423,3,1,0,80,0,0
13572,-122.587843142656,3,1,0,80,0,0
13826,-126.34507822038,3,1,0,80,0,0
14080,-130.339908908513,3,1,0,80,0,0
14345,-134.612912252044,3,1,0,80,0,0
14843,-144.018770985881,3,1,0,80,0,0
14928,-145.722472370037,3,1,0,80,0,0
15012,-147.446198704461,3,1,0,80,0,0
15108,-149.253731343284,3,1,0,80,0,0
15861,-166.666666666667,3,1,0,80,0,0
16539,-200,3,1,0,80,0,0
18148,-133.333333333333,3,1,0,80,0,0
18275,-130.43849901701,3,1,0,80,0,0
18402,-127.666694553669,3,1,0,80,0,0
18529,-125.010240026215,3,1,0,80,0,0
18656,-122.462081694888,3,1,0,80,0,0
18922,254.237288135593,4,1,0,85,1,0
18922,-117.647058823529,4,1,0,85,0,0
20351,-117.665225447807,4,1,0,85,0,0
20436,-116.140832190215,4,1,0,85,0,0
20521,-114.6554318387,4,1,0,85,0,0
20605,-113.224368499257,4,1,0,85,0,0
20690,-111.812179016875,4,1,0,85,0,0
20955,-105.263157894737,4,1,0,85,0,0
21120,-117.647058823529,4,1,0,85,0,0
21972,-117.647058823529,4,1,0,85,0,0
22051,-115.955261355855,4,1,0,85,0,0
22136,-114.292142415209,4,1,0,85,0,0
22221,-112.676056338028,4,1,0,85,0,0
22390,-109.594951728602,4,1,0,85,0,0
22475,-108.108108108108,4,1,0,85,0,0
22644,-105.268611096721,4,1,0,85,0,0
22729,-103.896103896104,4,1,0,85,0,0
22989,254.237288135593,3,1,0,85,1,0
22989,-100,3,1,0,85,0,0
23364,-116.291826659353,3,1,0,85,0,0
23491,-112.377418499868,3,1,0,85,0,0
23618,-108.717948717949,3,1,0,85,0,0
23751,-105.263157894737,3,1,0,85,0,0
24127,-124.529519303151,3,1,0,85,0,0
24254,-123.128178773326,3,1,0,85,0,0
24381,-121.758026075985,3,1,0,85,0,0
24508,-120.418031508345,3,1,0,85,0,0
24635,-119.107210203312,3,1,0,85,0,0
24757,-117.824619715444,3,1,0,85,0,0
25011,-115.340560102259,3,1,0,85,0,0
25075,-114.532506923381,3,1,0,85,0,0
25139,-113.735697097677,3,1,0,85,0,0
25266,-112.94989758429,3,1,0,85,0,0
25393,-111.419362080854,3,1,0,85,0,0
25520,-110.665137614679,3,1,0,85,0,0
25689,-109.195492621289,3,1,0,85,0,0
25774,-108.470977612639,3,1,0,85,0,0
25944,-107.05041291754,3,1,0,85,0,0
26039,-106.353992866874,3,1,0,85,0,0
26113,-105.6746110207,3,1,0,85,0,0
26155,-104.995919847674,3,1,0,85,0,0
26283,-104.325890779141,3,1,0,85,0,0
26410,-103.018800782872,3,1,0,85,0,0
26537,-102.373690491977,3,1,0,85,0,0
26664,-101.114765549961,3,1,0,85,0,0
26802,-100.485942381118,3,1,0,85,0,0
26876,-99.879247886838,3,1,0,85,0,0
26961,-99.2798353909465,3,1,0,85,0,0
27045,-98.680566404863,3,1,0,85,0,0
27215,-97.5034732454848,3,1,0,85,0,0
27300,-96.9253947882373,3,1,0,85,0,0
27565,254.237288135593,4,1,0,87,1,0
27565,-95.2380952380952,4,1,0,87,0,0
27809,-105.263157894737,4,1,0,87,0,0
29589,-95.2380952380952,4,1,0,87,0,0
29758,-105.263157894737,4,1,0,87,0,0
31632,254.237288135593,3,1,0,90,1,0
31632,-95.2380952380952,3,1,0,90,0,0
32002,-104.717214126945,3,1,0,90,0,0
32129,-103.100303951368,3,1,0,90,0,0
32256,-101.532567049808,3,1,0,90,0,0
32394,-100,3,1,0,90,0,0
32765,-110.501567398119,3,1,0,90,0,0
32892,-108.698445329564,3,1,0,90,0,0
33019,-106.953223767383,3,1,0,90,0,0
33146,-105.263157894737,3,1,0,90,0,0
33527,-124.230881922063,3,1,0,90,0,0
33654,-121.961743132461,3,1,0,90,0,0
33782,-119.757096455303,3,1,0,90,0,0
33909,-117.647058823529,3,1,0,90,0,0
34290,-142.20049613308,3,1,0,90,0,0
34417,-140.251142373979,3,1,0,90,0,0
34544,-138.354511251509,3,1,0,90,0,0
34682,-136.494152251558,3,1,0,90,0,0
34798,-134.711086535803,3,1,0,90,0,0
34926,-132.946793997271,3,1,0,90,0,0
35180,-129.579150322452,3,1,0,90,0,0
35307,-127.958507041329,3,1,0,90,0,0
35445,-126.365610918404,3,1,0,90,0,0
35556,-124.835868694956,3,1,0,90,0,0
35683,-123.331013098779,3,1,0,90,0,0
35810,-121.862006440116,3,1,0,90,0,0
35938,-120.416422106206,3,1,0,90,0,0
36192,-117.647058823529,3,1,0,90,0,0
36446,-133.333333333333,3,1,0,90,0,0
38739,-131.592581079681,3,1,0,90,0,0
38866,-129.883411740642,3,1,0,90,0,0
38930,-129.03881324934,3,1,0,90,0,0
38993,-128.218071680969,3,1,0,90,0,0
39244,-117.647058823529,3,1,0,90,0,0
39503,-125,3,1,0,90,0,0
41790,-123.456790123457,3,1,0,90,0,0
41922,-121.954141409301,3,1,0,90,0,0
41986,-121.210677970138,3,1,0,90,0,0
42046,-120.487631672387,3,1,0,90,0,0
42309,-111.111111111111,3,1,0,90,0,0
42479,-117.647058823529,3,1,0,90,0,0
46875,-119.047619047619,3,1,0,90,0,0
47134,-122.446685508736,3,1,0,90,0,0
47261,-124.220060928922,3,1,0,90,0,0
47388,-126.045558237181,3,1,0,90,0,0
47515,-127.925509604899,3,1,0,90,0,0
47648,-129.877872217207,3,1,0,90,0,0
47897,-133.934060529413,3,1,0,90,0,0
48024,-136.058670283002,3,1,0,90,0,0
48151,-138.251772342393,3,1,0,90,0,0
48278,-140.516733008993,3,1,0,90,0,0
48411,254.237288135593,4,1,0,80,1,0
48411,-142.857142857143,4,1,0,80,0,0
52976,-125,4,1,0,80,0,0
53145,-126.754713846665,4,1,0,80,0,0
53230,-127.656014723105,4,1,0,80,0,0
53315,-128.570224955767,4,1,0,80,0,0
53399,-129.48663555367,4,1,0,80,0,0
53495,-130.43849901701,4,1,0,80,0,0
53654,-132.35039028621,4,1,0,80,0,0
53738,-133.321684431242,4,1,0,80,0,0
53908,-135.331677899964,4,1,0,80,0,0
53993,-136.359574658207,4,1,0,80,0,0
54077,-137.390834608805,4,1,0,80,0,0
54162,-138.450371983306,4,1,0,80,0,0
54247,-139.526378348725,4,1,0,80,0,0
54416,-141.716196136701,4,1,0,80,0,0
54512,-142.857142857143,4,1,0,80,0,0
54757,-142.857142857143,4,1,0,80,0,0
56282,-133.333333333333,4,1,0,80,0,0
60614,254.237288135593,3,1,0,90,1,0
60614,-131.578947368421,3,1,0,90,0,0
60730,-128.895387658161,3,1,0,90,0,0
60857,-126.319102761626,3,1,0,90,0,0
60984,-123.84378629029,3,1,0,90,0,0
61111,-121.463616668791,3,1,0,90,0,0
61238,-119.173211424999,3,1,0,90,0,0
61376,-116.950543340721,3,1,0,90,0,0
61450,-115.536429962195,3,1,0,90,0,0
61535,-114.13987186396,3,1,0,90,0,0
61619,-112.792520931333,3,1,0,90,0,0
61748,-110.79950013078,3,1,0,90,0,0
61874,-108.890459767653,3,1,0,90,0,0
62002,-107.046089483511,3,1,0,90,0,0
62139,254.237288135593,4,1,0,90,1,1
62139,-105.263157894737,4,1,0,90,0,1
64161,-95.2380952380952,4,1,0,90,0,1
64290,-105.263157894737,4,1,0,90,0,1
66206,254.237288135593,3,1,0,90,1,0
66206,-95.2380952380952,3,1,0,90,0,0
66576,-110.502997133177,3,1,0,90,0,0
66703,-108.704012306115,3,1,0,90,0,0
66830,-106.962663975782,3,1,0,90,0,0
66968,-105.263157894737,3,1,0,90,0,0
67339,-124.229074889868,3,1,0,90,0,0
67466,-121.954735476431,3,1,0,90,0,0
67593,-119.762174405436,3,1,0,90,0,0
67720,-117.647058823529,3,1,0,90,0,0
68737,-117.647058823529,3,1,0,90,0,0
68822,-117.071486128698,3,1,0,90,0,0
68906,-116.508191087181,3,1,0,90,0,0
68991,-115.943681240381,3,1,0,90,0,0
69161,-114.830915147067,3,1,0,90,0,0
69256,-114.282503652096,3,1,0,90,0,0
69330,-113.745666032882,3,1,0,90,0,0
69415,-113.207547169811,3,1,0,90,0,0
69500,-112.674495900731,3,1,0,90,0,0
69669,-111.629438559903,3,1,0,90,0,0
69754,-111.111111111111,3,1,0,90,0,0
69923,-110.094722598106,3,1,0,90,0,0
70019,-109.584612898012,3,1,0,90,0,0
70093,-109.090909090909,3,1,0,90,0,0
70178,-108.595835557928,3,1,0,90,0,0
70262,-108.110981184224,3,1,0,90,0,0
70517,-106.665268236405,3,1,0,90,0,0
70782,254.237288135593,4,1,0,90,1,1
70782,-105.263157894737,4,1,0,90,0,1
72806,-95.2380952380952,4,1,0,90,0,1
72933,-105.263157894737,4,1,0,90,0,1
74840,-95.2380952380952,4,1,0,90,0,1
74967,-105.263157894737,4,1,0,90,0,1
81968,254.237288135593,3,1,0,80,1,0
81968,-105.263157894737,3,1,0,80,0,0
82211,-108.105235184693,3,1,0,80,0,0
82338,-109.584612898012,3,1,0,80,0,0
82592,-112.668254583726,3,1,0,80,0,0
82730,-114.288925099736,3,1,0,80,0,0
82846,-115.930464519806,3,1,0,80,0,0
82973,-117.633450928229,3,1,0,80,0,0
83101,-119.40123275609,3,1,0,80,0,0
83355,-123.071337810855,3,1,0,80,0,0
83482,-124.992318564493,3,1,0,80,0,0
83609,-126.974218115987,3,1,0,80,0,0
83736,-129.019980970504,3,1,0,80,0,0
83863,-131.132744503901,3,1,0,80,0,0
84118,-135.590960602626,3,1,0,80,0,0
84245,-137.926357903302,3,1,0,80,0,0
84372,-140.343614158559,3,1,0,80,0,0
84499,-142.847110049863,3,1,0,80,0,0
84626,-145.441544511977,3,1,0,80,0,0
84880,-150.923796097054,3,1,0,80,0,0
85018,-153.846153846154,3,1,0,80,0,0
85262,-133.333333333333,3,1,0,80,0,0
85772,-117.647058823529,3,1,0,80,0,0
85899,-133.333333333333,3,1,0,80,0,0
86534,-117.647058823529,3,1,0,80,0,0
86661,-142.857142857143,3,1,0,80,0,0
86787,-140.87473121855,3,1,0,80,0,0
86914,-137.205160036703,3,1,0,80,0,0
87041,-133.721908930225,3,1,0,80,0,0
87168,-130.4111388145,3,1,0,80,0,0
87306,-127.23614267266,3,1,0,80,0,0
87423,-124.235137724083,3,1,0,80,0,0
87550,-121.372434801707,3,1,0,80,0,0
87677,-118.638688720457,3,1,0,80,0,0
87804,-116.025377698663,3,1,0,80,0,0
87889,-114.339690536164,3,1,0,80,0,0
87973,-112.721274255915,3,1,0,80,0,0
88069,-111.111111111111,3,1,0,90,0,0
94160,-111.111111111111,3,1,0,90,0,0
94287,-110.093066878292,3,1,0,90,0,0
94414,-109.093508721761,3,1,0,90,0,0
94541,-108.111937654977,3,1,0,90,0,0
94668,-107.147872489819,3,1,0,90,0,0
94795,-106.200849050038,3,1,0,90,0,0
94923,-105.263157894737,3,1,0,90,0,0
100770,-105.265579351752,3,1,0,90,0,0
100834,-105.060152447424,3,1,0,90,0,0
100897,-104.855525767054,3,1,0,90,0,0
101035,-104.651694643919,3,1,0,90,0,0
101151,-104.350998814193,3,1,0,90,0,0
101279,-104.047294224648,3,1,0,90,0,0
101406,-103.747704446006,3,1,0,90,0,0
101533,-103.449834968576,3,1,0,90,0,0
101660,-103.153671017335,3,1,0,90,0,0
101798,-102.856885971813,3,1,0,90,0,0
102041,-102.275267086854,3,1,0,90,0,0
102168,-101.985780828635,3,1,0,90,0,0
102295,-101.697928704774,3,1,0,90,0,0
102423,-101.409449516887,3,1,0,90,0,0
102560,-101.124837020176,3,1,0,90,0,0
102634,-100.937465534355,3,1,0,90,0,0
102719,-100.748568912373,3,1,0,90,0,0
102804,-100.560377980442,3,1,0,90,0,0
102973,-100.188290931383,3,1,0,90,0,0
103058,-100.002185362442,3,1,0,90,0,0
103143,-99.8167699153652,3,1,0,90,0,0
103228,-99.6320407585621,3,1,0,90,0,0
103323,-99.4479940887556,3,1,0,90,0,0
103482,-99.0840785570448,3,1,0,90,0,0
103567,-98.9020489323074,3,1,0,90,0,0
103736,-98.5421108168056,3,1,0,90,0,0
103821,-98.3620652594471,3,1,0,90,0,0
103906,-98.1826764219967,3,1,0,90,0,0
103990,-98.0060397078666,3,1,0,90,0,0
104086,-97.8258545866558,3,1,0,90,0,0
104245,-97.4736931793976,3,1,0,90,0,0
104329,-97.2995960025516,3,1,0,90,0,0
104499,-96.9491525423729,3,1,0,90,0,0
104584,-96.7748757534102,3,1,0,90,0,0
104668,-96.6032637378877,3,1,0,90,0,0
104753,-96.4302271673621,3,1,0,90,0,0
104838,-96.2578093775637,3,1,0,90,0,0
105007,-95.9168273664794,3,1,0,90,0,0
105092,-95.7462389889733,3,1,0,90,0,0
105262,-95.4068761336864,3,1,0,90,0,0
105346,-95.2400774241888,3,1,0,80,0,0
105612,254.237288135593,4,1,0,90,1,0
105612,-90.9090909090909,4,1,0,90,0,0
105855,-125,4,1,0,90,0,0
109075,-123.479926703315,4,1,0,90,0,0
109160,-121.543790608539,4,1,0,90,0,0
109245,-119.667433506881,4,1,0,90,0,0
109329,-117.869210892467,4,1,0,90,0,0
109414,-116.103768967205,4,1,0,90,0,0
109584,-112.726927098185,4,1,0,90,0,0
109679,-111.111111111111,4,1,0,90,0,0
110692,-153.846153846154,4,1,0,90,0,0
111618,-153.846153846154,4,1,0,90,0,0

[HitObjects]
258,188,617,5,4,0:0:0:0:
261,181,871,1,8,0:0:0:0:
261,181,1040,1,0,0:0:0:0:
261,181,1125,1,8,0:0:0:0:
265,186,1379,1,0,0:0:0:0:
265,186,1549,1,8,0:0:0:0:
265,186,1633,1,8,0:0:0:0:
265,186,1803,1,0,0:0:0:0:
265,186,1888,1,8,0:0:0:0:
265,186,1972,1,0,0:0:0:0:
265,186,2142,1,8,0:0:0:0:
276,230,2396,1,0,0:0:0:0:
276,230,2566,1,0,0:0:0:0:
276,230,2650,1,8,0:0:0:0:
244,190,2905,1,8,0:0:0:0:
251,161,3074,1,0,0:0:0:0:
244,190,3159,1,8,0:0:0:0:
244,190,3328,1,8,0:0:0:0:
251,161,3413,1,0,0:0:0:0:
251,161,3498,1,0,0:0:0:0:
251,161,3667,1,8,0:0:0:0:
237,210,3922,1,0,0:0:0:0:
242,206,4176,1,8,0:0:0:0:
242,206,4303,1,0,0:0:0:0:
241,204,4430,1,8,0:0:0:0:
241,204,4684,1,8,0:0:0:0:
227,192,4939,1,0,0:0:0:0:
235,201,5193,1,8,0:0:0:0:
256,185,5701,1,8,0:0:0:0:
256,185,5871,1,0,0:0:0:0:
256,185,5955,1,8,0:0:0:0:
268,184,6210,1,8,0:0:0:0:
256,185,6294,1,8,0:0:0:0:
268,184,6379,1,0,0:0:0:0:
270,183,6464,1,8,0:0:0:0:
261,190,6718,1,8,0:0:0:0:
261,189,6845,1,8,0:0:0:0:
261,189,6972,1,0,0:0:0:0:
261,189,7100,1,0,0:0:0:0:
261,189,7227,1,8,0:0:0:0:
261,189,7354,1,0,0:0:0:0:
261,190,7481,1,12,0:0:0:0:
269,209,7735,1,0,0:0:0:0:
272,197,7862,1,0,0:0:0:0:
272,197,7989,1,8,0:0:0:0:
272,197,8244,1,8,0:0:0:0:
264,195,8498,1,0,0:0:0:0:
264,194,8667,1,0,0:0:0:0:
265,194,8752,1,8,0:0:0:0:
265,194,8837,1,8,0:0:0:0:
265,194,8922,1,0,0:0:0:0:
266,194,9006,1,8,0:0:0:0:
280,204,9261,1,0,0:0:0:0:
287,217,9388,1,8,0:0:0:0:
287,217,9515,1,0,0:0:0:0:
287,217,9769,1,8,0:0:0:0:
287,219,10023,1,0,0:0:0:0:
287,219,10108,1,0,0:0:0:0:
287,219,10193,1,0,0:0:0:0:
287,219,10278,1,8,0:0:0:0:
245,178,10447,1,0,0:0:0:0:
245,178,10532,1,8,0:0:0:0:
245,178,10786,1,8,0:0:0:0:
245,178,10913,1,0,0:0:0:0:
245,178,11040,1,8,0:0:0:0:
245,178,11294,1,8,0:0:0:0:
242,189,11464,1,0,0:0:0:0:
253,186,11549,1,8,0:0:0:0:
253,186,11633,1,0,0:0:0:0:
253,186,11803,1,8,0:0:0:0:
290,229,12057,1,8,0:0:0:0:
290,229,12142,1,8,0:0:0:0:
290,229,12227,1,8,0:0:0:0:
290,229,12311,1,0,0:0:0:0:
290,229,12481,1,8,0:0:0:0:
290,229,12566,1,0,0:0:0:0:
290,229,12735,1,8,0:0:0:0:
290,229,12820,1,8,0:0:0:0:
306,237,13074,1,8,0:0:0:0:
302,240,13328,1,0,0:0:0:0:
302,240,13413,1,0,0:0:0:0:
302,240,13498,1,0,0:0:0:0:
302,240,13583,1,8,0:0:0:0:
264,201,13837,1,0,0:0:0:0:
264,201,14091,1,8,0:0:0:0:
264,201,14345,1,8,0:0:0:0:
258,215,14854,1,8,0:0:0:0:
258,217,14939,1,0,0:0:0:0:
258,217,15023,1,0,0:0:0:0:
258,217,15108,1,8,0:0:0:0:
258,217,15871,1,0,0:0:0:0:
256,192,16633,12,0,18032,0:0:0:0:
251,191,18159,5,8,0:0:0:0:
251,191,18286,1,0,0:0:0:0:
251,191,18413,1,8,0:0:0:0:
251,191,18540,1,0,0:0:0:0:
262,207,18667,1,8,0:0:0:0:
262,207,18922,1,4,0:0:0:0:
266,216,19176,1,8,0:0:0:0:
284,233,19345,1,0,0:0:0:0:
267,230,19430,1,8,0:0:0:0:
266,202,19684,1,0,0:0:0:0:
252,176,19938,1,8,0:0:0:0:
266,202,20193,1,0,0:0:0:0:
226,193,20362,1,0,0:0:0:0:
214,183,20447,1,8,0:0:0:0:
214,183,20532,1,8,0:0:0:0:
214,183,20616,1,0,0:0:0:0:
233,195,20701,1,8,0:0:0:0:
233,195,20955,1,12,0:0:0:0:
202,196,21210,1,0,0:0:0:0:
209,198,21379,1,8,0:0:0:0:
209,198,21464,1,8,0:0:0:0:
254,212,21718,1,0,0:0:0:0:
253,197,21972,1,8,0:0:0:0:
253,197,22057,1,8,0:0:0:0:
160,153,22142,1,0,0:0:0:0:
253,197,22227,1,8,0:0:0:0:
290,203,22396,1,0,0:0:0:0:
279,201,22481,1,8,0:0:0:0:
279,201,22650,1,8,0:0:0:0:
278,201,22735,1,0,0:0:0:0:
256,185,22989,1,12,0:0:0:0:
267,201,23370,1,0,0:0:0:0:
267,201,23497,1,8,0:0:0:0:
267,201,23624,1,0,0:0:0:0:
267,202,23751,1,12,0:0:0:0:
267,187,24133,1,0,0:0:0:0:
267,187,24260,1,8,0:0:0:0:
267,187,24387,1,8,0:0:0:0:
267,187,24514,1,0,0:0:0:0:
267,187,24641,1,0,0:0:0:0:
267,187,24768,1,8,0:0:0:0:
257,190,25022,1,0,0:0:0:0:
257,190,25107,1,0,0:0:0:0:
244,192,25192,1,8,0:0:0:0:
207,187,25277,1,8,0:0:0:0:
267,187,25446,1,0,0:0:0:0:
250,176,25531,1,8,0:0:0:0:
250,176,25700,1,8,0:0:0:0:
250,176,25785,1,0,0:0:0:0:
267,185,25955,1,8,0:0:0:0:
267,185,26039,1,8,0:0:0:0:
250,176,26124,1,0,0:0:0:0:
250,176,26209,1,0,0:0:0:0:
250,176,26294,1,8,0:0:0:0:
267,185,26463,1,0,0:0:0:0:
267,185,26548,1,8,0:0:0:0:
267,185,26717,1,0,0:0:0:0:
267,185,26802,1,8,0:0:0:0:
268,199,26887,1,8,0:0:0:0:
267,185,26971,1,8,0:0:0:0:
267,185,27056,1,0,0:0:0:0:
267,185,27226,1,0,0:0:0:0:
267,185,27311,1,8,0:0:0:0:
267,185,27565,1,12,0:0:0:0:
260,190,27819,1,8,0:0:0:0:
260,190,27903,1,0,0:0:0:0:
260,190,27988,1,0,0:0:0:0:
260,190,28073,1,8,0:0:0:0:
267,214,28327,1,0,0:0:0:0:
262,205,28581,1,8,0:0:0:0:
268,227,28836,1,8,0:0:0:0:
268,227,28920,1,8,0:0:0:0:
268,227,29005,1,0,0:0:0:0:
268,227,29090,1,8,0:0:0:0:
267,235,29259,1,8,0:0:0:0:
267,230,29344,1,0,0:0:0:0:
264,240,29598,1,12,0:0:0:0:
268,227,29853,1,0,0:0:0:0:
268,227,29937,1,0,0:0:0:0:
268,227,30022,1,0,0:0:0:0:
268,227,30107,1,8,0:0:0:0:
308,232,30361,1,0,0:0:0:0:
256,194,30615,1,8,0:0:0:0:
256,194,30700,1,0,0:0:0:0:
256,194,30785,1,0,0:0:0:0:
256,194,30870,1,8,0:0:0:0:
256,194,31039,1,0,0:0:0:0:
256,194,31124,1,8,0:0:0:0:
256,194,31209,1,8,0:0:0:0:
256,194,31293,1,8,0:0:0:0:
256,194,31378,1,0,0:0:0:0:
280,198,31632,1,12,0:0:0:0:
293,219,32013,1,8,0:0:0:0:
293,218,32140,1,8,0:0:0:0:
293,218,32267,1,0,0:0:0:0:
293,218,32394,1,12,0:0:0:0:
288,217,32776,1,8,0:0:0:0:
288,217,32903,1,0,0:0:0:0:
293,218,33030,1,0,0:0:0:0:
293,218,33157,1,12,0:0:0:0:
300,225,33538,1,0,0:0:0:0:
258,183,33665,1,8,0:0:0:0:
258,183,33793,1,0,0:0:0:0:
258,183,33920,1,12,0:0:0:0:
262,186,34301,1,0,0:0:0:0:
262,186,34428,1,8,0:0:0:0:
262,186,34555,1,8,0:0:0:0:
258,197,34682,1,0,0:0:0:0:
258,197,34809,1,0,0:0:0:0:
258,197,34937,1,8,0:0:0:0:
258,197,35191,1,8,0:0:0:0:
258,197,35318,1,8,0:0:0:0:
258,197,35445,1,0,0:0:0:0:
258,197,35572,1,0,0:0:0:0:
258,197,35699,1,8,0:0:0:0:
258,197,35826,1,0,0:0:0:0:
258,197,35954,1,8,0:0:0:0:
258,197,36208,1,12,0:0:0:0:
229,197,36462,1,0,0:0:0:0:
244,201,36716,1,8,0:0:0:0:
268,221,36801,1,8,0:0:0:0:
257,220,36886,1,8,0:0:0:0:
244,201,36970,1,0,0:0:0:0:
244,201,37225,1,0,0:0:0:0:
244,201,37479,1,0,0:0:0:0:
288,206,37564,1,8,0:0:0:0:
288,206,37648,1,8,0:0:0:0:
327,247,37733,1,0,0:0:0:0:
327,247,37987,1,0,0:0:0:0:
327,247,38242,1,8,0:0:0:0:
290,205,38326,1,0,0:0:0:0:
288,206,38411,1,8,0:0:0:0:
327,247,38496,1,0,0:0:0:0:
275,215,38750,1,0,0:0:0:0:
261,205,38877,1,8,0:0:0:0:
261,205,38941,1,8,0:0:0:0:
261,205,39004,1,8,0:0:0:0:
266,192,39259,1,12,0:0:0:0:
229,197,39513,1,8,0:0:0:0:
244,201,39767,1,8,0:0:0:0:
268,221,39852,1,8,0:0:0:0:
257,220,39937,1,0,0:0:0:0:
244,201,40021,1,8,0:0:0:0:
244,201,40276,1,8,0:0:0:0:
244,201,40530,1,8,0:0:0:0:
288,206,40615,1,0,0:0:0:0:
288,206,40699,1,0,0:0:0:0:
327,247,40784,1,8,0:0:0:0:
327,247,41038,1,8,0:0:0:0:
327,247,41293,1,0,0:0:0:0:
290,205,41377,1,0,0:0:0:0:
288,206,41462,1,0,0:0:0:0:
327,247,41547,1,8,0:0:0:0:
275,215,41801,1,0,0:0:0:0:
261,205,41928,1,8,0:0:0:0:
261,205,41992,1,8,0:0:0:0:
261,205,42055,1,8,0:0:0:0:
266,192,42309,1,12,0:0:0:0:
265,196,42564,1,8,0:0:0:0:
265,196,42691,1,0,0:0:0:0:
265,196,42818,1,8,0:0:0:0:
264,196,42903,1,0,0:0:0:0:
264,196,42987,1,0,0:0:0:0:
266,192,43072,1,8,0:0:0:0:
271,209,43326,1,0,0:0:0:0:
256,190,43454,1,0,0:0:0:0:
256,190,43581,1,8,0:0:0:0:
256,190,43665,1,8,0:0:0:0:
256,190,43750,1,0,0:0:0:0:
256,190,43835,1,8,0:0:0:0:
287,207,44089,1,8,0:0:0:0:
287,207,44216,1,0,0:0:0:0:
287,207,44343,1,8,0:0:0:0:
287,207,44428,1,8,0:0:0:0:
287,207,44513,1,8,0:0:0:0:
287,207,44598,1,8,0:0:0:0:
282,211,44852,1,8,0:0:0:0:
283,214,44979,1,0,0:0:0:0:
283,214,45106,1,8,0:0:0:0:
283,214,45191,1,0,0:0:0:0:
283,214,45276,1,0,0:0:0:0:
283,214,45360,1,8,0:0:0:0:
274,216,45615,1,8,0:0:0:0:
278,217,45742,1,8,0:0:0:0:
271,241,45869,1,0,0:0:0:0:
279,239,45954,1,0,0:0:0:0:
279,239,46038,1,0,0:0:0:0:
279,239,46123,1,8,0:0:0:0:
264,236,46377,1,8,0:0:0:0:
285,260,46504,1,0,0:0:0:0:
287,257,46631,1,8,0:0:0:0:
287,257,46716,1,8,0:0:0:0:
287,257,46801,1,0,0:0:0:0:
286,257,46886,1,8,0:0:0:0:
297,255,47140,1,8,0:0:0:0:
297,255,47267,1,8,0:0:0:0:
303,256,47394,1,0,0:0:0:0:
303,256,47521,1,0,0:0:0:0:
303,256,47648,1,8,0:0:0:0:
243,183,47903,1,0,0:0:0:0:
249,183,48030,1,0,0:0:0:0:
249,183,48157,1,0,0:0:0:0:
249,183,48284,1,0,0:0:0:0:
249,183,48411,1,12,0:0:0:0:
273,197,48834,1,0,0:0:0:0:
300,219,48919,1,0,0:0:0:0:
300,219,49343,1,0,0:0:0:0:
280,159,49427,1,8,0:0:0:0:
276,182,49936,1,8,0:0:0:0:
64,64,50190,1,0,0:0:0:0:
448,64,50274,1,0,0:0:0:0:
448,64,50360,1,0,0:0:0:0:
277,205,50444,1,8,0:0:0:0:
274,209,50868,1,0,0:0:0:0:
274,209,50953,1,0,0:0:0:0:
274,209,51377,1,0,0:0:0:0:
274,209,51461,1,8,0:0:0:0:
273,219,51885,1,8,0:0:0:0:
273,219,51970,1,8,0:0:0:0:
253,179,52478,1,0,0:0:0:0:
253,179,52987,1,8,0:0:0:0:
253,179,53156,1,0,0:0:0:0:
253,179,53241,1,8,0:0:0:0:
253,179,53326,1,8,0:0:0:0:
253,179,53410,1,0,0:0:0:0:
253,179,53495,1,8,0:0:0:0:
232,174,53665,1,8,0:0:0:0:
232,174,53749,1,0,0:0:0:0:
232,174,53919,1,0,0:0:0:0:
270,192,54004,1,8,0:0:0:0:
270,192,54088,1,8,0:0:0:0:
270,192,54173,1,8,0:0:0:0:
270,192,54258,1,0,0:0:0:0:
270,192,54427,1,0,0:0:0:0:
270,192,54512,1,8,0:0:0:0:
248,184,54936,1,0,0:0:0:0:
248,184,55021,1,0,0:0:0:0:
255,181,55444,1,0,0:0:0:0:
255,181,55529,1,8,0:0:0:0:
272,196,55953,1,8,0:0:0:0:
272,196,56038,1,8,0:0:0:0:
249,177,56546,1,8,0:0:0:0:
249,177,56800,1,0,0:0:0:0:
249,177,56885,1,0,0:0:0:0:
249,177,56970,1,0,0:0:0:0:
249,177,57055,1,8,0:0:0:0:
249,177,57224,1,8,0:0:0:0:
249,177,57309,1,8,0:0:0:0:
249,177,57394,1,0,0:0:0:0:
249,177,57478,1,0,0:0:0:0:
249,177,57563,1,8,0:0:0:0:
263,196,58072,1,8,0:0:0:0:
263,195,58241,1,8,0:0:0:0:
125,183,58326,1,0,0:0:0:0:
263,196,58495,1,0,0:0:0:0:
263,195,58580,1,8,0:0:0:0:
246,203,59004,1,0,0:0:0:0:
247,207,59088,1,8,0:0:0:0:
286,181,59343,1,8,0:0:0:0:
282,215,59427,1,0,0:0:0:0:
282,215,59512,1,0,0:0:0:0:
282,215,59597,1,8,0:0:0:0:
291,228,59851,1,8,0:0:0:0:
298,232,60021,1,0,0:0:0:0:
298,232,60105,1,8,0:0:0:0:
310,241,60275,1,8,0:0:0:0:
309,241,60360,1,8,0:0:0:0:
241,183,60614,1,8,0:0:0:0:
241,183,60741,1,0,0:0:0:0:
241,183,60868,1,8,0:0:0:0:
241,183,60995,1,8,0:0:0:0:
237,188,61122,1,0,0:0:0:0:
256,205,61249,1,0,0:0:0:0:
259,194,61376,1,8,0:0:0:0:
259,194,61461,1,8,0:0:0:0:
259,194,61546,1,0,0:0:0:0:
259,194,61630,1,8,0:0:0:0:
264,205,61758,1,0,0:0:0:0:
253,201,61885,1,8,0:0:0:0:
252,199,62012,1,0,0:0:0:0:
252,199,62139,1,12,0:0:0:0:
239,198,62393,1,8,0:0:0:0:
243,201,62477,1,0,0:0:0:0:
288,247,62562,1,0,0:0:0:0:
243,201,62647,1,8,0:0:0:0:
243,201,62901,1,8,0:0:0:0:
229,179,63155,1,8,0:0:0:0:
238,187,63410,1,8,0:0:0:0:
238,187,63494,1,8,0:0:0:0:
238,187,63579,1,0,0:0:0:0:
238,187,63664,1,8,0:0:0:0:
238,187,63749,1,0,0:0:0:0:
238,187,63833,1,0,0:0:0:0:
238,187,63918,1,8,0:0:0:0:
238,187,64172,1,12,0:0:0:0:
262,185,64427,1,8,0:0:0:0:
262,185,64511,1,8,0:0:0:0:
262,185,64596,1,0,0:0:0:0:
262,185,64681,1,8,0:0:0:0:
260,186,64935,1,8,0:0:0:0:
262,197,65189,1,8,0:0:0:0:
274,225,65359,1,0,0:0:0:0:
280,191,65444,1,8,0:0:0:0:
175,193,65528,1,8,0:0:0:0:
280,191,65613,1,8,0:0:0:0:
280,191,65698,1,0,0:0:0:0:
280,191,65867,1,8,0:0:0:0:
280,191,65952,1,0,0:0:0:0:
280,191,66206,1,12,0:0:0:0:
287,198,66587,1,8,0:0:0:0:
287,198,66714,1,0,0:0:0:0:
287,198,66841,1,0,0:0:0:0:
287,198,66968,1,12,0:0:0:0:
277,210,67350,1,0,0:0:0:0:
277,210,67477,1,8,0:0:0:0:
277,210,67604,1,0,0:0:0:0:
277,210,67731,1,12,0:0:0:0:
277,210,67985,1,0,0:0:0:0:
64,64,68239,1,8,0:0:0:0:
258,213,68494,1,8,0:0:0:0:
271,204,68748,1,8,0:0:0:0:
296,216,68833,1,8,0:0:0:0:
287,217,68917,1,0,0:0:0:0:
287,217,69002,1,8,0:0:0:0:
272,237,69172,1,0,0:0:0:0:
287,217,69256,1,8,0:0:0:0:
287,217,69341,1,8,0:0:0:0:
272,237,69426,1,0,0:0:0:0:
316,260,69511,1,8,0:0:0:0:
316,260,69680,1,0,0:0:0:0:
316,260,69765,1,8,0:0:0:0:
317,260,69934,1,0,0:0:0:0:
317,260,70019,1,8,0:0:0:0:
317,260,70104,1,8,0:0:0:0:
317,260,70189,1,8,0:0:0:0:
317,260,70273,1,0,0:0:0:0:
316,260,70528,1,0,0:0:0:0:
317,260,70782,1,12,0:0:0:0:
269,194,71036,1,0,0:0:0:0:
269,194,71120,1,0,0:0:0:0:
269,194,71205,1,0,0:0:0:0:
269,194,71290,1,8,0:0:0:0:
274,207,71459,1,0,0:0:0:0:
272,207,71544,1,8,0:0:0:0:
269,201,71714,1,0,0:0:0:0:
293,208,71798,1,8,0:0:0:0:
293,208,71883,1,8,0:0:0:0:
293,208,71968,1,0,0:0:0:0:
293,208,72053,1,8,0:0:0:0:
277,194,72222,1,0,0:0:0:0:
277,194,72307,1,8,0:0:0:0:
279,192,72392,1,0,0:0:0:0:
278,192,72476,1,8,0:0:0:0:
279,192,72561,1,0,0:0:0:0:
271,199,72815,1,12,0:0:0:0:
269,186,73070,1,0,0:0:0:0:
269,186,73154,1,8,0:0:0:0:
269,186,73239,1,8,0:0:0:0:
269,186,73324,1,0,0:0:0:0:
269,186,73493,1,8,0:0:0:0:
269,186,73578,1,0,0:0:0:0:
262,216,73748,1,8,0:0:0:0:
246,187,73832,1,8,0:0:0:0:
245,187,73917,1,0,0:0:0:0:
246,187,74002,1,0,0:0:0:0:
245,187,74087,1,8,0:0:0:0:
258,167,74256,1,0,0:0:0:0:
254,190,74341,1,8,0:0:0:0:
254,190,74426,1,8,0:0:0:0:
254,190,74510,1,8,0:0:0:0:
254,190,74595,1,0,0:0:0:0:
264,202,74849,1,12,0:0:0:0:
223,184,75104,1,0,0:0:0:0:
223,184,75188,1,0,0:0:0:0:
223,184,75273,1,0,0:0:0:0:
223,184,75358,1,8,0:0:0:0:
223,184,75527,1,0,0:0:0:0:
223,184,75612,1,8,0:0:0:0:
231,179,75782,1,0,0:0:0:0:
268,205,75866,1,8,0:0:0:0:
268,205,75951,1,8,0:0:0:0:
268,205,76036,1,8,0:0:0:0:
268,205,76120,1,0,0:0:0:0:
273,199,76290,1,8,0:0:0:0:
272,209,76375,1,8,0:0:0:0:
274,235,76459,1,0,0:0:0:0:
272,209,76544,1,8,0:0:0:0:
267,186,76629,1,8,0:0:0:0:
267,186,76883,1,8,0:0:0:0:
267,207,76968,1,0,0:0:0:0:
267,207,77053,1,0,0:0:0:0:
267,207,77137,1,8,0:0:0:0:
267,207,77265,1,0,0:0:0:0:
267,207,77392,1,8,0:0:0:0:
267,207,77519,1,0,0:0:0:0:
267,207,77646,1,8,0:0:0:0:
267,205,77773,1,8,0:0:0:0:
268,194,77900,1,4,0:0:0:0:
269,202,78154,1,8,0:0:0:0:
269,202,78239,1,8,0:0:0:0:
269,202,78324,1,0,0:0:0:0:
262,202,78409,1,8,0:0:0:0:
262,202,78536,1,0,0:0:0:0:
255,181,78663,1,8,0:0:0:0:
238,201,78790,1,8,0:0:0:0:
238,201,78917,1,4,0:0:0:0:
258,193,79171,1,8,0:0:0:0:
258,193,79256,1,8,0:0:0:0:
258,193,79341,1,8,0:0:0:0:
258,193,79426,1,8,0:0:0:0:
258,193,79553,1,0,0:0:0:0:
258,193,79680,1,8,0:0:0:0:
258,193,79807,1,8,0:0:0:0:
258,193,79934,1,4,0:0:0:0:
262,212,80188,1,8,0:0:0:0:
262,212,80273,1,8,0:0:0:0:
262,212,80358,1,0,0:0:0:0:
262,212,80443,1,8,0:0:0:0:
262,212,80570,1,0,0:0:0:0:
262,212,80697,1,8,0:0:0:0:
262,212,80824,1,0,0:0:0:0:
262,212,80951,1,12,0:0:0:0:
300,214,81968,1,12,0:0:0:0:
299,219,82222,1,0,0:0:0:0:
300,214,82349,1,12,0:0:0:0:
306,233,82603,1,0,0:0:0:0:
277,204,82730,1,8,0:0:0:0:
277,204,82857,1,8,0:0:0:0:
306,233,82984,1,0,0:0:0:0:
306,233,83112,1,12,0:0:0:0:
309,236,83366,1,8,0:0:0:0:
309,236,83493,1,8,0:0:0:0:
246,202,83620,1,0,0:0:0:0:
269,219,83747,1,0,0:0:0:0:
261,213,83874,1,12,0:0:0:0:
264,195,84129,1,0,0:0:0:0:
264,195,84256,1,8,0:0:0:0:
243,173,84383,1,8,0:0:0:0:
243,173,84510,1,0,0:0:0:0:
243,173,84637,1,12,0:0:0:0:
252,188,84891,1,0,0:0:0:0:
252,188,85018,1,12,0:0:0:0:
268,200,85273,1,8,0:0:0:0:
267,199,85336,1,8,0:0:0:0:
267,199,85400,1,8,0:0:0:0:
267,199,85527,1,0,0:0:0:0:
267,199,85590,1,0,0:0:0:0:
267,199,85654,1,0,0:0:0:0:
267,199,85781,1,12,0:0:0:0:
284,215,86035,1,0,0:0:0:0:
284,215,86099,1,0,0:0:0:0:
284,215,86162,1,0,0:0:0:0:
284,215,86290,1,8,0:0:0:0:
284,215,86353,1,8,0:0:0:0:
284,215,86417,1,8,0:0:0:0:
284,215,86544,1,4,0:0:0:0:
301,229,86798,1,8,0:0:0:0:
308,233,86925,1,0,0:0:0:0:
295,229,87052,1,0,0:0:0:0:
295,229,87179,1,8,0:0:0:0:
295,229,87306,1,0,0:0:0:0:
250,195,87434,1,8,0:0:0:0:
251,175,87561,1,0,0:0:0:0:
280,191,87688,1,8,0:0:0:0:
267,186,87815,1,0,0:0:0:0:
267,186,87900,1,0,0:0:0:0:
267,186,87984,1,0,0:0:0:0:
267,186,88069,1,12,0:0:0:0:
256,190,88323,1,8,0:0:0:0:
256,190,88408,1,0,0:0:0:0:
256,190,88493,1,0,0:0:0:0:
256,190,88578,1,8,0:0:0:0:
256,190,88747,1,0,0:0:0:0:
265,191,88832,1,8,0:0:0:0:
280,194,88917,1,8,0:0:0:0:
274,196,89001,1,0,0:0:0:0:
274,196,89086,1,8,0:0:0:0:
274,196,89340,1,8,0:0:0:0:
271,190,89595,1,0,0:0:0:0:
273,197,89849,1,8,0:0:0:0:
261,196,89934,1,8,0:0:0:0:
261,196,90018,1,0,0:0:0:0:
261,196,90103,1,8,0:0:0:0:
262,194,90273,1,0,0:0:0:0:
263,198,90357,1,8,0:0:0:0:
263,198,90442,1,0,0:0:0:0:
263,198,90527,1,0,0:0:0:0:
263,198,90612,1,8,0:0:0:0:
262,197,90866,1,0,0:0:0:0:
261,196,91120,1,8,0:0:0:0:
276,188,91374,1,8,0:0:0:0:
276,188,91459,1,0,0:0:0:0:
280,204,91544,1,0,0:0:0:0:
280,204,91629,1,8,0:0:0:0:
280,204,91798,1,0,0:0:0:0:
280,204,91883,1,8,0:0:0:0:
242,199,91967,1,8,0:0:0:0:
276,209,92052,1,0,0:0:0:0:
276,209,92137,1,8,0:0:0:0:
276,209,92391,1,8,0:0:0:0:
280,204,92645,1,8,0:0:0:0:
279,203,92900,1,0,0:0:0:0:
270,164,93027,1,8,0:0:0:0:
270,164,93154,1,0,0:0:0:0:
270,164,93239,1,0,0:0:0:0:
270,164,93323,1,0,0:0:0:0:
257,183,93408,1,8,0:0:0:0:
257,183,93535,1,0,0:0:0:0:
257,183,93662,1,8,0:0:0:0:
257,183,93747,1,0,0:0:0:0:
257,183,93832,1,0,0:0:0:0:
257,183,93917,1,8,0:0:0:0:
271,178,94171,1,8,0:0:0:0:
271,178,94298,1,0,0:0:0:0:
271,178,94425,1,8,0:0:0:0:
271,178,94552,1,8,0:0:0:0:
271,178,94679,1,0,0:0:0:0:
374,243,94806,1,0,0:0:0:0:
271,178,94934,1,12,0:0:0:0:
244,179,95188,1,8,0:0:0:0:
244,179,95273,1,8,0:0:0:0:
244,179,95357,1,0,0:0:0:0:
244,179,95442,1,8,0:0:0:0:
280,180,95696,1,8,0:0:0:0:
256,184,95781,1,8,0:0:0:0:
256,184,95866,1,8,0:0:0:0:
256,184,95951,1,8,0:0:0:0:
256,184,96035,1,0,0:0:0:0:
256,184,96120,1,0,0:0:0:0:
264,197,96205,1,8,0:0:0:0:
258,195,96374,1,0,0:0:0:0:
258,195,96459,1,0,0:0:0:0:
260,209,96713,1,8,0:0:0:0:
260,209,96798,1,0,0:0:0:0:
260,209,96883,1,0,0:0:0:0:
260,209,96967,1,8,0:0:0:0:
271,226,97222,1,8,0:0:0:0:
142,210,97306,1,8,0:0:0:0:
142,210,97391,1,8,0:0:0:0:
142,210,97476,1,0,0:0:0:0:
284,216,97645,1,0,0:0:0:0:
284,216,97730,1,8,0:0:0:0:
284,216,97815,1,8,0:0:0:0:
284,216,97900,1,8,0:0:0:0:
284,216,97984,1,0,0:0:0:0:
296,172,98239,1,8,0:0:0:0:
296,172,98323,1,0,0:0:0:0:
296,172,98408,1,0,0:0:0:0:
296,172,98493,1,8,0:0:0:0:
296,172,98747,1,8,0:0:0:0:
299,189,98832,1,8,0:0:0:0:
299,189,98917,1,0,0:0:0:0:
296,191,99001,1,0,0:0:0:0:
296,191,99086,1,0,0:0:0:0:
296,191,99171,1,0,0:0:0:0:
296,191,99256,1,8,0:0:0:0:
287,190,99510,1,8,0:0:0:0:
287,190,99595,1,0,0:0:0:0:
287,190,99679,1,8,0:0:0:0:
287,190,99764,1,8,0:0:0:0:
287,190,99849,1,0,0:0:0:0:
287,190,99934,1,0,0:0:0:0:
287,190,100018,1,8,0:0:0:0:
287,190,100188,1,0,0:0:0:0:
290,193,100273,1,8,0:0:0:0:
288,198,100527,1,0,0:0:0:0:
279,201,100781,1,8,0:0:0:0:
279,201,100866,1,8,0:0:0:0:
279,201,100951,1,0,0:0:0:0:
279,201,101035,1,8,0:0:0:0:
295,205,101162,1,0,0:0:0:0:
295,205,101290,1,8,0:0:0:0:
295,205,101417,1,0,0:0:0:0:
295,205,101544,1,8,0:0:0:0:
295,205,101671,1,8,0:0:0:0:
295,205,101798,1,0,0:0:0:0:
292,210,102052,1,8,0:0:0:0:
292,210,102179,1,0,0:0:0:0:
292,210,102306,1,8,0:0:0:0:
292,210,102434,1,8,0:0:0:0:
298,210,102561,1,0,0:0:0:0:
298,210,102645,1,0,0:0:0:0:
298,210,102730,1,0,0:0:0:0:
298,210,102815,1,8,0:0:0:0:
298,210,102984,1,0,0:0:0:0:
298,210,103069,1,8,0:0:0:0:
298,210,103154,1,8,0:0:0:0:
280,231,103239,1,8,0:0:0:0:
287,219,103323,1,0,0:0:0:0:
287,219,103493,1,0,0:0:0:0:
287,219,103578,1,8,0:0:0:0:
287,219,103747,1,8,0:0:0:0:
287,219,103832,1,0,0:0:0:0:
287,219,103917,1,0,0:0:0:0:
280,231,104001,1,0,0:0:0:0:
287,219,104086,1,8,0:0:0:0:
287,219,104256,1,0,0:0:0:0:
287,219,104340,1,8,0:0:0:0:
287,219,104510,1,0,0:0:0:0:
287,219,104595,1,8,0:0:0:0:
287,219,104679,1,0,0:0:0:0:
287,219,104764,1,0,0:0:0:0:
254,194,104849,1,8,0:0:0:0:
254,194,105018,1,0,0:0:0:0:
264,193,105103,1,8,0:0:0:0:
264,193,105273,1,8,0:0:0:0:
264,193,105357,1,0,0:0:0:0:
264,193,105612,1,12,0:0:0:0:
224,190,105866,1,8,0:0:0:0:
237,194,105950,1,0,0:0:0:0:
237,194,106035,1,0,0:0:0:0:
237,194,106120,1,8,0:0:0:0:
281,220,106374,1,0,0:0:0:0:
288,234,106628,1,8,0:0:0:0:
300,251,106883,1,8,0:0:0:0:
300,251,106967,1,8,0:0:0:0:
300,251,107052,1,0,0:0:0:0:
300,251,107137,1,8,0:0:0:0:
300,251,107306,1,8,0:0:0:0:
300,251,107391,1,0,0:0:0:0:
249,193,107645,1,8,0:0:0:0:
263,196,107900,1,8,0:0:0:0:
263,196,107984,1,8,0:0:0:0:
263,196,108069,1,0,0:0:0:0:
263,196,108154,1,8,0:0:0:0:
266,221,108408,1,0,0:0:0:0:
245,200,108662,1,8,0:0:0:0:
239,197,108832,1,0,0:0:0:0:
242,200,108917,1,0,0:0:0:0:
242,200,109086,1,8,0:0:0:0:
245,200,109171,1,0,0:0:0:0:
245,200,109256,1,0,0:0:0:0:
245,200,109340,1,0,0:0:0:0:
245,200,109425,1,8,0:0:0:0:
245,200,109595,1,0,0:0:0:0:
244,200,109679,1,8,0:0:0:0:
257,189,111713,1,4,0:0:0:0:
