osu file format v14

[General]
AudioFilename: audio.mp3
AudioLeadIn: 0
PreviewTime: 48326
Countdown: 0
SampleSet: Normal
StackLeniency: 0.7
Mode: 1
LetterboxInBreaks: 0
WidescreenStoryboard: 0

[Editor]
DistanceSpacing: 0.7
BeatDivisor: 3
GridSize: 32
TimelineZoom: 2.999999

[Metadata]
Title:Apocrypha
TitleUnicode:Apocrypha
Artist:Otsukisama Koukyoukyoku
ArtistUnicode:お月さま交響曲
Creator:Linkff001
Version:Fate
Source:SOUND VOLTEX IV HEAVENLY HAVEN
Tags:moon symphony konami the 6th kac オリジナル楽曲コンテスト monologia engawa342 大宮 水那瀬 minase omiya レマノルド remanorudo ゆーじ yuji 342 大久保潤 okubo jun かそかそ kaso kaso 上園千紗 chisa uezono ケィニ keini 小鳥遊めぐみ megumi takanashi 西風s nishikazes sdvx_iv latin video game orchestral symphonic metal Ognjen3800 Hana Hayashi Hana_Hayashi dtn Dtnt0r SenSenko Tatara Kogasa slyme mari_0hara mari 0hara
BeatmapID:4253054
BeatmapSetID:2039040

[Difficulty]
HPDrainRate:4.5
CircleSize:5
OverallDifficulty:8
ApproachRate:5
SliderMultiplier:1.4
SliderTickRate:1

[Events]
//Background and Video events
0,0,"Fubuki_1.jpg",0,120
//Break Periods
//Storyboard Layer 0 (Background)
//Storyboard Layer 1 (Fail)
//Storyboard Layer 2 (Pass)
//Storyboard Layer 3 (Foreground)
//Storyboard Layer 4 (Overlay)
//Storyboard Sound Samples

[TimingPoints]
617,254.237288135593,3,1,0,60,1,0
617,-125,3,1,0,60,0,0
6718,-125,4,1,0,60,0,0
6845,-120.006291286568,4,1,0,63,0,0
6972,-115.396249243799,4,1,0,67,0,0
7100,-111.094933022714,4,1,0,70,0,0
7227,-107.132827857343,4,1,0,73,0,0
7354,-103.443600867679,4,1,0,77,0,0
7481,-100,4,1,0,80,0,0
7735,-125,3,1,0,60,0,0
13583,-125,4,1,0,60,0,0
13710,-120,4,1,0,63,0,0
13837,-115.384615384615,4,1,0,67,0,0
13965,-111.078717201166,4,1,0,70,0,0
14092,-107.112735451223,4,1,0,73,0,0
14219,-103.420195439739,4,1,0,77,0,0
14854,-111.078717201166,4,1,0,70,0,0
15871,-125,4,1,0,60,0,0
16633,-142.857142857143,4,1,0,50,0,0
18159,-142.857142857143,4,1,0,50,0,0
18286,-136.371760500447,4,1,0,53,0,0
18413,-130.449649512737,4,1,0,57,0,0
18540,-125.020481730297,4,1,0,60,0,0
18667,-120.025169104924,4,1,0,63,0,0
18731,-117.656129529684,4,1,0,65,0,0
18794,-115.413704432007,4,1,0,67,0,0
18858,-113.221546223475,4,1,0,68,0,0
18922,254.237288135593,4,1,0,70,1,0
18922,-111.111111111111,4,1,0,70,0,0
20193,-111.111111111111,4,1,0,70,0,0
20277,-115.349682107175,4,1,0,67,0,0
20362,-119.981105337742,4,1,0,63,0,0
20447,-125,4,1,0,60,0,0
20532,-130.457113507961,4,1,0,57,0,0
20616,-136.339237788513,4,1,0,53,0,0
20701,-142.857142857143,4,1,0,50,0,0
20955,-111.111111111111,4,1,0,70,0,0
21972,-111.111111111111,4,1,0,70,0,0
22057,-113.93161116918,4,1,0,68,0,0
22142,-116.899034778612,4,1,0,66,0,0
22227,-120.025169104924,4,1,0,63,0,0
22311,-123.283244465988,4,1,0,61,0,0
22396,-126.765243395913,4,1,0,59,0,0
22481,-130.449649512737,4,1,0,57,0,0
22566,-134.354639901391,4,1,0,54,0,0
22650,-138.450371983306,4,1,0,52,0,0
22735,-142.857142857143,4,1,0,50,0,0
22989,254.237288135593,3,1,0,70,1,0
22989,-111.111111111111,4,1,0,70,0,0
23370,-142.857142857143,4,1,0,50,0,0
23497,-130.434782608696,4,1,0,57,0,0
23561,-124.959002951787,4,1,0,60,0,0
23624,-120,4,1,0,63,0,0
23751,-111.111111111111,4,1,0,70,0,0
24133,-142.857142857143,4,1,0,50,0,0
24260,-130.434782608696,4,1,0,57,0,0
24323,-125.041023957991,4,1,0,60,0,0
24387,-120,4,1,0,63,0,0
24514,-111.111111111111,4,1,0,70,0,0
24641,-111.111111111111,4,1,0,50,0,0
24768,-115.384615384615,4,1,0,53,0,0
24832,-117.665225447807,4,1,0,55,0,0
24895,-120,4,1,0,57,0,0
25022,-125,4,1,0,60,0,0
25531,-125,4,1,0,60,0,0
25616,-125.95729344986,4,1,0,59,0,0
25700,-126.917839310032,4,1,0,59,0,0
25785,-127.904849039341,4,1,0,58,0,0
25870,-128.907330567082,4,1,0,58,0,0
25955,-129.925650557621,4,1,0,57,0,0
26039,-130.947920569502,4,1,0,56,0,0
26166,-132.524409896673,4,1,0,55,0,0
26294,-134.152192687842,4,1,0,55,0,0
26378,-135.24233336558,4,1,0,54,0,0
26463,-136.363636363636,4,1,0,53,0,0
26548,-137.503688403659,4,1,0,53,0,0
26633,-138.662963697679,4,1,0,52,0,0
26717,-139.827965593119,4,1,0,52,0,0
26802,-141.026934328659,4,1,0,51,0,0
26887,-142.246642246642,4,1,0,50,0,0
26972,-138.834315651604,4,1,0,52,0,0
27056,-131.595282433271,4,1,0,56,0,0
27141,-125,4,1,0,60,0,0
27226,-119.034250421112,4,1,0,64,0,0
27311,-113.612004287245,4,1,0,68,0,0
27374,-109.901503369622,4,1,0,71,0,0
27438,-106.372303060712,4,1,0,74,0,0
27501,-103.112840466926,4,1,0,77,0,0
27565,254.237288135593,4,1,0,80,1,0
27565,-100,4,1,0,80,0,0
30615,-100,4,1,0,80,0,0
30700,-98.898250162022,4,1,0,81,0,0
30785,-97.820512820513,4,1,0,82,0,0
30870,-96.766011414077,4,1,0,83,0,0
30954,-95.746015811269,4,1,0,84,0,0
31039,-94.73553513782,4,1,0,86,0,0
31124,-93.746160461973,4,1,0,87,0,0
31209,-92.777237354086,4,1,0,88,0,0
31293,-91.839191141069,4,1,0,89,0,0
31378,-90.909090909091,4,1,0,90,0,0
31632,254.237288135593,3,1,0,90,1,0
31632,-90.909090909091,4,1,0,90,0,0
32013,-100,4,1,0,80,0,0
32140,-96.774193548387,4,1,0,83,0,0
32204,-95.2380952380952,4,1,0,85,0,0
32267,-93.75,4,1,0,87,0,0
32394,-90.909090909091,4,1,0,90,0,0
32776,-100,4,1,0,80,0,0
32903,-96.774193548387,4,1,0,83,0,0
32966,-95.2380952380952,4,1,0,85,0,0
33030,-93.75,4,1,0,87,0,0
33157,-90.909090909091,4,1,0,90,0,0
33538,-100,4,1,0,80,0,0
33665,-96.782366354193,4,1,0,83,0,0
33729,-95.2380952380952,4,1,0,85,0,0
33793,-93.742331288344,4,1,0,87,0,0
33920,-90.909090909091,4,1,0,90,0,0
34301,-100,4,1,0,80,0,0
34428,-96.774193548387,4,1,0,83,0,0
34492,-95.226193451637,4,1,0,85,0,0
34555,-93.75,4,1,0,87,0,0
34682,-90.909090909091,4,1,0,90,0,0
34809,-93.216950959488,4,1,0,87,0,0
34937,-95.66466083151,4,1,0,85,0,0
35000,-96.917215102182,4,1,0,83,0,0
35064,-98.223688829601,4,1,0,82,0,0
35191,-100.923387678546,4,1,0,79,0,0
35318,-103.775684296417,4,1,0,76,0,0
35445,-106.793893129771,4,1,0,74,0,0
35572,-109.99292397201,4,1,0,71,0,0
35636,-111.678773848487,4,1,0,70,0,0
35699,-113.389528286594,4,1,0,68,0,0
35826,-117.002592623568,4,1,0,65,0,0
35954,-120.884818111121,4,1,0,63,0,0
36081,-125,4,1,0,60,0,0
36208,-111.678773848487,4,1,0,70,0,0
36462,-111.111111111111,4,1,0,70,0,0
36589,-110.759808803027,4,1,0,70,0,0
36716,-110.410720933118,4,1,0,71,0,0
36780,-110.235635174311,4,1,0,71,0,0
36843,-110.063826629063,4,1,0,71,0,0
36970,-109.719105280032,4,1,0,71,0,0
37034,-109.546204417305,4,1,0,71,0,0
37098,-109.373847628881,4,1,0,71,0,0
37225,-109.033428095285,4,1,0,72,0,0
37352,-108.695121057389,4,1,0,72,0,0
37415,-108.528077279602,4,1,0,72,0,0
37479,-108.358906912173,4,1,0,72,0,0
37543,-108.190263119498,4,1,0,72,0,0
37606,-108.02476629841,4,1,0,73,0,0
37648,-107.91471608412,4,1,0,73,0,0
37691,-107.802277683547,4,1,0,73,0,0
37733,-107.692680092951,4,1,0,73,0,0
37860,-107.36262940708,4,1,0,73,0,0
37987,-107.034595582928,4,1,0,73,0,0
38051,-106.870045640163,4,1,0,74,0,0
38115,-106.706000863434,4,1,0,74,0,0
38242,-106.381961215657,4,1,0,74,0,0
38326,-106.168714950483,4,1,0,74,0,0
38411,-105.953798523458,4,1,0,74,0,0
38496,-105.739750445633,4,1,0,75,0,0
38623,-105.421544002654,4,1,0,75,0,0
38750,-105.105246993787,4,1,0,75,0,0
38877,-104.790842283776,4,1,0,75,0,0
38941,-104.633113828786,4,1,0,76,0,0
39004,-104.478312941784,4,1,0,76,0,0
39068,-104.321523202101,4,1,0,76,0,0
39131,-104.167642238352,4,1,0,76,0,0
39174,-104.062872780857,4,1,0,76,0,0
39216,-103.960743077462,4,1,0,76,0,0
39259,-103.85638918717,4,1,0,76,0,0
39386,-103.549400674968,4,1,0,77,0,0
39513,-103.244221665274,4,1,0,77,0,0
39576,-103.093500173792,4,1,0,77,0,0
39640,-102.940836206298,4,1,0,77,0,0
39767,-102.639228533198,4,1,0,77,0,0
39852,-102.438350486979,4,1,0,78,0,0
39937,-102.238257192757,4,1,0,78,0,0
40021,-102.04128440367,4,1,0,78,0,0
40085,-101.891718578234,4,1,0,78,0,0
40148,-101.744917327967,4,1,0,78,0,0
40276,-101.447953483069,4,1,0,79,0,0
40403,-101.155017961893,4,1,0,79,0,0
40466,-101.010330343966,4,1,0,79,0,0
40530,-100.863769298783,4,1,0,79,0,0
40593,-100.719913067101,4,1,0,79,0,0
40657,-100.574192965006,4,1,0,79,0,0
40699,-100.478793080085,4,1,0,80,0,0
40742,-100.381309085986,4,1,0,80,0,0
40784,-100.286274598201,4,1,0,80,0,0
40911,-100,4,1,0,80,0,0
41038,-99.715355133693,4,1,0,80,0,0
41101,-99.574753804834,4,1,0,80,0,0
41165,-99.432326121938,4,1,0,81,0,0
41292,-99.150899244501,4,1,0,81,0,0
41377,-98.963430910223,4,1,0,81,0,0
41462,-98.776670144979,4,1,0,81,0,0
41546,-98.592797783934,4,1,0,81,0,0
41673,-98.31609652612,4,1,0,82,0,0
41801,-98.038783605112,4,1,0,82,0,0
41928,-97.765178983453,4,1,0,82,0,0
41991,-97.630019749835,4,1,0,82,0,0
42055,-97.493097252049,4,1,0,83,0,0
42119,-97.356558273885,4,1,0,83,0,0
42182,-97.222525731518,4,1,0,83,0,0
42224,-97.133375543087,4,1,0,83,0,0
42267,-97.042271953933,4,1,0,83,0,0
42309,-96.953451882845,4,1,0,83,0,0
42437,-96.68376216968,4,1,0,83,0,0
42564,-96.417658149665,4,1,0,84,0,0
42627,-96.286196597844,4,1,0,84,0,0
42691,-96.15301491247,4,1,0,84,0,0
42818,-95.88982046253,4,1,0,84,0,0
42903,-95.714470117465,4,1,0,84,0,0
42988,-95.53975991582,4,1,0,85,0,0
43072,-95.367730595271,4,1,0,85,0,0
43136,-95.23707588569,4,1,0,85,0,0
43199,-95.108811834623,4,1,0,85,0,0
43327,-94.849273014113,4,1,0,85,0,0
43454,-94.59315799545,4,1,0,86,0,0
43517,-94.466621369118,4,1,0,86,0,0
43581,-94.338422391857,4,1,0,86,0,0
43644,-94.212565910679,4,1,0,86,0,0
43708,-94.085055089137,4,1,0,86,0,0
43750,-94.001563523421,4,1,0,86,0,0
43793,-93.916237439838,4,1,0,86,0,0
43835,-93.833045092167,4,1,0,87,0,0
43962,-93.582381523317,4,1,0,87,0,0
44089,-93.333053620878,4,1,0,87,0,0
44152,-93.209863610651,4,1,0,87,0,0
44216,-93.085050737525,4,1,0,87,0,0
44343,-92.838362338801,4,1,0,88,0,0
44428,-92.673985043848,4,1,0,88,0,0
44513,-92.510188804791,4,1,0,88,0,0
44597,-92.34888741282,4,1,0,88,0,0
44724,-92.106080367679,4,1,0,89,0,0
44852,-91.862649955607,4,1,0,89,0,0
44979,-91.622389719511,4,1,0,89,0,0
45042,-91.503671253162,4,1,0,89,0,0
45106,-91.383382972168,4,1,0,89,0,0
45170,-91.263410531498,4,1,0,90,0,0
45233,-91.145619929526,4,1,0,90,0,0
45275,-91.067261636713,4,1,0,90,0,0
45318,-90.987177127431,4,1,0,90,0,0
45360,-90.909090909091,4,1,0,90,0,0
47648,-99.574753804834,4,1,0,80,0,0
48411,254.237288135593,4,1,0,60,1,0
48411,-125,4,1,0,60,0,0
60614,254.237288135593,3,1,0,90,1,0
60614,-90.909090909091,4,1,0,90,0,0
60741,-92.368970095467,4,1,0,88,0,0
60868,-93.876501959776,4,1,0,87,0,0
60995,-95.434058397021,4,1,0,85,0,0
61122,-97.044171371637,4,1,0,83,0,0
61249,-98.709546652253,4,1,0,81,0,0
61376,-100.433078985358,4,1,0,80,0,0
61461,-101.620644084301,4,1,0,78,0,0
61546,-102.836629830365,4,1,0,77,0,0
61630,-104.0672412565,4,1,0,76,0,0
61715,-105.342850962578,4,1,0,75,0,0
61800,-106.650120446748,4,1,0,74,0,0
61885,-107.990243181314,4,1,0,73,0,0
61969,-109.348102686925,4,1,0,71,0,0
62054,-110.757334546282,4,1,0,70,0,0
62139,254.237288135593,4,1,0,90,1,1
62139,-90.909090909091,4,1,0,90,0,1
66206,254.237288135593,3,1,0,90,1,0
66206,-90.909090909091,4,1,0,90,0,0
66460,-93.748078932809,4,1,0,87,0,0
66587,-95.235121463811,4,1,0,85,0,0
66650,-95.99043242903,4,1,0,84,0,0
66714,-96.770099625611,4,1,0,83,0,0
66778,-97.562535986181,4,1,0,82,0,0
66841,-98.35536923573,4,1,0,82,0,0
66905,-99.174091175132,4,1,0,81,0,0
66968,-99.993443052915,4,1,0,80,0,0
67095,-101.68700406748,4,1,0,78,0,0
67222,-103.438920165502,4,1,0,77,0,0
67350,-105.266790915994,4,1,0,75,0,0
67413,-106.190376714713,4,1,0,74,0,0
67477,-107.145366402023,4,1,0,73,0,0
67541,-108.11768876285,4,1,0,72,0,0
67604,-109.092209743186,4,1,0,72,0,0
67668,-110.100353765071,4,1,0,71,0,0
67731,-111.111111111111,4,1,0,70,0,0
67985,-111.111111111111,4,1,0,70,0,0
68049,-110.492914891767,4,1,0,71,0,0
68112,-109.891060003458,4,1,0,71,0,0
68239,-108.697511331566,4,1,0,72,0,0
68303,-108.105809305095,4,1,0,73,0,0
68367,-107.520514338888,4,1,0,73,0,0
68494,-106.377636424506,4,1,0,74,0,0
68557,-105.819665306802,4,1,0,75,0,0
68621,-105.258799171843,4,1,0,75,0,0
68684,-104.712473224584,4,1,0,75,0,0
68748,-104.163251925914,4,1,0,76,0,0
68875,-103.090274961473,4,1,0,77,0,0
69002,-102.03917790623,4,1,0,78,0,0
69066,-101.517571884984,4,1,0,79,0,0
69129,-101.009298259557,4,1,0,79,0,0
69256,-100,4,1,0,80,0,0
69511,-100,4,1,0,80,0,0
69574,-99.384344766931,4,1,0,81,0,0
69638,-98.76663105759,4,1,0,81,0,0
69701,-98.166023166023,4,1,0,82,0,0
69765,-97.56331542594,4,1,0,82,0,0
69828,-96.977209878898,4,1,0,83,0,0
69892,-96.388967870344,4,1,0,84,0,0
69956,-95.807819123881,4,1,0,84,0,0
70019,-95.24255478554,4,1,0,85,0,0
70083,-94.675107056414,4,1,0,86,0,0
70146,-94.123091161499,4,1,0,86,0,0
70210,-93.56886558101,4,1,0,87,0,0
70273,-93.029637760703,4,1,0,87,0,0
70337,-92.488177519098,4,1,0,88,0,0
70400,-91.961298489918,4,1,0,89,0,0
70464,-91.432167580689,4,1,0,89,0,0
70528,-90.909090909091,4,1,0,90,0,0
70782,254.237288135593,4,1,0,90,1,1
70782,-83.3333333333333,4,1,0,90,0,1
71036,-90.909090909091,4,1,0,90,0,1
75866,-90.909090909091,4,1,0,90,0,1
75951,-89.997640953055,4,1,0,90,0,1
76036,-89.104285881116,4,1,0,90,0,1
76121,-88.22849213691,4,1,0,90,0,1
76205,-87.37975263399,4,1,0,90,0,1
76290,-86.537370987864,4,1,0,90,0,1
76375,-85.71107616266,4,1,0,90,0,1
76460,-84.900411705797,4,1,0,90,0,1
76502,-84.505482334699,4,1,0,90,0,1
76544,-84.114210120163,4,1,0,90,0,1
76587,-83.717357910906,4,1,0,90,0,1
76629,-83.333333333333,4,1,0,90,0,1
76883,-111.111111111111,4,1,0,70,0,1
76968,-110.463255133306,4,1,0,70,0,1
77053,-109.822910273023,4,1,0,71,0,1
77137,-109.197350873624,4,1,0,71,0,1
77222,-108.571556993887,4,1,0,71,0,1
77307,-107.952894907376,4,1,0,72,0,1
77392,-107.34124338977,4,1,0,72,0,1
77476,-106.743559149764,4,1,0,72,0,1
77561,-106.145496890998,4,1,0,73,0,1
77646,-105.554098933753,4,1,0,73,0,1
77773,-104.682658345793,4,1,0,74,0,1
77900,-103.825488931872,4,1,0,74,0,1
77985,-103.259591749492,4,1,0,75,0,1
78070,-102.699829931973,4,1,0,75,0,1
78154,-102.152583946545,4,1,0,75,0,1
78239,-101.604727953393,4,1,0,76,0,1
78324,-101.062717041128,4,1,0,76,0,1
78409,-100.526458164263,4,1,0,76,0,1
78493,-100.002070007659,4,1,0,77,0,1
78578,-99.476978832057,4,1,0,77,0,1
78663,-98.957373153895,4,1,0,77,0,1
78790,-98.191056910569,4,1,0,78,0,1
78917,-97.436518021016,4,1,0,78,0,1
79002,-96.937956497311,4,1,0,79,0,1
79087,-96.444471062666,4,1,0,79,0,1
79171,-95.961702719345,4,1,0,79,0,1
79256,-95.478082137634,4,1,0,80,0,1
79341,-94.999311741687,4,1,0,80,0,1
79426,-94.525318932457,4,1,0,81,0,1
79510,-94.061526479751,4,1,0,81,0,1
79595,-93.596822629081,4,1,0,81,0,1
79680,-93.13668787353,4,1,0,82,0,1
79807,-92.457560620849,4,1,0,82,0,1
79934,-91.788265693874,4,1,0,83,0,1
80019,-91.345699321194,4,1,0,83,0,1
80104,-90.907380226563,4,1,0,83,0,1
80188,-90.478330898603,4,1,0,84,0,1
80273,-90.048276761915,4,1,0,84,0,1
80358,-89.622291481152,4,1,0,84,0,1
80443,-89.200317583412,4,1,0,85,0,1
80527,-88.787193765966,4,1,0,85,0,1
80612,-88.373028939377,4,1,0,85,0,1
80697,-87.962710074471,4,1,0,86,0,1
80824,-87.356695960363,4,1,0,86,0,1
80951,-86.758974911553,4,1,0,87,0,1
81036,-86.363473846044,4,1,0,87,0,1
81120,-85.976152340274,4,1,0,88,0,1
81205,-85.587740278147,4,1,0,88,0,1
81290,-85.202821869489,4,1,0,88,0,1
81375,-84.821350188745,4,1,0,89,0,1
81459,-84.447707448389,4,1,0,89,0,1
81544,-84.072952559953,4,1,0,89,0,1
81629,-83.701509087444,4,1,0,90,0,1
81714,-83.333333333333,4,1,0,90,0,1
81968,254.237288135593,3,1,0,65,1,0
81968,-83.333333333333,4,1,0,90,0,0
82222,-85.364293481737,4,1,0,88,0,0
82349,-86.41735470293,4,1,0,87,0,0
82603,-88.603392756366,4,1,0,85,0,0
82730,-89.738417053325,4,1,0,84,0,0
82857,-90.902898402643,4,1,0,83,0,0
82984,-92.097998619738,4,1,0,82,0,0
83112,-93.334732130368,4,1,0,81,0,0
83239,-94.595073542442,4,1,0,80,0,0
83366,-95.88991880434,4,1,0,80,0,0
83493,-97.220704476742,4,1,0,79,0,0
83620,-98.588947990544,4,1,0,78,0,0
83747,-99.996253418755,4,1,0,77,0,0
83874,-101.444317749905,4,1,0,76,0,0
84001,-102.934937714528,4,1,0,75,0,0
84129,-104.482286161675,4,1,0,74,0,0
84256,-106.064218725163,4,1,0,73,0,0
84383,-107.694790784005,4,1,0,72,0,0
84510,-109.376280632735,4,1,0,71,0,0
84637,-109.89010989011,4,1,0,70,0,0
84764,-106.382978723404,4,1,0,73,0,0
84891,-103.092783505155,4,1,0,77,0,0
85018,-100,4,1,0,80,0,0
87306,-111.111111111111,4,1,0,70,0,0
87434,-107.117787449109,4,1,0,73,0,0
87497,-105.255897365154,4,1,0,75,0,0
87561,-103.429578419412,4,1,0,77,0,0
87624,-101.692656270825,4,1,0,78,0,0
87688,-99.986895557594,4,1,0,80,0,0
87751,-98.36276911177,4,1,0,82,0,0
87815,-96.766011414077,4,1,0,83,0,0
87879,-95.220267066018,4,1,0,85,0,0
87942,-93.746160461973,4,1,0,87,0,0
88006,-92.29466553768,4,1,0,88,0,0
88069,-90.909090909091,4,1,0,90,0,0
92645,-90.909090909091,4,1,0,90,0,0
92709,-91.607635970705,4,1,0,89,0,0
92773,-92.316999395039,4,1,0,88,0,0
92836,-93.026091197269,4,1,0,87,0,0
92900,-93.757680019661,4,1,0,87,0,0
92984,-94.73553513782,4,1,0,86,0,0
93069,-95.746015811269,4,1,0,84,0,0
93154,-96.77828513445,4,1,0,83,0,0
93239,-97.833055519938,4,1,0,82,0,0
93323,-98.898250162022,4,1,0,81,0,0
93408,-100,4,1,0,80,0,0
93472,-100.845889505683,4,1,0,79,0,0
93535,-101.692656270825,4,1,0,78,0,0
93599,-102.567549401801,4,1,0,77,0,0
93662,-103.443600867679,4,1,0,77,0,0
93747,-104.649567960499,4,1,0,76,0,0
93832,-105.883985567583,4,1,0,74,0,0
93917,-107.147872489819,4,1,0,73,0,0
94001,-108.426886457297,4,1,0,72,0,0
94086,-109.752589182969,4,1,0,71,0,0
94171,-111.111111111111,4,1,0,70,0,0
94679,-111.111111111111,4,1,0,70,0,0
94743,-105.241436236071,4,1,0,75,0,0
94806,-100.039231071008,4,1,0,80,0,0
94870,-95.255883451625,4,1,0,85,0,0
94934,-90.909090909091,4,1,0,90,0,0
98239,-90.909090909091,4,1,0,90,0,0
98323,-90.494838020648,4,1,0,90,0,0
98408,-90.090728664587,4,1,0,90,0,0
98494,-89.280696824951,4,1,0,90,0,0
98621,-88.491262271113,4,1,0,90,0,0
98748,-87.715665976536,4,1,0,90,0,0
98811,-87.335944478802,4,1,0,90,0,0
98875,-86.953547239516,4,1,0,90,0,0
98938,-86.58038147139,4,1,0,90,0,0
99002,-86.204557786218,4,1,0,90,0,0
99129,-85.468361239997,4,1,0,90,0,0
99256,-84.744632617682,4,1,0,90,0,0
99320,-84.384543885274,4,1,0,90,0,0
99383,-84.03305785124,4,1,0,90,0,0
99510,-83.333333333333,4,1,0,90,0,0
99574,-83.625795130511,4,1,0,90,0,0
99638,-83.920316971164,4,1,0,90,0,0
99701,-84.212270141918,4,1,0,90,0,0
99765,-84.510944860072,4,1,0,90,0,0
99849,-84.906185624408,4,1,0,90,0,0
99934,-85.309912732155,4,1,0,90,0,0
100019,-85.717497611152,4,1,0,90,0,0
100104,-86.128995820626,4,1,0,90,0,0
100188,-86.539552831688,4,1,0,90,0,0
100273,-86.959000969379,4,1,0,90,0,0
100337,-87.277513878555,4,1,0,90,0,0
100400,-87.59333716255,4,1,0,90,0,0
100464,-87.91652254122,4,1,0,90,0,0
100527,-88.236995891917,4,1,0,90,0,0
100612,-88.673101523433,4,1,0,90,0,0
100697,-89.11353941448,4,1,0,90,0,0
100782,-89.558374442095,4,1,0,90,0,0
100866,-90.002360717658,4,1,0,90,0,0
101036,-90.898260662378,4,1,0,90,0,0
101163,-89.543480812111,4,1,0,90,0,0
101290,-88.22849213691,4,1,0,90,0,0
101353,-87.590402938813,4,1,0,90,0,0
101417,-86.951566951567,4,1,0,90,0,0
101544,-85.71107616266,4,1,0,90,0,0
101608,-85.099263885791,4,1,0,90,0,0
101671,-84.505482334699,4,1,0,90,0,0
101735,-83.910700538876,4,1,0,90,0,0
102561,-83.333333333333,4,1,0,90,0,0
102624,-83.047432336764,4,1,0,90,0,0
102688,-82.758994953058,4,1,0,90,0,0
102751,-82.477014602488,4,1,0,90,0,0
102815,-82.192519133341,4,1,0,90,0,0
102900,-81.817694082301,4,1,0,90,0,0
102984,-81.450622229344,4,1,0,90,0,0
103069,-81.082518077414,4,1,0,90,0,0
103154,-80.717726141957,4,1,0,90,0,0
103239,-80.35620191801,4,1,0,90,0,0
103323,-80.002098415696,4,1,0,90,0,0
103408,-79.646942079699,4,1,0,90,0,0
103493,-79.294925124792,4,1,0,90,0,0
103578,-78.946006108609,4,1,0,90,0,0
103662,-78.604195660018,4,1,0,90,0,0
103747,-78.261315816484,4,1,0,90,0,0
103832,-77.92141433754,4,1,0,90,0,0
103917,-77.584452584453,4,1,0,90,0,0
104001,-77.25430597771,4,1,0,90,0,0
104086,-76.923076923077,4,1,0,90,0,0
105103,-76.923076923077,4,1,0,90,0,0
105188,-78.951450286955,4,1,0,90,0,0
105273,-81.089692528278,4,1,0,90,0,0
105357,-83.319692257325,4,1,0,90,0,0
105442,-85.704664084863,4,1,0,90,0,0
105527,-88.230195874502,4,1,0,90,0,0
105612,254.237288135593,4,1,0,90,1,0
105612,-90.909090909091,4,1,0,90,0,0
105866,-100,4,1,0,80,0,0
108662,-100,4,1,0,80,0,0
108832,-96.764985727878,4,1,0,82,0,0
108917,-95.224719101124,4,1,0,83,0,0
109001,-93.75,4,1,0,83,0,0
109086,-92.303503358141,4,1,0,84,0,0
109171,-90.900965319986,4,1,0,85,0,0
109256,-89.540412044374,4,1,0,86,0,0
109340,-88.235294117647,4,1,0,87,0,0
109425,-86.952804377565,4,1,0,88,0,0
109510,-85.707062194505,4,1,0,88,0,0
109595,-84.496510468594,4,1,0,89,0,0
109679,-83.333333333333,4,1,0,90,0,0
109934,-83.333333333333,4,1,0,90,0,0
110188,-83.333333333333,4,1,0,86,0,0
110442,-83.333333333333,4,1,0,81,0,0
110696,-83.333333333333,4,1,0,77,0,0
110950,-83.333333333333,4,1,0,73,0,0
111205,-83.333333333333,4,1,0,69,0,0
111459,-83.333333333333,4,1,0,64,0,0
111713,-83.333333333333,4,1,0,60,0,0

[HitObjects]
256,192,617,5,12,0:0:0:0:
256,192,870,5,8,0:0:0:0:
256,192,955,5,8,0:0:0:0:
256,192,1040,5,0,0:0:0:0:
256,192,1125,5,8,0:0:0:0:
256,192,1379,5,8,0:0:0:0:
256,192,1464,5,8,0:0:0:0:
256,192,1549,5,0,0:0:0:0:
256,192,1633,5,8,0:0:0:0:
256,192,1718,5,0,0:0:0:0:
256,192,1803,5,0,0:0:0:0:
256,192,1888,5,8,0:0:0:0:
256,192,1972,5,8,0:0:0:0:
256,192,2057,5,0,0:0:0:0:
256,192,2142,5,8,0:0:0:0:
256,192,2396,5,8,0:0:0:0:
256,192,2481,5,0,0:0:0:0:
256,192,2566,5,0,0:0:0:0:
256,192,2650,5,8,0:0:0:0:
256,192,2905,5,8,0:0:0:0:
256,192,2990,5,8,0:0:0:0:
256,192,3075,5,0,0:0:0:0:
256,192,3159,5,8,0:0:0:0:
256,192,3244,5,8,0:0:0:0:
256,192,3329,5,0,0:0:0:0:
256,192,3414,5,8,0:0:0:0:
256,192,3498,5,0,0:0:0:0:
256,192,3583,5,0,0:0:0:0:
256,192,3668,5,8,0:0:0:0:
256,192,3922,5,0,0:0:0:0:
256,192,4176,5,0,0:0:0:0:
256,192,4430,5,8,0:0:0:0:
256,192,4684,5,8,0:0:0:0:
256,192,4939,5,0,0:0:0:0:
256,192,5193,5,8,0:0:0:0:
256,192,5278,5,8,0:0:0:0:
256,192,5363,5,0,0:0:0:0:
256,192,5447,5,8,0:0:0:0:
256,192,5532,5,0,0:0:0:0:
256,192,5617,5,0,0:0:0:0:
256,192,5702,5,8,0:0:0:0:
256,192,5786,5,0,0:0:0:0:
256,192,5871,5,0,0:0:0:0:
256,192,5955,5,8,0:0:0:0:
256,192,6040,5,8,0:0:0:0:
256,192,6125,5,0,0:0:0:0:
256,192,6209,5,8,0:0:0:0:
256,192,6294,5,0,0:0:0:0:
256,192,6379,5,0,0:0:0:0:
256,192,6464,5,8,0:0:0:0:
256,192,6548,5,8,0:0:0:0:
256,192,6633,5,0,0:0:0:0:
256,192,6718,5,8,0:0:0:0:
256,192,6845,5,0,0:0:0:0:
256,192,6972,5,8,0:0:0:0:
256,192,7100,5,8,0:0:0:0:
256,192,7227,5,0,0:0:0:0:
256,192,7354,5,8,0:0:0:0:
256,192,7481,5,4,0:0:0:0:
256,192,7735,5,8,0:0:0:0:
256,192,7820,5,0,0:0:0:0:
256,192,7905,5,0,0:0:0:0:
256,192,7990,5,8,0:0:0:0:
256,192,8244,5,8,0:0:0:0:
256,192,8329,5,0,0:0:0:0:
256,192,8414,5,0,0:0:0:0:
256,192,8498,5,8,0:0:0:0:
256,192,8583,5,8,0:0:0:0:
256,192,8668,5,0,0:0:0:0:
256,192,8753,5,8,0:0:0:0:
256,192,8837,5,0,0:0:0:0:
256,192,8922,5,0,0:0:0:0:
256,192,9007,5,8,0:0:0:0:
256,192,9261,5,8,0:0:0:0:
256,192,9346,5,8,0:0:0:0:
256,192,9431,5,0,0:0:0:0:
256,192,9515,5,8,0:0:0:0:
256,192,9770,5,8,0:0:0:0:
256,192,9855,5,8,0:0:0:0:
256,192,9940,5,0,0:0:0:0:
256,192,10024,5,8,0:0:0:0:
256,192,10109,5,0,0:0:0:0:
256,192,10194,5,0,0:0:0:0:
256,192,10279,5,8,0:0:0:0:
256,192,10363,5,8,0:0:0:0:
256,192,10448,5,0,0:0:0:0:
256,192,10533,5,8,0:0:0:0:
256,192,10787,5,8,0:0:0:0:
256,192,10871,5,8,0:0:0:0:
256,192,10955,5,0,0:0:0:0:
256,192,11041,5,8,0:0:0:0:
256,192,11125,5,0,0:0:0:0:
256,192,11210,5,0,0:0:0:0:
256,192,11295,5,8,0:0:0:0:
256,192,11379,5,8,0:0:0:0:
256,192,11464,5,0,0:0:0:0:
256,192,11549,5,8,0:0:0:0:
256,192,11633,5,0,0:0:0:0:
256,192,11718,5,0,0:0:0:0:
256,192,11804,5,8,0:0:0:0:
256,192,12058,5,8,0:0:0:0:
256,192,12143,5,8,0:0:0:0:
256,192,12228,5,0,0:0:0:0:
256,192,12312,5,8,0:0:0:0:
256,192,12397,5,0,0:0:0:0:
256,192,12482,5,0,0:0:0:0:
256,192,12567,5,8,0:0:0:0:
256,192,12651,5,0,0:0:0:0:
256,192,12736,5,0,0:0:0:0:
256,192,12820,5,8,0:0:0:0:
256,192,12905,5,8,0:0:0:0:
256,192,12990,5,0,0:0:0:0:
256,192,13074,5,8,0:0:0:0:
256,192,13159,5,0,0:0:0:0:
256,192,13244,5,0,0:0:0:0:
256,192,13329,5,8,0:0:0:0:
256,192,13413,5,0,0:0:0:0:
256,192,13498,5,0,0:0:0:0:
256,192,13583,5,8,0:0:0:0:
256,192,13710,5,8,0:0:0:0:
256,192,13837,5,0,0:0:0:0:
256,192,13965,5,0,0:0:0:0:
256,192,14092,5,8,0:0:0:0:
256,192,14219,5,8,0:0:0:0:
256,192,14346,5,0,0:0:0:0:
256,192,14854,5,0,0:0:0:0:
256,192,15108,5,8,0:0:0:0:
256,192,15871,5,0,0:0:0:0:
256,192,16633,5,8,0:0:0:0:
256,192,18159,5,0,0:0:0:0:
256,192,18286,5,8,0:0:0:0:
256,192,18413,5,0,0:0:0:0:
256,192,18540,5,8,0:0:0:0:
256,192,18667,5,0,0:0:0:0:
256,192,18731,5,0,0:0:0:0:
256,192,18794,5,0,0:0:0:0:
256,192,18858,5,0,0:0:0:0:
256,192,18922,5,12,0:0:0:0:
323,313,19176,1,8,0:0:0:0:
323,313,19260,1,0,0:0:0:0:
197,242,19345,1,0,0:0:0:0:
197,242,19430,1,8,0:0:0:0:
336,273,19684,1,0,0:0:0:0:
236,233,19938,1,8,0:0:0:0:
290,259,20193,1,8,0:0:0:0:
290,259,20277,1,8,0:0:0:0:
290,259,20362,1,0,0:0:0:0:
290,259,20447,1,8,0:0:0:0:
256,224,20532,1,0,0:0:0:0:
224,192,20616,1,0,0:0:0:0:
281,251,20701,1,8,0:0:0:0:
334,172,20955,1,4,0:0:0:0:
360,159,21210,1,8,0:0:0:0:
342,105,21294,1,0,0:0:0:0:
342,105,21379,1,0,0:0:0:0:
342,105,21464,1,8,0:0:0:0:
292,209,21718,1,0,0:0:0:0:
292,209,21972,1,8,0:0:0:0:
292,209,22057,1,8,0:0:0:0:
245,152,22142,1,0,0:0:0:0:
245,152,22227,1,8,0:0:0:0:
239,148,22311,1,0,0:0:0:0:
241,148,22396,1,0,0:0:0:0:
245,152,22481,1,8,0:0:0:0:
243,149,22566,1,8,0:0:0:0:
241,148,22650,1,8,0:0:0:0:
245,152,22735,1,0,0:0:0:0:
245,152,22989,1,12,0:0:0:0:
272,252,23370,1,8,0:0:0:0:
272,252,23497,1,0,0:0:0:0:
231,212,23561,1,0,0:0:0:0:
272,252,23624,1,8,0:0:0:0:
217,145,23751,1,4,0:0:0:0:
225,220,24133,1,8,0:0:0:0:
147,226,24260,1,8,0:0:0:0:
168,218,24323,1,8,0:0:0:0:
225,220,24387,1,0,0:0:0:0:
225,220,24514,1,8,0:0:0:0:
225,220,24641,1,0,0:0:0:0:
256,201,24768,1,8,0:0:0:0:
235,170,24832,1,0,0:0:0:0:
256,201,24895,1,0,0:0:0:0:
256,201,25022,1,8,0:0:0:0:
256,201,25107,1,8,0:0:0:0:
256,201,25192,1,0,0:0:0:0:
273,161,25277,1,8,0:0:0:0:
273,161,25404,1,0,0:0:0:0:
273,161,25531,1,8,0:0:0:0:
232,209,25616,1,0,0:0:0:0:
273,161,25700,1,0,0:0:0:0:
194,178,25785,1,8,0:0:0:0:
194,178,25870,1,8,0:0:0:0:
194,178,25955,1,0,0:0:0:0:
194,178,26039,1,8,0:0:0:0:
241,229,26166,1,0,0:0:0:0:
213,202,26294,1,8,0:0:0:0:
317,188,26378,1,8,0:0:0:0:
317,188,26463,1,0,0:0:0:0:
317,188,26548,1,0,0:0:0:0:
317,188,26633,1,8,0:0:0:0:
317,188,26717,1,8,0:0:0:0:
317,188,26802,1,0,0:0:0:0:
317,188,26887,1,8,0:0:0:0:
317,188,26972,1,0,0:0:0:0:
317,188,27056,1,0,0:0:0:0:
317,188,27141,1,8,0:0:0:0:
317,188,27226,1,8,0:0:0:0:
317,188,27311,1,0,0:0:0:0:
315,182,27374,1,0,0:0:0:0:
312,177,27438,1,8,0:0:0:0:
161,108,27501,1,8,0:0:0:0:
312,173,27565,1,0,0:0:0:0:
198,216,27692,1,0,0:0:0:0:
309,228,27819,1,8,0:0:0:0:
309,228,27903,1,8,0:0:0:0:
309,228,27988,1,0,0:0:0:0:
309,228,28073,1,8,0:0:0:0:
235,218,28200,1,0,0:0:0:0:
308,227,28327,1,8,0:0:0:0:
310,220,28454,1,0,0:0:0:0:
310,221,28518,1,0,0:0:0:0:
308,227,28581,1,8,0:0:0:0:
310,221,28709,1,0,0:0:0:0:
342,210,28836,1,8,0:0:0:0:
342,210,28920,1,0,0:0:0:0:
342,210,29005,1,0,0:0:0:0:
342,210,29090,1,8,0:0:0:0:
300,191,29175,1,0,0:0:0:0:
231,140,29259,1,0,0:0:0:0:
231,140,29344,1,8,0:0:0:0:
225,161,29471,1,0,0:0:0:0:
225,161,29598,1,8,0:0:0:0:
213,152,29726,1,0,0:0:0:0:
209,156,29853,1,8,0:0:0:0:
209,156,29937,1,8,0:0:0:0:
209,156,30022,1,0,0:0:0:0:
200,160,30107,1,8,0:0:0:0:
195,146,30234,1,0,0:0:0:0:
253,156,30361,1,8,0:0:0:0:
277,183,30488,1,0,0:0:0:0:
277,183,30615,1,8,0:0:0:0:
245,211,30700,1,0,0:0:0:0:
245,211,30785,1,8,0:0:0:0:
245,211,30870,1,8,0:0:0:0:
245,211,30954,1,0,0:0:0:0:
245,211,31039,1,0,0:0:0:0:
245,211,31124,1,8,0:0:0:0:
240,207,31209,1,0,0:0:0:0:
239,205,31293,1,0,0:0:0:0:
237,203,31378,1,8,0:0:0:0:
236,201,31442,1,8,0:0:0:0:
235,201,31505,1,8,0:0:0:0:
289,149,31569,1,8,0:0:0:0:
192,164,31632,1,4,0:0:0:0:
281,177,32013,1,8,0:0:0:0:
281,177,32140,1,0,0:0:0:0:
49,159,32204,1,0,0:0:0:0:
281,177,32267,1,8,0:0:0:0:
275,174,32394,1,4,0:0:0:0:
273,170,32776,1,0,0:0:0:0:
302,165,32903,1,8,0:0:0:0:
196,143,32966,1,8,0:0:0:0:
188,137,33030,1,0,0:0:0:0:
302,165,33157,1,12,0:0:0:0:
256,256,33538,1,8,0:0:0:0:
256,256,33665,1,8,0:0:0:0:
183,148,33729,1,8,0:0:0:0:
256,256,33793,1,0,0:0:0:0:
256,160,33920,1,12,0:0:0:0:
288,224,34301,1,8,0:0:0:0:
288,224,34428,1,0,0:0:0:0:
256,96,34492,1,0,0:0:0:0:
288,224,34555,1,8,0:0:0:0:
288,224,34682,1,0,0:0:0:0:
288,224,34809,1,8,0:0:0:0:
288,224,34937,1,8,0:0:0:0:
224,128,35000,1,8,0:0:0:0:
192,160,35064,1,0,0:0:0:0:
192,192,35191,1,8,0:0:0:0:
192,192,35318,1,0,0:0:0:0:
192,160,35445,1,8,0:0:0:0:
192,160,35572,1,8,0:0:0:0:
224,128,35636,1,0,0:0:0:0:
192,160,35699,1,8,0:0:0:0:
192,96,35826,1,0,0:0:0:0:
192,192,35954,1,8,0:0:0:0:
192,160,36081,1,0,0:0:0:0:
192,160,36208,1,12,0:0:0:0:
192,128,36462,1,0,0:0:0:0:
192,128,36589,1,8,0:0:0:0:
192,128,36716,1,0,0:0:0:0:
192,128,36780,1,0,0:0:0:0:
192,128,36843,1,8,0:0:0:0:
192,128,36970,1,8,0:0:0:0:
96,160,37034,1,8,0:0:0:0:
192,128,37098,1,0,0:0:0:0:
192,128,37225,1,0,0:0:0:0:
192,128,37352,1,8,0:0:0:0:
256,128,37415,1,8,0:0:0:0:
192,128,37479,1,0,0:0:0:0:
192,128,37564,1,8,0:0:0:0:
192,128,37648,1,8,0:0:0:0:
192,128,37733,1,0,0:0:0:0:
192,128,37860,1,8,0:0:0:0:
192,128,37987,1,0,0:0:0:0:
160,128,38051,1,0,0:0:0:0:
160,128,38115,1,8,0:0:0:0:
160,128,38242,1,0,0:0:0:0:
192,32,38326,1,8,0:0:0:0:
160,128,38411,1,8,0:0:0:0:
160,160,38496,1,0,0:0:0:0:
160,160,38623,1,8,0:0:0:0:
160,32,38750,1,0,0:0:0:0:
96,160,38877,1,0,0:0:0:0:
160,160,38941,1,0,0:0:0:0:
96,160,39004,1,8,0:0:0:0:
96,160,39089,1,0,0:0:0:0:
256,224,39174,1,0,0:0:0:0:
256,224,39259,1,8,0:0:0:0:
64,160,39386,1,0,0:0:0:0:
224,128,39513,1,8,0:0:0:0:
288,160,39576,1,0,0:0:0:0:
224,128,39640,1,0,0:0:0:0:
256,128,39767,1,8,0:0:0:0:
256,128,39852,1,0,0:0:0:0:
256,128,39937,1,0,0:0:0:0:
192,96,40021,1,8,0:0:0:0:
224,96,40085,1,8,0:0:0:0:
192,96,40148,1,0,0:0:0:0:
256,64,40276,1,8,0:0:0:0:
224,192,40403,1,8,0:0:0:0:
224,160,40466,1,8,0:0:0:0:
224,192,40530,1,0,0:0:0:0:
224,192,40615,1,8,0:0:0:0:
352,160,40699,1,8,0:0:0:0:
224,160,40784,1,0,0:0:0:0:
64,160,40911,1,0,0:0:0:0:
224,128,41038,1,0,0:0:0:0:
288,160,41101,1,0,0:0:0:0:
224,128,41165,1,8,0:0:0:0:
256,128,41292,1,8,0:0:0:0:
256,128,41377,1,0,0:0:0:0:
256,128,41462,1,0,0:0:0:0:
192,96,41546,1,8,0:0:0:0:
192,96,41673,1,0,0:0:0:0:
256,64,41801,1,8,0:0:0:0:
224,192,41928,1,0,0:0:0:0:
224,192,41991,1,0,0:0:0:0:
224,192,42055,1,8,0:0:0:0:
224,160,42140,1,0,0:0:0:0:
352,160,42225,1,0,0:0:0:0:
224,160,42309,1,8,0:0:0:0:
64,160,42437,1,0,0:0:0:0:
224,128,42564,1,8,0:0:0:0:
288,160,42627,1,8,0:0:0:0:
224,128,42691,1,0,0:0:0:0:
256,128,42818,1,0,0:0:0:0:
256,128,42903,1,8,0:0:0:0:
256,128,42988,1,8,0:0:0:0:
192,96,43072,1,0,0:0:0:0:
224,96,43136,1,0,0:0:0:0:
192,96,43199,1,8,0:0:0:0:
256,64,43327,1,0,0:0:0:0:
224,192,43454,1,8,0:0:0:0:
256,128,43517,1,8,0:0:0:0:
224,192,43581,1,0,0:0:0:0:
224,192,43665,1,8,0:0:0:0:
352,160,43750,1,8,0:0:0:0:
224,160,43835,1,0,0:0:0:0:
64,160,43962,1,0,0:0:0:0:
224,128,44089,1,8,0:0:0:0:
288,160,44152,1,8,0:0:0:0:
224,128,44216,1,0,0:0:0:0:
256,128,44343,1,0,0:0:0:0:
256,128,44428,1,8,0:0:0:0:
256,128,44513,1,8,0:0:0:0:
192,96,44597,1,0,0:0:0:0:
192,96,44724,1,8,0:0:0:0:
256,64,44852,1,0,0:0:0:0:
224,192,44979,1,0,0:0:0:0:
224,192,45042,1,0,0:0:0:0:
224,192,45106,1,8,0:0:0:0:
256,192,45191,1,0,0:0:0:0:
352,160,45276,1,0,0:0:0:0:
224,160,45360,1,8,0:0:0:0:
64,160,45487,1,0,0:0:0:0:
224,128,45614,1,0,0:0:0:0:
288,160,45677,1,0,0:0:0:0:
224,128,45741,1,8,0:0:0:0:
256,128,45868,1,0,0:0:0:0:
256,128,45953,1,8,0:0:0:0:
256,128,46038,1,8,0:0:0:0:
192,96,46122,1,0,0:0:0:0:
224,96,46187,1,0,0:0:0:0:
192,96,46249,1,8,0:0:0:0:
256,160,46377,1,0,0:0:0:0:
256,160,46504,1,8,0:0:0:0:
256,160,46568,1,8,0:0:0:0:
256,160,46631,1,0,0:0:0:0:
256,160,46716,1,8,0:0:0:0:
352,160,46801,1,8,0:0:0:0:
224,160,46885,1,0,0:0:0:0:
445,324,47648,1,0,0:0:0:0:
172,214,48411,1,12,0:0:0:0:
320,256,48834,1,0,0:0:0:0:
288,224,48919,1,8,0:0:0:0:
192,64,49343,1,8,0:0:0:0:
224,96,49427,1,0,0:0:0:0:
64,192,49936,1,8,0:0:0:0:
96,160,50021,1,8,0:0:0:0:
96,160,50105,1,0,0:0:0:0:
96,160,50190,1,8,0:0:0:0:
96,160,50275,1,0,0:0:0:0:
96,160,50360,1,0,0:0:0:0:
96,160,50444,1,8,0:0:0:0:
256,160,50868,1,8,0:0:0:0:
256,160,50953,1,0,0:0:0:0:
192,32,51377,1,0,0:0:0:0:
192,32,51461,1,8,0:0:0:0:
128,192,51885,1,0,0:0:0:0:
128,160,51970,1,0,0:0:0:0:
128,160,52478,1,12,0:0:0:0:
288,256,52987,1,8,0:0:0:0:
256,256,53072,1,8,0:0:0:0:
224,224,53156,1,0,0:0:0:0:
192,192,53241,1,8,0:0:0:0:
160,192,53326,1,0,0:0:0:0:
160,192,53410,1,0,0:0:0:0:
160,192,53495,1,8,0:0:0:0:
192,192,53580,1,8,0:0:0:0:
192,192,53665,1,8,0:0:0:0:
192,192,53749,1,8,0:0:0:0:
192,192,53834,1,0,0:0:0:0:
192,192,53919,1,0,0:0:0:0:
192,192,54004,1,8,0:0:0:0:
192,192,54088,1,0,0:0:0:0:
192,192,54173,1,0,0:0:0:0:
192,192,54258,1,8,0:0:0:0:
192,192,54343,1,8,0:0:0:0:
192,192,54427,1,8,0:0:0:0:
192,192,54512,1,0,0:0:0:0:
352,160,54936,1,8,0:0:0:0:
384,160,55021,1,0,0:0:0:0:
224,160,55444,1,0,0:0:0:0:
160,160,55529,1,8,0:0:0:0:
160,160,55953,1,8,0:0:0:0:
160,160,56038,1,8,0:0:0:0:
128,128,56546,1,4,0:0:0:0:
288,192,57055,1,8,0:0:0:0:
256,192,57139,1,8,0:0:0:0:
224,192,57224,1,0,0:0:0:0:
224,160,57309,1,8,0:0:0:0:
192,160,57394,1,0,0:0:0:0:
192,160,57478,1,0,0:0:0:0:
192,160,57563,1,8,0:0:0:0:
224,64,58072,1,8,0:0:0:0:
224,64,58156,1,8,0:0:0:0:
224,64,58241,1,8,0:0:0:0:
224,64,58326,1,8,0:0:0:0:
224,64,58410,1,0,0:0:0:0:
224,64,58495,1,0,0:0:0:0:
224,64,58580,1,8,0:0:0:0:
288,192,59004,1,8,0:0:0:0:
288,160,59088,1,0,0:0:0:0:
352,224,59343,1,0,0:0:0:0:
352,256,59427,1,8,0:0:0:0:
384,256,59512,1,8,0:0:0:0:
384,256,59597,1,0,0:0:0:0:
288,224,59851,1,0,0:0:0:0:
256,224,59936,1,0,0:0:0:0:
224,224,60021,1,0,0:0:0:0:
192,224,60105,1,8,0:0:0:0:
96,192,60360,1,0,0:0:0:0:
96,192,60614,1,12,0:0:0:0:
128,160,60741,1,4,0:0:0:0:
160,128,60868,1,12,0:0:0:0:
192,96,60995,1,12,0:0:0:0:
224,64,61122,1,4,0:0:0:0:
224,64,61249,1,4,0:0:0:0:
224,64,61376,1,8,0:0:0:0:
224,64,61461,1,8,0:0:0:0:
224,64,61546,1,0,0:0:0:0:
224,96,61630,1,8,0:0:0:0:
224,96,61715,1,8,0:0:0:0:
224,96,61800,1,0,0:0:0:0:
224,96,61885,1,8,0:0:0:0:
224,96,61969,1,8,0:0:0:0:
224,96,62054,1,0,0:0:0:0:
256,192,62139,5,12,0:0:0:0:
256,192,62393,5,8,0:0:0:0:
102,141,62477,5,0,0:0:0:0:
256,192,62562,5,0,0:0:0:0:
256,192,62647,5,8,0:0:0:0:
256,192,62774,5,0,0:0:0:0:
256,192,62901,5,8,0:0:0:0:
256,192,62965,5,0,0:0:0:0:
256,192,63028,5,0,0:0:0:0:
256,192,63155,5,8,0:0:0:0:
256,192,63283,5,0,0:0:0:0:
256,192,63410,5,8,0:0:0:0:
256,192,63494,5,8,0:0:0:0:
256,192,63579,5,0,0:0:0:0:
256,192,63664,5,8,0:0:0:0:
256,192,63749,5,0,0:0:0:0:
256,192,63833,5,0,0:0:0:0:
256,192,63918,5,8,0:0:0:0:
256,192,64045,5,0,0:0:0:0:
256,192,64172,5,8,0:0:0:0:
256,192,64236,5,0,0:0:0:0:
256,192,64300,5,8,0:0:0:0:
256,192,64363,5,8,0:0:0:0:
256,192,64427,5,0,0:0:0:0:
256,192,64511,5,8,0:0:0:0:
256,192,64596,5,8,0:0:0:0:
256,192,64681,5,0,0:0:0:0:
256,192,64808,5,0,0:0:0:0:
256,192,64935,5,8,0:0:0:0:
256,192,64999,5,8,0:0:0:0:
256,192,65062,5,0,0:0:0:0:
256,192,65189,5,8,0:0:0:0:
256,192,65274,5,8,0:0:0:0:
256,192,65359,5,0,0:0:0:0:
256,192,65444,5,8,0:0:0:0:
256,192,65528,5,0,0:0:0:0:
256,192,65613,5,0,0:0:0:0:
256,192,65698,5,8,0:0:0:0:
256,192,65783,5,0,0:0:0:0:
256,192,65867,5,8,0:0:0:0:
256,192,65952,5,0,0:0:0:0:
256,192,66079,5,0,0:0:0:0:
256,192,66206,5,12,0:0:0:0:
256,192,66460,5,0,0:0:0:0:
256,192,66587,5,8,0:0:0:0:
256,192,66650,5,8,0:0:0:0:
256,192,66714,5,0,0:0:0:0:
256,192,66778,5,8,0:0:0:0:
256,192,66841,5,0,0:0:0:0:
256,192,66905,5,0,0:0:0:0:
256,192,66968,5,8,0:0:0:0:
256,192,67095,5,8,0:0:0:0:
256,192,67222,5,0,0:0:0:0:
256,192,67350,5,8,0:0:0:0:
256,192,67413,5,0,0:0:0:0:
256,192,67477,5,8,0:0:0:0:
256,192,67541,5,8,0:0:0:0:
256,192,67604,5,0,0:0:0:0:
256,192,67668,5,0,0:0:0:0:
256,192,67731,5,8,0:0:0:0:
256,192,67858,5,8,0:0:0:0:
256,192,67985,5,0,0:0:0:0:
256,192,68049,5,0,0:0:0:0:
256,192,68112,5,8,0:0:0:0:
256,192,68239,5,8,0:0:0:0:
256,192,68303,5,8,0:0:0:0:
256,192,68367,5,0,0:0:0:0:
256,192,68494,5,8,0:0:0:0:
256,192,68557,5,8,0:0:0:0:
256,192,68621,5,0,0:0:0:0:
256,192,68684,5,0,0:0:0:0:
256,192,68748,5,8,0:0:0:0:
256,192,68875,5,0,0:0:0:0:
256,192,69002,5,8,0:0:0:0:
256,192,69066,5,0,0:0:0:0:
256,192,69129,5,0,0:0:0:0:
256,192,69256,5,8,0:0:0:0:
256,192,69341,5,8,0:0:0:0:
256,192,69426,5,0,0:0:0:0:
256,192,69511,5,8,0:0:0:0:
256,192,69574,5,8,0:0:0:0:
256,192,69638,5,0,0:0:0:0:
256,192,69701,5,8,0:0:0:0:
256,192,69765,5,0,0:0:0:0:
256,192,69828,5,0,0:0:0:0:
256,192,69892,5,8,0:0:0:0:
288,192,69956,5,0,0:0:0:0:
256,192,70019,5,8,0:0:0:0:
256,192,70083,5,8,0:0:0:0:
256,192,70146,5,0,0:0:0:0:
256,192,70210,5,0,0:0:0:0:
256,192,70273,5,8,0:0:0:0:
256,192,70337,5,0,0:0:0:0:
256,192,70400,5,0,0:0:0:0:
256,192,70464,5,0,0:0:0:0:
256,192,70528,5,8,0:0:0:0:
256,192,70655,5,8,0:0:0:0:
256,192,70782,5,4,0:0:0:0:
256,192,71036,5,8,0:0:0:0:
256,192,71120,5,0,0:0:0:0:
256,192,71205,5,0,0:0:0:0:
256,192,71290,5,8,0:0:0:0:
256,192,71417,5,0,0:0:0:0:
256,192,71544,5,8,0:0:0:0:
256,192,71608,5,8,0:0:0:0:
256,192,71671,5,0,0:0:0:0:
256,192,71798,5,8,0:0:0:0:
256,192,71926,5,0,0:0:0:0:
256,192,72053,5,8,0:0:0:0:
256,192,72137,5,8,0:0:0:0:
256,192,72222,5,0,0:0:0:0:
256,192,72307,5,8,0:0:0:0:
256,192,72392,5,0,0:0:0:0:
256,192,72434,5,0,0:0:0:0:
256,192,72476,5,0,0:0:0:0:
256,192,72519,5,0,0:0:0:0:
256,192,72561,5,8,0:0:0:0:
256,192,72688,5,0,0:0:0:0:
256,192,72815,5,12,0:0:0:0:
256,192,73070,5,8,0:0:0:0:
256,192,73154,5,0,0:0:0:0:
256,192,73239,5,0,0:0:0:0:
256,192,73324,5,8,0:0:0:0:
256,192,73451,5,0,0:0:0:0:
256,192,73578,5,8,0:0:0:0:
256,192,73642,5,0,0:0:0:0:
256,192,73705,5,0,0:0:0:0:
256,192,73832,5,8,0:0:0:0:
256,192,73917,5,0,0:0:0:0:
256,192,74002,5,8,0:0:0:0:
256,192,74087,5,0,0:0:0:0:
256,192,74171,5,0,0:0:0:0:
256,192,74256,5,8,0:0:0:0:
256,192,74341,5,0,0:0:0:0:
256,192,74426,5,8,0:0:0:0:
256,192,74468,5,8,0:0:0:0:
256,192,74510,5,8,0:0:0:0:
256,192,74553,5,8,0:0:0:0:
256,192,74595,5,0,0:0:0:0:
256,192,74722,5,0,0:0:0:0:
256,192,74849,5,12,0:0:0:0:
256,192,75104,5,8,0:0:0:0:
256,192,75188,5,8,0:0:0:0:
256,192,75273,5,0,0:0:0:0:
256,192,75358,5,8,0:0:0:0:
256,192,75485,5,0,0:0:0:0:
256,192,75612,5,8,0:0:0:0:
256,192,75676,5,0,0:0:0:0:
256,192,75739,5,0,0:0:0:0:
256,192,75866,5,8,0:0:0:0:
256,192,75951,5,8,0:0:0:0:
256,192,76036,5,0,0:0:0:0:
256,192,76121,5,8,0:0:0:0:
256,192,76205,5,0,0:0:0:0:
256,192,76290,5,0,0:0:0:0:
256,192,76375,5,8,0:0:0:0:
256,192,76460,5,0,0:0:0:0:
256,192,76502,5,0,0:0:0:0:
256,192,76544,5,0,0:0:0:0:
256,192,76587,5,0,0:0:0:0:
256,192,76629,5,8,0:0:0:0:
256,192,76883,5,8,0:0:0:0:
256,192,76968,5,8,0:0:0:0:
256,192,77053,5,0,0:0:0:0:
256,192,77137,5,8,0:0:0:0:
256,192,77222,5,0,0:0:0:0:
256,192,77307,5,0,0:0:0:0:
256,192,77392,5,8,0:0:0:0:
256,192,77476,5,8,0:0:0:0:
256,192,77561,5,0,0:0:0:0:
256,192,77646,5,8,0:0:0:0:
256,192,77773,5,0,0:0:0:0:
256,192,77900,5,8,0:0:0:0:
256,192,77985,5,8,0:0:0:0:
256,192,78070,5,0,0:0:0:0:
256,192,78154,5,8,0:0:0:0:
256,192,78239,5,0,0:0:0:0:
256,192,78324,5,0,0:0:0:0:
256,192,78409,5,8,0:0:0:0:
256,192,78493,5,0,0:0:0:0:
256,192,78578,5,0,0:0:0:0:
256,192,78663,5,8,0:0:0:0:
256,192,78790,5,0,0:0:0:0:
256,192,78917,5,8,0:0:0:0:
256,192,79002,5,8,0:0:0:0:
256,192,79087,5,0,0:0:0:0:
256,192,79171,5,8,0:0:0:0:
256,192,79256,5,0,0:0:0:0:
256,192,79341,5,0,0:0:0:0:
256,192,79426,5,8,0:0:0:0:
256,192,79510,5,8,0:0:0:0:
256,192,79595,5,0,0:0:0:0:
256,192,79680,5,8,0:0:0:0:
256,192,79807,5,0,0:0:0:0:
256,192,79934,5,8,0:0:0:0:
256,192,80019,5,0,0:0:0:0:
256,192,80104,5,0,0:0:0:0:
256,192,80188,5,8,0:0:0:0:
256,192,80273,5,8,0:0:0:0:
256,192,80358,5,0,0:0:0:0:
256,192,80443,5,8,0:0:0:0:
256,192,80527,5,0,0:0:0:0:
256,192,80612,5,0,0:0:0:0:
256,192,80697,5,8,0:0:0:0:
256,192,80824,5,0,0:0:0:0:
256,192,80951,5,8,0:0:0:0:
256,192,81036,5,8,0:0:0:0:
256,192,81120,5,0,0:0:0:0:
256,192,81205,5,8,0:0:0:0:
256,192,81290,5,0,0:0:0:0:
256,192,81375,5,0,0:0:0:0:
256,192,81459,5,8,0:0:0:0:
256,192,81544,5,8,0:0:0:0:
256,192,81629,5,0,0:0:0:0:
256,192,81714,5,8,0:0:0:0:
256,192,81756,5,8,0:0:0:0:
256,192,81798,5,0,0:0:0:0:
256,192,81841,5,0,0:0:0:0:
256,192,81883,5,8,0:0:0:0:
256,192,81968,5,4,0:0:0:0:
256,192,82222,5,0,0:0:0:0:
256,192,82349,5,12,0:0:0:0:
256,192,82603,5,8,0:0:0:0:
256,192,82730,5,4,0:0:0:0:
256,192,82857,5,8,0:0:0:0:
256,192,82984,5,0,0:0:0:0:
256,192,83112,5,12,0:0:0:0:
256,192,83239,5,0,0:0:0:0:
256,192,83366,5,0,0:0:0:0:
256,192,83493,5,12,0:0:0:0:
256,192,83620,5,0,0:0:0:0:
256,192,83747,5,8,0:0:0:0:
256,192,83874,5,4,0:0:0:0:
256,192,84001,5,8,0:0:0:0:
256,192,84129,5,8,0:0:0:0:
256,192,84256,5,4,0:0:0:0:
256,192,84383,5,8,0:0:0:0:
256,192,84510,5,0,0:0:0:0:
256,192,84637,5,12,0:0:0:0:
256,192,84764,5,0,0:0:0:0:
256,192,84891,5,8,0:0:0:0:
256,192,85018,5,4,0:0:0:0:
256,192,85781,5,12,0:0:0:0:
256,192,86544,5,4,0:0:0:0:
256,192,87306,5,12,0:0:0:0:
256,192,87434,5,0,0:0:0:0:
256,192,87497,5,0,0:0:0:0:
256,192,87561,5,8,0:0:0:0:
256,192,87624,5,0,0:0:0:0:
256,192,87688,5,8,0:0:0:0:
256,192,87751,5,8,0:0:0:0:
256,192,87815,5,0,0:0:0:0:
256,192,87879,5,8,0:0:0:0:
256,192,87942,5,0,0:0:0:0:
256,192,88006,5,0,0:0:0:0:
256,192,88069,5,12,0:0:0:0:
256,192,88323,5,8,0:0:0:0:
256,192,88387,5,8,0:0:0:0:
256,192,88451,5,0,0:0:0:0:
256,192,88578,5,8,0:0:0:0:
256,192,88705,5,0,0:0:0:0:
256,192,88832,5,8,0:0:0:0:
256,192,88895,5,0,0:0:0:0:
256,192,88959,5,8,0:0:0:0:
256,192,89023,5,8,0:0:0:0:
256,192,89086,5,0,0:0:0:0:
256,192,89171,5,8,0:0:0:0:
256,192,89256,5,8,0:0:0:0:
256,192,89340,5,0,0:0:0:0:
256,192,89425,5,8,0:0:0:0:
256,192,89510,5,8,0:0:0:0:
256,192,89595,5,0,0:0:0:0:
256,192,89722,5,0,0:0:0:0:
256,192,89849,5,8,0:0:0:0:
256,192,89912,5,8,0:0:0:0:
256,192,89976,5,0,0:0:0:0:
256,192,90103,5,8,0:0:0:0:
256,192,90230,5,0,0:0:0:0:
256,192,90357,5,8,0:0:0:0:
256,192,90421,5,8,0:0:0:0:
256,192,90484,5,0,0:0:0:0:
256,192,90548,5,0,0:0:0:0:
256,192,90611,5,8,0:0:0:0:
256,192,90696,5,8,0:0:0:0:
256,192,90781,5,0,0:0:0:0:
256,192,90865,5,8,0:0:0:0:
256,192,90950,5,0,0:0:0:0:
256,192,91035,5,0,0:0:0:0:
256,192,91120,5,8,0:0:0:0:
256,192,91247,5,0,0:0:0:0:
256,192,91374,5,8,0:0:0:0:
256,192,91438,5,8,0:0:0:0:
256,192,91501,5,0,0:0:0:0:
256,192,91629,5,8,0:0:0:0:
256,192,91756,5,0,0:0:0:0:
256,192,91883,5,8,0:0:0:0:
256,192,91946,5,8,0:0:0:0:
256,192,92010,5,0,0:0:0:0:
256,192,92073,5,0,0:0:0:0:
256,192,92137,5,8,0:0:0:0:
256,192,92264,5,0,0:0:0:0:
256,192,92391,5,8,0:0:0:0:
256,192,92455,5,8,0:0:0:0:
256,192,92518,5,0,0:0:0:0:
256,192,92645,5,0,0:0:0:0:
256,192,92709,5,0,0:0:0:0:
256,192,92773,5,8,0:0:0:0:
256,192,92836,5,8,0:0:0:0:
256,192,92900,5,0,0:0:0:0:
256,192,92984,5,8,0:0:0:0:
256,192,93069,5,8,0:0:0:0:
256,192,93154,5,0,0:0:0:0:
256,192,93239,5,8,0:0:0:0:
256,192,93323,5,0,0:0:0:0:
256,192,93408,5,8,0:0:0:0:
256,192,93472,5,8,0:0:0:0:
256,192,93535,5,0,0:0:0:0:
256,192,93599,5,0,0:0:0:0:
256,192,93662,5,8,0:0:0:0:
256,192,93747,5,8,0:0:0:0:
256,192,93832,5,0,0:0:0:0:
256,192,93917,5,8,0:0:0:0:
218,192,94001,5,0,0:0:0:0:
181,192,94086,5,0,0:0:0:0:
256,192,94171,5,8,0:0:0:0:
256,192,94298,5,8,0:0:0:0:
256,192,94362,5,8,0:0:0:0:
256,192,94425,5,0,0:0:0:0:
256,192,94552,5,8,0:0:0:0:
256,192,94679,5,0,0:0:0:0:
256,192,94743,5,0,0:0:0:0:
256,192,94806,5,0,0:0:0:0:
256,192,94870,5,0,0:0:0:0:
256,192,94934,5,12,0:0:0:0:
256,192,95188,5,8,0:0:0:0:
256,192,95252,5,8,0:0:0:0:
256,192,95316,5,0,0:0:0:0:
256,192,95443,5,8,0:0:0:0:
256,192,95570,5,0,0:0:0:0:
256,192,95697,5,8,0:0:0:0:
256,192,95760,5,0,0:0:0:0:
256,192,95824,5,0,0:0:0:0:
256,192,95888,5,0,0:0:0:0:
256,192,95951,5,8,0:0:0:0:
256,192,96035,5,8,0:0:0:0:
256,192,96121,5,0,0:0:0:0:
256,192,96205,5,8,0:0:0:0:
256,192,96290,5,8,0:0:0:0:
256,192,96375,5,0,0:0:0:0:
256,192,96459,5,8,0:0:0:0:
256,192,96587,5,0,0:0:0:0:
256,192,96714,5,8,0:0:0:0:
256,192,96777,5,8,0:0:0:0:
256,192,96841,5,0,0:0:0:0:
256,192,96968,5,8,0:0:0:0:
256,192,97095,5,0,0:0:0:0:
256,192,97222,5,8,0:0:0:0:
256,192,97286,5,8,0:0:0:0:
256,192,97349,5,8,0:0:0:0:
256,192,97413,5,8,0:0:0:0:
256,192,97476,5,0,0:0:0:0:
256,192,97561,5,0,0:0:0:0:
256,192,97646,5,8,0:0:0:0:
256,192,97730,5,0,0:0:0:0:
256,192,97815,5,8,0:0:0:0:
256,192,97900,5,8,0:0:0:0:
256,192,97985,5,0,0:0:0:0:
256,192,98112,5,0,0:0:0:0:
256,192,98239,5,8,0:0:0:0:
256,192,98323,5,8,0:0:0:0:
256,192,98408,5,0,0:0:0:0:
256,192,98494,5,8,0:0:0:0:
256,192,98621,5,0,0:0:0:0:
256,192,98748,5,8,0:0:0:0:
256,192,98811,5,8,0:0:0:0:
256,192,98875,5,0,0:0:0:0:
256,192,98938,5,0,0:0:0:0:
256,192,99002,5,8,0:0:0:0:
256,192,99129,5,0,0:0:0:0:
256,192,99256,5,8,0:0:0:0:
256,192,99320,5,0,0:0:0:0:
256,192,99383,5,0,0:0:0:0:
256,192,99510,5,0,0:0:0:0:
256,192,99574,5,0,0:0:0:0:
256,192,99638,5,8,0:0:0:0:
256,192,99701,5,8,0:0:0:0:
256,192,99765,5,0,0:0:0:0:
256,192,99849,5,0,0:0:0:0:
256,192,99934,5,8,0:0:0:0:
256,192,100019,5,8,0:0:0:0:
256,192,100104,5,0,0:0:0:0:
256,192,100188,5,0,0:0:0:0:
256,192,100273,5,8,0:0:0:0:
256,192,100337,5,0,0:0:0:0:
256,192,100400,5,0,0:0:0:0:
256,192,100464,5,0,0:0:0:0:
256,192,100527,5,8,0:0:0:0:
256,192,100612,5,8,0:0:0:0:
256,192,100697,5,0,0:0:0:0:
256,192,100782,5,8,0:0:0:0:
218,192,100866,5,8,0:0:0:0:
181,192,100951,5,0,0:0:0:0:
256,192,101036,5,8,0:0:0:0:
256,192,101163,5,0,0:0:0:0:
256,192,101290,5,8,0:0:0:0:
256,192,101353,5,8,0:0:0:0:
256,192,101417,5,0,0:0:0:0:
256,192,101544,5,8,0:0:0:0:
256,192,101608,5,8,0:0:0:0:
256,192,101671,5,0,0:0:0:0:
256,192,101735,5,0,0:0:0:0:
256,192,101799,5,8,0:0:0:0:
256,192,101925,5,8,0:0:0:0:
256,192,102052,5,8,0:0:0:0:
256,192,102179,5,8,0:0:0:0:
256,192,102306,5,8,0:0:0:0:
256,192,102370,5,8,0:0:0:0:
256,192,102434,5,0,0:0:0:0:
256,192,102561,5,8,0:0:0:0:
256,192,102624,5,8,0:0:0:0:
256,192,102688,5,0,0:0:0:0:
256,192,102751,5,0,0:0:0:0:
256,192,102815,5,8,0:0:0:0:
256,192,102900,5,8,0:0:0:0:
256,192,102984,5,0,0:0:0:0:
256,192,103069,5,8,0:0:0:0:
256,192,103154,5,0,0:0:0:0:
256,192,103239,5,0,0:0:0:0:
256,192,103323,5,8,0:0:0:0:
256,192,103408,5,8,0:0:0:0:
256,192,103493,5,0,0:0:0:0:
256,192,103578,5,8,0:0:0:0:
256,192,103662,5,0,0:0:0:0:
256,192,103747,5,0,0:0:0:0:
256,192,103832,5,8,0:0:0:0:
256,192,103917,5,8,0:0:0:0:
256,192,104001,5,0,0:0:0:0:
256,192,104086,5,8,0:0:0:0:
256,192,104171,5,8,0:0:0:0:
256,192,104256,5,8,0:0:0:0:
256,192,104340,5,8,0:0:0:0:
256,192,104425,5,0,0:0:0:0:
256,192,104510,5,0,0:0:0:0:
256,192,104595,5,8,0:0:0:0:
256,192,104679,5,0,0:0:0:0:
256,192,104764,5,0,0:0:0:0:
256,192,104849,5,8,0:0:0:0:
256,192,104934,5,8,0:0:0:0:
256,192,105018,5,0,0:0:0:0:
256,192,105103,5,8,0:0:0:0:
256,192,105188,5,0,0:0:0:0:
256,192,105273,5,0,0:0:0:0:
256,192,105357,5,8,0:0:0:0:
256,192,105442,5,8,0:0:0:0:
256,192,105527,5,0,0:0:0:0:
256,192,105612,5,12,0:0:0:0:
256,192,105866,5,8,0:0:0:0:
256,192,105950,5,0,0:0:0:0:
256,192,106035,5,0,0:0:0:0:
256,192,106120,5,8,0:0:0:0:
256,192,106374,5,0,0:0:0:0:
256,192,106628,5,12,0:0:0:0:
256,192,106883,5,0,0:0:0:0:
256,192,106967,5,0,0:0:0:0:
256,192,107052,5,8,0:0:0:0:
256,192,107137,5,0,0:0:0:0:
256,192,107222,5,8,0:0:0:0:
256,192,107306,5,8,0:0:0:0:
256,192,107391,5,0,0:0:0:0:
256,192,107645,5,12,0:0:0:0:
256,192,107900,5,8,0:0:0:0:
256,192,107984,5,8,0:0:0:0:
256,192,108069,5,0,0:0:0:0:
256,192,108154,5,8,0:0:0:0:
256,192,108408,5,0,0:0:0:0:
256,192,108662,5,12,0:0:0:0:
256,192,108832,5,0,0:0:0:0:
256,192,108917,5,8,0:0:0:0:
256,192,109001,5,0,0:0:0:0:
256,192,109086,5,0,0:0:0:0:
256,192,109171,5,8,0:0:0:0:
256,192,109256,5,8,0:0:0:0:
256,192,109340,5,0,0:0:0:0:
256,192,109425,5,8,0:0:0:0:
256,192,109510,5,0,0:0:0:0:
256,192,109595,5,0,0:0:0:0:
256,192,109679,5,12,0:0:0:0:
256,192,109806,12,0,111459,0:0:0:0:
228,162,111713,5,12,0:0:0:0:
