osu file format v14

[General]
AudioFilename: audio.mp3
AudioLeadIn: 0
PreviewTime: 86094
Countdown: 0
SampleSet: Soft
StackLeniency: 0.7
Mode: 0
LetterboxInBreaks: 0
WidescreenStoryboard: 1

[Editor]
Bookmarks: 29000,57646,86318,111392,118544,147200,175871,200944,226023,229605,240351,243933
DistanceSpacing: 1
BeatDivisor: 4
GridSize: 4
TimelineZoom: 1.2

[Metadata]
Title:memories
TitleUnicode:memories
Artist:Otsuki Maki
ArtistUnicode:大槻マキ
Creator:Tales78945
Version:Saikou no Bouken
Source:ONE PIECE
Tags:ワンピース 大槻真希 ending ed ed1 anime japanese stories j-pop jpop pop
BeatmapID:2423669
BeatmapSetID:1161764

[Difficulty]
HPDrainRate:5
CircleSize:3.6
OverallDifficulty:7
ApproachRate:7.5
SliderMultiplier:1.6
SliderTickRate:2

[Events]
//Background and Video events
0,0,"Magiwara_Crew.jpg",0,0
//Break Periods
2,115174,117224
//Storyboard Layer 0 (Background)
//Storyboard Layer 1 (Fail)
//Storyboard Layer 2 (Pass)
//Storyboard Layer 3 (Foreground)
//Storyboard Layer 4 (Overlay)
//Storyboard Sound Samples

[TimingPoints]
344,447.761194029851,4,2,1,60,1,0
29000,-111.111111111111,4,2,1,50,0,0
57646,447.761194029851,4,2,2,70,1,0
57646,-90.9090909090909,4,2,2,70,0,0
84527,447.761194029851,4,2,2,70,1,8
86318,-83.3333333333333,4,2,2,80,0,1
111392,-83.3333333333333,4,2,2,80,0,0
111839,-100,4,2,2,50,0,0
112288,-100,4,2,2,40,0,0
112735,-100,4,2,2,30,0,0
113183,-100,4,2,2,20,0,0
113630,-100,4,2,2,10,0,0
114078,-100,4,2,2,5,0,0
114974,-100,4,2,2,30,0,0
118544,447.761194029851,4,2,2,60,1,8
118544,-100,4,2,2,60,0,8
147200,-90.9090909090909,4,2,2,70,0,8
161543,447.761194029851,4,2,2,70,1,8
175871,-83.3333333333333,4,2,2,70,0,9
200050,-83.3333333333333,4,2,2,70,0,8
200944,447.761194029851,4,2,2,80,1,1
200944,-83.3333333333333,4,2,2,80,0,1
209893,447.761194029851,4,2,2,80,1,9
209893,-83.3333333333333,4,2,2,80,0,9
210788,460.652591170825,4,2,2,80,1,9
210788,-83.3333333333333,4,2,2,80,0,9
211695,447.761194029851,4,2,2,80,1,9
211695,-83.3333333333333,4,2,2,80,0,9
226023,-100,4,2,2,80,0,8
226471,-100,4,2,2,70,0,0
226918,-100,4,2,2,60,0,0
227366,-100,4,2,2,50,0,0
227814,-100,4,2,2,40,0,0
229605,442.80442804428,4,2,2,50,1,8
229605,-133.333333333333,4,2,2,50,0,8
231376,461.538461538462,4,2,2,50,1,0
231376,-133.333333333333,4,2,2,50,0,0
233168,454.545454545455,4,2,2,50,1,0
233168,-133.333333333333,4,2,2,50,0,0
234531,441.176470588235,4,2,2,50,1,8
234531,-133.333333333333,4,2,2,50,0,0
236736,447.761194029851,4,2,2,50,1,0
236736,-133.333333333333,4,2,2,50,0,0
240351,447.761194029851,4,2,2,50,1,8
241246,-100,4,2,2,40,0,0
242142,-100,4,2,2,30,0,0
243037,-100,4,2,2,20,0,0
243485,-100,4,2,2,10,0,0
243933,-100,4,2,2,5,0,0

[Colours]
Combo1 : 255,182,45
Combo2 : 255,128,0
Combo3 : 254,125,63
Combo4 : 194,71,12

[HitObjects]
51,299,29001,6,0,B|93:294|93:294|139:319|190:285,1,143.999995605469,2|2,3:2|0:2,0:0:0:0:
251,217,29673,1,2,3:2:0:0:
286,300,29897,2,0,P|311:337|411:323,1,143.999995605469,0|8,3:2|0:2,0:0:0:0:
486,226,30791,6,0,L|478:139,1,71.9999978027344,2|2,3:2|0:2,0:0:0:0:
407,113,31240,1,2,0:2:0:0:
333,75,31463,2,0,P|312:42|309:5,2,71.9999978027344,2|0|0,3:2|3:2|0:0,0:0:0:0:
333,161,32136,1,8,0:2:0:0:
243,98,32583,6,0,L|213:33,1,71.9999978027344,2|0,3:2|0:0,0:0:0:0:
157,100,33031,2,0,L|98:58,1,71.9999978027344,2|0,0:2|3:2,0:0:0:0:
90,150,33478,2,0,L|18:144,1,71.9999978027344,2|2,3:2|0:2,0:0:0:0:
53,226,33927,1,10,0:2:0:0:
49,312,34149,6,0,P|82:326|118:323,1,71.9999978027344,2|0,0:2|3:2,0:0:0:0:
205,317,34597,1,2,0:2:0:0:
234,188,35046,1,0,3:2:0:0:
234,188,35270,2,0,P|273:207|353:144,1,143.999995605469,0|8,3:2|0:2,0:0:0:0:
431,278,36164,6,0,P|452:311|455:348,2,71.9999978027344,2|2|2,3:2|0:2|0:2,0:0:0:0:
352,259,36837,1,2,3:2:0:0:
352,259,37061,1,0,3:2:0:0:
233,341,37508,2,0,L|227:269,1,71.9999978027344,8|0,0:2|0:0,0:0:0:0:
168,219,37955,6,0,B|111:224|111:224|36:201,2,107.999996704102,2|2|2,3:2|0:2|3:2,0:0:0:0:
235,169,38852,1,0,3:2:0:0:
266,43,39300,2,0,L|352:50,1,71.9999978027344,8|0,0:2|0:0,0:0:0:0:
420,54,39747,5,0,3:2:0:0:
444,199,40194,1,2,0:2:0:0:
444,199,40418,1,2,3:2:0:0:
444,199,40643,2,0,L|437:284,1,71.9999978027344,2|2,3:2|0:2,0:0:0:0:
350,344,41090,1,8,0:2:0:0:
342,252,41314,1,2,0:2:0:0:
255,199,41538,6,0,L|248:284,2,71.9999978027344,0|2|0,3:2|0:2|0:0,0:0:0:0:
265,98,42210,1,0,3:2:0:0:
265,98,42434,2,0,P|240:61|139:75,1,143.999995605469,0|8,3:2|0:2,0:0:0:0:
183,292,43329,6,0,P|234:282|256:262,1,71.9999978027344,2|2,3:2|0:2,0:0:0:0:
305,206,43777,1,2,0:2:0:0:
371,258,44000,2,0,P|402:273|438:272,2,71.9999978027344,2|0|0,3:2|3:2|0:0,0:0:0:0:
385,172,44672,1,8,0:2:0:0:
253,77,45120,6,0,L|245:164,1,71.9999978027344,2|2,3:2|0:2,0:0:0:0:
164,133,45568,1,2,0:2:0:0:
91,93,45791,2,0,P|69:60|67:23,2,71.9999978027344,2|0|0,3:2|3:2|0:0,0:0:0:0:
92,177,46463,1,8,0:2:0:0:
247,271,46911,6,0,L|217:336,1,71.9999978027344,2|0,3:2|0:0,0:0:0:0:
159,269,47358,2,0,L|100:311,1,71.9999978027344,2|0,0:2|3:2,0:0:0:0:
94,219,47806,2,0,L|22:225,1,71.9999978027344,2|2,3:2|0:2,0:0:0:0:
57,144,48254,1,10,0:2:0:0:
45,59,48478,6,0,P|78:37|117:34,1,71.9999978027344,2|0,0:2|3:2,0:0:0:0:
201,46,48926,1,2,0:2:0:0:
231,194,49374,1,0,3:2:0:0:
231,194,49598,2,0,P|271:175|351:238,1,143.999995605469,0|8,3:2|0:2,0:0:0:0:
438,102,50493,6,0,P|460:69|462:32,2,71.9999978027344,2|2|2,3:2|0:2|0:2,0:0:0:0:
357,118,51164,1,2,3:2:0:0:
357,118,51389,1,0,3:2:0:0:
232,36,51837,2,0,L|226:107,1,71.9999978027344,8|2,0:2|0:2,0:0:0:0:
160,162,52284,6,0,B|102:157|102:157|27:180,2,107.999996704102,2|2|2,3:2|0:2|3:2,0:0:0:0:
234,204,53179,1,0,3:2:0:0:
271,341,53628,2,0,L|356:333,1,71.9999978027344,8|0,0:2|0:0,0:0:0:0:
409,286,54075,6,0,L|421:142,2,143.999995605469,2|2|2,3:2|0:2|3:2,0:0:0:0:
342,334,55194,1,2,0:2:0:0:
280,276,55418,2,0,P|222:252|189:251,1,71.9999978027344,10|0,0:2|0:2,0:2:0:0:
98,304,55866,6,0,L|85:156,1,143.999995605469,2|0,3:2|0:2,0:2:0:0:
111,76,56538,1,0,3:2:0:0:
198,70,56761,2,0,P|213:102|214:137,1,71.9999978027344,0|0,3:2|0:2,0:2:0:0:
211,338,57209,5,4,3:2:0:0:
331,239,57646,6,0,B|394:227|394:227|444:235|444:235|507:224,1,176.000005371094,4|10,3:2|0:2,0:0:0:0:
446,151,58317,1,0,3:2:0:0:
395,312,58541,2,0,L|300:328,1,88.000002685547,0|0,3:2|0:0,0:0:0:0:
156,268,58989,2,0,L|250:251,1,88.000002685547,10|0,0:2|0:0,0:0:0:0:
378,230,59437,6,0,P|434:166|413:84,1,176.000005371094,2|8,3:2|0:2,0:0:0:0:
314,109,60108,1,2,3:2:0:0:
312,20,60332,2,0,L|217:2,1,88.000002685547,2|2,3:2|0:2,0:0:0:0:
73,54,60780,2,0,L|167:70,1,88.000002685547,8|2,0:2|0:2,0:0:0:0:
211,174,61228,6,0,L|242:347,1,176.000005371094,2|10,3:2|0:2,0:0:0:0:
157,379,61899,1,0,3:2:0:0:
60,356,62123,2,0,P|31:324|26:256,1,88.000002685547,0|0,3:2|0:0,0:0:0:0:
147,211,62571,2,0,P|174:241|179:309,1,88.000002685547,10|0,0:2|0:0,0:0:0:0:
56,206,63019,6,0,P|31:140|113:43,1,176.000005371094,2|10,3:2|0:2,0:0:0:0:
163,119,63690,1,2,3:1:0:0:
241,50,63914,2,0,L|327:66,1,88.000002685547,0|0,3:2|3:2,0:0:0:0:
409,27,64362,2,0,L|503:43,1,88.000002685547,8|0,0:2|3:2,0:0:0:0:
432,139,64810,6,0,L|401:312,2,176.000005371094,4|10|2,3:2|0:2|3:2,0:0:0:0:
341,79,65929,1,2,0:2:0:0:
265,148,66153,1,8,0:2:0:0:
265,148,66265,1,8,0:2:0:0:
265,148,66377,6,0,B|204:158|204:158|154:150|154:150|91:162,1,176.000005371094,6|2,3:2|3:2,0:0:0:0:
30,267,67048,2,0,L|13:361,1,88.000002685547,10|2,0:2|3:2,0:0:0:0:
176,350,67496,2,0,P|243:327|277:202,1,176.000005371094,2|10,3:2|0:2,0:0:0:0:
455,352,68392,5,2,3:2:0:0:
455,352,68616,1,0,0:0:0:0:
473,254,68840,2,0,L|489:159,1,88.000002685547,8|2,0:2|3:2,0:0:0:0:
368,286,69287,5,0,3:2:0:0:
368,286,69511,1,0,0:0:0:0:
386,183,69735,2,0,L|402:88,1,88.000002685547,8|0,0:2|0:0,0:0:0:0:
286,265,70183,6,0,P|336:287|380:281,1,88.000002685547,6|0,3:2|0:0,0:0:0:0:
189,286,70631,2,0,P|181:328|194:370,1,88.000002685547,14|0,0:2|3:2,0:0:0:0:
138,200,71078,2,0,P|94:205|59:231,1,88.000002685547,2|0,3:2|3:2,0:0:0:0:
204,126,71526,2,0,P|185:86|149:61,1,88.000002685547,10|0,0:2|0:0,0:0:0:0:
295,165,71974,6,0,P|358:104|365:12,1,176.000005371094,6|10,3:2|0:2,0:0:0:0:
272,66,72646,1,0,3:2:0:0:
417,179,72869,2,0,P|443:141|455:91,1,88.000002685547,0|0,3:2|0:0,0:0:0:0:
295,165,73317,2,0,P|314:206|352:241,1,88.000002685547,10|0,0:2|0:0,0:0:0:0:
393,362,73765,6,0,B|332:350|332:350|288:325|288:325|224:315,1,176.000005371094,2|8,3:2|0:2,0:0:0:0:
139,384,74437,1,2,3:2:0:0:
88,297,74660,2,0,L|-6:280,2,88.000002685547,2|2|8,3:2|0:2|0:2,0:0:0:0:
193,242,75332,1,2,0:2:0:0:
77,206,75556,6,0,P|32:133|67:56,1,176.000005371094,2|10,3:2|0:2,0:0:0:0:
152,90,76228,1,0,3:2:0:0:
175,6,76451,2,0,L|269:22,1,88.000002685547,0|0,3:2|0:0,0:0:0:0:
328,79,76899,2,0,L|414:63,1,88.000002685547,10|0,0:2|0:0,0:0:0:0:
501,48,77347,6,0,L|467:237,1,176.000005371094,2|10,3:2|0:2,0:0:0:0:
364,316,78019,1,2,3:1:0:0:
304,238,78243,1,0,3:2:0:0:
226,298,78466,2,0,L|209:392,2,88.000002685547,0|8|0,3:2|0:2|3:2,0:0:0:0:
215,169,79138,6,0,P|136:212|59:156,1,176.000005371094,4|10,3:2|0:2,0:0:0:0:
140,123,79810,1,0,3:2:0:0:
148,34,80034,2,0,L|242:17,1,88.000002685547,2|2,3:2|0:2,0:0:0:0:
323,7,80481,1,8,0:2:0:0:
270,86,80705,6,0,L|239:259,1,176.000005371094,2|2,0:2|0:2,0:0:0:0:
215,344,81377,1,10,0:2:0:0:
154,279,81601,1,2,3:2:0:0:
90,346,81825,2,0,B|47:294|75:231|75:231|64:177,1,176.000005371094,2|10,3:2|0:2,0:0:0:0:
8,27,82720,6,0,L|181:57,1,176.000005371094,6|8,3:2|0:2,0:0:0:0:
270,86,83392,1,2,3:2:0:0:
270,86,83616,1,0,3:2:0:0:
416,12,84063,2,0,L|400:106,1,88.000002685547,10|0,0:1|0:0,0:0:0:0:
457,175,84527,6,0,L|471:257,1,80,4|0,3:2|3:2,3:2:0:0:
404,321,84974,1,8,0:2:0:0:
344,253,85198,1,0,3:2:0:0:
308,367,85422,2,0,L|213:350,1,80,8|0,0:2|3:2,0:0:0:0:
139,343,85870,1,0,3:2:0:0:
139,343,85982,1,0,3:2:0:0:
139,343,86094,1,0,3:2:0:0:
276,135,86318,6,0,B|321:121|361:153|361:153|401:185|457:169,1,191.999994140625,6|8,3:2|0:2,0:0:0:0:
420,80,86989,1,0,3:2:0:0:
301,216,87213,2,0,P|243:213|208:86,1,191.999994140625,0|10,3:2|0:2,0:0:0:0:
256,24,87885,1,2,0:2:0:0:
62,52,88109,6,0,L|22:261,1,191.999994140625,2|10,3:2|0:2,0:0:0:0:
73,323,88780,1,2,3:2:0:0:
164,293,89004,2,0,P|213:280|269:291,1,95.9999970703126,2|0,3:2|0:0,0:0:0:0:
316,361,89452,1,10,0:2:0:0:
506,384,89676,6,0,P|498:330|359:291,1,191.999994140625,2|0,0:2|0:0,0:0:0:0:
413,370,90347,1,10,0:2:0:0:
488,216,90571,2,0,B|510:89|510:89|458:15,1,191.999994140625,2|0,3:2|0:0,0:0:0:0:
409,113,91243,1,10,0:2:0:0:
292,9,91467,6,0,L|82:48,1,191.999994140625,2|0,0:2|0:0,0:0:0:0:
98,255,92138,2,0,P|144:265|191:256,1,95.9999970703126,8|0,0:2|3:2,0:0:0:0:
87,121,92586,2,0,P|54:155|39:201,1,95.9999970703126,0|0,3:2|3:2,0:0:0:0:
208,179,93034,2,0,P|193:133|162:97,1,95.9999970703126,8|0,0:2|3:2,0:0:0:0:
56,321,93482,6,0,P|153:344|243:317,1,191.999994140625,6|8,3:2|0:2,0:0:0:0:
343,251,94153,1,0,3:2:0:0:
233,54,94377,2,0,L|268:242,1,191.999994140625,0|10,3:2|0:2,0:0:0:0:
289,336,95049,1,2,0:2:0:0:
337,179,95273,6,0,P|250:149|181:209,1,191.999994140625,2|10,3:2|0:2,0:0:0:0:
162,303,95944,1,2,3:2:0:0:
73,184,96168,2,0,B|47:131|72:86|72:86|96:41|75:-1,1,191.999994140625,2|10,3:2|0:2,0:0:0:0:
0,39,96840,1,2,0:2:0:0:
146,133,97064,6,0,P|151:226|71:273,1,191.999994140625,2|10,3:2|0:2,0:0:0:0:
0,384,97735,2,0,L|188:349,1,191.999994140625,2|0,3:2|0:0,0:0:0:0:
282,324,98407,1,10,0:2:0:0:
452,384,98631,6,0,P|482:297|422:228,1,191.999994140625,2|0,0:2|0:0,0:0:0:0:
326,242,99303,2,0,P|273:241|229:205,1,95.9999970703126,8|0,0:2|3:2,0:0:0:0:
339,70,99750,1,0,3:2:0:0:
360,158,99974,1,0,3:2:0:0:
184,145,100198,1,10,0:2:0:0:
248,80,100422,1,0,0:0:0:0:
326,242,100646,6,0,P|295:328|205:345,1,191.999994140625,6|10,3:2|0:2,0:0:0:0:
120,300,101318,1,0,3:2:0:0:
269,161,101541,2,0,P|359:143|419:213,1,191.999994140625,2|10,3:2|0:2,0:0:0:0:
422,310,102213,1,0,0:0:0:0:
227,250,102437,6,0,P|166:180|197:94,1,191.999994140625,2|8,3:2|0:2,0:0:0:0:
279,42,103109,1,0,3:2:0:0:
326,242,103332,2,0,P|295:328|205:345,1,191.999994140625,2|8,3:2|0:2,0:0:0:0:
120,300,104004,1,0,0:0:0:0:
0,189,104228,6,0,L|33:0,2,191.999994140625,2|10|2,3:2|0:2|3:2,0:0:0:0:
81,362,105571,1,10,0:2:0:0:
175,347,105795,1,2,0:2:0:0:
114,272,106019,6,0,L|147:83,1,191.999994140625,0|8,3:2|0:2,0:0:0:0:
233,121,106691,1,0,3:2:0:0:
378,49,106915,2,0,P|325:20|280:22,1,95.9999970703126,0|0,3:2|3:2,0:0:0:0:
286,193,107362,2,0,P|338:221|383:219,1,95.9999970703126,8|0,0:2|3:2,0:0:0:0:
418,125,107810,6,0,B|376:145|331:121|331:121|286:96|233:122,1,191.999994140625,6|10,3:2|0:2,0:0:0:0:
202,209,108482,1,0,3:0:0:0:
55,313,108706,2,0,P|-5:243|25:157,1,191.999994140625,2|10,3:2|0:2,0:0:0:0:
109,95,109377,1,0,0:0:0:0:
288,208,109601,6,0,P|256:344|224:208,1,383.99998828125,2|2,3:2|3:2,0:0:0:0:
256,128,110720,1,8,0:2:0:0:
256,128,110944,1,10,0:2:0:0:
256,272,111392,5,6,3:2:0:0:
256,192,111503,12,0,114974,0:0:0:0:
480,64,118544,6,0,B|433:69|433:69|382:41|325:79,1,160,6|2,3:2|0:2,0:0:0:0:
264,149,119215,1,2,3:2:0:0:
232,62,119440,2,0,P|204:21|92:37,1,160,0|8,3:2|0:2,0:0:0:0:
103,126,120111,1,0,0:0:0:0:
0,152,120335,6,0,L|9:248,1,80,2|2,3:2|0:2,0:0:0:0:
88,274,120783,1,2,0:2:0:0:
175,313,121007,2,0,P|199:350|202:391,2,80,2|0|0,3:2|3:2|0:0,0:0:0:0:
155,210,121679,1,8,0:2:0:0:
259,195,121902,1,0,0:0:0:0:
281,300,122126,6,0,L|315:372,1,80,2|0,3:2|0:0,0:0:0:0:
375,294,122574,2,0,L|441:340,1,80,2|0,0:2|3:2,0:0:0:0:
432,232,123022,2,0,L|512:239,1,80,2|2,3:2|0:2,0:0:0:0:
477,157,123470,1,10,0:2:0:0:
415,102,123693,6,0,P|452:78|493:75,2,80,2|0|2,0:2|3:2|0:2,0:0:0:0:
370,214,124364,1,0,0:0:0:0:
262,155,124589,1,0,3:2:0:0:
262,155,124813,2,0,B|181:158|199:204|101:212,1,160,0|8,3:2|0:2,0:0:0:0:
7,168,125484,1,0,0:0:0:0:
65,82,125708,6,0,P|41:45|38:4,2,80,6|2|2,3:2|0:2|0:2,0:0:0:0:
165,128,126380,1,2,3:2:0:0:
165,128,126604,1,0,3:2:0:0:
186,21,126827,1,0,0:0:0:0:
284,34,127052,2,0,L|291:114,1,80,8|0,0:2|0:0,0:0:0:0:
370,164,127499,6,0,B|434:159|434:159|517:184,2,120,2|2|2,3:2|0:2|3:2,0:0:0:0:
283,207,128395,1,0,3:2:0:0:
328,299,128618,1,0,0:0:0:0:
251,352,128843,2,0,L|156:344,1,80,8|0,0:2|0:0,0:0:0:0:
76,339,129290,5,0,3:2:0:0:
115,244,129514,1,0,0:0:0:0:
46,184,129738,1,2,0:2:0:0:
46,184,129962,1,2,3:2:0:0:
46,184,130185,2,0,L|54:89,1,80,2|2,3:2|0:2,0:0:0:0:
146,40,130633,1,8,0:2:0:0:
157,141,130857,1,2,0:2:0:0:
252,184,131082,6,0,L|260:89,2,80,0|2|8,3:2|0:2|0:2,0:0:0:0:
255,286,131753,1,0,3:2:0:0:
255,286,131977,2,0,P|283:327|395:311,1,160,0|8,3:2|0:2,0:0:0:0:
487,206,132648,1,2,0:1:0:0:
364,100,132872,6,0,B|348:92|317:95|317:95|266:123|209:85,1,160,2|2,3:2|0:2,0:0:0:0:
128,33,133545,1,2,3:2:0:0:
43,84,133767,2,0,P|26:159|81:213,1,160,0|8,3:2|0:2,0:0:0:0:
185,196,134439,1,0,0:0:0:0:
231,284,134664,6,0,L|238:363,1,80,2|2,3:2|0:2,0:0:0:0:
326,306,135112,1,2,0:2:0:0:
418,295,135336,2,0,P|442:332|445:373,2,80,2|0|0,3:2|0:0|0:0,0:0:0:0:
414,209,136006,1,8,0:2:0:0:
312,200,136230,1,0,0:0:0:0:
260,108,136455,6,0,L|294:36,1,80,2|0,3:2|0:0,0:0:0:0:
356,115,136903,2,0,L|422:69,1,80,2|0,0:2|3:2,0:0:0:0:
433,165,137349,2,0,L|513:158,1,80,2|2,3:2|0:2,0:0:0:0:
473,249,137797,1,10,0:2:0:0:
408,308,138022,6,0,P|445:332|486:335,2,80,2|0|2,0:2|3:2|0:2,0:0:0:0:
376,209,138693,1,0,0:0:0:0:
274,194,138917,1,0,3:2:0:0:
274,194,139142,2,0,P|230:215|141:145,1,160,0|8,3:2|0:2,0:0:0:0:
53,192,139812,1,0,0:0:0:0:
54,298,140037,6,0,P|30:335|27:376,2,80,6|2|2,3:2|0:2|0:2,0:0:0:0:
153,258,140708,1,2,3:2:0:0:
153,258,140933,1,0,3:2:0:0:
214,340,141155,1,0,0:0:0:0:
315,353,141379,2,0,L|322:273,1,80,8|2,0:2|0:2,0:0:0:0:
395,213,141827,6,0,B|459:218|459:218|542:193,2,120,2|2|2,3:2|0:2|3:2,0:0:0:0:
286,195,142724,1,0,3:2:0:0:
322,97,142946,1,0,0:0:0:0:
248,34,143170,2,0,L|153:42,1,80,8|0,0:2|0:0,0:0:0:0:
90,96,143619,6,0,L|77:256,2,160,2|2|0,3:2|0:2|0:0,0:0:0:0:
169,41,144738,1,2,0:2:0:0:
201,129,144961,1,10,0:2:0:0:
351,0,145185,6,0,P|427:-7|473:54,1,160,6|0,0:2|3:2,0:0:0:0:
469,151,145857,1,8,0:2:0:0:
376,199,146081,1,0,3:2:0:0:
376,199,146193,1,0,3:2:0:0:
376,199,146305,1,8,0:2:0:0:
463,259,146529,1,0,3:2:0:0:
463,259,147200,6,0,B|407:298|407:298|284:276,1,176.000005371094,6|10,3:2|0:2,0:0:0:0:
206,258,147871,1,0,3:2:0:0:
306,193,148096,2,0,L|420:213,1,88.000002685547,0|0,3:2|0:0,0:0:0:0:
356,381,148543,2,0,L|269:365,1,88.000002685547,10|0,0:2|0:0,0:0:0:0:
61,293,148991,6,0,P|143:313|206:257,1,176.000005371094,2|8,3:2|0:2,0:0:0:0:
236,168,149662,1,2,3:2:0:0:
300,279,149887,2,0,L|320:393,1,88.000002685547,2|2,3:2|0:2,0:0:0:0:
408,297,150334,2,0,L|428:183,1,88.000002685547,8|2,0:2|0:2,0:0:0:0:
455,42,150782,6,0,B|387:36|387:36|291:116,1,176.000005371094,2|10,3:2|0:2,0:0:0:0:
236,173,151453,1,0,3:2:0:0:
150,194,151678,2,0,P|110:214|63:208,1,88.000002685547,0|0,3:2|0:0,0:0:0:0:
180,110,152125,2,0,P|217:134|236:177,1,88.000002685547,10|0,0:2|0:0,0:0:0:0:
86,125,152573,6,0,P|122:31|192:14,1,176.000005371094,2|10,3:2|0:2,0:0:0:0:
235,172,153244,1,2,0:1:0:0:
262,88,153469,2,0,L|376:68,1,88.000002685547,0|0,3:2|3:2,0:0:0:0:
418,126,153917,2,0,L|532:106,1,88.000002685547,8|0,0:2|3:2,0:0:0:0:
512,253,154364,6,0,B|442:335|442:335|374:341,2,176.000005371094,4|10|2,3:2|0:2|3:2,0:0:0:0:
458,142,155484,1,0,0:0:0:0:
339,193,155707,1,10,0:2:0:0:
339,193,155819,1,0,3:2:0:0:
339,193,155932,6,0,L|165:223,1,176.000005371094,6|2,3:2|3:2,0:0:0:0:
121,300,156603,2,0,P|82:260|81:206,1,88.000002685547,10|2,0:2|3:2,0:0:0:0:
80,105,157051,2,0,P|157:140|166:224,1,176.000005371094,2|10,3:2|0:2,0:0:0:0:
44,346,157946,5,2,3:2:0:0:
44,346,158170,1,0,0:0:0:0:
151,322,158394,2,0,L|245:304,1,88.000002685547,8|2,0:2|3:2,0:0:0:0:
76,241,158841,5,0,3:2:0:0:
76,241,159065,1,0,0:0:0:0:
183,217,159290,2,0,L|277:199,1,88.000002685547,10|0,0:1|0:0,0:0:0:0:
354,104,159737,6,0,P|342:50|311:18,1,88.000002685547,2|0,3:1|0:0,0:0:0:0:
428,170,160185,2,0,P|466:151|493:116,1,88.000002685547,14|0,0:1|3:2,0:0:0:0:
388,261,160633,2,0,P|417:293|459:306,1,88.000002685547,2|0,3:2|3:2,0:0:0:0:
289,252,161081,2,0,P|267:290|268:334,1,88.000002685547,10|0,0:1|0:0,0:0:0:0:
267,155,161543,6,0,P|180:139|102:188,1,160,6|10,3:2|0:2,0:0:0:0:
40,236,162214,1,0,3:2:0:0:
32,341,162438,2,0,L|146:361,1,80,0|0,3:2|0:0,0:0:0:0:
188,319,162886,2,0,L|302:339,1,80,10|0,0:2|0:0,0:0:0:0:
425,358,163334,6,0,P|415:274|338:239,1,160,2|8,3:2|0:2,0:0:0:0:
261,250,164005,1,2,3:2:0:0:
188,319,164229,2,0,P|152:344|109:351,1,80,2|2,3:2|0:2,0:0:0:0:
79,274,164677,2,0,P|35:278|-4:262,1,80,8|2,0:2|0:2,0:0:0:0:
5,179,165125,6,0,P|5:103|68:46,1,160,2|10,3:2|0:2,0:0:0:0:
93,140,165796,1,0,3:2:0:0:
139,27,166020,2,0,L|253:7,1,80,0|0,3:2|0:0,0:0:0:0:
295,49,166468,2,0,L|409:29,1,80,10|0,0:2|0:0,0:0:0:0:
451,56,166916,6,0,L|421:221,1,160,2|10,3:2|0:2,0:0:0:0:
468,342,167587,1,2,3:1:0:0:
385,312,167811,2,0,P|349:337|306:344,1,80,0|0,3:2|3:2,0:0:0:0:
276,267,168259,2,0,P|232:271|192:255,1,80,8|0,0:2|3:2,0:0:0:0:
138,206,168707,6,0,L|110:48,2,160,4|10|2,3:2|0:2|3:2,0:0:0:0:
276,267,170050,1,10,0:2:0:0:
329,197,170274,2,0,B|366:178|406:200|406:200|445:221|482:203,1,160,2|2,0:2|0:2,0:0:0:0:
448,123,170945,2,0,P|401:105|347:109,1,80,10|2,0:2|3:2,0:0:0:0:
364,276,171393,2,0,P|322:341|245:346,1,160,2|10,3:2|0:2,0:0:0:0:
20,370,172289,6,0,L|50:197,1,160,6|10,3:1|0:1,0:0:0:0:
37,107,172961,1,2,3:2:0:0:
110,40,173184,2,0,P|153:26|199:37,1,80,2|0,3:1|0:0,0:0:0:0:
258,95,173632,2,0,P|301:109|347:98,1,80,10|0,0:1|0:0,0:0:0:0:
385,30,174080,6,0,P|436:4|416:77,1,160,4|8,3:2|0:2,0:0:0:0:
373,181,174751,1,0,3:2:0:0:
373,181,174975,1,8,0:2:0:0:
307,270,175199,6,0,L|311:309,1,40,0|0,3:2|3:2,0:0:0:0:
233,324,175535,2,0,L|230:363,1,40,0|0,3:2|3:2,0:0:0:0:
60,283,175871,6,0,P|4:207|28:116,1,191.999994140625,6|8,3:2|0:2,0:2:0:0:
95,44,176543,1,0,3:2:0:0:
157,189,176766,2,0,B|202:203|242:171|242:171|282:139|338:155,1,191.999994140625,0|10,3:2|0:2,0:2:0:0:
301,244,177437,1,2,0:2:0:0:
184,108,177662,6,0,B|205:47|205:47|343:22,1,191.999994140625,2|10,3:2|0:2,0:2:0:0:
441,32,178334,1,2,3:2:0:0:
470,130,178557,2,0,L|488:236,1,95.9999970703126,2|0,3:2|0:2,0:2:0:0:
512,321,179005,1,10,0:2:0:0:
391,192,179229,6,0,P|360:154|237:184,1,191.999994140625,2|0,0:0|0:0,0:0:0:0:
256,281,179901,1,10,0:0:0:0:
95,347,180125,2,0,B|66:309|82:260|82:260|99:212|65:165,1,191.999994140625,2|0,3:2|0:2,0:2:0:0:
0,229,180796,1,10,0:0:0:0:
165,184,181020,6,0,B|213:164|213:164|238:26,1,191.999994140625,2|0,0:2|0:2,0:2:0:0:
406,234,181692,2,0,P|360:243|313:234,1,95.9999970703126,8|0,0:2|3:2,0:0:0:0:
418,100,182140,2,0,P|451:134|466:180,1,95.9999970703126,0|0,3:2|3:2,0:0:0:0:
297,158,182588,2,0,P|312:111|343:75,1,95.9999970703126,8|0,0:2|3:2,0:0:0:0:
494,276,183035,6,0,B|457:327|457:327|331:350,1,191.999994140625,6|8,3:2|0:2,0:0:0:0:
270,263,183707,1,0,3:2:0:0:
210,358,183931,2,0,P|172:324|160:267,1,95.9999970703126,0|0,3:2|0:0,0:0:0:0:
65,273,184378,2,0,P|62:222|93:173,1,95.9999970703126,10|2,0:2|0:2,0:0:0:0:
174,91,184826,6,0,B|219:105|259:73|259:73|299:41|355:57,1,191.999994140625,2|10,3:2|0:2,0:0:0:0:
318,143,185497,1,2,3:2:0:0:
199,10,185722,2,0,P|141:13|106:140,1,191.999994140625,2|10,3:2|0:2,0:0:0:0:
132,213,186393,1,2,0:2:0:0:
193,129,186617,6,0,P|226:162|235:208,1,95.9999970703126,2|0,3:2|0:0,0:0:0:0:
205,305,187065,1,10,0:2:0:0:
353,331,187289,2,0,L|318:143,1,191.999994140625,2|0,3:2|0:0,0:0:0:0:
298,48,187961,1,10,0:2:0:0:
193,129,188184,6,0,B|148:143|108:111|108:111|68:79|12:95,1,191.999994140625,2|0,0:2|0:0,0:0:0:0:
54,357,188856,2,0,P|94:330|174:323,1,95.9999970703126,8|0,0:2|3:2,0:0:0:0:
50,180,189304,1,0,3:2:0:0:
37,273,189528,1,0,3:2:0:0:
206,265,189751,2,0,P|162:243|116:178,1,95.9999970703126,10|0,0:2|0:0,0:0:0:0:
177,45,190199,6,0,P|245:-15|328:22,1,191.999994140625,6|10,3:2|0:2,0:0:0:0:
355,115,190871,1,0,3:2:0:0:
244,254,191095,2,0,B|222:127|222:127|259:76,1,191.999994140625,2|10,3:2|0:2,0:0:0:0:
355,115,191766,1,0,0:0:0:0:
333,284,191990,6,0,B|334:315|311:339|282:342|282:342|170:355,1,191.999994140625,2|8,3:2|0:2,0:0:0:0:
69,382,192662,1,0,3:2:0:0:
100,233,192886,2,0,L|135:45,1,191.999994140625,2|8,3:2|0:2,0:0:0:0:
214,121,193557,1,0,0:0:0:0:
404,16,193781,6,0,P|487:40|508:144,2,191.999994140625,2|10|2,3:2|0:2|3:2,0:0:0:0:
306,189,195125,1,10,0:2:0:0:
320,71,195348,1,2,0:2:0:0:
214,121,195572,6,0,B|178:173|178:173|51:195,1,191.999994140625,0|8,3:2|0:2,0:0:0:0:
13,284,196244,1,0,3:2:0:0:
128,345,196468,2,0,P|166:306|173:247,1,95.9999970703126,0|0,3:2|3:2,0:0:0:0:
264,288,196916,2,0,P|277:235|253:180,1,95.9999970703126,8|0,0:2|3:2,0:0:0:0:
214,121,197363,6,0,B|341:99|341:99|392:135,2,191.999994140625,6|10|2,3:2|0:2|3:2,0:0:0:0:
17,139,198707,2,0,L|-3:249,1,95.9999970703126,10|0,0:2|0:0,0:0:0:0:
11,329,199154,6,0,B|20:358|50:373|78:366|78:366|188:339,1,191.999994140625,2|12,3:2|0:2,0:0:0:0:
353,345,200050,1,10,0:2:0:0:
353,345,200162,1,8,0:2:0:0:
353,345,200274,1,8,0:2:0:0:
441,372,200498,1,8,0:2:0:0:
441,372,200610,1,8,0:2:0:0:
441,372,200722,1,8,0:2:0:0:
355,230,200944,6,0,L|393:13,1,191.999994140625,6|8,3:2|0:2,0:0:0:0:
300,11,201615,1,0,3:2:0:0:
271,102,201839,2,0,L|176:118,1,95.9999970703126,0|0,3:2|0:0,0:0:0:0:
98,61,202287,2,0,L|3:77,1,95.9999970703126,10|2,0:2|0:2,0:0:0:0:
91,154,202735,6,0,P|123:238|65:313,1,191.999994140625,2|10,3:2|0:2,0:0:0:0:
32,226,203406,1,2,3:2:0:0:
176,117,203630,2,0,P|244:117|292:169,1,95.9999970703126,2|0,3:2|0:0,0:0:0:0:
297,222,204078,1,10,0:2:0:0:
431,357,204302,6,0,B|467:306|467:306|445:179,1,191.999994140625,2|0,0:2|0:0,0:0:0:0:
382,104,204973,1,10,0:2:0:0:
219,189,205197,2,0,B|174:203|134:171|134:171|94:139|38:155,1,191.999994140625,2|0,3:2|0:0,0:0:0:0:
74,241,205868,1,10,0:2:0:0:
194,108,206093,6,0,P|252:111|287:238,1,191.999994140625,2|0,0:2|0:0,0:0:0:0:
215,366,206764,2,0,P|175:339|95:332,1,95.9999970703126,8|0,0:2|3:2,0:0:0:0:
219,189,207212,2,0,P|217:237|250:309,1,95.9999970703126,0|0,3:2|0:0,0:0:0:0:
63,274,207660,2,0,P|107:252|153:187,1,95.9999970703126,8|0,0:2|0:0,0:0:0:0:
194,69,208108,6,0,L|382:104,1,191.999994140625,6|8,3:2|0:2,0:0:0:0:
476,125,208779,1,0,3:2:0:0:
512,289,209003,2,0,P|468:327|354:262,1,191.999994140625,0|10,3:2|0:2,0:0:0:0:
346,184,209675,1,2,0:2:0:0:
279,335,209893,6,0,B|234:349|194:317|194:317|154:285|98:301,1,191.999994140625,2|10,3:2|0:2,0:0:0:0:
136,384,210564,1,2,3:2:0:0:
254,253,210788,2,0,B|276:126|276:126|240:75,1,191.999994140625,2|10,3:2|0:2,0:0:0:0:
179,149,211478,1,2,0:2:0:0:
331,55,211695,6,0,P|385:46|450:81,1,95.9999970703126,2|0,3:2|0:0,0:0:0:0:
472,141,212142,1,10,0:2:0:0:
432,239,212366,2,0,B|381:275|381:275|254:253,1,191.999994140625,2|0,3:2|0:0,0:0:0:0:
179,149,213038,1,10,0:2:0:0:
148,327,213262,6,0,L|352:363,1,191.999994140625,2|0,0:2|0:0,0:0:0:0:
480,263,213933,2,0,P|452:217|399:197,1,95.9999970703126,8|0,0:2|3:2,0:0:0:0:
337,360,214381,1,0,3:2:0:0:
424,333,214605,1,0,3:2:0:0:
324,188,214829,2,0,P|297:234|306:290,1,95.9999970703126,10|0,0:1|0:0,0:0:0:0:
505,169,215277,6,0,B|482:42|482:42|430:6,1,191.999994140625,6|10,3:2|0:2,0:0:0:0:
328,10,215948,1,0,3:2:0:0:
193,98,216172,2,0,B|148:112|108:80|108:80|68:48|12:64,1,191.999994140625,2|10,3:2|0:2,0:0:0:0:
48,150,216843,1,0,0:0:0:0:
168,16,217068,6,0,P|255:41|270:130,1,191.999994140625,2|8,3:2|0:2,0:0:0:0:
235,219,217739,1,0,3:2:0:0:
393,318,217963,2,0,B|418:278|397:231|397:231|377:184|407:134,1,191.999994140625,2|8,3:2|0:2,0:0:0:0:
480,191,218634,1,0,0:0:0:0:
307,273,218859,6,0,L|117:239,2,191.999994140625,2|10|2,3:2|0:2|3:2,0:0:0:0:
406,134,220202,1,10,0:2:0:0:
332,60,220425,1,2,0:2:0:0:
244,170,220649,6,0,B|207:221|207:221|230:348,1,191.999994140625,0|8,3:2|0:2,0:0:0:0:
332,328,221321,1,0,3:2:0:0:
137,362,221545,2,0,P|110:314|118:255,1,95.9999970703126,0|0,3:2|3:2,0:0:0:0:
21,271,221993,2,0,P|22:216|59:169,1,95.9999970703126,8|0,0:2|0:0,0:0:0:0:
140,101,222441,6,0,B|267:79|267:79|318:115,2,191.999994140625,6|10|2,3:2|0:2|3:2,0:0:0:0:
16,257,223785,2,0,L|126:277,1,95.9999970703126,10|0,0:2|0:0,0:0:0:0:
256,192,224232,6,0,B|240:142|240:142|290:2,1,191.999994140625,2|8,3:2|0:2,0:0:0:0:
439,0,224903,2,0,P|464:40|465:87,1,95.9999970703126,0|2,3:2|3:2,0:0:0:0:
390,245,225351,1,8,0:2:0:0:
365,70,225575,1,12,0:2:0:0:
256,192,226023,5,6,0:0:0:0:
256,192,226135,12,0,229157,3:2:0:0:
23,339,229605,6,0,B|208:263|199:403|370:315,1,360.000013732911,2|2,0:0|0:0,0:0:0:0:
484,354,231376,2,0,P|486:286|254:266,1,360.000013732911,2|0,0:0|0:0,0:0:0:0:
370,315,233168,6,0,L|323:51,1,240.000009155274,2|2,0:0|0:0,0:0:0:0:
175,14,234531,2,0,P|173:50|145:84,1,60.0000022888184,2|2,0:0|0:0,0:0:0:0:
90,98,234972,2,0,B|72:155|113:207|113:207|156:259|134:333,1,240.000009155274
256,296,236295,1,0,0:0:0:0:
431,212,236736,6,0,P|396:167|326:173,1,120.000004577637,2|2,0:0|0:0,0:0:0:0:
81,213,237631,2,0,P|117:164|192:170,1,120.000004577637,2|2,0:0|0:0,0:0:0:0:
272,337,238527,2,0,P|255:253|240:337,1,240.000009155274,2|2,0:0|0:0,0:0:0:0:
256,192,240351,5,2,0:0:0:0:
256,192,240462,12,0,247515,0:0:0:0:
