osu file format v14

[General]
AudioFilename: audio.mp3
AudioLeadIn: 0
PreviewTime: -1
Countdown: 1
SampleSet: None
StackLeniency: 0.7
Mode: 0
LetterboxInBreaks: 0
WidescreenStoryboard: 1

[Editor]
DistanceSpacing: 0.8
BeatDivisor: 4
GridSize: 4
TimelineZoom: 1

[Metadata]
Title:Fantasy Rumba (Kuusou Rumba)
TitleUnicode:Fantasy Rumba (Kuusou Rumba)
Artist:Otsuki Kenji & The Despair Girls
ArtistUnicode:Otsuki Kenji & The Despair Girls
Creator:Zonemax
Version:RUMBA
Source:Zoku Sayonara Zetsubou Sensei
Tags:zoku sayonara zetsubou sensei katawa crash katawa shoujo rumba
BeatmapID:1247544
BeatmapSetID:589379

[Difficulty]
HPDrainRate:4
CircleSize:5
OverallDifficulty:6
ApproachRate:9
SliderMultiplier:1.4
SliderTickRate:1

[Events]
//Background and Video events
0,0,"Case 01.jpg",0,0
//Break Periods
2,89162,99326
//Storyboard Layer 0 (Background)
//Storyboard Layer 1 (Fail)
//Storyboard Layer 2 (Pass)
//Storyboard Layer 3 (Foreground)
//Storyboard Sound Samples

[TimingPoints]
4.66239637854067,172.651933701657,4,3,0,100,1,0
3299,-50,4,3,0,100,0,0
64454,-100,4,3,0,100,0,1
88873,-100,4,3,0,100,0,0
143532,-100,4,3,0,100,0,1
168017,-100,4,3,0,100,0,0

[Colours]
Combo1 : 255,66,66
Combo2 : 255,255,100
Combo3 : 255,146,36
Combo4 : 255,105,180

[HitObjects]
428,144,349,6,0,L|360:192,11,70
340,136,1385,2,0,L|352:52,12,70
290,164,2508,2,0,L|225:230,21,70
393,106,6781,6,0,L|333:146,7,70
64,117,7687,5,0,0:0:0:0:
242,176,8032,1,0,0:0:0:0:
146,247,8205,1,0,0:0:0:0:
244,311,8378,1,0,0:0:0:0:
341,248,8550,1,0,0:0:0:0:
242,93,8723,1,0,0:0:0:0:
339,170,8896,1,0,0:0:0:0:
224,169,9068,1,0,0:0:0:0:
303,102,9241,1,0,0:0:0:0:
336,89,9327,1,0,0:0:0:0:
375,94,9414,1,0,0:0:0:0:
412,123,9500,1,0,0:0:0:0:
431,167,9586,1,0,0:0:0:0:
429,216,9673,1,0,0:0:0:0:
411,260,9759,1,0,0:0:0:0:
377,293,9845,1,0,0:0:0:0:
248,85,10234,5,0,0:0:0:0:
175,206,10450,1,0,0:0:0:0:
316,131,10752,1,0,0:0:0:0:
296,258,10924,1,0,0:0:0:0:
127,77,11270,1,0,0:0:0:0:
111,257,11442,1,0,0:0:0:0:
270,131,11788,1,0,0:0:0:0:
171,211,11960,1,0,0:0:0:0:
332,277,12262,1,0,0:0:0:0:
120,88,12608,5,0,0:0:0:0:
315,246,12910,1,0,0:0:0:0:
125,262,13083,1,0,0:0:0:0:
321,164,13428,1,0,0:0:0:0:
154,108,13601,1,0,0:0:0:0:
299,253,13989,1,0,0:0:0:0:
101,245,14162,1,0,0:0:0:0:
302,163,14507,1,0,0:0:0:0:
118,92,14680,1,0,0:0:0:0:
183,232,14982,5,0,0:0:0:0:
432,34,15370,1,0,0:0:0:0:
414,295,15672,1,0,0:0:0:0:
147,64,15845,1,0,0:0:0:0:
135,281,16190,1,0,0:0:0:0:
359,70,16363,1,0,0:0:0:0:
350,348,16665,1,0,0:0:0:0:
127,129,16838,1,0,0:0:0:0:
208,319,17183,1,0,0:0:0:0:
361,173,17356,5,0,0:0:0:0:
161,91,17701,1,0,0:0:0:0:
106,115,18046,1,0,0:0:0:0:
89,277,18392,5,0,0:0:0:0:
259,138,18564,5,0,0:0:0:0:
263,293,18910,5,0,0:0:0:0:
372,189,19125,5,0,0:0:0:0:
377,315,19428,5,0,0:0:0:0:
417,202,19600,5,0,0:0:0:0:
276,152,19902,1,0,0:0:0:0:
335,120,20118,1,0,0:0:0:0:
156,286,20420,1,0,0:0:0:0:
388,140,20809,5,0,0:0:0:0:
301,164,20981,1,0,0:0:0:0:
220,184,21154,1,0,0:0:0:0:
149,221,21284,1,0,0:0:0:0:
185,292,21456,1,0,0:0:0:0:
266,272,21629,1,0,0:0:0:0:
396,177,21801,1,0,0:0:0:0:
396,177,21888,1,0,0:0:0:0:
396,177,21974,1,0,0:0:0:0:
258,146,22147,1,0,0:0:0:0:
172,130,22319,1,0,0:0:0:0:
99,185,22492,1,0,0:0:0:0:
261,218,22708,5,0,0:0:0:0:
23,226,23183,1,0,0:0:0:0:
281,144,23528,5,0,0:0:0:0:
257,246,23701,1,0,0:0:0:0:
384,202,23830,5,0,0:0:0:0:
357,295,24003,1,0,0:0:0:0:
147,190,24175,1,0,0:0:0:0:
147,190,24348,5,0,0:0:0:0:
281,144,24521,1,0,0:0:0:0:
214,100,24737,1,0,0:0:0:0:
358,72,24909,1,0,0:0:0:0:
398,168,25082,1,0,0:0:0:0:
398,168,25168,1,0,0:0:0:0:
398,168,25254,1,0,0:0:0:0:
217,112,25470,1,0,0:0:0:0:
412,281,25902,1,0,0:0:0:0:
310,151,26204,5,0,0:0:0:0:
143,161,26377,1,0,0:0:0:0:
206,284,26549,1,0,0:0:0:0:
298,248,26722,1,0,0:0:0:0:
287,83,26895,1,0,0:0:0:0:
407,180,27068,1,0,0:0:0:0:
240,188,27240,1,0,0:0:0:0:
351,140,27413,1,0,0:0:0:0:
174,129,27585,1,0,0:0:0:0:
294,85,27931,1,0,0:0:0:0:
116,69,28103,1,0,0:0:0:0:
304,100,28664,5,0,0:0:0:0:
424,56,28837,1,0,0:0:0:0:
336,36,29010,1,0,0:0:0:0:
392,132,29182,1,0,0:0:0:0:
224,144,29355,1,0,0:0:0:0:
189,244,29700,5,0,0:0:0:0:
292,224,29873,1,0,0:0:0:0:
316,304,30046,1,0,0:0:0:0:
404,47,30305,1,0,0:0:0:0:
55,292,30564,1,0,0:0:0:0:
404,322,30823,1,0,0:0:0:0:
403,75,30995,1,0,0:0:0:0:
77,61,31297,1,0,0:0:0:0:
363,112,31686,5,0,0:0:0:0:
150,111,31945,1,0,0:0:0:0:
245,276,32204,1,0,0:0:0:0:
357,153,32420,1,0,0:0:0:0:
357,153,32635,1,0,0:0:0:0:
163,108,32851,1,0,0:0:0:0:
211,291,33067,1,0,0:0:0:0:
211,291,33326,1,0,0:0:0:0:
360,182,33542,1,0,0:0:0:0:
82,73,33758,1,0,0:0:0:0:
290,93,34103,1,0,0:0:0:0:
237,155,34276,5,0,0:0:0:0:
146,309,34448,1,0,0:0:0:0:
75,106,34707,1,0,0:0:0:0:
293,46,34966,1,0,0:0:0:0:
219,244,35139,1,0,0:0:0:0:
423,147,35355,1,0,0:0:0:0:
118,50,35614,1,0,0:0:0:0:
97,242,35786,1,0,0:0:0:0:
327,161,36045,1,0,0:0:0:0:
105,102,36304,1,0,0:0:0:0:
314,71,36477,1,0,0:0:0:0:
439,55,36736,5,0,0:0:0:0:
336,69,37124,1,0,0:0:0:0:
76,69,37383,1,0,0:0:0:0:
79,318,37599,1,0,0:0:0:0:
382,100,37858,1,0,0:0:0:0:
76,69,38074,1,0,0:0:0:0:
223,302,38333,1,0,0:0:0:0:
365,101,38506,1,0,0:0:0:0:
223,302,38765,1,0,0:0:0:0:
82,129,38980,1,0,0:0:0:0:
343,62,39196,1,0,0:0:0:0:
183,204,39498,5,0,0:0:0:0:
354,156,39671,1,0,0:0:0:0:
134,106,39887,1,0,0:0:0:0:
297,64,40103,1,0,0:0:0:0:
179,158,40362,1,0,0:0:0:0:
334,140,40577,1,0,0:0:0:0:
162,109,40880,5,0,0:0:0:0:
261,74,41225,1,0,0:0:0:0:
131,153,41441,1,0,0:0:0:0:
288,168,41743,1,0,0:0:0:0:
230,94,41915,1,0,0:0:0:0:
318,79,42088,1,0,0:0:0:0:
174,164,42304,1,0,0:0:0:0:
174,164,42390,1,0,0:0:0:0:
174,164,42477,1,0,0:0:0:0:
174,164,42563,1,0,0:0:0:0:
211,198,42736,5,0,0:0:0:0:
285,161,42908,1,0,0:0:0:0:
341,218,43081,1,0,0:0:0:0:
432,145,43253,1,0,0:0:0:0:
444,243,43426,1,0,0:0:0:0:
321,90,43599,1,0,0:0:0:0:
436,67,43771,1,0,0:0:0:0:
388,200,43944,1,0,0:0:0:0:
212,85,44117,1,0,0:0:0:0:
212,85,44203,1,0,0:0:0:0:
212,85,44290,1,0,0:0:0:0:
74,236,44462,1,0,0:0:0:0:
214,219,44635,1,0,0:0:0:0:
325,197,44980,1,0,0:0:0:0:
71,257,45368,5,0,0:0:0:0:
413,92,46059,1,0,0:0:0:0:
83,65,46361,1,0,0:0:0:0:
278,295,46707,1,0,0:0:0:0:
395,99,46922,1,0,0:0:0:0:
265,284,47268,5,0,0:0:0:0:
80,158,47440,1,0,0:0:0:0:
152,238,47613,1,0,0:0:0:0:
71,308,47785,1,0,0:0:0:0:
363,133,48088,1,0,0:0:0:0:
321,278,48260,1,0,0:0:0:0:
221,129,48433,1,0,0:0:0:0:
183,261,48606,1,0,0:0:0:0:
136,160,48778,1,0,0:0:0:0:
95,266,48951,1,0,0:0:0:0:
254,165,49123,1,0,0:0:0:0:
248,277,49296,1,0,0:0:0:0:
398,169,49469,1,0,0:0:0:0:
281,104,49944,1,0,0:0:0:0:
281,104,50030,1,0,0:0:0:0:
281,104,50116,1,0,0:0:0:0:
135,214,50721,5,0,0:0:0:0:
434,108,50893,1,0,0:0:0:0:
256,260,51454,1,0,0:0:0:0:
130,70,51800,1,0,0:0:0:0:
116,254,51972,1,0,0:0:0:0:
283,143,52145,1,0,0:0:0:0:
247,295,52361,5,0,0:0:0:0:
414,166,52663,1,0,0:0:0:0:
188,124,53051,1,0,0:0:0:0:
49,106,53483,5,0,0:0:0:0:
289,307,53828,1,0,0:0:0:0:
296,115,54001,1,0,0:0:0:0:
424,280,54174,5,0,0:0:0:0:
418,81,54346,1,0,0:0:0:0:
241,68,54519,1,0,0:0:0:0:
154,89,54692,1,0,0:0:0:0:
212,277,54864,1,0,0:0:0:0:
60,74,55037,1,0,0:0:0:0:
88,301,55382,1,0,0:0:0:0:
212,56,56116,5,0,0:0:0:0:
136,108,56288,1,0,0:0:0:0:
284,168,56634,1,0,0:0:0:0:
144,200,57022,1,0,0:0:0:0:
312,172,57324,1,0,0:0:0:0:
128,128,57497,1,0,0:0:0:0:
312,112,57670,1,0,0:0:0:0:
144,128,57842,1,0,0:0:0:0:
352,100,58015,1,0,0:0:0:0:
156,212,58187,1,0,0:0:0:0:
232,56,58360,1,0,0:0:0:0:
280,208,58533,1,0,0:0:0:0:
172,160,58705,1,0,0:0:0:0:
172,160,58792,1,0,0:0:0:0:
172,160,58878,1,0,0:0:0:0:
172,160,58964,1,0,0:0:0:0:
176,160,59051,1,0,0:0:0:0:
113,118,59181,1,0,0:0:0:0:
95,237,59440,5,0,0:0:0:0:
225,228,59612,1,0,0:0:0:0:
381,86,60346,5,0,0:0:0:0:
276,197,60605,1,0,0:0:0:0:
102,106,60864,1,0,0:0:0:0:
245,100,61037,1,0,0:0:0:0:
187,209,61209,1,0,0:0:0:0:
347,117,61382,1,0,0:0:0:0:
208,133,61555,1,0,0:0:0:0:
380,280,61727,1,0,0:0:0:0:
287,320,61900,1,0,0:0:0:0:
104,319,62073,1,0,0:0:0:0:
232,37,62245,1,0,0:0:0:0:
172,179,62418,1,0,0:0:0:0:
43,142,62590,1,0,0:0:0:0:
305,228,62763,1,0,0:0:0:0:
232,37,62936,1,0,0:0:0:0:
116,308,63108,1,0,0:0:0:0:
453,52,64403,5,0,0:0:0:0:
395,145,64576,1,0,0:0:0:0:
293,194,64749,1,0,0:0:0:0:
192,173,64921,1,0,0:0:0:0:
75,234,65094,1,0,0:0:0:0:
182,296,65267,1,0,0:0:0:0:
338,237,65439,1,0,0:0:0:0:
199,134,65612,1,0,0:0:0:0:
330,133,65785,1,0,0:0:0:0:
212,231,65957,1,0,0:0:0:0:
337,247,66130,1,0,0:0:0:0:
261,342,66302,1,0,0:0:0:0:
94,223,66475,1,0,0:0:0:0:
250,127,66648,5,0,0:0:0:0:
420,172,66820,1,0,0:0:0:0:
112,145,66993,1,0,0:0:0:0:
229,274,67166,1,0,0:0:0:0:
339,135,67338,1,0,0:0:0:0:
342,294,67511,1,0,0:0:0:0:
214,124,67684,1,0,0:0:0:0:
129,278,67856,1,0,0:0:0:0:
86,132,68029,1,0,0:0:0:0:
394,255,68202,1,0,0:0:0:0:
226,284,68374,1,0,0:0:0:0:
370,146,68547,1,0,0:0:0:0:
162,151,68720,1,0,0:0:0:0:
310,75,68892,5,0,0:0:0:0:
151,98,69410,5,0,0:0:0:0:
111,190,69583,1,0,0:0:0:0:
333,253,69928,1,0,0:0:0:0:
366,106,70187,5,0,0:0:0:0:
226,80,70360,1,0,0:0:0:0:
184,174,70532,1,0,0:0:0:0:
139,89,70705,1,0,0:0:0:0:
98,182,70878,1,0,0:0:0:0:
279,167,71050,1,0,0:0:0:0:
209,280,71223,5,0,0:0:0:0:
369,216,71396,1,0,0:0:0:0:
211,184,71568,1,0,0:0:0:0:
269,94,71741,1,0,0:0:0:0:
169,105,71914,1,0,0:0:0:0:
146,30,72086,1,0,0:0:0:0:
93,177,72259,1,0,0:0:0:0:
95,103,72432,1,0,0:0:0:0:
74,285,72604,5,0,0:0:0:0:
238,152,72777,1,0,0:0:0:0:
142,220,72950,1,0,0:0:0:0:
266,228,73122,1,0,0:0:0:0:
129,306,73295,1,0,0:0:0:0:
267,310,73468,1,0,0:0:0:0:
142,248,73640,1,0,0:0:0:0:
267,230,73813,1,0,0:0:0:0:
154,187,73986,1,0,0:0:0:0:
271,156,74158,1,0,0:0:0:0:
169,112,74331,1,0,0:0:0:0:
279,85,74503,1,0,0:0:0:0:
395,80,74676,5,0,0:0:0:0:
395,80,74762,1,0,0:0:0:0:
395,80,74849,1,0,0:0:0:0:
395,80,74935,1,0,0:0:0:0:
395,80,75021,1,0,0:0:0:0:
395,80,75108,1,0,0:0:0:0:
395,80,75194,1,0,0:0:0:0:
395,80,75280,1,0,0:0:0:0:
395,80,75367,1,0,0:0:0:0:
406,161,75583,5,0,0:0:0:0:
352,277,75755,1,0,0:0:0:0:
247,176,75928,1,0,0:0:0:0:
205,298,76101,1,0,0:0:0:0:
131,154,76273,1,0,0:0:0:0:
108,247,76446,1,0,0:0:0:0:
269,232,76618,1,0,0:0:0:0:
142,337,76791,1,0,0:0:0:0:
312,295,76964,1,0,0:0:0:0:
374,123,77136,1,0,0:0:0:0:
269,232,77309,1,0,0:0:0:0:
223,100,77482,1,0,0:0:0:0:
152,252,77654,1,0,0:0:0:0:
101,115,77827,5,0,0:0:0:0:
83,226,78000,1,0,0:0:0:0:
228,169,78172,1,0,0:0:0:0:
235,277,78345,1,0,0:0:0:0:
373,211,78518,1,0,0:0:0:0:
168,120,78690,5,0,0:0:0:0:
319,78,78863,1,0,0:0:0:0:
152,126,79036,1,0,0:0:0:0:
276,174,79208,1,0,0:0:0:0:
172,270,79381,1,0,0:0:0:0:
357,282,79554,1,0,0:0:0:0:
394,135,79942,1,0,0:0:0:0:
358,299,80287,5,0,0:0:0:0:
107,50,80633,1,0,0:0:0:0:
54,330,80805,1,0,0:0:0:0:
463,45,81107,1,0,0:0:0:0:
75,46,81453,1,0,0:0:0:0:
464,343,81755,1,0,0:0:0:0:
34,339,82143,1,0,0:0:0:0:
448,42,82489,1,0,0:0:0:0:
35,34,82834,1,0,0:0:0:0:
420,360,83179,1,0,0:0:0:0:
48,307,83481,5,0,0:0:0:0:
377,81,83827,1,0,0:0:0:0:
298,313,84172,1,0,0:0:0:0:
120,111,84345,1,0,0:0:0:0:
92,297,84517,1,0,0:0:0:0:
363,121,84863,1,0,0:0:0:0:
150,122,85208,1,0,0:0:0:0:
234,217,85510,1,0,0:0:0:0:
315,123,85683,1,0,0:0:0:0:
337,264,85855,1,0,0:0:0:0:
210,138,86201,5,0,0:0:0:0:
205,264,86373,1,0,0:0:0:0:
330,140,86546,1,0,0:0:0:0:
337,264,86719,1,0,0:0:0:0:
146,67,86891,1,0,0:0:0:0:
142,295,87064,1,0,0:0:0:0:
387,79,87237,1,0,0:0:0:0:
387,306,87409,1,0,0:0:0:0:
86,40,87582,1,0,0:0:0:0:
92,336,87755,1,0,0:0:0:0:
429,52,87927,1,0,0:0:0:0:
437,347,88100,1,0,0:0:0:0:
43,22,88272,1,0,0:0:0:0:
35,354,88445,1,0,0:0:0:0:
473,29,88617,1,0,0:0:0:0:
492,365,88790,1,0,0:0:0:0:
260,188,88962,1,0,0:0:0:0:
260,108,99926,5,0,0:0:0:0:
260,108,100099,1,0,0:0:0:0:
260,108,100272,1,0,0:0:0:0:
124,228,100444,1,0,0:0:0:0:
292,248,100617,1,0,0:0:0:0:
120,284,100790,1,0,0:0:0:0:
336,240,100919,1,0,0:0:0:0:
336,240,101006,1,0,0:0:0:0:
336,240,101092,1,0,0:0:0:0:
160,196,101265,1,0,0:0:0:0:
344,160,101437,1,0,0:0:0:0:
212,136,101610,1,0,0:0:0:0:
428,104,101782,1,0,0:0:0:0:
168,108,102257,5,0,0:0:0:0:
332,64,102603,1,0,0:0:0:0:
200,208,102775,1,0,0:0:0:0:
116,76,102948,1,2,0:0:0:0:
256,108,103121,1,0,0:0:0:0:
212,120,103293,1,0,0:0:0:0:
348,124,103466,1,0,0:0:0:0:
432,80,103638,1,0,0:0:0:0:
376,204,103768,1,0,0:0:0:0:
264,208,103941,1,0,0:0:0:0:
280,120,104113,1,0,0:0:0:0:
136,168,104286,1,0,0:0:0:0:
324,160,104459,1,0,0:0:0:0:
168,124,104977,5,2,0:0:0:0:
284,104,105322,1,0,0:0:0:0:
168,124,105538,1,0,0:0:0:0:
168,124,105624,1,0,0:0:0:0:
168,124,105710,1,0,0:0:0:0:
256,124,105883,1,0,0:0:0:0:
120,144,106056,1,0,0:0:0:0:
296,136,106228,1,0,0:0:0:0:
296,136,106315,1,0,0:0:0:0:
296,136,106401,1,0,0:0:0:0:
180,216,106574,1,0,0:0:0:0:
256,224,106746,1,0,0:0:0:0:
284,304,106919,1,0,0:0:0:0:
344,236,107092,1,0,0:0:0:0:
400,96,107264,1,0,0:0:0:0:
312,108,107739,5,0,0:0:0:0:
292,176,107955,1,0,0:0:0:0:
196,136,108127,1,0,0:0:0:0:
152,212,108257,1,0,0:0:0:0:
244,244,108430,1,0,0:0:0:0:
336,180,108775,1,0,0:0:0:0:
372,104,108948,1,0,0:0:0:0:
388,160,109120,1,0,0:0:0:0:
160,124,109422,1,0,0:0:0:0:
144,236,109638,1,0,0:0:0:0:
304,232,109897,1,0,0:0:0:0:
116,84,110156,1,0,0:0:0:0:
236,84,110415,1,0,0:0:0:0:
120,172,110760,5,0,0:0:0:0:
236,156,111019,1,0,0:0:0:0:
288,80,111321,1,0,0:0:0:0:
304,168,111494,1,0,0:0:0:0:
192,120,111753,1,0,0:0:0:0:
164,196,112055,1,0,0:0:0:0:
276,176,112228,1,0,0:0:0:0:
176,152,112487,1,0,0:0:0:0:
304,116,112746,1,0,0:0:0:0:
140,104,112962,1,0,0:0:0:0:
288,76,113221,1,0,0:0:0:0:
296,120,113393,1,0,0:0:0:0:
292,152,113566,5,0,0:0:0:0:
112,96,113782,1,0,0:0:0:0:
108,172,114041,1,0,0:0:0:0:
316,116,114213,1,0,0:0:0:0:
180,60,114472,1,0,0:0:0:0:
208,200,114688,1,0,0:0:0:0:
288,148,114904,1,0,0:0:0:0:
144,112,115163,1,0,0:0:0:0:
264,64,115422,1,0,0:0:0:0:
280,180,115638,1,0,0:0:0:0:
92,104,115897,1,0,0:0:0:0:
92,104,116069,1,0,0:0:0:0:
296,76,116285,5,0,0:0:0:0:
272,180,116501,1,0,0:0:0:0:
184,200,116760,1,0,0:0:0:0:
284,216,116976,1,0,0:0:0:0:
332,136,117235,1,0,0:0:0:0:
264,108,117451,1,0,0:0:0:0:
164,224,117623,1,0,0:0:0:0:
152,256,117882,1,0,0:0:0:0:
264,200,118141,1,0,0:0:0:0:
216,168,118314,1,0,0:0:0:0:
296,120,118616,5,0,0:0:0:0:
188,128,118789,1,0,0:0:0:0:
304,108,118961,1,0,0:0:0:0:
180,104,119177,1,0,0:0:0:0:
180,104,119263,1,0,0:0:0:0:
180,104,119307,1,0,0:0:0:0:
284,96,119479,1,0,0:0:0:0:
112,120,119652,1,0,0:0:0:0:
260,112,119825,1,0,0:0:0:0:
264,112,119911,1,0,0:0:0:0:
264,112,119997,1,0,0:0:0:0:
176,144,120127,1,0,0:0:0:0:
260,224,120299,1,0,0:0:0:0:
152,244,120472,1,0,0:0:0:0:
384,164,120688,5,0,0:0:0:0:
384,164,120774,1,0,0:0:0:0:
384,164,120860,1,0,0:0:0:0:
384,164,120946,1,0,0:0:0:0:
384,164,121033,1,0,0:0:0:0:
384,164,121119,1,0,0:0:0:0:
384,164,121206,1,0,0:0:0:0:
384,164,121292,1,0,0:0:0:0:
384,164,121378,1,0,0:0:0:0:
384,164,121465,1,0,0:0:0:0:
384,164,121551,1,0,0:0:0:0:
384,164,121637,1,0,0:0:0:0:
384,164,121724,1,0,0:0:0:0:
136,208,121853,5,0,0:0:0:0:
192,160,122026,1,0,0:0:0:0:
224,252,122199,1,0,0:0:0:0:
320,168,122414,1,0,0:0:0:0:
376,260,122587,1,0,0:0:0:0:
220,236,122760,1,0,0:0:0:0:
320,168,122932,1,0,0:0:0:0:
208,160,123105,1,0,0:0:0:0:
380,112,123278,1,0,0:0:0:0:
392,112,123364,1,0,0:0:0:0:
392,112,123450,1,0,0:0:0:0:
168,136,123623,1,0,0:0:0:0:
352,112,123796,1,0,0:0:0:0:
204,120,123968,1,0,0:0:0:0:
328,132,124141,1,0,0:0:0:0:
148,232,124314,1,0,0:0:0:0:
320,192,124486,5,0,0:0:0:0:
208,108,124832,1,0,0:0:0:0:
344,112,125134,1,0,0:0:0:0:
356,192,125349,1,0,0:0:0:0:
356,192,125522,1,0,0:0:0:0:
192,112,125824,1,0,0:0:0:0:
156,196,125997,1,0,0:0:0:0:
264,128,126342,1,0,0:0:0:0:
340,304,126515,1,0,0:0:0:0:
132,248,126688,1,0,0:0:0:0:
372,176,126860,1,0,0:0:0:0:
188,120,127162,5,2,0:0:0:0:
136,176,127508,1,2,0:0:0:0:
208,144,127680,1,2,0:0:0:0:
224,200,127853,1,0,0:0:0:0:
340,156,128026,1,0,0:0:0:0:
348,200,128198,1,0,0:0:0:0:
208,128,128544,1,0,0:0:0:0:
168,180,128889,5,0,0:0:0:0:
328,152,129061,1,0,0:0:0:0:
332,152,129148,1,0,0:0:0:0:
328,152,129234,1,0,0:0:0:0:
184,176,129364,1,0,0:0:0:0:
336,144,129536,1,0,0:0:0:0:
224,208,129709,1,0,0:0:0:0:
352,152,129925,1,0,0:0:0:0:
356,152,130011,1,0,0:0:0:0:
356,152,130097,1,0,0:0:0:0:
360,152,130227,5,0,0:0:0:0:
216,176,130400,1,0,0:0:0:0:
344,144,130572,1,0,0:0:0:0:
344,144,130659,1,0,0:0:0:0:
344,144,130745,1,0,0:0:0:0:
224,160,130961,1,0,0:0:0:0:
320,148,131090,1,0,0:0:0:0:
320,148,131176,1,0,0:0:0:0:
320,148,131263,1,0,0:0:0:0:
228,148,131435,1,0,0:0:0:0:
192,56,131608,1,0,0:0:0:0:
124,128,131781,1,0,0:0:0:0:
360,60,131953,1,0,0:0:0:0:
432,164,132126,1,0,0:0:0:0:
216,316,132298,1,0,0:0:0:0:
112,140,132471,1,0,0:0:0:0:
392,104,132644,1,0,0:0:0:0:
288,64,132946,5,0,0:0:0:0:
236,208,133119,1,0,0:0:0:0:
288,64,133291,1,0,0:0:0:0:
236,208,133463,1,0,0:0:0:0:
300,68,133636,1,0,0:0:0:0:
216,200,133809,1,0,0:0:0:0:
368,132,133981,1,0,0:0:0:0:
168,136,134154,1,0,0:0:0:0:
300,244,134327,1,0,0:0:0:0:
368,88,134500,1,0,0:0:0:0:
160,60,135191,5,0,0:0:0:0:
236,56,135363,1,0,0:0:0:0:
284,168,135709,1,0,0:0:0:0:
144,200,136097,1,0,0:0:0:0:
312,172,136399,1,0,0:0:0:0:
128,128,136572,1,0,0:0:0:0:
312,112,136745,1,0,0:0:0:0:
144,128,136917,1,0,0:0:0:0:
352,100,137090,1,0,0:0:0:0:
148,204,137262,1,0,0:0:0:0:
232,56,137435,1,0,0:0:0:0:
280,208,137608,1,0,0:0:0:0:
176,160,137780,1,0,0:0:0:0:
176,160,137867,1,0,0:0:0:0:
176,160,137953,1,0,0:0:0:0:
172,160,138039,1,0,0:0:0:0:
176,160,138126,1,0,0:0:0:0:
252,132,138298,1,0,0:0:0:0:
172,204,138601,5,0,0:0:0:0:
312,192,138773,1,0,0:0:0:0:
148,120,139075,1,0,0:0:0:0:
220,108,139291,1,0,0:0:0:0:
232,108,139421,5,0,0:0:0:0:
164,132,139636,1,0,0:0:0:0:
292,112,139982,1,0,0:0:0:0:
228,184,140154,1,0,0:0:0:0:
192,256,140284,1,0,0:0:0:0:
152,272,140457,1,0,0:0:0:0:
176,136,140802,1,0,0:0:0:0:
384,136,140974,6,0,L|360:224,8,70
384,136,141751,2,0,L|296:116,6,70
228,108,143607,1,0,0:0:0:0:
232,260,143780,1,0,0:0:0:0:
164,208,143910,1,0,0:0:0:0:
260,136,144082,1,0,0:0:0:0:
280,200,144255,1,0,0:0:0:0:
300,128,144428,1,0,0:0:0:0:
400,176,144600,1,0,0:0:0:0:
400,108,144773,1,0,0:0:0:0:
404,216,144945,1,0,0:0:0:0:
184,164,145075,1,0,0:0:0:0:
112,220,145248,1,0,0:0:0:0:
288,156,145420,1,0,0:0:0:0:
156,88,145593,1,0,0:0:0:0:
276,92,145766,1,0,0:0:0:0:
144,180,145938,1,0,0:0:0:0:
344,124,146111,1,0,0:0:0:0:
348,124,146197,1,0,0:0:0:0:
348,124,146284,1,0,0:0:0:0:
156,144,146456,1,0,0:0:0:0:
264,144,146629,1,0,0:0:0:0:
168,136,146801,1,0,0:0:0:0:
168,136,146888,1,0,0:0:0:0:
168,136,146931,1,0,0:0:0:0:
296,132,147104,1,0,0:0:0:0:
100,120,147319,1,0,0:0:0:0:
208,220,147492,1,0,0:0:0:0:
336,68,147665,1,0,0:0:0:0:
416,272,147837,1,0,0:0:0:0:
124,168,148010,1,0,0:0:0:0:
352,80,148140,1,0,0:0:0:0:
344,80,148485,1,0,0:0:0:0:
344,80,148657,1,0,0:0:0:0:
140,112,149003,1,0,0:0:0:0:
172,240,149348,1,0,0:0:0:0:
272,128,149521,1,0,0:0:0:0:
352,188,149823,1,0,0:0:0:0:
168,136,150211,1,0,0:0:0:0:
384,68,150384,1,0,0:0:0:0:
192,212,150686,1,0,0:0:0:0:
444,200,150859,1,0,0:0:0:0:
216,72,151161,1,0,0:0:0:0:
216,248,151549,1,0,0:0:0:0:
396,128,151722,1,0,0:0:0:0:
404,236,152067,1,0,0:0:0:0:
140,112,152283,1,0,0:0:0:0:
172,216,152585,1,0,0:0:0:0:
232,92,152931,1,0,0:0:0:0:
320,292,153103,1,0,0:0:0:0:
128,200,153276,1,0,0:0:0:0:
372,144,153449,1,0,0:0:0:0:
216,336,153621,1,0,0:0:0:0:
348,72,153794,1,0,0:0:0:0:
328,68,153923,1,0,0:0:0:0:
304,64,154010,1,0,0:0:0:0:
276,68,154096,1,0,0:0:0:0:
248,80,154182,1,0,0:0:0:0:
232,108,154269,1,0,0:0:0:0:
236,140,154355,1,0,0:0:0:0:
264,152,154441,1,0,0:0:0:0:
296,136,154528,1,0,0:0:0:0:
432,120,154657,5,0,0:0:0:0:
328,232,154830,1,0,0:0:0:0:
132,124,155002,1,0,0:0:0:0:
400,56,155175,1,0,0:0:0:0:
324,128,155348,1,0,0:0:0:0:
252,200,155521,1,0,0:0:0:0:
168,148,155694,1,0,0:0:0:0:
328,176,155866,1,0,0:0:0:0:
168,236,156039,1,0,0:0:0:0:
260,124,156210,1,0,0:0:0:0:
352,276,156383,1,0,0:0:0:0:
84,176,156556,1,0,0:0:0:0:
264,96,156728,1,0,0:0:0:0:
176,280,156901,1,0,0:0:0:0:
256,112,157074,1,0,0:0:0:0:
380,284,157246,1,0,0:0:0:0:
128,148,157420,1,0,0:0:0:0:
320,136,157593,1,0,0:0:0:0:
180,264,157765,1,0,0:0:0:0:
232,92,157938,1,0,0:0:0:0:
304,264,158111,1,0,0:0:0:0:
72,180,158283,1,0,0:0:0:0:
276,116,158456,1,0,0:0:0:0:
152,260,158629,1,0,0:0:0:0:
324,228,158801,1,0,0:0:0:0:
148,108,158974,1,0,0:0:0:0:
296,172,159146,1,0,0:0:0:0:
124,232,159319,1,0,0:0:0:0:
272,80,159535,1,0,0:0:0:0:
472,284,159707,1,8,0:0:0:0:
136,76,159880,1,0,0:0:0:0:
136,76,159923,1,0,0:0:0:0:
280,76,160225,1,0,0:0:0:0:
296,76,160268,1,0,0:0:0:0:
196,136,160570,1,0,0:0:0:0:
196,136,160614,1,0,0:0:0:0:
384,188,160873,1,0,0:0:0:0:
384,188,160916,1,0,0:0:0:0:
272,296,161218,1,0,0:0:0:0:
272,296,161261,1,0,0:0:0:0:
312,152,161562,1,0,0:0:0:0:
316,152,161606,1,0,0:0:0:0:
168,160,161909,1,0,0:0:0:0:
168,160,161952,1,0,0:0:0:0:
272,164,162254,1,0,0:0:0:0:
280,164,162297,1,0,0:0:0:0:
152,112,162642,1,0,0:0:0:0:
324,64,162988,1,0,0:0:0:0:
376,52,163290,1,0,0:0:0:0:
376,52,163462,1,0,0:0:0:0:
376,52,163635,1,0,0:0:0:0:
168,100,163980,1,0,0:0:0:0:
192,216,164326,1,0,0:0:0:0:
296,120,164714,1,0,0:0:0:0:
380,208,164844,1,0,0:0:0:0:
64,152,165059,1,0,0:0:0:0:
264,60,165362,5,0,0:0:0:0:
228,284,165534,1,0,0:0:0:0:
304,84,165707,1,0,0:0:0:0:
184,256,165880,1,0,0:0:0:0:
340,132,166052,1,0,0:0:0:0:
144,216,166225,1,0,0:0:0:0:
340,192,166397,1,0,0:0:0:0:
148,160,166570,1,0,0:0:0:0:
308,248,166743,1,0,0:0:0:0:
184,104,166915,1,0,0:0:0:0:
240,324,167088,1,0,0:0:0:0:
320,88,167261,1,0,0:0:0:0:
172,312,167433,1,0,0:0:0:0:
380,128,167606,1,0,0:0:0:0:
112,272,167779,1,0,0:0:0:0:
392,64,167951,1,0,0:0:0:0:
