osu file format v14

[General]
AudioFilename: audio.mp3
AudioLeadIn: 0
PreviewTime: 47231
Countdown: 0
SampleSet: Soft
StackLeniency: 0.5
Mode: 0
LetterboxInBreaks: 0
WidescreenStoryboard: 1

[Editor]
Bookmarks: 1351,7105,12901,18740,26380,31579,36797,42014,47231,52449,57666,62884,81168,83818,88872
DistanceSpacing: 1
BeatDivisor: 4
GridSize: 4
TimelineZoom: 2.2

[Metadata]
Title:Zoetrope
TitleUnicode:Zoetrope
Artist:Otonashi Diva
ArtistUnicode:Otonashi Diva
Creator:eiri-
Version:Rensia's Easy
Source:AMNESIA
Tags:Ayyri Alexsander Maot SrSkyPlayer Rensia Faito Enerugi Anime アムネシア Portuguese Portugues Cover yanaginagi やなぎなぎ TV Size Opening Nato Vieira
BeatmapID:2479399
BeatmapSetID:1189933

[Difficulty]
HPDrainRate:3
CircleSize:2.5
OverallDifficulty:3
ApproachRate:4
SliderMultiplier:0.9
SliderTickRate:1

[Events]
//Background and Video events
0,0,"Zoetrope.jpg",0,0
//Break Periods
//Storyboard Layer 0 (Background)
//Storyboard Layer 1 (Fail)
//Storyboard Layer 2 (Pass)
//Storyboard Layer 3 (Foreground)
//Storyboard Layer 4 (Overlay)
//Storyboard Sound Samples

[TimingPoints]
1010,722.89156626506,4,2,1,50,1,0
1351,722.89156626506,4,2,1,50,1,0
1351,-50,4,2,1,50,0,0
2435,697.674418604651,4,2,1,50,1,0
2435,-51.2820512820513,4,2,1,50,0,0
3132,731.707317073171,4,2,1,50,1,0
3132,-48.5436893203883,4,2,1,50,0,0
3863,697.674418604651,4,2,1,50,1,0
3863,-51.5463917525773,4,2,1,50,0,0
4211,789.473684210526,4,2,1,50,1,0
4211,-50,4,2,1,50,0,0
4700,722.89156626506,4,2,1,50,1,0
4700,-50,4,2,1,50,0,0
6733,722.89156626506,4,2,1,50,1,0
6733,-50,4,2,1,50,0,0
7105,722.89156626506,4,2,1,50,1,0
7105,-50,4,2,1,50,0,0
8502,722.89156626506,4,2,1,50,1,0
8502,-50,4,2,1,50,0,0
10506,722.89156626506,4,2,1,50,1,0
10732,722.89156626506,4,2,1,50,1,0
10732,-50,4,2,1,50,0,0
12901,722.89156626506,4,2,1,50,1,0
12901,-50,4,2,1,50,0,0
16831,722.89156626506,4,2,1,50,1,0
17057,722.89156626506,4,2,1,50,1,0
17961,769.230769230769,4,2,1,50,1,0
18345,631.578947368421,4,2,1,50,1,0
18345,-55.5555555555556,4,2,1,50,0,0
18515,631.578947368421,4,2,1,50,1,0
18740,714.285714285714,4,2,1,50,1,0
18740,-47.6190476190476,4,2,1,50,0,0
20034,714.285714285714,4,2,1,50,1,0
20238,722.89156626506,4,2,1,50,1,0
20238,-50,4,2,1,50,0,0
20960,800,4,2,1,50,1,0
20960,-47.39336492891,4,2,1,50,0,0
21360,722.89156626506,4,2,1,50,1,0
21360,-50,4,2,1,50,0,0
22225,692.04152249135,4,2,1,50,1,0
26380,326.086956521739,4,2,1,75,1,0
28485,326.086956521739,4,2,1,75,1,0
28971,326.086956521739,4,2,1,75,1,0
36797,-100,4,2,1,75,0,0
57666,337.078651685393,4,2,1,50,1,0
58997,324.324324324324,4,2,1,50,1,0
60291,315.789473684211,4,2,1,75,1,0
61270,315.789473684211,4,2,1,75,1,0
62208,333.333333333333,4,2,1,75,1,0
62884,326.086956521739,4,2,1,80,1,1
81168,320.855614973262,4,2,1,80,1,0
83093,375,4,2,1,80,1,0
83093,-102.040816326531,4,2,1,80,0,0
83297,375,4,2,1,80,1,0
83475,342.857142857143,4,2,1,80,1,0
83818,326.086956521739,4,2,1,90,1,1
88872,-86.9565217391304,4,2,1,90,0,0

[Colours]
Combo1 : 241,97,140
Combo2 : 119,180,247
Combo3 : 247,179,111
Combo4 : 113,236,150

[HitObjects]
164,8,1010,5,2,0:0:0:0:
224,72,1351,2,0,P|284:74|387:62,2,135,10|2|0,0:0|0:0|0:0,0:0:0:0:
164,8,2783,2,0,P|140:52|152:128,1,87.7500003347397,2|2,0:0|0:0,0:0:0:0:
192,164,3497,1,2,0:0:0:0:
248,236,3863,2,0,P|264:284|248:356,1,86.8499979127694,2|2,0:0|0:0,0:0:0:0:
144,356,4700,2,0,B|320:284|320:428|520:356,1,360,2|0,0:0|0:0,0:0:0:0:
492,220,6733,5,10,0:0:0:0:
440,143,7105,2,0,P|352:151|272:151,2,135,10|2|2,0:0|0:0|0:0,0:0:0:0:
500,76,8502,1,2,0:0:0:0:
444,4,8863,1,2,0:0:0:0:
356,20,9224,2,0,P|287:17|248:24,1,90,2|0,0:0|0:0,0:0:0:0:
180,47,9947,1,2,0:0:0:0:
36,26,10732,2,0,B|48:126|48:126|13:184|13:184|27:284,1,270,2|0,0:0|0:0,0:0:0:0:
176,376,12539,5,10,0:0:0:0:
252,328,12901,2,0,L|396:320,2,135,10|2|2,0:0|0:0|0:0,0:0:0:0:
212,248,14346,2,0,L|207:158,1,90,2|2,0:0|0:0,0:0:0:0:
264,88,15069,1,2,0:0:0:0:
344,128,15431,1,2,0:0:0:0:
420,80,15792,2,0,P|432:132|420:184,1,90,2|0,0:0|0:0,0:0:0:0:
352,216,16515,2,0,P|340:259|368:360,2,135,2|2|0,0:0|0:0|0:0,0:0:0:0:
164,240,18345,5,10,0:0:0:0:
201,144,18740,2,0,P|201:56|193:-8,2,141.749995674133,10|2|2,0:0|0:0|0:0,0:0:0:0:
292,200,20238,1,2,0:0:0:0:
368,156,20599,1,0,0:0:0:0:
448,192,20960,2,0,P|456:152|428:88,1,94.9500019559098,2|0,0:0|0:0,0:0:0:0:
372,40,21721,1,2,0:0:0:0:
256,192,22225,12,0,24993,0:0:0:0:
28,56,26380,6,0,L|210:63,1,180,14|2,0:0|1:2,0:0:0:0:
344,56,27521,2,0,P|349:101|344:157,1,90,10|0,0:0|1:0,0:0:0:0:
231,217,28336,1,2,1:2:0:0:
312,372,28971,6,0,L|414:376,1,90,14|10,0:0|0:0,0:0:0:0:
476,320,29623,2,0,L|484:168,1,135,0|10,1:0|0:0,0:0:0:0:
424,116,30438,1,2,1:2:0:0:
304,176,30927,1,2,1:2:0:0:
240,112,31253,1,2,1:2:0:0:
308,56,31579,6,0,B|244:64|244:64|196:48|196:48|100:56,1,180,14|2,0:0|1:2,0:0:0:0:
24,96,32720,2,0,L|16:192,1,90,10|0,0:0|1:0,0:0:0:0:
152,192,33536,2,0,L|160:282,1,90,2|0,1:2|0:0,0:0:0:0:
236,328,34188,6,0,P|296:319|344:323,1,90,14|10,0:0|0:0,0:0:0:0:
400,272,34840,2,0,P|388:192|394:130,1,135,0|10,1:0|0:0,0:0:0:0:
456,76,35655,2,0,P|374:87|311:81,1,135,2|2,1:2|1:2,0:0:0:0:
248,28,36471,1,2,1:2:0:0:
168,72,36797,5,14,0:0:0:0:
92,24,37122,1,2,0:0:0:0:
28,88,37448,2,0,L|36:236,2,135,2|2|10,1:2|1:2|0:0,0:0:0:0:
92,24,38753,1,2,1:2:0:0:
168,72,39079,1,2,1:2:0:0:
248,28,39405,6,0,L|368:36,1,90,10|10,0:0|0:0,0:0:0:0:
372,116,40057,2,0,L|515:106,2,135,2|10|10,1:2|0:0|0:0,0:0:0:0:
324,192,41362,1,2,1:2:0:0:
364,272,41688,1,2,1:2:0:0:
308,344,42014,6,0,P|252:360|212:360,1,90,14|2,0:0|0:0,0:0:0:0:
248,274,42666,2,0,P|168:252|111:252,2,135,2|10|10,1:2|0:0|0:0,0:0:0:0:
308,344,43970,1,2,1:2:0:0:
388,304,44297,1,2,1:2:0:0:
472,332,44622,6,0,P|480:268|480:220,1,90,14|10,0:0|0:0,0:0:0:0:
400,196,45275,2,0,P|392:132|392:84,1,90,2|10,1:2|0:0,0:0:0:0:
464,52,45927,2,0,P|376:63|288:44,1,180,10|2,0:0|1:2,0:0:0:0:
108,0,47231,6,0,L|101:89,1,90,14|10,0:0|0:0,0:0:0:0:
40,156,47883,1,10,0:0:0:0:
64,336,48536,2,0,L|154:342,1,90,10|10,0:0|0:0,0:0:0:0:
184,256,49188,2,0,L|274:250,1,90,10|10,0:0|0:0,0:0:0:0:
352,204,49840,6,0,P|359:159|358:114,1,90,14|10,0:0|0:0,0:0:0:0:
312,36,50492,1,10,0:0:0:0:
488,56,51144,2,0,P|480:100|481:145,1,90,10|10,0:0|0:0,0:0:0:0:
416,208,51797,2,0,P|423:252|422:297,1,90,10|10,0:0|0:0,0:0:0:0:
344,340,52448,5,14,0:0:0:0:
268,296,52775,2,0,L|156:292,1,90,10|10,0:0|0:0,0:0:0:0:
112,128,53753,1,10,0:0:0:0:
176,68,54079,2,0,L|277:71,1,90,10|10,0:0|0:0,0:0:0:0:
344,116,54731,1,6,1:2:0:0:
428,84,55057,6,0,P|429:166|422:232,1,135,6|6,1:2|1:2,0:0:0:0:
316,300,56036,1,6,1:2:0:0:
248,244,56362,2,0,L|148:240,1,90,6|6,1:2|1:2,0:0:0:0:
96,308,57014,2,0,P|109:220|103:127,1,180,6|14,1:2|0:0,0:0:0:0:
416,56,60291,6,0,P|422:128|409:194,1,135,14|14,0:0|0:0,0:0:0:0:
292,252,61270,2,0,P|284:172|299:100,1,135,14|14,0:0|0:0,0:0:0:0:
212,24,62208,1,2,1:2:0:0:
124,40,62541,1,2,1:2:0:0:
40,0,62884,6,0,P|32:56|32:120,1,90,14|2,0:0|1:2,0:0:0:0:
108,136,63536,2,0,P|117:203|117:280,1,135,10|10,0:0|0:0,0:0:0:0:
68,344,64352,1,10,0:0:0:0:
154,367,64678,2,0,P|207:367|261:375,1,90,10|2,0:0|1:2,0:0:0:0:
359,302,65493,6,0,P|359:210|372:119,1,180,14|8,0:0|0:0,0:0:0:0:
423,49,66471,1,2,1:2:0:0:
344,8,66797,2,0,L|200:16,1,135,10|10,0:0|0:0,0:0:0:0:
151,84,67612,1,10,0:0:0:0:
24,40,68101,6,0,B|30:110|30:110|17:148|17:148|23:216,1,180,14|8,0:0|0:0,0:0:0:0:
84,284,69080,1,2,1:2:0:0:
172,260,69406,2,0,L|332:268,1,135,10|8,0:0|0:0,0:0:0:0:
376,324,70221,1,10,0:0:0:0:
464,220,70710,6,0,L|469:108,1,90,6|2,1:2|1:2,0:0:0:0:
408,64,71362,1,2,1:2:0:0:
324,92,71689,1,2,1:2:0:0:
252,40,72014,2,0,L|113:36,1,135,2|8,1:2|0:0,0:0:0:0:
52,100,72830,1,10,0:0:0:0:
116,220,73319,6,0,L|240:224,1,90,14|2,0:0|1:2,0:0:0:0:
280,172,73971,2,0,L|416:167,1,135,10|10,0:0|0:0,0:0:0:0:
476,232,74786,1,10,0:0:0:0:
436,312,75112,2,0,L|326:308,1,90,10|10,0:0|0:0,0:0:0:0:
220,364,75928,6,0,L|29:370,1,180,14|10,0:0|0:0,0:0:0:0:
0,288,76906,1,2,1:2:0:0:
48,212,77232,2,0,P|112:212|208:196,1,135,10|8,0:0|0:0,0:0:0:0:
248,140,78047,1,10,0:0:0:0:
344,44,78536,6,0,P|390:37|437:37,1,90,14|2,0:0|1:2,0:0:0:0:
492,108,79189,1,10,0:0:0:0:
452,188,79515,1,0,1:0:0:0:
472,276,79841,2,0,L|312:284,2,135,10|8|2,0:0|0:0|1:2,0:0:0:0:
496,372,81168,6,0,L|336:380,1,135,14|2,0:0|1:2,0:0:0:0:
276,352,81969,1,10,0:0:0:0:
196,312,82290,2,0,P|140:304|92:312,1,90,6|6,1:2|1:2,0:0:0:0:
28,348,82932,1,6,1:2:0:0:
0,264,83297,1,10,0:0:0:0:
64,136,83818,6,0,L|209:124,2,135,6|0|2,1:2|1:0|1:2,0:0:0:0:
24,216,85122,2,0,B|30:260|30:260|24:312|24:312|32:357,2,135,6|0|2,1:2|1:0|1:2,0:0:0:0:
64,136,86426,6,0,P|128:128|232:144,2,135,6|6|6,1:2|1:2|1:2,0:0:0:0:
68,44,87731,2,0,P|136:37|202:45,1,135,6|6,1:2|1:2,0:0:0:0:
280,92,88546,2,0,P|335:98|388:92,1,90,6|6,1:2|1:2,0:0:0:0:
