osu file format v14

[General]
AudioFilename: audio.mp3
AudioLeadIn: 0
PreviewTime: 47231
Countdown: 0
SampleSet: Soft
StackLeniency: 0.5
Mode: 0
LetterboxInBreaks: 0
WidescreenStoryboard: 1

[Editor]
Bookmarks: 1351,7105,12901,18740,26380,31579,36797,42014,47231,52449,57666,62884,81168,83818,88872
DistanceSpacing: 1.2
BeatDivisor: 4
GridSize: 32
TimelineZoom: 2.7

[Metadata]
Title:Zoetrope
TitleUnicode:Zoetrope
Artist:Otonashi Diva
ArtistUnicode:Otonashi Diva
Creator:eiri-
Version:Enerugi's Hard
Source:AMNESIA
Tags:Ayyri Alexsander Maot SrSkyPlayer Rensia Faito Enerugi Anime アムネシア Portuguese Portugues Cover yanaginagi やなぎなぎ TV Size Opening Nato Vieira
BeatmapID:2479396
BeatmapSetID:1189933

[Difficulty]
HPDrainRate:4.5
CircleSize:3.5
OverallDifficulty:6
ApproachRate:7.5
SliderMultiplier:1.4
SliderTickRate:1

[Events]
//Background and Video events
0,0,"Zoetrope.jpg",0,0
//Break Periods
//Storyboard Layer 0 (Background)
//Storyboard Layer 1 (Fail)
//Storyboard Layer 2 (Pass)
//Storyboard Layer 3 (Foreground)
//Storyboard Layer 4 (Overlay)
//Storyboard Sound Samples

[TimingPoints]
1010,722.89156626506,4,2,1,50,1,0
1351,722.89156626506,4,2,1,50,1,0
1351,-66.6666666666667,4,2,1,50,0,0
2435,697.674418604651,4,2,1,50,1,0
2435,-66.6666666666667,4,2,1,50,0,0
3132,731.707317073171,4,2,1,50,1,0
3132,-66.6666666666667,4,2,1,50,0,0
3863,697.674418604651,4,2,1,50,1,0
3863,-66.6666666666667,4,2,1,50,0,0
4211,789.473684210526,4,2,1,50,1,0
4211,-66.6666666666667,4,2,1,50,0,0
4700,722.89156626506,4,2,1,50,1,0
4700,-66.6666666666667,4,2,1,50,0,0
6733,722.89156626506,4,2,1,50,1,0
7105,722.89156626506,4,2,1,50,1,0
7105,-66.6666666666667,4,2,1,50,0,0
8502,722.89156626506,4,2,1,50,1,0
8502,-66.6666666666667,4,2,1,50,0,0
10506,722.89156626506,4,2,1,50,1,0
10732,722.89156626506,4,2,1,50,1,0
10732,-66.6666666666667,4,2,1,50,0,0
12901,722.89156626506,4,2,1,50,1,0
12901,-66.6666666666667,4,2,1,50,0,0
16831,722.89156626506,4,2,1,50,1,0
17057,722.89156626506,4,2,1,50,1,0
17057,-66.6666666666667,4,2,1,50,0,0
17961,769.230769230769,4,2,1,50,1,0
18345,631.578947368421,4,2,1,50,1,0
18515,631.578947368421,4,2,1,50,1,0
18740,714.285714285714,4,2,1,50,1,0
18740,-66.6666666666667,4,2,1,50,0,0
20034,714.285714285714,4,2,1,50,1,0
20238,722.89156626506,4,2,1,50,1,0
20238,-66.6666666666667,4,2,1,50,0,0
20960,800,4,2,1,50,1,0
20960,-66.6666666666667,4,2,1,50,0,0
21360,722.89156626506,4,2,1,50,1,0
22225,692.04152249135,4,2,1,50,1,0
26380,326.086956521739,4,2,1,75,1,0
26380,-98.0392156862745,4,2,1,75,0,0
28485,326.086956521739,4,2,1,75,1,0
28971,326.086956521739,4,2,1,75,1,0
28971,-98.0392156862745,4,2,1,75,0,0
36797,-105.263157894737,4,2,1,60,0,0
47231,-111.111111111111,4,2,1,75,0,0
49840,-105.263157894737,4,2,1,75,0,0
52449,-100,4,2,1,75,0,0
57666,337.078651685393,4,2,1,50,1,0
57666,-105.263157894737,4,2,1,50,0,0
58997,324.324324324324,4,2,1,50,1,0
60291,315.789473684211,4,2,1,75,1,0
60291,-105.263157894737,4,2,1,75,0,0
61270,315.789473684211,4,2,1,75,1,0
61270,-105.263157894737,4,2,1,75,0,0
62208,333.333333333333,4,2,1,75,1,0
62208,-105.263157894737,4,2,1,75,0,0
62884,326.086956521739,4,2,1,85,1,1
62884,-89.2857142857143,4,2,1,85,0,1
81168,320.855614973262,4,2,1,85,1,0
83093,375,4,2,1,85,1,0
83093,-105.263157894737,4,2,1,85,0,0
83297,375,4,2,1,85,1,0
83475,342.857142857143,4,2,1,85,1,0
83818,326.086956521739,4,2,1,90,1,1
83818,-90.9090909090909,4,2,1,90,0,1
88872,-86.9565217391304,4,2,1,90,0,0

[Colours]
Combo1 : 241,97,140
Combo2 : 119,180,247
Combo3 : 247,179,111
Combo4 : 113,236,150

[HitObjects]
85,58,1351,6,0,P|143:22|195:32,1,105.000004005432,10|2,0:0|0:0,0:0:0:0:
255,56,1893,2,0,B|337:84|325:15|411:42,1,157.500006008148,2|0,0:0|0:0,0:0:0:0:
476,168,2783,6,0,P|429:190|373:181,1,105.000004005432,2|2,0:0|0:0,0:0:0:0:
230,175,3497,2,0,P|272:204|292:256,1,105.000004005432,2|2,0:0|0:0,0:0:0:0:
293,364,4211,1,2,0:0:0:0:
428,272,4700,6,0,P|504:187|288:133,1,420.000016021729,2|0,0:0|0:0,0:0:0:0:
237,328,6733,1,10,0:0:0:0:
106,379,7105,6,0,P|93:326|126:251,1,105.000004005432,10|2,0:0|0:0,0:0:0:0:
152,208,7647,2,0,B|156:151|156:151|136:109|136:109|141:31,1,157.500006008148,2|2,0:0|0:0,0:0:0:0:
273,65,8502,6,0,B|326:72|326:72|375:54,1,105.000004005432,2|2,0:0|0:0,0:0:0:0:
510,22,9224,2,0,B|477:64|477:64|467:116,1,105.000004005432,2|0,0:0|0:0,0:0:0:0:
428,248,9947,2,0,B|408:198|408:198|368:163,1,105.000004005432,2|0,0:0|0:0,0:0:0:0:
287,145,10506,1,2,0:0:0:0:
287,145,10732,6,0,B|209:233|290:332|290:332|237:307|182:335|191:342|134:370|85:336,1,420.000016021729,2|0,0:0|0:0,0:0:0:0:
19,232,12539,1,10,0:0:0:0:
85,112,12901,6,0,P|138:74|211:70,1,105.000004005432,10|2,0:0|0:0,0:0:0:0:
247,22,13443,2,0,B|321:41|321:41|401:29,1,157.500006008148,2|2,0:0|0:0,0:0:0:0:
478,142,14346,2,0,L|363:160,1,105.000004005432,2|2,0:0|0:0,0:0:0:0:
344,291,15069,2,0,L|270:200,1,105.000004005432,2|2,0:0|0:0,0:0:0:0:
147,249,15792,6,0,L|188:140,1,105.000004005432,2|0,0:0|0:0,0:0:0:0:
229,21,16515,1,2,0:0:0:0:
95,46,16831,1,2,0:0:0:0:
95,46,17057,2,0,B|39:98|68:170|77:159|119:230|64:291,1,262.500010013581,2|0,0:0|0:0,0:0:0:0:
146,351,18345,1,10,0:0:0:0:
277,312,18740,6,0,P|325:329|386:318,1,105.000004005432,10|2,0:0|0:0,0:0:0:0:
424,251,19275,2,0,P|414:200|374:153,1,105.000004005432,2|0,0:0|0:0,0:0:0:0:
298,149,19811,1,2,0:0:0:0:
335,20,20238,2,0,L|460:9,1,105.000004005432,2|0,0:0|0:0,0:0:0:0:
231,85,20960,6,0,L|106:96,1,105.000004005432,2|0,0:0|0:0,0:0:0:0:
38,205,21721,1,2,0:0:0:0:
256,192,22225,12,0,25685,0:0:0:0:
402,107,26380,6,0,P|345:60|251:74,1,142.800000871582,14|10,0:0|0:0,0:0:0:0:
211,111,26869,1,10,0:0:0:0:
211,111,27032,2,0,L|110:105,1,71.400000435791,2|10,1:2|0:0,0:0:0:0:
42,247,27521,6,0,L|143:241,1,71.400000435791,10|0,0:0|0:0,0:0:0:0:
170,306,27847,1,2,1:2:0:0:
170,306,28010,2,0,L|271:312,1,71.400000435791,10|10,0:0|0:0,0:0:0:0:
302,250,28336,1,2,1:2:0:0:
358,308,28485,1,10,0:0:0:0:
505,223,28811,1,2,1:2:0:0:
447,159,28971,6,0,B|380:150|380:150|371:157|371:157|303:148,2,142.800000871582,14|10|2,0:0|0:0|1:2,0:0:0:0:
512,105,29785,1,10,0:0:0:0:
350,37,30112,2,0,P|281:28|220:63,1,142.800000871582,10|2,0:0|1:2,0:0:0:0:
174,136,30601,2,0,L|183:224,1,71.400000435791,10|10,0:0|0:0,0:0:0:0:
222,282,30927,2,0,L|213:370,1,71.400000435791,2|8,1:2|0:0,0:0:0:0:
137,373,31253,1,2,1:2:0:0:
137,373,31416,1,2,1:2:0:0:
62,331,31579,6,0,B|54:269|54:269|44:255|44:255|36:190,1,142.800000871582,14|10,0:0|0:0,0:0:0:0:
24,107,32068,1,10,0:0:0:0:
104,133,32231,2,0,P|140:135|175:124,1,71.400000435791,2|10,1:2|0:0,0:0:0:0:
290,8,32720,6,0,P|289:43|299:78,1,71.400000435791,10|0,0:0|0:0,0:0:0:0:
344,150,33046,1,2,1:2:0:0:
344,150,33209,2,0,L|445:156,1,71.400000435791,10|10,0:0|0:0,0:0:0:0:
475,214,33535,1,2,1:2:0:0:
418,278,33698,1,10,0:0:0:0:
266,357,34024,5,2,1:2:0:0:
219,284,34188,2,0,B|201:249|215:216|215:216|233:175|212:146,2,142.800000871582,14|10|2,0:0|0:0|1:2,0:0:0:0:
304,280,35002,1,10,0:0:0:0:
290,108,35329,2,0,P|236:64|150:87,1,142.800000871582,10|2,0:0|1:2,0:0:0:0:
90,110,35818,2,0,B|87:149|87:149|100:178,1,71.400000435791,10|10,0:0|0:0,0:0:0:0:
78,260,36144,2,0,B|117:263|117:263|146:249,1,71.400000435791,2|10,1:2|0:0,0:0:0:0:
226,214,36470,1,2,1:2:0:0:
226,214,36633,1,2,1:2:0:0:
311,240,36797,6,0,B|355:252|355:252|457:221,1,132.999996448517,14|2,0:0|0:0,0:0:0:0:
477,157,37285,1,10,0:0:0:0:
477,157,37448,2,0,P|478:113|463:75,1,66.4999982242585,2|10,1:2|0:0,0:0:0:0:
416,31,37775,1,2,0:0:0:0:
353,82,37938,2,0,P|288:109|210:74,1,132.999996448517,2|2,1:2|1:2,0:0:0:0:
162,48,38427,1,10,0:0:0:0:
36,150,38753,2,0,B|33:202|33:202|46:231|46:231|43:280,1,132.999996448517,2|2,1:2|1:2,0:0:0:0:
40,361,39242,1,8,0:0:0:0:
113,326,39405,6,0,L|256:316,1,132.999996448517,10|10,0:0|0:0,0:0:0:0:
324,352,39894,1,10,0:0:0:0:
324,352,40057,2,0,L|395:356,1,66.4999982242585,2|10,1:2|0:0,0:0:0:0:
445,297,40383,1,2,0:0:0:0:
378,249,40546,2,0,P|341:190|365:109,1,132.999996448517,2|2,1:2|1:2,0:0:0:0:
383,56,41035,2,0,B|310:34|317:84|246:51,2,132.999996448517,10|2|2,0:0|1:2|1:2,0:0:0:0:
432,120,41851,1,8,0:0:0:0:
511,101,42014,6,0,L|498:252,1,132.999996448517,14|2,0:0|0:0,0:0:0:0:
486,313,42503,1,10,0:0:0:0:
486,313,42666,2,0,P|431:334|398:333,1,66.4999982242585,2|10,1:2|0:0,0:0:0:0:
343,344,42992,1,2,0:0:0:0:
287,285,43155,2,0,P|238:246|151:274,1,132.999996448517,10|2,0:0|1:2,0:0:0:0:
216,324,43644,1,10,0:0:0:0:
364,264,43970,2,0,B|382:220|382:220|365:129,1,132.999996448517,2|2,1:2|1:2,0:0:0:0:
344,57,44459,1,8,0:0:0:0:
283,110,44622,6,0,P|245:122|203:120,1,66.4999982242585,14|0,0:0|0:0,0:0:0:0:
134,104,44948,2,0,P|146:142|144:184,1,66.4999982242585,10|8,0:0|0:0,0:0:0:0:
128,253,45275,2,0,P|166:241|208:243,1,66.4999982242585,2|8,1:2|0:0,0:0:0:0:
277,259,45601,2,0,P|265:221|267:179,1,66.4999982242585,10|2,0:0|1:2,0:0:0:0:
341,168,45927,2,0,B|373:179|407:167|404:163|433:145|472:160,1,132.999996448517,10|10,0:0|0:0,0:0:0:0:
511,229,46416,1,8,0:0:0:0:
478,303,46579,2,0,P|448:317|407:313,1,66.4999982242585,2|2,1:2|1:2,0:0:0:0:
334,320,46905,1,2,1:2:0:0:
269,270,47068,1,2,1:2:0:0:
214,335,47231,6,0,B|163:340|163:340|145:329|145:329|87:334,2,125.999996154785,14|10|10,0:0|0:0|0:0,0:0:0:0:
343,242,48209,1,8,0:0:0:0:
207,169,48535,2,0,B|156:164|156:164|138:175|138:175|80:170,2,125.999996154785,10|10|10,0:0|0:0|0:0,0:0:0:0:
343,242,49514,1,10,0:0:0:0:
337,90,49840,6,0,P|368:47|469:38,2,132.999996448517,14|10|10,0:0|0:0|0:0,0:0:0:0:
343,242,50818,1,10,0:0:0:0:
204,261,51144,2,0,P|146:292|123:353,2,132.999996448517,10|10|10,0:0|0:0|0:0,0:0:0:0:
343,242,52122,1,10,0:0:0:0:
214,129,52449,6,0,L|98:29,1,140,14|10,0:0|0:0,0:0:0:0:
60,108,52938,1,0,0:0:0:0:
60,108,53101,2,0,L|113:153,1,70,10|0,0:0|0:0,0:0:0:0:
169,217,53427,2,0,P|131:236|102:236,1,70,10|2,0:0|0:0,0:0:0:0:
93,321,53753,6,0,P|128:344|142:369,1,70,8|2,0:0|0:0,0:0:0:0:
222,335,54079,2,0,P|224:292|239:267,1,70,8|2,0:0|0:0,0:0:0:0:
320,248,54405,2,0,P|355:271|369:296,1,70,8|2,0:0|0:0,0:0:0:0:
308,354,54731,1,6,1:2:0:0:
260,190,55057,6,0,L|243:129,5,35,6|10|10|10|10|10,1:2|0:0|0:0|0:0|0:0|0:0,0:0:0:0:
222,123,55546,2,0,L|239:62,5,35,6|10|10|10|10|10,1:2|0:0|0:0|0:0|0:0|0:0,0:0:0:0:
213,50,56035,2,0,B|178:41|178:41|144:44,1,70,6|0,1:2|0:0,0:0:0:0:
55,2,56361,6,0,B|46:37|46:37|49:70,1,70,6|10,1:2|0:0,0:0:0:0:
7,160,56688,2,0,B|42:169|42:169|75:165,1,70,6|10,1:2|0:0,0:0:0:0:
170,139,57014,1,6,1:2:0:0:
146,234,57177,2,0,L|144:283,5,35,10|10|10|10|10|10,0:0|0:0|0:0|0:0|0:0|0:0,0:0:0:0:
159,302,57666,5,14,0:0:0:0:
256,192,57834,12,2,59645,0:0:0:0:
174,231,60291,6,0,B|182:267|182:267|173:300,2,66.4999982242585,14|14|14,0:0|0:0|0:0,0:0:0:0:
140,144,60764,1,14,0:0:0:0:
338,231,61270,6,0,B|330:267|330:267|339:300,2,66.4999982242585,14|14|14,0:0|0:0|0:0,0:0:0:0:
372,144,61743,1,14,0:0:0:0:
256,64,62208,6,0,L|256:0,2,33.2499991121292,2|2|10,1:2|1:2|0:0,0:0:0:0:
256,160,62541,1,2,1:2:0:0:
256,330,62884,6,0,P|206:314|171:322,1,78.4000009570313,14|10,0:0|0:0,0:0:0:0:
105,367,63210,2,0,P|66:369|30:354,1,78.4000009570313,2|2,1:2|0:0,0:0:0:0:
81,280,63536,2,0,B|92:236|92:236|69:115,1,156.800001914063,10|2,0:0|1:2,0:0:0:0:
26,47,64025,6,0,P|75:35|163:125,1,156.800001914063,10|10,0:0|0:0,0:0:0:0:
187,177,64514,1,2,1:2:0:0:
187,177,64677,2,0,P|221:156|271:146,1,78.4000009570313,10|0,0:0|0:0,0:0:0:0:
321,83,65003,2,0,P|342:117|352:167,1,78.4000009570313,10|2,0:0|1:2,0:0:0:0:
364,243,65329,1,10,0:0:0:0:
296,304,65492,6,0,B|215:332|228:272|138:303,1,156.800001914063,14|2,0:0|1:2,0:0:0:0:
20,204,66144,2,0,P|63:196|106:155,1,78.4000009570313,10|10,0:0|0:0,0:0:0:0:
157,115,66470,1,2,1:2:0:0:
157,115,66633,1,2,0:0:0:0:
101,43,66796,6,0,B|153:27|153:27|199:34|199:34|256:16,1,156.800001914063,10|2,0:0|1:2,0:0:0:0:
341,4,67285,2,0,B|329:43|329:43|338:79,1,78.4000009570313,10|0,0:0|0:0,0:0:0:0:
368,164,67611,2,0,B|380:203|380:203|370:239,1,78.4000009570313,10|2,0:0|1:2,0:0:0:0:
325,321,67938,1,2,1:2:0:0:
325,321,68019,1,2,1:2:0:0:
325,321,68101,6,0,P|383:331|460:263,1,156.800001914063,14|2,0:0|1:2,0:0:0:0:
480,187,68590,1,0,0:0:0:0:
480,187,68753,2,0,L|484:98,1,78.4000009570313,10|10,0:0|0:0,0:0:0:0:
421,43,69079,2,0,P|383:32|344:40,1,78.4000009570313,2|8,1:2|0:0,0:0:0:0:
265,80,69405,6,0,P|194:101|105:61,1,156.800001914063,10|2,0:0|1:2,0:0:0:0:
71,150,69894,2,0,P|124:200|134:298,2,156.800001914063,10|10|10,0:0|0:0|0:0,0:0:0:0:
0,100,70709,6,0,B|26:71|26:71|39:27,1,78.4000009570313,6|8,1:2|0:0,0:0:0:0:
121,1,71035,2,0,B|150:27|150:27|194:40,1,78.4000009570313,2|8,1:2|0:0,0:0:0:0:
220,122,71361,2,0,B|194:151|194:151|181:195,1,78.4000009570313,2|8,1:2|0:0,0:0:0:0:
198,282,71688,1,2,1:2:0:0:
198,282,71851,1,8,0:0:0:0:
287,293,72014,6,0,B|325:284|325:284|356:260,2,78.4000009570313,2|10|2,1:2|0:0|1:2,0:0:0:0:
271,204,72503,1,10,0:0:0:0:
271,204,72584,1,10,0:0:0:0:
271,204,72666,2,0,L|314:162,4,39.2000004785156,2|2|10|10|10,1:2|1:2|0:0|0:0|0:0,0:0:0:0:
182,188,73155,1,10,0:0:0:0:
235,115,73318,6,0,P|241:76|230:39,1,78.4000009570313,14|10,0:0|0:0,0:0:0:0:
311,0,73644,2,0,P|340:24|378:33,1,78.4000009570313,2|2,1:2|0:0,0:0:0:0:
468,30,73970,2,0,P|437:60|451:170,1,156.800001914063,10|2,0:0|1:2,0:0:0:0:
495,240,74459,6,0,B|418:248|418:248|416:256|416:256|345:266,1,156.800001914063,10|10,0:0|0:0,0:0:0:0:
274,320,74948,1,2,1:2:0:0:
274,320,75111,2,0,L|196:310,1,78.4000009570313,10|0,0:0|0:0,0:0:0:0:
107,292,75438,2,0,L|154:229,1,78.4000009570313,10|2,0:0|1:2,0:0:0:0:
211,159,75764,1,10,0:0:0:0:
211,159,75845,1,10,0:0:0:0:
211,159,75927,6,0,P|145:138|71:192,2,156.800001914063,14|2|10,0:0|1:2|0:0,0:0:0:0:
283,212,76742,1,10,0:0:0:0:
342,144,76905,2,0,L|348:50,1,78.4000009570313,2|2,1:2|0:0,0:0:0:0:
426,22,77231,6,0,L|436:184,1,156.800001914063,10|2,0:0|1:2,0:0:0:0:
443,268,77720,2,0,B|409:288|409:288|370:288,1,78.4000009570313,10|0,0:0|0:0,0:0:0:0:
302,347,78046,2,0,B|282:313|282:313|282:274,1,78.4000009570313,10|2,0:0|1:2,0:0:0:0:
296,186,78372,1,2,1:2:0:0:
296,186,78454,1,2,1:2:0:0:
296,186,78535,6,0,B|238:181|238:181|195:199|195:199|128:192,1,156.800001914063,14|2,0:0|1:2,0:0:0:0:
45,347,79188,1,10,0:0:0:0:
45,347,79351,2,0,P|75:289|24:199,1,156.800001914063,10|10,0:0|0:0,0:0:0:0:
0,131,79840,6,0,L|85:122,1,78.4000009570313,10|10,0:0|0:0,0:0:0:0:
167,112,80166,1,2,1:2:0:0:
229,46,80329,2,0,P|307:40|354:103,1,156.800001914063,10|10,0:0|0:0,0:0:0:0:
392,182,80818,1,2,1:2:0:0:
392,182,80981,1,10,0:0:0:0:
477,130,81168,6,0,L|471:45,2,70,14|10|10,0:0|0:0|0:0,0:0:0:0:
512,209,81649,2,0,L|507:278,1,70,2|10,1:2|0:0,0:0:0:0:
451,343,81970,1,10,0:0:0:0:
387,287,82130,1,10,0:0:0:0:
325,344,82290,6,0,B|261:349|261:349|254:343|254:343|188:349,1,140,6|6,1:2|1:2,0:0:0:0:
107,322,82772,2,0,P|94:289|105:247,1,70,8|6,0:0|1:2,0:0:0:0:
139,181,83093,1,10,0:0:0:0:
227,246,83297,1,10,0:0:0:0:
227,246,83390,1,10,0:0:0:0:
227,246,83475,1,6,1:2:0:0:
297,196,83646,1,10,0:0:0:0:
381,248,83818,6,0,P|393:192|372:145,1,77.0000023498536,6|10,1:2|0:0,0:0:0:0:
436,94,84144,2,0,P|380:82|333:103,1,77.0000023498536,2|10,1:2|0:0,0:0:0:0:
282,42,84470,2,0,P|270:98|291:145,1,77.0000023498536,0|10,1:0|0:0,0:0:0:0:
301,200,84796,1,2,1:2:0:0:
301,200,84959,1,10,0:0:0:0:
277,289,85122,6,0,B|241:302|241:302|203:297,1,77.0000023498536,6|10,1:2|0:0,0:0:0:0:
122,343,85448,2,0,B|109:307|109:307|114:269,1,77.0000023498536,2|10,1:2|0:0,0:0:0:0:
70,188,85774,2,0,B|106:175|106:175|144:180,1,77.0000023498536,0|10,1:0|0:0,0:0:0:0:
230,208,86100,1,2,1:2:0:0:
230,208,86263,1,10,0:0:0:0:
208,118,86426,6,0,L|212:68,5,38.5000011749268,6|2|10|10|10|10,1:2|1:2|0:0|0:0|0:0|0:0,0:0:0:0:
240,43,86915,2,0,L|290:39,5,38.5000011749268,6|2|10|10|10|10,1:2|1:2|0:0|0:0|0:0|0:0,0:0:0:0:
320,58,87404,1,6,1:2:0:0:
425,201,87731,6,0,L|429:251,5,38.5000011749268,6|2|10|10|10|10,1:2|1:2|0:0|0:0|0:0|0:0,0:0:0:0:
396,272,88220,2,0,L|392:322,3,38.5000011749268,6|2|10|10,1:2|1:2|0:0|0:0,0:0:0:0:
362,345,88546,2,0,P|324:349|287:337,1,77.0000023498536,6|6,1:2|1:2,0:0:0:0:
202,291,88872,1,6,1:2:0:0:
