osu file format v14

[General]
AudioFilename: audio.mp3
AudioLeadIn: 0
PreviewTime: 47231
Countdown: 0
SampleSet: Soft
StackLeniency: 0.5
Mode: 0
LetterboxInBreaks: 0
WidescreenStoryboard: 1

[Editor]
Bookmarks: 1351,7105,12901,18740,26380,31579,36797,42014,47231,52449,57666,62884,81168,83818,88872
DistanceSpacing: 1.1
BeatDivisor: 4
GridSize: 32
TimelineZoom: 1.8

[Metadata]
Title:Zoetrope
TitleUnicode:Zoetrope
Artist:Otonashi Diva
ArtistUnicode:Otonashi Diva
Creator:eiri-
Version:Alex's Normal
Source:AMNESIA
Tags:Ayyri Alexsander Maot SrSkyPlayer Rensia Faito Enerugi Anime アムネシア Portuguese Portugues Cover yanaginagi やなぎなぎ TV Size Opening Nato Vieira
BeatmapID:2479394
BeatmapSetID:1189933

[Difficulty]
HPDrainRate:4
CircleSize:3.6
OverallDifficulty:4
ApproachRate:5.5
SliderMultiplier:1.2
SliderTickRate:1

[Events]
//Background and Video events
0,0,"Zoetrope.jpg",0,0
//Break Periods
//Storyboard Layer 0 (Background)
//Storyboard Layer 1 (Fail)
//Storyboard Layer 2 (Pass)
//Storyboard Layer 3 (Foreground)
//Storyboard Layer 4 (Overlay)
//Storyboard Sound Samples

[TimingPoints]
1010,722.89156626506,4,2,1,50,1,0
1351,722.89156626506,4,2,1,50,1,0
1351,-55.5555555555556,4,2,1,50,0,0
2435,697.674418604651,4,2,1,50,1,0
2435,-55.5555555555556,4,2,1,50,0,0
3132,731.707317073171,4,2,1,50,1,0
3132,-55.5555555555556,4,2,1,50,0,0
3863,697.674418604651,4,2,1,50,1,0
4211,789.473684210526,4,2,1,50,1,0
4700,722.89156626506,4,2,1,50,1,0
4700,-62.5,4,2,1,50,0,0
6733,722.89156626506,4,2,1,50,1,0
7105,722.89156626506,4,2,1,50,1,0
7105,-55.5555555555556,4,2,1,50,0,0
8502,722.89156626506,4,2,1,50,1,0
8502,-55.5555555555556,4,2,1,50,0,0
10506,722.89156626506,4,2,1,50,1,0
10732,722.89156626506,4,2,1,50,1,0
10732,-62.5,4,2,1,50,0,0
12901,722.89156626506,4,2,1,50,1,0
12901,-55.5555555555556,4,2,1,50,0,0
16515,-48.780487804878,4,2,1,50,0,0
16831,722.89156626506,4,2,1,50,1,0
17057,722.89156626506,4,2,1,50,1,0
17057,-55.5555555555556,4,2,1,50,0,0
17961,769.230769230769,4,2,1,50,1,0
18345,631.578947368421,4,2,1,50,1,0
18515,631.578947368421,4,2,1,50,1,0
18740,714.285714285714,4,2,1,50,1,0
18740,-55.5555555555556,4,2,1,50,0,0
20034,714.285714285714,4,2,1,50,1,0
20238,722.89156626506,4,2,1,50,1,0
20238,-55.5555555555556,4,2,1,50,0,0
20960,800,4,2,1,50,1,0
21360,722.89156626506,4,2,1,50,1,0
21360,-55.5555555555556,4,2,1,50,0,0
22225,692.04152249135,4,2,1,50,1,0
26380,326.086956521739,4,2,1,75,1,0
28336,-92.5925925925926,4,2,1,75,0,0
28485,326.086956521739,4,2,1,75,1,0
28971,326.086956521739,4,2,1,75,1,0
36797,-100,4,2,1,60,0,0
47231,-125,4,2,1,75,0,0
52449,-100,4,2,1,75,0,0
57666,337.078651685393,4,2,1,50,1,0
57666,-125,4,2,1,50,0,0
58997,324.324324324324,4,2,1,50,1,0
58997,-125,4,2,1,50,0,0
60291,315.789473684211,4,2,1,75,1,0
61270,315.789473684211,4,2,1,75,1,0
62208,333.333333333333,4,2,1,75,1,0
62884,326.086956521739,4,2,1,85,1,1
81168,320.855614973262,4,2,1,85,1,0
83093,375,4,2,1,85,1,0
83093,-109.89010989011,4,2,1,85,0,0
83297,375,4,2,1,85,1,0
83475,342.857142857143,4,2,1,85,1,0
83818,326.086956521739,4,2,1,90,1,1
88872,-86.9565217391304,4,2,1,90,0,0

[Colours]
Combo1 : 241,97,140
Combo2 : 119,180,247
Combo3 : 247,179,111
Combo4 : 113,236,150

[HitObjects]
106,157,1351,6,0,P|157:122|212:129,1,107.999996704102,10|2,0:0|0:0,0:0:0:0:
233,144,1893,2,0,B|287:175|287:175|386:140,1,161.999995056153,2|0,0:0|0:0,0:0:0:0:
485,111,2783,2,0,L|466:217,1,107.999996704102,2|2,0:0|0:0,0:0:0:0:
420,318,3497,5,2,0:0:0:0:
331,249,3863,1,2,0:0:0:0:
287,348,4211,1,2,0:0:0:0:
138,257,4700,2,0,B|79:191|79:191|49:88|142:43|142:43|165:106|238:108,1,384,2|0,0:0|0:0,0:0:0:0:
427,114,6733,1,10,0:0:0:0:
364,25,7105,6,0,P|300:7|252:25,1,107.999996704102,10|2,0:0|0:0,0:0:0:0:
231,41,7647,2,0,L|252:205,1,161.999995056153,2|2,0:0|0:0,0:0:0:0:
191,297,8502,1,2,0:0:0:0:
90,268,8863,1,2,0:0:0:0:
98,158,9224,2,0,P|101:101|65:61,1,107.999996704102,2|0,0:0|0:0,0:0:0:0:
162,0,9947,6,0,L|284:26,1,107.999996704102,2|0,0:0|0:0,0:0:0:0:
305,25,10506,1,2,0:0:0:0:
344,22,10732,2,0,B|433:78|404:172|404:172|278:233|359:358,1,384,2|0,0:0|0:0,0:0:0:0:
460,360,12539,1,10,0:0:0:0:
503,258,12901,6,0,L|513:142,1,107.999996704102,10|2,0:0|0:0,0:0:0:0:
500,114,13443,2,0,P|445:135|384:122,1,107.999996704102,2|0,0:0|0:0,0:0:0:0:
367,107,13985,1,2,0:0:0:0:
275,164,14346,1,2,0:0:0:0:
178,119,14708,1,2,0:0:0:0:
103,196,15069,2,0,L|134:309,1,107.999996704102,2|2,0:0|0:0,0:0:0:0:
223,359,15792,6,0,P|275:325|322:328,1,107.999996704102,2|0,0:0|0:0,0:0:0:0:
386,246,16515,2,0,L|357:116,1,107.999996704102,2|2,0:0|0:0,0:0:0:0:
329,158,17057,2,0,P|218:191|149:71,1,269.999991760254,2|0,0:0|0:0,0:0:0:0:
55,135,18345,5,10,0:0:0:0:
89,246,18740,2,0,L|67:353,1,107.999996704102,10|2,0:0|0:0,0:0:0:0:
100,369,19275,2,0,P|162:321|277:353,1,161.999995056153,2|2,0:0|0:0,0:0:0:0:
354,316,20238,6,0,L|367:198,1,107.999996704102,2|0,0:0|0:0,0:0:0:0:
303,134,20960,1,2,0:0:0:0:
209,180,21360,1,0,0:0:0:0:
116,121,21721,2,0,P|152:79|232:76,1,107.999996704102,2|0,0:0|0:0,0:0:0:0:
256,192,22225,12,0,24993,0:0:0:0:
33,354,26380,6,0,L|56:229,1,120,14|10,0:0|0:0,0:0:0:0:
34,199,26869,1,10,0:0:0:0:
24,158,27032,2,0,P|61:166|103:164,1,60,2|10,1:2|0:0,0:0:0:0:
190,154,27521,1,10,0:0:0:0:
268,227,27847,2,0,B|299:186|299:186|287:104,1,120,2|10,1:2|0:0,0:0:0:0:
279,77,28336,2,0,L|356:66,1,60,2|10,1:2|0:0,0:0:0:0:
449,59,28811,1,2,1:2:0:0:
449,59,28971,6,0,L|469:183,1,120,14|10,0:0|0:0,0:0:0:0:
470,285,29623,2,0,L|457:352,1,60,2|10,1:2|0:0,0:0:0:0:
355,375,30112,1,10,0:0:0:0:
338,268,30438,2,0,P|294:241|227:256,1,120,2|10,1:2|0:0,0:0:0:0:
210,291,30927,1,2,1:2:0:0:
153,199,31253,2,0,L|172:132,1,60,2|2,1:2|1:2,0:0:0:0:
200,113,31579,6,0,P|135:121|84:89,1,120,14|10,0:0|0:0,0:0:0:0:
59,65,32068,1,10,0:0:0:0:
24,41,32231,2,0,L|11:107,1,60,2|10,1:2|0:0,0:0:0:0:
58,197,32720,1,10,0:0:0:0:
10,293,33046,2,0,P|45:260|134:261,1,120,2|10,1:2|0:0,0:0:0:0:
143,282,33535,2,0,L|212:270,1,60,2|10,1:2|0:0,0:0:0:0:
279,196,34025,1,2,1:2:0:0:
279,196,34188,6,0,L|254:68,1,120,14|10,0:0|0:0,0:0:0:0:
351,31,34840,2,0,P|388:38|422:32,1,60,2|10,1:2|0:0,0:0:0:0:
505,74,35329,2,0,L|518:143,1,60,10|10,0:0|0:0,0:0:0:0:
505,173,35655,2,0,L|366:165,1,120,2|10,1:2|0:0,0:0:0:0:
358,198,36144,1,2,1:2:0:0:
262,125,36470,2,0,P|226:113|196:115,1,60,2|2,1:2|1:2,0:0:0:0:
165,129,36796,5,14,0:0:0:0:
102,229,37122,2,0,L|116:292,1,60,2|10,0:0|0:0,0:0:0:0:
140,319,37449,2,0,L|220:304,1,60,2|10,1:2|0:0,0:0:0:0:
304,335,37938,1,2,1:2:0:0:
363,245,38264,1,2,1:2:0:0:
363,245,38427,2,0,L|333:117,1,120,10|2,0:0|1:2,0:0:0:0:
300,105,38916,1,8,0:0:0:0:
300,105,39079,1,2,1:2:0:0:
380,30,39405,5,10,0:0:0:0:
478,73,39731,1,10,0:0:0:0:
510,177,40057,2,0,L|505:246,1,60,2|10,1:2|0:0,0:0:0:0:
427,310,40546,1,2,1:2:0:0:
333,257,40872,1,2,1:2:0:0:
333,257,41035,2,0,P|278:238|218:263,1,120,10|2,0:0|1:2,0:0:0:0:
141,330,41688,2,0,P|114:304|103:275,1,60,2|8,1:2|0:0,0:0:0:0:
108,242,42014,6,0,P|124:195|87:125,1,120,14|2,0:0|0:0,0:0:0:0:
64,108,42503,1,10,0:0:0:0:
46,70,42666,2,0,L|120:59,1,60,2|10,1:2|0:0,0:0:0:0:
214,64,43155,1,10,0:0:0:0:
285,148,43481,2,0,L|270:220,1,60,2|10,1:2|0:0,0:0:0:0:
294,313,43970,1,2,1:2:0:0:
390,263,44296,1,2,1:2:0:0:
487,310,44622,6,0,P|512:268|499:195,1,120,14|10,0:0|0:0,0:0:0:0:
413,138,45275,2,0,L|293:156,1,120,2|10,1:2|0:0,0:0:0:0:
254,141,45764,1,2,1:2:0:0:
176,65,46090,2,0,L|46:87,1,120,2|8,1:2|0:0,0:0:0:0:
24,110,46579,2,0,L|42:174,1,60,2|2,1:2|1:2,0:0:0:0:
71,196,46905,2,0,L|58:265,1,60,2|2,1:2|1:2,0:0:0:0:
74,296,47231,5,14,0:0:0:0:
174,263,47557,1,10,0:0:0:0:
259,324,47883,2,0,P|305:332|363:301,1,96,10|8,0:0|0:0,0:0:0:0:
417,231,48535,2,0,L|395:121,1,96,8|10,0:0|0:0,0:0:0:0:
297,107,49188,1,10,0:0:0:0:
215,174,49514,1,10,0:0:0:0:
125,119,49840,6,0,P|108:72|125:20,1,96,14|10,0:0|0:0,0:0:0:0:
162,14,50329,1,2,0:0:0:0:
162,14,50492,2,0,L|263:30,1,96,8|10,0:0|0:0,0:0:0:0:
355,68,51144,1,8,0:0:0:0:
288,149,51470,1,10,0:0:0:0:
379,202,51796,2,0,L|491:179,1,96,10|10,0:0|0:0,0:0:0:0:
435,282,52449,6,0,P|390:323|397:385,1,120,14|10,0:0|0:0,0:0:0:0:
286,375,53101,2,0,L|141:359,1,120,10|10,0:0|0:0,0:0:0:0:
135,343,53590,1,2,0:0:0:0:
135,343,53753,1,8,0:0:0:0:
120,235,54079,2,0,P|152:211|231:209,1,120,8|8,0:0|0:0,0:0:0:0:
338,222,54731,1,6,1:2:0:0:
397,132,55057,6,0,L|371:13,1,120,6|10,1:2|0:0,0:0:0:0:
329,7,55546,2,0,P|294:39|222:41,1,120,6|10,1:2|0:0,0:0:0:0:
185,25,56035,1,6,1:2:0:0:
101,93,56361,2,0,L|64:156,1,60,6|10,1:2|0:0,0:0:0:0:
86,183,56688,2,0,P|123:167|151:163,1,60,6|10,1:2|0:0,0:0:0:0:
183,172,57014,1,6,1:2:0:0:
256,252,57340,1,10,0:0:0:0:
180,328,57666,6,0,B|121:326|121:326|83:355|83:355|31:345|15:296,1,192,14|2,0:0|0:0,0:0:0:0:
71,100,58997,2,0,B|101:66|101:66|132:126|192:139|242:98,1,192,2|2,0:0|0:0,0:0:0:0:
435,66,60291,6,0,L|455:7,2,60,14|14|14,0:0|0:0|0:0,0:0:0:0:
404,93,60764,1,14,0:0:0:0:
263,172,61270,2,0,L|246:112,2,60,14|14|14,0:0|0:0|0:0,0:0:0:0:
292,202,61743,1,14,0:0:0:0:
159,272,62208,6,0,P|176:300|183:335,1,60,2|10,1:2|0:0,0:0:0:0:
159,361,62541,1,2,1:2:0:0:
37,329,62884,6,0,L|15:268,1,60,14|10,0:0|0:0,0:0:0:0:
22,232,63209,2,0,L|34:162,1,60,2|2,1:2|0:0,0:0:0:0:
10,138,63535,2,0,P|62:149|125:99,1,120,10|2,0:0|1:2,0:0:0:0:
130,77,64025,1,10,0:0:0:0:
227,122,64351,1,10,0:0:0:0:
287,32,64677,2,0,P|317:18|402:46,1,120,10|10,0:0|0:0,0:0:0:0:
430,65,65166,2,0,L|438:142,1,60,2|10,1:2|0:0,0:0:0:0:
464,155,65492,6,0,L|446:287,1,120,14|2,0:0|1:2,0:0:0:0:
341,254,66144,2,0,L|347:190,2,60,10|10|2,0:0|0:0|1:2,0:0:0:0:
332,361,66796,2,0,P|377:327|448:334,1,120,10|2,0:0|1:2,0:0:0:0:
476,346,67285,1,10,0:0:0:0:
500,240,67611,1,10,0:0:0:0:
435,153,67938,6,0,P|390:164|317:135,1,120,2|0,1:2|0:0,0:0:0:0:
305,101,68427,1,2,1:2:0:0:
218,167,68753,2,0,P|207:203|214:240,2,60,10|10|2,0:0|0:0|1:2,0:0:0:0:
180,65,69405,2,0,L|61:72,1,120,10|2,0:0|1:2,0:0:0:0:
31,102,69894,1,10,0:0:0:0:
123,158,70220,1,10,0:0:0:0:
40,226,70546,1,10,0:0:0:0:
40,226,70709,6,0,L|54:288,1,60,6|8,1:2|0:0,0:0:0:0:
75,321,71035,2,0,L|106:383,1,60,2|8,1:2|0:0,0:0:0:0:
143,379,71361,1,2,1:2:0:0:
211,295,71688,1,2,1:2:0:0:
304,348,72014,2,0,P|347:351|413:297,1,120,2|2,1:2|1:2,0:0:0:0:
421,268,72503,2,0,L|404:200,1,60,10|2,0:0|1:2,0:0:0:0:
370,187,72829,1,10,0:0:0:0:
370,187,72992,1,10,0:0:0:0:
264,202,73318,6,0,P|248:171|243:138,1,60,14|10,0:0|0:0,0:0:0:0:
265,110,73644,2,0,P|281:79|286:46,1,60,2|2,1:2|0:0,0:0:0:0:
271,14,73970,2,0,L|406:16,1,120,10|2,0:0|1:2,0:0:0:0:
430,31,74460,1,10,0:0:0:0:
512,102,74786,1,10,0:0:0:0:
421,160,75112,2,0,P|407:190|435:275,1,120,10|10,0:0|0:0,0:0:0:0:
470,275,75601,2,0,B|485:317|471:346|474:349|468:347,1,60,2|10,1:2|0:0,0:0:0:0:
448,366,75927,6,0,L|317:357,1,120,14|2,0:0|1:2,0:0:0:0:
267,268,76579,2,0,P|264:238|278:200,2,60,10|10|2,0:0|0:0|1:2,0:0:0:0:
189,342,77231,2,0,P|144:308|73:315,1,120,10|2,0:0|1:2,0:0:0:0:
55,341,77720,1,10,0:0:0:0:
6,245,78046,1,10,0:0:0:0:
66,154,78373,1,2,1:2:0:0:
66,154,78536,6,0,L|195:156,1,120,14|2,0:0|1:2,0:0:0:0:
270,223,79188,2,0,L|258:296,2,60,10|10|0,0:0|0:0|1:0,0:0:0:0:
359,162,79840,2,0,L|347:89,2,60,10|10|2,0:0|0:0|1:2,0:0:0:0:
386,193,80329,1,10,0:0:0:0:
465,120,80655,1,10,0:0:0:0:
410,33,80981,1,10,0:0:0:0:
410,33,81168,6,0,P|360:52|289:31,1,120,14|10,0:0|0:0,0:0:0:0:
268,5,81649,1,2,1:2:0:0:
190,79,81970,1,10,0:0:0:0:
190,79,82130,2,0,L|214:148,1,60,14|2,0:0|1:2,0:0:0:0:
201,176,82451,2,0,P|167:182|133:171,1,60,8|2,0:0|1:2,0:0:0:0:
111,147,82772,1,10,0:0:0:0:
30,203,83093,2,0,L|58:334,1,111.4,10|2,0:0|1:2,0:0:0:0:
166,279,83818,6,0,L|293:297,1,120,6|2,1:2|1:2,0:0:0:0:
317,322,84307,1,10,0:0:0:0:
353,222,84633,1,10,0:0:0:0:
353,222,84796,2,0,L|327:158,1,60,2|10,1:2|0:0,0:0:0:0:
306,132,85122,2,0,P|358:146|424:114,1,120,6|2,1:2|1:2,0:0:0:0:
449,94,85611,1,10,0:0:0:0:
499,196,85937,1,10,0:0:0:0:
499,196,86100,2,0,L|492:265,1,60,2|10,1:2|0:0,0:0:0:0:
498,297,86426,6,0,L|368:302,1,120,6|10,1:2|0:0,0:0:0:0:
349,332,86916,1,6,1:2:0:0:
253,295,87242,1,10,0:0:0:0:
253,295,87405,2,0,P|237:264|236:235,1,60,6|10,1:2|0:0,0:0:0:0:
256,203,87731,2,0,L|244:75,1,120,6|10,1:2|0:0,0:0:0:0:
216,52,88220,1,6,1:2:0:0:
150,138,88546,2,0,P|114:156|82:156,1,60,6|6,1:2|1:2,0:0:0:0:
53,152,88872,1,6,1:2:0:0:
