osu file format v14

[General]
AudioFilename: audio.mp3
AudioLeadIn: 0
PreviewTime: 69072
Countdown: 1
SampleSet: Soft
StackLeniency: 0.4
Mode: 0
LetterboxInBreaks: 0
WidescreenStoryboard: 0

[Editor]
Bookmarks: 12601,31425,50248,69072,86131,86425,86572,86866,87013,87307,87895,106719
DistanceSpacing: 1.2
BeatDivisor: 4
GridSize: 32
TimelineZoom: 1

[Metadata]
Title:Kiro -KaeriMichi-
TitleUnicode:帰路 -KaeriMichi-
Artist:Otokaze
ArtistUnicode:Otokaze
Creator:Fixxis
Version:Nostalgia
Source:
Tags:instrumental jazz taka 彩る四季、風と音色。xenon- affirmation neoskylove MkGuh
BeatmapID:1938837
BeatmapSetID:928223

[Difficulty]
HPDrainRate:6
CircleSize:4
OverallDifficulty:8
ApproachRate:9
SliderMultiplier:3.3
SliderTickRate:1

[Events]
//Background and Video events
0,0,"420063-Kycb.jpg",0,0
//Break Periods
//Storyboard Layer 0 (Background)
//Storyboard Layer 1 (Fail)
//Storyboard Layer 2 (Pass)
//Storyboard Layer 3 (Foreground)
//Storyboard Sound Samples

[TimingPoints]
3190,588.235294117647,4,2,1,40,1,0
3190,-181.818181818182,4,2,1,40,0,0
12601,-111.111111111111,4,2,1,80,0,1
29660,-166.666666666666,4,2,1,80,0,1
31278,-166.666666666666,4,2,1,5,0,1
31425,-142.857142857143,4,2,1,50,0,0
67013,-200,4,2,1,30,0,0
67160,-200,4,2,1,5,0,0
67307,-200,4,2,1,30,0,0
67454,-200,4,2,1,5,0,0
67601,-200,4,2,1,30,0,0
67748,-200,4,2,1,5,0,0
67895,-200,4,2,1,30,0,0
69072,-95.2380952380952,4,2,1,80,0,1
87307,-117.647058823529,4,2,1,80,0,1
87748,-117.647058823529,4,2,1,5,0,1
87895,-142.857142857143,4,2,1,70,0,0
104660,-200,4,2,1,50,0,0
106719,-181.818181818182,4,2,1,40,0,0

[Colours]
Combo1 : 0,128,128
Combo2 : 0,64,128
Combo3 : 192,192,192

[HitObjects]
37,60,3190,6,0,L|157:51,1,90.7500027694703,2|0,0:2|0:2,0:0:0:0:
227,17,3631,1,0,0:2:0:0:
264,94,3778,2,0,P|269:125|264:148,1,45.3750013847352,2|0,0:2|0:2,0:0:0:0:
191,217,4072,1,0,0:2:0:0:
176,228,4219,2,0,P|127:217|55:245,1,90.7500027694703,2|0,0:2|0:2,0:0:0:0:
30,290,4660,5,2,0:2:0:0:
30,290,4954,1,2,0:2:0:0:
30,290,5248,1,2,0:2:0:0:
30,290,5542,6,0,B|43:242|43:242|26:172,1,90.7500027694703,2|0,0:2|0:2,0:0:0:0:
11,128,5984,1,0,0:2:0:0:
90,100,6131,2,0,L|170:115,1,45.3750013847352,2|0,0:2|0:2,0:0:0:0:
207,63,6425,1,2,0:2:0:0:
222,46,6572,2,0,L|302:61,1,45.3750013847352,2|0,0:2|0:2,0:0:0:0:
341,25,6866,1,2,0:2:0:0:
356,8,7013,2,0,L|436:23,1,45.3750013847352,2|0,0:2|0:2,0:0:0:0:
470,73,7307,2,0,P|476:100|474:128,3,45.3750013847352,2|0|2|0,0:2|0:2|0:2|0:2,0:0:0:0:
347,179,7895,6,0,B|294:152|294:152|336:126,1,90.7500027694703,2|0,0:2|0:2,0:0:0:0:
389,102,8337,1,0,0:2:0:0:
472,132,8484,2,0,L|459:197,1,45.3750013847352,2|0,0:2|0:2,0:0:0:0:
424,250,8778,1,0,0:2:0:0:
431,265,8925,2,0,P|373:278|340:323,1,90.7500027694703,2|0,0:2|0:2,0:0:0:0:
318,370,9366,5,2,0:2:0:0:
318,370,9660,1,2,0:2:0:0:
318,370,9954,1,2,0:2:0:0:
427,347,10248,6,0,L|472:363,2,45.3750013847352,2|0|0,3:2|0:2|3:2,0:0:0:0:
401,265,10690,1,0,0:2:0:0:
334,315,10837,2,0,L|264:332,1,45.3750013847352,2|0,0:2|0:2,0:0:0:0:
222,272,11131,1,2,0:2:0:0:
211,257,11278,2,0,L|141:274,1,45.3750013847352,2|0,0:2|3:2,0:0:0:0:
51,360,11572,1,2,3:2:0:0:
26,344,11719,2,0,L|15:280,1,45.3750013847352,2|0,0:2|0:2,0:0:0:0:
56,198,12013,5,10,0:2:0:0:
128,144,12160,1,0,0:2:0:0:
218,150,12307,1,2,0:2:0:0:
287,207,12454,1,2,0:2:0:0:
470,43,12601,6,0,B|390:18|394:94|296:61,1,148.49999546814,6|0,3:2|0:2,0:0:0:0:
261,25,13042,1,0,3:2:0:0:
182,106,13189,2,0,L|195:188,1,74.2499977340699,10|0,0:2|0:2,0:0:0:0:
95,99,13484,2,0,L|108:17,1,74.2499977340699,2|0,0:2|3:2,0:0:0:0:
112,226,13778,5,0,3:2:0:0:
9,187,13925,1,0,3:2:0:0:
69,349,14072,2,0,P|109:327|163:325,1,74.2499977340699,2|0,0:2|0:2,0:0:0:0:
260,311,14366,2,0,P|220:287|192:241,1,74.2499977340699,10|0,0:2|0:2,0:0:0:0:
136,168,14660,2,0,P|135:213|109:261,1,74.2499977340699,2|0,0:2|0:2,0:0:0:0:
70,104,14954,6,0,B|95:69|144:64|144:64|173:89|225:100,1,148.49999546814,2|0,3:2|0:2,0:0:0:0:
217,7,15395,1,0,3:2:0:0:
136,168,15542,2,0,P|97:190|48:195,1,74.2499977340699,10|0,0:2|0:2,0:0:0:0:
227,18,15837,1,10,0:2:0:0:
279,80,15984,2,0,P|301:109|306:174,1,74.2499977340699,2|0,0:2|3:2,0:0:0:0:
353,281,16278,5,2,3:2:0:0:
370,197,16425,2,0,P|384:170|417:132,1,74.2499977340699,2|0,0:2|0:2,0:0:0:0:
479,262,16719,5,10,0:2:0:0:
420,340,16866,1,0,3:2:0:0:
252,209,17013,5,2,3:2:0:0:
303,355,17160,1,2,3:2:0:0:
307,140,17307,6,0,B|292:33|292:33|242:83,1,148.49999546814,6|0,3:2|0:2,0:0:0:0:
224,130,17748,1,0,3:2:0:0:
51,160,17895,2,0,P|38:118|48:60,1,74.2499977340699,10|0,0:2|0:2,0:0:0:0:
207,232,18189,2,0,L|103:268,1,74.2499977340699,2|0,0:2|3:2,0:0:0:0:
55,316,18484,5,0,3:2:0:0:
149,348,18631,1,0,3:2:0:0:
138,174,18778,2,0,P|135:134|106:92,1,74.2499977340699,2|0,0:2|0:2,0:0:0:0:
256,314,19072,2,0,L|357:334,1,74.2499977340699,10|0,0:2|0:2,0:0:0:0:
443,232,19366,2,0,L|342:252,1,74.2499977340699,2|0,0:2|3:2,0:0:0:0:
295,187,19660,6,0,B|264:124|299:76|299:76|365:98,1,148.49999546814,2|0,3:2|0:2,0:0:0:0:
389,148,20101,1,0,3:2:0:0:
200,127,20248,2,0,P|204:78|235:35,1,74.2499977340699,10|0,0:2|0:2,0:0:0:0:
379,150,20542,1,10,0:2:0:0:
218,227,20689,2,0,L|133:243,1,74.2499977340699,2|0,0:2|3:2,0:0:0:0:
119,162,20984,5,2,3:2:0:0:
273,298,21131,2,0,L|358:314,1,74.2499977340699,2|0,3:2|0:2,0:0:0:0:
493,234,21425,5,10,0:2:0:0:
416,176,21572,1,0,3:2:0:0:
294,170,21719,1,2,3:2:0:0:
185,269,21866,1,2,3:2:0:0:
98,128,22013,6,0,B|109:277,1,148.49999546814,6|0,3:2|0:2,0:0:0:0:
150,354,22454,1,0,3:2:0:0:
249,306,22601,2,0,P|215:281|157:264,1,74.2499977340699,10|0,0:2|0:2,0:0:0:0:
108,276,22895,2,0,P|73:290|44:312,1,74.2499977340699,2|0,0:2|3:2,0:0:0:0:
55,204,23189,5,0,3:2:0:0:
150,354,23337,1,0,3:2:0:0:
205,198,23484,2,0,P|220:161|214:120,1,74.2499977340699,2|0,0:2|0:2,0:0:0:0:
74,100,23778,2,0,P|98:131|137:146,1,74.2499977340699,10|0,0:2|0:2,0:0:0:0:
223,42,24072,2,0,P|183:47|150:73,1,74.2499977340699,2|0,0:2|0:2,0:0:0:0:
293,163,24366,5,2,3:2:0:0:
293,163,24954,2,0,L|387:140,1,74.2499977340699,10|0,0:2|0:2,0:0:0:0:
149,71,25248,1,10,0:2:0:0:
234,29,25395,2,0,L|329:45,1,74.2499977340699,2|0,0:2|3:2,0:0:0:0:
172,164,25689,5,2,3:2:0:0:
97,214,25837,2,0,P|62:202|28:173,1,74.2499977340699,2|0,3:2|0:2,0:0:0:0:
196,245,26131,5,10,0:2:0:0:
170,325,26278,1,0,3:2:0:0:
101,129,26425,5,2,3:2:0:0:
66,20,26572,1,2,3:2:0:0:
226,127,26719,6,0,B|297:108|307:171|379:157,1,148.49999546814,6|0,3:2|0:2,0:0:0:0:
359,79,27160,1,0,3:2:0:0:
251,208,27307,2,0,L|257:288,1,74.2499977340699,10|0,0:2|0:2,0:0:0:0:
338,365,27601,2,0,L|344:285,1,74.2499977340699,2|0,0:2|3:2,0:0:0:0:
164,245,27895,5,0,3:2:0:0:
128,336,28042,1,0,3:2:0:0:
29,208,28189,2,0,P|42:165|79:133,1,74.2499977340699,2|0,0:2|0:2,0:0:0:0:
242,215,28484,2,0,L|152:236,1,74.2499977340699,10|0,0:2|0:2,0:0:0:0:
266,119,28778,2,0,L|384:138,1,74.2499977340699,2|0,0:2|0:2,0:0:0:0:
437,219,29072,5,6,0:2:0:0:
437,219,29660,1,2,0:2:0:0:
437,219,29954,5,2,0:2:0:0:
417,348,30101,1,2,0:2:0:0:
417,348,30395,5,2,0:2:0:0:
354,154,30542,1,2,0:2:0:0:
354,154,30837,2,0,B|305:162|305:162|282:149|282:149|195:192,1,148.49999546814,8|0,0:2|0:2,0:0:0:0:
105,271,31425,6,0,P|128:215|82:132,1,115.49999647522,6|0,3:2|0:2,0:0:0:0:
60,100,31866,1,0,3:2:0:0:
56,76,32013,2,0,L|70:16,1,57.7499982376099,10|0,0:2|0:2,0:0:0:0:
154,33,32307,2,0,B|202:33|239:53|239:53|287:46|338:8,1,173.24999471283,2|0,3:2|0:2,0:0:0:0:
392,73,32895,2,0,L|462:86,1,57.7499982376099,2|0,0:2|0:2,0:0:0:0:
482,182,33189,2,0,P|446:186|422:199,1,57.7499982376099,10|0,0:2|0:2,0:0:0:0:
357,263,33484,2,0,P|342:296|341:323,1,57.7499982376099,2|0,0:2|3:2,0:0:0:0:
259,338,33778,5,4,3:2:0:0:
259,338,34072,2,0,P|229:351|177:353,1,57.7499982376099,2|0,3:2|0:2,0:0:0:0:
123,364,34366,2,0,P|126:331|151:285,1,57.7499982376099,10|0,0:2|0:2,0:0:0:0:
166,231,34660,2,0,P|192:250|219:294,1,57.7499982376099,10|0,0:2|0:2,0:0:0:0:
17,174,34954,5,0,3:2:0:0:
51,101,35101,1,2,3:2:0:0:
23,25,35248,1,2,3:2:0:0:
23,25,35542,2,0,B|105:-3|115:88|217:55,1,173.24999471283,10|0,0:2|0:2,0:0:0:0:
314,35,36131,5,4,3:2:0:0:
314,35,36425,2,0,P|346:38|381:54,1,57.7499982376099,2|0,3:2|0:2,0:0:0:0:
416,128,36719,2,0,P|434:101|465:79,1,57.7499982376099,10|0,0:2|0:2,0:0:0:0:
325,122,37013,6,0,P|308:200|344:296,1,173.24999471283,2|0,3:2|0:2,0:0:0:0:
467,346,37601,2,0,L|405:327,1,57.7499982376099,2|0,0:2|0:2,0:0:0:0:
336,286,37895,2,0,L|378:246,1,57.7499982376099,10|0,0:2|0:2,0:0:0:0:
455,201,38189,2,0,L|467:257,1,57.7499982376099,2|0,0:2|0:2,0:0:0:0:
300,365,38484,6,0,P|271:345|250:314,1,57.7499982376099,2|0,3:2|0:2,0:0:0:0:
116,303,38778,2,0,P|118:267|135:234,1,57.7499982376099,2|0,3:2|0:2,0:0:0:0:
66,124,39072,2,0,P|97:108|135:106,1,57.7499982376099,10|0,0:2|0:2,0:0:0:0:
214,13,39366,2,0,P|243:32|264:63,1,57.7499982376099,10|0,0:2|0:2,0:0:0:0:
304,116,39660,5,0,3:2:0:0:
386,142,39807,1,2,3:2:0:0:
468,113,39954,1,2,3:2:0:0:
468,113,40248,2,0,P|441:78|409:59,1,57.7499982376099,10|0,0:2|0:2,0:0:0:0:
312,33,40542,2,0,P|268:38|235:57,1,57.7499982376099,2|0,0:2|0:2,0:0:0:0:
184,91,40837,5,4,3:2:0:0:
184,91,41131,2,0,P|199:122|201:153,1,57.7499982376099,2|0,3:2|0:2,0:0:0:0:
134,208,41425,2,0,P|99:205|71:191,1,57.7499982376099,10|0,0:2|0:2,0:0:0:0:
56,108,41719,2,0,P|75:79|101:62,1,57.7499982376099,2|0,3:2|0:2,0:0:0:0:
184,91,42013,6,0,B|240:93|289:124|289:124|325:102|389:105,1,173.24999471283,2|0,3:2|0:2,0:0:0:0:
429,103,42601,2,0,P|458:111|493:134,1,57.7499982376099,10|0,0:2|0:2,0:0:0:0:
482,231,42895,2,0,P|456:245|429:252,1,57.7499982376099,2|0,0:2|3:2,0:0:0:0:
350,258,43189,5,4,3:2:0:0:
350,258,43484,2,0,P|321:257|293:250,1,57.7499982376099,2|0,3:2|0:2,0:0:0:0:
187,230,43778,2,0,P|200:255|208:283,1,57.7499982376099,10|0,0:2|0:2,0:0:0:0:
238,379,44072,2,0,P|253:354|273:333,1,57.7499982376099,10|0,0:2|0:2,0:0:0:0:
350,258,44366,5,0,3:2:0:0:
398,193,44513,1,2,3:2:0:0:
391,112,44660,1,2,3:2:0:0:
391,112,44954,2,0,P|374:87|323:53,1,57.7499982376099,10|0,0:2|0:2,0:0:0:0:
213,36,45248,2,0,P|243:33|298:6,1,57.7499982376099,2|0,0:2|3:2,0:0:0:0:
278,112,45542,5,4,3:2:0:0:
278,112,45837,2,0,L|228:192,1,57.7499982376099,2|0,3:2|0:2,0:0:0:0:
232,283,46131,2,0,L|137:279,1,57.7499982376099,10|0,0:2|0:2,0:0:0:0:
86,370,46425,2,0,L|41:286,1,57.7499982376099,2|0,0:2|3:2,0:0:0:0:
16,175,46719,6,0,B|107:151|96:229|204:193,1,173.24999471283,2|0,3:2|0:2,0:0:0:0:
274,162,47307,2,0,P|296:141|316:94,1,57.7499982376099,10|0,0:2|0:2,0:0:0:0:
367,32,47601,2,0,P|374:61|404:102,1,57.7499982376099,2|0,0:2|3:2,0:0:0:0:
432,156,47895,5,6,3:2:0:0:
432,156,48189,2,0,P|453:177|500:198,1,57.7499982376099,2|0,0:2|0:2,0:0:0:0:
356,286,48484,2,0,P|364:256|358:206,1,57.7499982376099,2|0,0:2|0:2,0:0:0:0:
500,289,48778,2,0,P|470:296|429:326,1,57.7499982376099,2|0,0:2|0:2,0:0:0:0:
393,366,49072,5,0,3:2:0:0:
313,356,49219,1,2,3:2:0:0:
261,292,49366,1,2,3:2:0:0:
261,292,49660,2,0,P|231:272|188:262,1,57.7499982376099,10|0,0:2|0:2,0:0:0:0:
69,259,49954,2,0,P|36:274|6:307,1,57.7499982376099,2|0,3:2|0:2,0:0:0:0:
93,347,50248,6,0,P|83:282|100:214,1,115.49999647522,6|0,3:2|0:2,0:0:0:0:
126,148,50689,1,0,3:2:0:0:
133,129,50837,2,0,L|124:68,1,57.7499982376099,10|0,0:2|0:2,0:0:0:0:
204,33,51131,6,0,L|383:22,1,173.24999471283,2|0,3:2|0:2,0:0:0:0:
464,100,51719,2,0,P|472:57|467:14,1,57.7499982376099,2|0,0:2|0:2,0:0:0:0:
307,113,52013,2,0,P|340:141|379:158,1,57.7499982376099,10|0,0:2|0:2,0:0:0:0:
442,235,52307,2,0,L|385:248,1,57.7499982376099,2|0,0:2|3:2,0:0:0:0:
331,306,52601,5,4,3:2:0:0:
331,306,52895,2,0,L|269:322,1,57.7499982376099,2|0,3:2|0:2,0:0:0:0:
175,371,53189,2,0,L|192:309,1,57.7499982376099,10|0,0:2|0:2,0:0:0:0:
195,198,53484,2,0,L|239:243,1,57.7499982376099,10|0,0:2|0:2,0:0:0:0:
190,315,53778,5,0,3:2:0:0:
110,305,53925,1,2,3:2:0:0:
39,349,54072,1,2,3:2:0:0:
39,349,54366,2,0,B|16:302|32:259|32:259|68:219|67:161,1,173.24999471283,10|0,0:2|0:2,0:0:0:0:
58,104,54954,5,4,3:2:0:0:
58,104,55248,2,0,P|51:62|30:32,1,57.7499982376099,2|0,3:2|0:2,0:0:0:0:
124,15,55542,2,0,P|163:29|200:26,1,57.7499982376099,10|0,0:2|0:2,0:0:0:0:
282,76,55837,6,0,P|222:113|243:214,1,173.24999471283,2|0,3:2|0:2,0:0:0:0:
326,240,56425,2,0,P|361:242|408:270,1,57.7499982376099,2|0,0:2|0:2,0:0:0:0:
286,363,56719,2,0,P|270:331|270:276,1,57.7499982376099,10|0,0:2|0:2,0:0:0:0:
410,334,57013,2,0,P|390:363|343:390,1,57.7499982376099,2|0,0:2|0:2,0:0:0:0:
233,204,57307,6,0,P|245:179|267:160,1,57.7499982376099,2|0,3:2|0:2,0:0:0:0:
455,235,57601,2,0,P|430:223|411:201,1,57.7499982376099,2|0,3:2|0:2,0:0:0:0:
484,26,57895,2,0,P|472:51|450:70,1,57.7499982376099,10|0,0:2|0:2,0:0:0:0:
263,4,58189,2,0,P|288:16|307:38,1,57.7499982376099,10|0,0:2|0:2,0:0:0:0:
350,106,58484,5,0,3:2:0:0:
312,181,58631,1,2,3:2:0:0:
340,260,58778,1,2,3:2:0:0:
340,260,59072,2,0,P|366:283|409:291,1,57.7499982376099,10|0,0:2|0:2,0:0:0:0:
463,300,59366,2,0,P|495:288|524:255,1,57.7499982376099,2|0,0:2|0:2,0:0:0:0:
512,109,59660,5,4,3:2:0:0:
512,109,59954,2,0,P|489:91|461:83,1,57.7499982376099,2|0,3:2|0:2,0:0:0:0:
380,83,60248,2,0,P|352:90|329:108,1,57.7499982376099,10|0,0:2|0:2,0:0:0:0:
271,187,60542,2,0,L|202:174,1,57.7499982376099,2|0,3:2|0:2,0:0:0:0:
128,86,60837,6,0,B|240:45|240:45|255:106,1,173.24999471283,2|0,3:2|0:2,0:0:0:0:
214,176,61425,2,0,P|191:208|190:249,1,57.7499982376099,10|0,0:2|0:2,0:0:0:0:
146,323,61719,2,0,P|129:287|94:265,1,57.7499982376099,2|0,0:2|3:2,0:0:0:0:
54,214,62013,5,4,3:2:0:0:
54,214,62307,2,0,L|24:285,1,57.7499982376099,2|0,3:2|0:2,0:0:0:0:
11,346,62601,2,0,L|87:336,1,57.7499982376099,10|0,0:2|0:2,0:0:0:0:
151,321,62895,2,0,L|104:259,1,57.7499982376099,10|0,0:2|0:2,0:0:0:0:
54,214,63189,5,0,3:2:0:0:
91,139,63337,1,2,3:2:0:0:
171,113,63484,1,2,3:2:0:0:
171,113,63778,2,0,P|198:122|221:139,1,57.7499982376099,10|0,0:2|0:2,0:0:0:0:
316,43,64072,2,0,P|294:62|268:73,1,57.7499982376099,2|0,0:2|3:2,0:0:0:0:
303,204,64366,5,4,3:2:0:0:
303,204,64660,2,0,P|297:175|300:147,1,57.7499982376099,2|0,3:2|0:2,0:0:0:0:
439,205,64954,2,0,P|411:195|388:178,1,57.7499982376099,10|0,0:2|0:2,0:0:0:0:
512,115,65248,2,0,P|483:120|455:117,1,57.7499982376099,2|0,0:2|3:2,0:0:0:0:
409,39,65542,6,0,B|326:21|314:85|236:67,1,173.24999471283,2|0,3:2|0:2,0:0:0:0:
165,109,66131,2,0,L|153:169,1,57.7499982376099,10|0,0:2|0:2,0:0:0:0:
74,149,66425,2,0,L|62:209,1,57.7499982376099,2|0,0:2|3:2,0:0:0:0:
17,284,66719,5,6,3:2:0:0:
17,284,67013,2,0,P|44:308|60:336,1,41.25,2|0,0:2|0:2,0:0:0:0:
117,274,67307,2,0,P|128:308|128:340,1,41.25,2|0,0:2|0:2,0:0:0:0:
210,316,67601,2,0,P|202:351|186:379,1,41.25,2|0,0:2|0:2,0:0:0:0:
294,360,67895,5,0,0:2:0:0:
367,328,68042,1,2,0:2:0:0:
442,355,68189,1,2,0:2:0:0:
442,355,68484,1,2,0:2:0:0:
442,355,68778,1,2,0:2:0:0:
442,355,69072,6,0,B|475:292|455:239|455:239|419:229|387:251,1,173.24999471283,6|0,3:2|0:2,0:0:0:0:
319,236,69513,1,0,3:2:0:0:
161,154,69660,2,0,P|149:123|156:62,1,86.6249973564149,10|0,0:2|0:2,0:0:0:0:
323,256,69954,2,0,L|221:280,1,86.6249973564149,2|0,0:2|3:2,0:0:0:0:
107,297,70248,5,0,3:2:0:0:
205,356,70395,1,0,3:2:0:0:
305,124,70542,2,0,P|282:80|238:56,1,86.6249973564149,2|0,0:2|0:2,0:0:0:0:
186,225,70837,2,0,P|235:227|278:200,1,86.6249973564149,10|0,0:2|0:2,0:0:0:0:
152,70,71131,2,0,P|125:111|126:162,1,86.6249973564149,2|0,0:2|0:2,0:0:0:0:
430,95,71425,6,0,P|449:180|414:274,1,173.24999471283,2|0,3:2|0:2,0:0:0:0:
353,325,71866,1,0,3:2:0:0:
223,241,72013,2,0,P|265:232|326:250,1,86.6249973564149,10|0,0:2|0:2,0:0:0:0:
370,334,72307,1,10,0:2:0:0:
142,196,72454,2,0,P|173:167|235:152,1,86.6249973564149,2|0,0:2|3:2,0:0:0:0:
318,146,72748,5,2,3:2:0:0:
155,309,72895,2,0,L|32:291,1,86.6249973564149,2|0,0:2|0:2,0:0:0:0:
60,98,73189,5,10,0:2:0:0:
22,211,73337,1,0,3:2:0:0:
158,57,73484,5,2,3:2:0:0:
217,233,73631,1,2,3:2:0:0:
295,52,73778,6,0,B|377:41|373:101|481:88,1,173.24999471283,6|0,3:2|0:2,0:0:0:0:
429,6,74219,1,0,3:2:0:0:
317,141,74366,2,0,L|311:244,1,86.6249973564149,10|0,0:2|0:2,0:0:0:0:
410,293,74660,2,0,L|404:190,1,86.6249973564149,2|0,0:2|3:2,0:0:0:0:
230,170,74954,5,0,3:2:0:0:
402,126,75101,1,0,3:2:0:0:
228,269,75248,2,0,P|185:260|139:204,1,86.6249973564149,2|0,0:2|0:2,0:0:0:0:
63,145,75542,2,0,P|76:186|51:254,1,86.6249973564149,10|0,0:2|0:2,0:0:0:0:
40,354,75837,2,0,P|69:321|140:309,1,86.6249973564149,2|0,0:2|3:2,0:0:0:0:
243,265,76131,6,0,B|291:241|335:256|335:256|367:291|437:288,1,173.24999471283,2|0,3:2|0:2,0:0:0:0:
407,187,76572,1,0,3:2:0:0:
299,336,76719,2,0,P|259:353|210:353,1,86.6249973564149,10|0,0:2|0:2,0:0:0:0:
409,170,77013,1,10,0:2:0:0:
485,270,77160,2,0,P|479:313|455:355,1,86.6249973564149,2|0,0:2|3:2,0:0:0:0:
318,252,77454,5,2,3:2:0:0:
307,139,77601,2,0,P|331:98|373:72,1,86.6249973564149,2|0,3:2|0:2,0:0:0:0:
493,120,77895,5,10,0:2:0:0:
457,11,78042,1,0,3:2:0:0:
407,189,78189,5,2,3:2:0:0:
365,356,78337,1,2,3:2:0:0:
222,194,78484,6,0,B|194:67|194:67|269:88,1,173.24999471283,6|0,3:2|0:2,0:0:0:0:
304,142,78925,1,0,3:2:0:0:
97,172,79072,2,0,P|48:153|19:118,1,86.6249973564149,10|0,0:2|0:2,0:0:0:0:
107,0,79366,2,0,L|101:105,1,86.6249973564149,2|0,0:2|3:2,0:0:0:0:
199,190,79660,5,0,3:2:0:0:
50,246,79807,1,0,3:2:0:0:
200,286,79954,2,0,P|252:273|276:247,1,86.6249973564149,2|0,0:2|0:2,0:0:0:0:
362,170,80248,2,0,P|347:221|357:255,1,86.6249973564149,10|0,0:2|0:2,0:0:0:0:
380,372,80542,2,0,P|342:333|308:325,1,86.6249973564149,2|0,0:2|0:2,0:0:0:0:
199,190,80837,6,0,P|221:100|306:46,1,173.24999471283,2|0,3:2|0:0,0:0:0:0:
386,84,81278,1,0,0:0:0:0:
298,238,81425,2,0,P|286:200|295:139,1,86.6249973564149,10|0,0:2|0:2,0:0:0:0:
400,68,81719,1,10,0:2:0:0:
285,329,81866,2,0,P|249:310|212:261,1,86.6249973564149,2|0,0:2|3:2,0:0:0:0:
373,160,82160,5,2,3:2:0:0:
461,190,82307,2,0,L|447:289,1,86.6249973564149,2|0,3:2|0:2,0:0:0:0:
381,329,82601,5,10,0:2:0:0:
285,361,82748,1,0,3:2:0:0:
142,337,82895,1,2,3:2:0:0:
56,220,83042,1,2,3:2:0:0:
113,92,83189,6,0,B|92:274,1,173.24999471283,6|0,3:2|0:2,0:0:0:0:
50,340,83631,1,0,3:2:0:0:
195,153,83778,2,0,P|231:151|285:197,1,86.6249973564149,10|0,0:2|0:2,0:0:0:0:
214,323,84072,2,0,L|213:233,1,86.6249973564149,2|0,0:2|3:2,0:0:0:0:
305,93,84366,5,0,3:2:0:0:
115,184,84513,1,0,3:2:0:0:
302,255,84660,2,0,P|344:221|353:182,1,86.6249973564149,2|0,0:2|0:2,0:0:0:0:
443,131,84954,2,0,P|451:184|480:211,1,86.6249973564149,10|0,0:2|0:2,0:0:0:0:
480,329,85248,2,0,P|429:309|391:321,1,86.6249973564149,2|0,0:2|0:2,0:0:0:0:
316,342,85542,5,6,0:2:0:0:
316,342,86131,1,10,0:2:0:0:
316,342,86425,5,10,0:2:0:0:
349,106,86572,1,2,0:2:0:0:
349,106,86866,5,2,0:2:0:0:
378,283,87013,1,2,0:2:0:0:
271,72,87307,6,0,B|156:48|176:153|45:123,1,210.375004012585,10|0,0:2|0:2,0:0:0:0:
96,16,87895,6,0,P|171:12|209:62,1,115.49999647522,6|0,3:2|0:2,0:0:0:0:
206,119,88337,1,0,3:2:0:0:
216,132,88484,2,0,L|206:209,1,57.7499982376099,10|0,0:2|0:2,0:0:0:0:
166,283,88778,2,0,B|116:224|61:229|61:229|71:294,1,173.24999471283,2|0,3:2|0:2,0:0:0:0:
111,352,89366,6,0,P|144:361|167:371,1,57.7499982376099,2|0,0:2|0:2,0:0:0:0:
250,257,89660,2,0,P|274:281|288:301,1,57.7499982376099,10|0,0:2|0:2,0:0:0:0:
431,247,89954,2,0,P|439:280|442:304,1,57.7499982376099,2|0,0:2|3:2,0:0:0:0:
397,375,90248,5,4,3:2:0:0:
397,375,90542,2,0,P|363:359|321:360,1,57.7499982376099,2|0,3:2|0:2,0:0:0:0:
245,337,90837,2,0,P|275:315|295:278,1,57.7499982376099,10|0,0:2|0:2,0:0:0:0:
359,222,91131,2,0,P|362:259|384:295,1,57.7499982376099,10|0,0:2|0:2,0:0:0:0:
446,316,91425,5,0,3:2:0:0:
481,242,91572,1,2,3:2:0:0:
481,160,91719,1,2,3:2:0:0:
481,160,92013,2,0,P|410:132|402:26,1,173.24999471283,10|0,0:2|0:2,0:0:0:0:
497,12,92601,5,4,3:2:0:0:
497,12,92895,2,0,P|505:46|503:80,1,57.7499982376099,2|0,3:2|0:2,0:0:0:0:
481,160,93189,2,0,P|455:183|425:199,1,57.7499982376099,10|0,0:2|0:2,0:0:0:0:
290,216,93484,2,0,B|342:219|387:275|387:275|378:306|322:327,1,173.24999471283,2|0,3:2|0:2,0:0:0:0:
226,348,94072,2,0,P|240:319|246:283,1,57.7499982376099,2|0,0:2|0:2,0:0:0:0:
181,231,94366,2,0,P|148:233|114:246,1,57.7499982376099,10|0,0:2|0:2,0:0:0:0:
102,326,94660,2,0,P|120:352|148:375,1,57.7499982376099,2|0,0:2|0:2,0:0:0:0:
196,231,94954,6,0,P|188:204|161:172,1,57.7499982376099,2|0,3:2|0:2,0:0:0:0:
9,149,95248,2,0,P|36:141|68:114,1,57.7499982376099,2|0,3:2|0:2,0:0:0:0:
128,1,95542,2,0,P|136:28|163:60,1,57.7499982376099,10|0,0:2|0:2,0:0:0:0:
320,83,95837,2,0,P|293:91|261:118,1,57.7499982376099,10|0,0:2|0:2,0:0:0:0:
216,172,96131,5,0,3:2:0:0:
197,251,96278,1,2,3:2:0:0:
218,333,96425,1,2,3:2:0:0:
218,333,96719,5,10,0:2:0:0:
122,301,96866,1,2,3:2:0:0:
122,202,97013,1,2,3:2:0:0:
216,172,97160,1,2,3:2:0:0:
281,251,97307,5,4,3:2:0:0:
281,251,97601,2,0,P|306:263|334:287,1,57.7499982376099,2|0,3:2|0:2,0:0:0:0:
392,219,97895,2,0,P|407:241|419:276,1,57.7499982376099,10|0,0:2|0:2,0:0:0:0:
503,258,98189,2,0,P|505:285|498:321,1,57.7499982376099,2|0,3:2|0:2,0:0:0:0:
318,169,98484,6,0,B|242:136|216:222|131:197,1,173.24999471283,2|0,3:2|0:2,0:0:0:0:
1,165,99072,2,0,P|28:150|65:150,1,57.7499982376099,10|0,0:2|0:2,0:0:0:0:
85,50,99366,2,0,P|114:58|140:84,1,57.7499982376099,2|0,0:2|3:2,0:0:0:0:
153,201,99660,5,4,3:2:0:0:
153,201,99954,2,0,P|130:219|103:226,1,57.7499982376099,2|0,3:2|0:2,0:0:0:0:
0,298,100248,2,0,P|26:308|47:328,1,57.7499982376099,10|0,0:2|0:2,0:0:0:0:
162,369,100542,2,0,P|157:340|164:313,1,57.7499982376099,10|0,0:2|0:2,0:0:0:0:
197,234,100837,5,0,3:2:0:0:
259,181,100984,1,2,3:2:0:0:
340,182,101131,1,2,3:2:0:0:
340,182,101425,5,10,0:2:0:0:
301,107,101572,1,2,3:2:0:0:
217,110,101719,1,2,3:2:0:0:
181,188,101866,1,2,3:2:0:0:
231,257,102013,1,4,3:2:0:0:
231,257,102307,6,0,P|262:253|325:276,1,57.7499982376099,2|0,3:2|0:2,0:0:0:0:
377,159,102601,2,0,P|364:187|313:230,1,57.7499982376099,10|0,0:2|0:2,0:0:0:0:
393,331,102895,2,0,P|374:306|362:240,1,57.7499982376099,2|0,0:2|3:2,0:0:0:0:
377,159,103189,6,0,B|308:142|257:155|257:155|222:135|197:94,1,173.24999471283,2|0,3:2|0:2,0:0:0:0:
148,68,103778,2,0,L|156:-10,1,57.7499982376099,10|0,0:2|0:2,0:0:0:0:
68,117,104072,2,0,L|76:39,1,57.7499982376099,2|0,0:2|3:2,0:0:0:0:
0,167,104366,5,6,3:2:0:0:
0,167,104954,1,10,0:2:0:0:
0,167,105248,1,10,0:2:0:0:
6,306,105395,1,2,3:2:0:0:
6,306,105689,5,2,3:2:0:0:
82,134,105837,1,2,3:2:0:0:
91,331,106131,2,0,L|83:373,3,41.25,8|0|0|0,0:2|0:2|0:2|0:2,0:0:0:0:
155,270,106719,5,2,0:2:0:0:
