osu file format v14

[General]
AudioFilename: audio.mp3
AudioLeadIn: 0
PreviewTime: 69072
Countdown: 1
SampleSet: Soft
StackLeniency: 0.4
Mode: 0
LetterboxInBreaks: 0
WidescreenStoryboard: 1

[Editor]
Bookmarks: 12601,31425,50248,69072,86131,86425,86572,86866,87013,87307,87895,106719
DistanceSpacing: 1.2
BeatDivisor: 4
GridSize: 32
TimelineZoom: 1

[Metadata]
Title:Kiro -KaeriMichi-
TitleUnicode:帰路 -KaeriMichi-
Artist:Otokaze
ArtistUnicode:Otokaze
Creator:Fixxis
Version:Hard
Source:
Tags:instrumental jazz taka 彩る四季、風と音色。xenon- affirmation neoskylove MkGuh
BeatmapID:1938836
BeatmapSetID:928223

[Difficulty]
HPDrainRate:4
CircleSize:3.5
OverallDifficulty:6
ApproachRate:7
SliderMultiplier:3.3
SliderTickRate:1

[Events]
//Background and Video events
0,0,"420063-Kycb.jpg",0,0
//Break Periods
//Storyboard Layer 0 (Background)
//Storyboard Layer 1 (Fail)
//Storyboard Layer 2 (Pass)
//Storyboard Layer 3 (Foreground)
//Storyboard Sound Samples

[TimingPoints]
3190,588.235294117647,4,2,1,40,1,0
3190,-222.222222222223,4,2,1,40,0,0
12013,-153.846153846154,4,2,1,40,0,0
12601,-133.333333333333,4,2,1,80,0,1
29660,-181.818181818182,4,2,1,80,0,1
31278,-166.666666666666,4,2,1,5,0,1
31425,-166.666666666667,4,2,1,50,0,0
67013,-200,4,2,1,30,0,0
67160,-200,4,2,1,5,0,0
67307,-200,4,2,1,30,0,0
67454,-200,4,2,1,5,0,0
67601,-200,4,2,1,30,0,0
67748,-200,4,2,1,5,0,0
67895,-200,4,2,1,30,0,0
68631,-200,4,2,1,30,0,0
68778,-200,4,2,1,30,0,0
68925,-200,4,2,1,30,0,0
69072,-133.333333333333,4,2,1,80,0,1
87307,-181.818181818181,4,2,1,80,0,1
87748,-117.647058823529,4,2,1,5,0,1
87895,-153.846153846154,4,2,1,70,0,0
104660,-200,4,2,1,50,0,0
106719,-181.818181818182,4,2,1,40,0,0

[Colours]
Combo1 : 0,128,128
Combo2 : 0,64,128
Combo3 : 192,192,192

[HitObjects]
41,27,3190,6,0,L|50:129,1,74.2499977340699,2|0,0:2|0:2,0:0:0:0:
57,113,3778,2,0,L|62:164,1,37.1249988670349,2|0,0:2|0:2,0:0:0:0:
31,218,4072,1,0,0:2:0:0:
65,283,4219,2,0,P|97:289|145:276,1,74.2499977340699,2|0,0:2|0:2,0:0:0:0:
197,226,4660,2,0,P|208:248|230:266,1,37.1249988670349,2|0,0:2|0:0,0:0:0:0:
275,308,4954,2,0,P|288:287|293:259,1,37.1249988670349,2|0,0:2|0:0,0:0:0:0:
307,198,5248,2,0,P|282:196|255:206,1,37.1249988670349,2|0,0:2|0:0,0:0:0:0:
197,226,5542,6,0,B|183:176|183:176|194:131,1,74.2499977340699,2|0,0:2|0:2,0:0:0:0:
190,140,6131,2,0,L|140:122,1,37.1249988670349,2|0,0:2|0:2,0:0:0:0:
79,109,6425,1,2,0:2:0:0:
79,109,6572,2,0,P|73:130|76:150,1,37.1249988670349,2|0,0:2|0:2,0:0:0:0:
143,54,6866,1,2,0:2:0:0:
143,54,7013,2,0,P|149:33|146:13,1,37.1249988670349,2|0,0:2|0:2,0:0:0:0:
232,34,7307,2,0,L|285:50,3,37.1249988670349,2|0|2|0,0:2|0:2|0:2|0:2,0:0:0:0:
345,17,7895,6,0,P|389:25|440:17,1,74.2499977340699,2|0,0:2|0:2,0:0:0:0:
439,24,8484,2,0,L|430:68,1,37.1249988670349,2|0,0:2|0:2,0:0:0:0:
488,121,8778,1,0,0:2:0:0:
438,196,8925,2,0,B|450:276,1,74.2499977340699,2|0,0:2|0:2,0:0:0:0:
402,340,9366,2,0,P|376:345|352:356,1,37.1249988670349,2|0,0:2|0:0,0:0:0:0:
322,287,9660,2,0,P|301:304|286:325,1,37.1249988670349,2|0,0:2|0:0,0:0:0:0:
228,268,9954,2,0,P|219:293|216:319,1,37.1249988670349,2|0,0:2|0:0,0:0:0:0:
152,347,10248,6,0,P|102:350|61:363,1,74.2499977340699,2|0,3:2|3:2,0:0:0:0:
65,363,10837,2,0,L|74:322,1,37.1249988670349,2|0,0:2|0:2,0:0:0:0:
38,258,11131,1,2,0:2:0:0:
38,258,11278,2,0,P|37:232|29:213,1,37.1249988670349,2|0,0:2|3:2,0:0:0:0:
71,145,11572,1,2,3:2:0:0:
71,145,11719,2,0,P|84:167|101:179,1,37.1249988670349,2|0,0:2|0:2,0:0:0:0:
164,215,12013,6,0,L|244:201,3,53.6249975452424,10|0|2|2,0:2|0:2|0:2|0:2,0:0:0:0:
295,238,12601,2,0,P|362:267|372:315,1,123.750004720688,6|0,3:2|0:2,0:0:0:0:
377,324,13189,2,0,L|440:331,1,61.875002360344,10|0,0:2|0:2,0:0:0:0:
483,262,13484,1,2,0:2:0:0:
450,188,13631,6,0,B|436:101|436:101|466:56,1,123.750004720688,0|0,3:2|3:2,0:0:0:0:
396,15,14072,2,0,P|361:34|311:31,1,61.875002360344,2|0,0:2|0:2,0:0:0:0:
346,115,14366,2,0,P|306:113|264:86,1,61.875002360344,10|0,0:2|0:2,0:0:0:0:
261,183,14660,2,0,P|227:162|204:117,1,61.875002360344,2|0,0:2|0:2,0:0:0:0:
215,60,14954,6,0,L|54:56,1,123.750004720688,2|0,3:2|0:2,0:0:0:0:
72,63,15542,2,0,P|66:102|78:138,1,61.875002360344,10|0,0:2|0:2,0:0:0:0:
81,225,15837,1,10,0:2:0:0:
81,225,15984,2,0,P|50:200|13:192,1,61.875002360344,2|0,0:2|3:2,0:0:0:0:
143,162,16278,1,2,3:2:0:0:
143,162,16425,2,0,P|179:147|204:119,1,61.875002360344,2|0,0:2|0:2,0:0:0:0:
306,91,16719,5,10,0:2:0:0:
224,47,16866,1,0,3:2:0:0:
279,179,17013,2,0,L|268:244,1,61.875002360344,2|2,3:2|3:2,0:0:0:0:
318,312,17307,2,0,P|247:323|192:280,1,123.750004720688,6|0,3:2|0:2,0:0:0:0:
189,285,17895,2,0,L|119:303,1,61.875002360344,10|0,0:2|0:2,0:0:0:0:
49,326,18189,1,2,0:2:0:0:
12,242,18337,2,0,B|29:152|29:152|13:101,1,123.750004720688,0|0,3:2|3:2,0:0:0:0:
88,32,18778,6,0,P|114:27|160:34,1,61.875002360344,2|0,0:2|0:2,0:0:0:0:
210,89,19072,2,0,P|230:71|273:54,1,61.875002360344,10|0,0:2|0:2,0:0:0:0:
343,80,19366,2,0,P|351:54|380:18,1,61.875002360344,2|0,0:2|3:2,0:0:0:0:
453,11,19660,6,0,P|471:81|430:179,1,123.750004720688,2|0,3:2|0:2,0:0:0:0:
447,154,20248,2,0,L|464:228,1,61.875002360344,10|0,0:2|0:2,0:0:0:0:
394,282,20542,1,10,0:2:0:0:
394,282,20689,2,0,L|377:208,1,61.875002360344,2|0,0:2|3:2,0:0:0:0:
286,179,20984,1,2,3:2:0:0:
286,179,21131,2,0,L|303:253,1,61.875002360344,2|0,3:2|0:2,0:0:0:0:
254,315,21425,5,10,0:2:0:0:
164,329,21572,1,0,3:2:0:0:
198,180,21719,2,0,L|208:119,1,61.875002360344,2|2,3:2|3:2,0:0:0:0:
136,247,22013,2,0,B|56:257|56:257|3:228,1,123.750004720688,6|0,3:2|0:2,0:0:0:0:
12,214,22601,2,0,P|23:175|16:140,1,61.875002360344,10|0,0:2|0:2,0:0:0:0:
11,74,22895,1,2,0:2:0:0:
88,27,23042,2,0,L|216:34,1,123.750004720688,0|0,3:2|3:2,0:0:0:0:
280,81,23484,2,0,P|294:51|294:21,1,61.875002360344,2|0,0:2|0:2,0:0:0:0:
319,159,23778,2,0,P|346:140|361:114,1,61.875002360344,10|0,0:2|0:2,0:0:0:0:
309,247,24072,2,0,P|341:244|367:229,1,61.875002360344,2|0,0:2|0:2,0:0:0:0:
435,165,24366,6,0,P|463:221|449:284,1,123.750004720688,2|0,3:2|0:0,0:0:0:0:
443,298,24954,2,0,P|437:334|445:362,1,61.875002360344,10|0,0:2|0:2,0:0:0:0:
354,355,25248,1,10,0:2:0:0:
354,355,25395,2,0,P|347:324|353:294,1,61.875002360344,2|0,0:2|3:2,0:0:0:0:
264,300,25689,1,2,3:2:0:0:
264,300,25837,2,0,P|257:330|264:360,1,61.875002360344,2|0,3:2|0:2,0:0:0:0:
176,368,26131,5,10,0:2:0:0:
86,375,26278,1,0,3:2:0:0:
134,279,26425,2,0,L|197:243,1,61.875002360344,2|2,3:2|3:2,0:0:0:0:
5,338,26719,2,0,B|22:292|22:292|3:215,1,123.750004720688,6|0,3:2|0:2,0:0:0:0:
17,212,27307,2,0,P|50:191|95:192,1,61.875002360344,10|0,0:2|0:2,0:0:0:0:
154,205,27601,1,2,0:2:0:0:
223,146,27748,6,0,P|243:212|215:274,1,123.750004720688,0|0,3:2|3:2,0:0:0:0:
180,336,28189,2,0,L|243:349,1,61.875002360344,2|0,0:2|0:2,0:0:0:0:
307,283,28484,2,0,L|370:270,1,61.875002360344,10|0,0:2|0:2,0:0:0:0:
417,342,28778,2,0,L|480:355,1,61.875002360344,2|0,0:2|0:2,0:0:0:0:
511,276,29072,5,6,0:2:0:0:
511,276,29660,2,0,P|493:258|481:225,1,45.3750013847352,2|0,0:2|0:0,0:0:0:0:
430,162,29954,1,2,0:2:0:0:
430,162,30101,2,0,P|419:191|398:213,1,45.3750013847352,2|0,0:2|0:0,0:0:0:0:
363,292,30395,1,2,0:2:0:0:
363,292,30542,2,0,P|393:286|419:292,1,45.3750013847352,2|0,0:2|0:0,0:0:0:0:
484,240,30837,2,0,P|471:177|470:95,1,136.125004154205,8|0,0:2|0:2,0:0:0:0:
426,34,31425,6,0,P|401:54|390:80,1,49.4999984893799,6|0,3:2|0:0,0:0:0:0:
392,159,31719,2,0,P|362:147|334:150,1,49.4999984893799,0|0,0:2|3:2,0:0:0:0:
272,212,32013,2,0,P|267:180|250:157,1,49.4999984893799,10|0,0:2|0:2,0:0:0:0:
202,108,32307,2,0,P|158:148|51:137,1,148.49999546814,2|0,3:2|0:2,0:0:0:0:
15,204,32895,6,0,L|22:265,1,49.4999984893799,2|0,0:2|0:2,0:0:0:0:
105,287,33189,2,0,L|98:226,1,49.4999984893799,10|0,0:2|0:2,0:0:0:0:
186,260,33484,2,0,L|193:321,1,49.4999984893799,2|0,0:2|3:2,0:0:0:0:
276,334,33778,5,4,3:2:0:0:
293,339,34072,1,2,3:2:0:0:
310,345,34366,1,10,0:2:0:0:
326,351,34660,1,10,0:2:0:0:
384,236,34954,6,0,L|392:175,2,49.4999984893799,0|2|2,3:2|3:2|3:2,0:0:0:0:
251,161,35542,2,0,L|261:98,1,49.4999984893799,10|0,0:2|0:0,0:0:0:0:
345,112,35837,2,0,L|355:49,1,49.4999984893799,0|0,0:0|0:2,0:0:0:0:
285,10,36131,5,4,3:2:0:0:
424,143,36425,2,0,P|402:176|386:186,1,49.4999984893799,2|0,3:2|0:2,0:0:0:0:
360,259,36719,2,0,P|399:261|416:270,1,49.4999984893799,10|0,0:2|0:2,0:0:0:0:
483,292,37013,2,0,P|467:348|367:351,1,148.49999546814,2|0,3:2|0:2,0:0:0:0:
310,332,37601,6,0,L|259:349,1,49.4999984893799,2|0,0:2|0:2,0:0:0:0:
177,357,37895,2,0,L|187:304,1,49.4999984893799,10|0,0:2|0:2,0:0:0:0:
219,228,38189,2,0,L|259:263,1,49.4999984893799,2|0,0:2|0:2,0:0:0:0:
345,246,38484,5,2,3:2:0:0:
347,228,38778,1,2,3:2:0:0:
349,209,39072,1,10,0:2:0:0:
351,192,39366,1,10,0:2:0:0:
449,107,39660,6,0,L|436:55,2,49.4999984893799,0|2|2,3:2|3:2|3:2,0:0:0:0:
328,91,40248,2,0,L|316:31,1,49.4999984893799,10|0,0:2|0:2,0:0:0:0:
238,111,40542,2,0,L|226:51,1,49.4999984893799,2|0,0:2|0:2,0:0:0:0:
144,27,40837,5,4,3:2:0:0:
44,190,41131,2,0,P|25:156|21:129,1,49.4999984893799,2|0,3:2|0:2,0:0:0:0:
27,62,41425,2,0,P|46:28|68:11,1,49.4999984893799,10|0,0:2|0:2,0:0:0:0:
144,27,41719,2,0,P|160:45|171:67,1,49.4999984893799,2|0,3:2|0:2,0:0:0:0:
188,148,42013,6,0,B|306:177|306:177|283:136,1,148.49999546814,2|0,3:2|0:2,0:0:0:0:
256,78,42601,2,0,L|271:21,1,49.4999984893799,10|0,0:2|0:2,0:0:0:0:
346,69,42895,2,0,L|361:12,1,49.4999984893799,2|0,0:2|3:2,0:0:0:0:
447,25,43189,5,4,3:2:0:0:
451,44,43484,1,2,3:2:0:0:
454,62,43778,1,10,0:2:0:0:
456,78,44072,1,10,0:2:0:0:
346,194,44366,6,0,L|346:246,2,49.4999984893799,0|2|2,3:2|3:2|3:2,0:0:0:0:
503,159,44954,2,0,L|504:224,1,49.4999984893799,10|0,0:2|0:2,0:0:0:0:
472,281,45248,2,0,L|473:346,1,49.4999984893799,2|0,0:2|3:2,0:0:0:0:
393,370,45542,5,4,3:2:0:0:
213,264,45837,2,0,P|181:282|169:298,1,49.4999984893799,2|0,3:2|0:2,0:0:0:0:
300,275,46131,2,0,P|300:238|292:219,1,49.4999984893799,10|0,0:2|0:2,0:0:0:0:
244,348,46425,2,0,P|275:366|295:369,1,49.4999984893799,2|0,0:2|3:2,0:0:0:0:
368,340,46719,6,0,P|392:268|371:189,1,148.49999546814,2|0,3:2|0:2,0:0:0:0:
306,141,47307,2,0,L|219:157,1,49.4999984893799,10|0,0:2|0:2,0:0:0:0:
194,209,47601,2,0,L|107:225,1,49.4999984893799,2|0,0:2|3:2,0:0:0:0:
79,281,47895,5,6,3:2:0:0:
80,298,48189,1,2,0:2:0:0:
80,316,48484,1,2,0:2:0:0:
80,333,48778,1,2,0:2:0:0:
122,204,49072,6,0,L|122:153,2,49.4999984893799,0|2|2,3:2|3:2|3:2,0:0:0:0:
78,87,49660,2,0,P|117:72|145:79,1,49.4999984893799,10|0,0:2|0:2,0:0:0:0:
204,88,49954,2,0,P|236:114|244:142,1,49.4999984893799,2|0,3:2|0:2,0:0:0:0:
285,199,50248,6,0,L|353:210,1,49.4999984893799,6|0,3:2|0:0,0:0:0:0:
363,111,50542,2,0,L|314:118,1,49.4999984893799,0|0,0:2|3:2,0:0:0:0:
277,24,50837,2,0,L|325:31,1,49.4999984893799,10|0,0:2|0:2,0:0:0:0:
424,41,51131,2,0,P|395:100|428:184,1,148.49999546814,2|0,3:2|0:2,0:0:0:0:
481,245,51719,6,0,P|445:263|433:283,1,49.4999984893799,2|0,0:2|0:2,0:0:0:0:
380,323,52013,2,0,P|398:339|421:346,1,49.4999984893799,10|0,0:2|0:2,0:0:0:0:
501,371,52307,2,0,P|505:346|500:323,1,49.4999984893799,2|0,0:2|3:2,0:0:0:0:
481,245,52601,5,4,3:2:0:0:
484,222,52895,1,2,3:2:0:0:
486,195,53189,1,10,0:2:0:0:
489,173,53484,1,10,0:2:0:0:
463,41,53778,6,0,L|414:33,2,49.4999984893799,0|2|2,3:2|3:2|3:2,0:0:0:0:
337,109,54366,2,0,L|270:120,1,49.4999984893799,10|0,0:2|0:0,0:0:0:0:
229,58,54660,2,0,L|162:47,1,49.4999984893799,0|0,0:0|0:2,0:0:0:0:
127,116,54954,5,4,3:2:0:0:
25,49,55248,2,0,P|36:73|41:107,1,49.4999984893799,2|0,3:2|0:2,0:0:0:0:
127,116,55542,2,0,P|117:140|97:168,1,49.4999984893799,10|0,0:2|0:2,0:0:0:0:
40,243,55837,2,0,P|85:241|180:307,1,148.49999546814,2|0,3:2|0:2,0:0:0:0:
260,307,56425,6,0,L|248:239,1,49.4999984893799,2|0,0:2|0:2,0:0:0:0:
343,273,56719,2,0,L|355:341,1,49.4999984893799,10|0,0:2|0:2,0:0:0:0:
440,333,57013,2,0,L|428:265,1,49.4999984893799,2|0,0:2|0:2,0:0:0:0:
490,208,57307,5,2,3:2:0:0:
490,190,57601,1,2,3:2:0:0:
490,169,57895,1,10,0:2:0:0:
490,150,58189,1,10,0:2:0:0:
436,43,58484,6,0,L|484:17,2,49.4999984893799,0|2|2,3:2|3:2|3:2,0:0:0:0:
299,31,59072,2,0,P|266:30|232:44,1,49.4999984893799,10|0,0:2|0:2,0:0:0:0:
180,90,59366,2,0,P|157:65|123:51,1,49.4999984893799,2|0,0:2|0:2,0:0:0:0:
67,15,59660,5,4,3:2:0:0:
30,140,59954,2,0,L|94:150,1,49.4999984893799,2|0,3:2|0:2,0:0:0:0:
142,220,60248,2,0,L|78:230,1,49.4999984893799,10|0,0:2|0:2,0:0:0:0:
28,304,60542,2,0,L|92:314,1,49.4999984893799,2|0,3:2|0:2,0:0:0:0:
150,364,60837,2,0,B|265:344|265:344|235:309,1,148.49999546814,2|0,3:2|0:2,0:0:0:0:
247,231,61425,6,0,P|261:201|289:187,1,49.4999984893799,10|0,0:2|0:2,0:0:0:0:
238,119,61719,2,0,P|269:107|298:117,1,49.4999984893799,2|0,0:2|3:2,0:0:0:0:
354,161,62013,5,4,3:2:0:0:
370,158,62307,1,2,3:2:0:0:
386,155,62601,1,10,0:2:0:0:
400,152,62895,1,10,0:2:0:0:
439,40,63189,6,0,L|490:25,2,49.4999984893799,0|2|2,3:2|3:2|3:2,0:0:0:0:
298,105,63778,2,0,L|231:94,1,49.4999984893799,10|0,0:2|0:2,0:0:0:0:
171,127,64072,2,0,L|104:116,1,49.4999984893799,2|0,0:2|3:2,0:0:0:0:
49,71,64366,5,4,3:2:0:0:
87,246,64660,2,0,L|157:230,1,49.4999984893799,2|0,3:2|0:2,0:0:0:0:
226,221,64954,2,0,L|204:289,1,49.4999984893799,10|0,0:2|0:2,0:0:0:0:
181,356,65248,2,0,L|132:303,1,49.4999984893799,2|0,0:2|3:2,0:0:0:0:
87,246,65542,2,0,P|110:165|93:98,1,148.49999546814,2|0,3:2|0:2,0:0:0:0:
138,28,66131,6,0,P|168:26|199:33,1,49.4999984893799,10|0,0:2|0:2,0:0:0:0:
263,74,66425,2,0,P|279:98|289:129,1,49.4999984893799,2|0,0:2|3:2,0:0:0:0:
286,203,66719,5,6,3:2:0:0:
288,222,67013,1,2,0:2:0:0:
291,243,67307,1,2,0:2:0:0:
293,262,67601,1,2,0:2:0:0:
331,374,67895,6,0,L|284:380,2,41.25,0|2|2,0:2|0:2|0:2,0:0:0:0:
419,272,68484,2,0,L|470:279,1,41.25,2|0,0:2|0:0,0:0:0:0:
497,354,68778,2,0,L|446:361,1,41.25,2|0,0:2|0:0,0:0:0:0:
419,272,69072,6,0,P|390:203|426:142,1,123.750004720688,6|0,3:2|0:2,0:0:0:0:
423,147,69660,2,0,L|421:64,1,61.875002360344,10|0,0:2|0:2,0:0:0:0:
456,11,69954,1,2,0:2:0:0:
353,30,70101,2,0,B|203:20,1,123.750004720688,0|0,3:2|3:2,0:0:0:0:
139,13,70542,6,0,P|143:55|164:86,1,61.875002360344,2|0,0:2|0:2,0:0:0:0:
85,130,70837,2,0,P|117:156|154:163,1,61.875002360344,10|0,0:2|0:2,0:0:0:0:
129,249,71131,2,0,P|170:245|201:224,1,61.875002360344,2|0,0:2|0:2,0:0:0:0:
226,160,71425,6,0,L|218:303,1,123.750004720688,2|0,3:2|0:2,0:0:0:0:
227,303,72013,2,0,L|302:328,1,61.875002360344,10|0,0:2|0:2,0:0:0:0:
383,354,72307,1,10,0:2:0:0:
383,354,72454,2,0,L|367:276,1,61.875002360344,2|0,0:2|3:2,0:0:0:0:
349,192,72748,1,2,3:2:0:0:
349,192,72895,2,0,L|289:244,1,61.875002360344,2|0,0:2|0:2,0:0:0:0:
190,180,73189,5,10,0:2:0:0:
274,139,73337,1,0,3:2:0:0:
253,298,73484,2,0,L|276:358,1,61.875002360344,2|2,3:2|3:2,0:0:0:0:
171,264,73778,2,0,P|99:242|33:251,1,123.750004720688,6|0,3:2|0:2,0:0:0:0:
31,249,74366,2,0,L|19:321,1,61.875002360344,10|0,0:2|0:2,0:0:0:0:
100,370,74660,1,2,0:2:0:0:
196,350,74807,2,0,B|281:337|281:337|329:358,1,123.750004720688,0|0,3:2|3:2,0:0:0:0:
380,285,75248,6,0,P|381:254|370:225,1,61.875002360344,2|0,0:2|0:2,0:0:0:0:
279,199,75542,2,0,P|251:213|232:237,1,61.875002360344,10|0,0:2|0:2,0:0:0:0:
259,330,75837,2,0,P|285:346|315:351,1,61.875002360344,2|0,0:2|3:2,0:0:0:0:
380,285,76131,6,0,P|454:277|514:310,1,123.750004720688,2|0,3:2|0:2,0:0:0:0:
512,300,76719,2,0,L|500:221,1,61.875002360344,10|0,0:2|0:2,0:0:0:0:
428,119,77013,1,10,0:2:0:0:
428,119,77160,2,0,L|440:198,1,61.875002360344,2|0,0:2|3:2,0:0:0:0:
380,285,77454,1,2,3:2:0:0:
380,285,77601,2,0,L|368:206,1,61.875002360344,2|0,3:2|0:2,0:0:0:0:
258,183,77895,5,10,0:2:0:0:
339,147,78042,1,0,3:2:0:0:
287,283,78189,2,0,L|221:301,1,61.875002360344,2|2,3:2|3:2,0:0:0:0:
159,221,78484,2,0,L|36:213,1,123.750004720688,6|0,3:2|0:2,0:0:0:0:
15,210,79072,2,0,L|8:134,1,61.875002360344,10|0,0:2|0:2,0:0:0:0:
23,63,79366,1,2,0:2:0:0:
106,25,79513,2,0,B|193:37|193:37|230:23,1,123.750004720688,0|0,3:2|3:2,0:0:0:0:
319,49,79954,6,0,L|300:115,1,61.875002360344,2|0,0:2|0:2,0:0:0:0:
370,170,80248,2,0,L|309:203,1,61.875002360344,10|0,0:2|0:2,0:0:0:0:
328,300,80542,2,0,L|262:281,1,61.875002360344,2|0,0:2|0:2,0:0:0:0:
201,222,80837,6,0,P|147:233|66:201,1,123.750004720688,2|0,3:2|0:0,0:0:0:0:
61,202,81425,2,0,P|39:236|44:278,1,61.875002360344,10|0,0:2|0:2,0:0:0:0:
145,147,81719,1,10,0:2:0:0:
145,147,81866,2,0,P|167:113|162:71,1,61.875002360344,2|0,0:2|3:2,0:0:0:0:
201,222,82160,1,2,3:2:0:0:
201,222,82307,2,0,P|179:256|184:298,1,61.875002360344,2|0,3:2|0:2,0:0:0:0:
182,377,82601,5,10,0:2:0:0:
269,369,82748,1,0,3:2:0:0:
290,243,82895,2,0,L|272:167,1,61.875002360344,2|2,3:2|3:2,0:0:0:0:
342,331,83189,2,0,L|472:344,1,123.750004720688,6|0,3:2|0:2,0:0:0:0:
468,330,83778,2,0,P|476:285|492:259,1,61.875002360344,10|0,0:2|0:2,0:0:0:0:
477,189,84072,1,2,0:2:0:0:
416,120,84219,2,0,P|435:182|414:234,1,123.750004720688,0|0,3:2|3:2,0:0:0:0:
330,212,84660,2,0,L|260:195,1,61.875002360344,2|0,0:2|0:2,0:0:0:0:
180,291,84954,2,0,L|250:274,1,61.875002360344,10|0,0:2|0:2,0:0:0:0:
324,371,85248,2,0,L|254:354,1,61.875002360344,2|0,0:2|0:2,0:0:0:0:
180,291,85542,5,6,0:2:0:0:
180,291,86131,2,0,P|144:297|120:317,1,61.875002360344,10|0,0:2|0:0,0:0:0:0:
26,328,86425,1,10,0:2:0:0:
26,328,86572,2,0,P|31:286|25:255,1,61.875002360344,2|0,0:2|0:0,0:0:0:0:
63,177,86866,1,2,0:2:0:0:
63,177,87013,2,0,P|86:205|115:215,1,61.875002360344,2|0,0:2|0:0,0:0:0:0:
197,203,87307,6,0,L|218:59,1,136.125004154205,10|0,0:2|0:2,0:0:0:0:
149,9,87895,2,0,L|71:17,1,53.6249975452424,6|0,3:2|0:0,0:0:0:0:
4,59,88189,2,0,L|44:116,1,53.6249975452424,0|0,0:2|3:2,0:0:0:0:
108,163,88484,2,0,L|136:96,1,53.6249975452424,10|0,0:2|0:2,0:0:0:0:
216,68,88778,2,0,P|302:94|390:68,1,160.874992635727,2|0,3:2|0:2,0:0:0:0:
433,23,89366,6,0,P|451:56|452:93,1,53.6249975452424,2|0,0:2|0:2,0:0:0:0:
338,121,89660,2,0,P|357:88|389:69,1,53.6249975452424,10|0,0:2|0:2,0:0:0:0:
471,159,89954,2,0,P|433:158|400:140,1,53.6249975452424,2|0,0:2|3:2,0:0:0:0:
356,214,90248,5,4,3:2:0:0:
362,237,90542,1,2,3:2:0:0:
368,258,90837,1,10,0:2:0:0:
373,280,91131,1,10,0:2:0:0:
311,344,91278,6,0,L|251:337,1,53.6249975452424,0|0,0:2|3:2,0:0:0:0:
131,294,91572,1,2,3:2:0:0:
131,294,91719,2,0,L|191:287,1,53.6249975452424,2|0,3:2|0:0,0:0:0:0:
247,207,92013,2,0,P|245:177|220:143,1,53.6249975452424,10|0,0:2|0:0,0:0:0:0:
144,152,92307,2,0,P|146:182|171:216,1,53.6249975452424,0|0,0:0|0:2,0:0:0:0:
247,207,92601,5,4,3:2:0:0:
326,88,92895,2,0,L|388:74,1,53.6249975452424,2|0,3:2|0:2,0:0:0:0:
441,138,93189,2,0,L|503:152,1,53.6249975452424,10|0,0:2|0:2,0:0:0:0:
480,237,93484,2,0,P|445:254|415:363,1,160.874992635727,2|0,3:2|0:2,0:0:0:0:
326,352,94072,6,0,L|268:337,1,53.6249975452424,2|0,0:2|0:2,0:0:0:0:
197,290,94366,2,0,L|238:247,1,53.6249975452424,10|0,0:2|0:2,0:0:0:0:
313,204,94660,2,0,L|329:261,1,53.6249975452424,2|0,0:2|0:2,0:0:0:0:
326,352,94954,5,2,3:2:0:0:
311,351,95248,1,2,3:2:0:0:
293,350,95542,1,10,0:2:0:0:
271,349,95837,1,10,0:2:0:0:
184,318,95984,6,0,L|127:329,1,53.6249975452424,0|0,0:2|3:2,0:0:0:0:
44,301,96278,1,2,3:2:0:0:
44,301,96425,2,0,L|36:365,1,53.6249975452424,2|0,3:2|0:0,0:0:0:0:
115,234,96719,2,0,L|103:178,3,53.6249975452424,10|2|2|2,0:2|3:2|3:2|3:2,0:0:0:0:
33,131,97307,5,4,3:2:0:0:
151,29,97601,2,0,P|167:63|166:88,1,53.6249975452424,2|0,3:2|0:2,0:0:0:0:
227,149,97895,2,0,P|248:118|270:106,1,53.6249975452424,10|0,0:2|0:2,0:0:0:0:
298,24,98189,2,0,P|260:20|239:7,1,53.6249975452424,2|0,3:2|0:2,0:0:0:0:
151,29,98484,6,0,L|131:202,1,160.874992635727,2|0,3:2|0:2,0:0:0:0:
71,261,99072,2,0,L|-4:273,1,53.6249975452424,10|0,0:2|0:2,0:0:0:0:
48,357,99366,2,0,L|123:369,1,53.6249975452424,2|0,0:2|3:2,0:0:0:0:
177,301,99660,5,4,3:2:0:0:
195,308,99954,1,2,3:2:0:0:
214,316,100248,1,10,0:2:0:0:
230,323,100542,1,10,0:2:0:0:
314,271,100689,6,0,L|372:258,1,53.6249975452424,0|0,0:2|3:2,0:0:0:0:
453,303,100984,1,2,3:2:0:0:
453,303,101131,2,0,L|462:237,1,53.6249975452424,2|0,3:2|0:0,0:0:0:0:
406,172,101425,2,0,P|382:155|344:148,3,53.6249975452424,10|2|2|2,0:2|3:2|3:2|3:2,0:0:0:0:
277,189,102013,5,4,3:2:0:0:
153,266,102307,2,0,P|111:274|89:272,1,53.6249975452424,2|0,3:2|0:2,0:0:0:0:
79,146,102601,2,0,P|106:178|116:198,1,53.6249975452424,10|0,0:2|0:2,0:0:0:0:
15,269,102895,2,0,P|29:228|41:210,1,53.6249975452424,2|0,0:2|3:2,0:0:0:0:
79,146,103189,6,0,L|245:117,1,160.874992635727,2|0,3:2|0:2,0:0:0:0:
353,68,103778,2,0,L|344:127,1,53.6249975452424,10|0,0:2|0:2,0:0:0:0:
437,113,104072,2,0,L|428:172,1,53.6249975452424,2|0,0:2|3:2,0:0:0:0:
376,243,104366,5,6,3:2:0:0:
376,243,104954,2,0,P|349:247|326:258,1,41.25,10|0,0:2|0:0,0:0:0:0:
242,272,105248,1,10,0:2:0:0:
242,272,105395,2,0,P|252:246|254:221,1,41.25,2|0,3:2|0:0,0:0:0:0:
279,136,105689,1,2,3:2:0:0:
279,136,105836,2,0,P|295:157|316:171,1,41.25,2|0,3:2|0:0,0:0:0:0:
396,160,106131,2,0,L|427:36,1,123.75,8|0,0:2|0:2,0:0:0:0:
331,18,106719,5,2,0:2:0:0:
