osu file format v14

[General]
AudioFilename: audio.mp3
AudioLeadIn: 0
PreviewTime: 1237
Countdown: 0
SampleSet: None
StackLeniency: 0.7
Mode: 2
LetterboxInBreaks: 0
WidescreenStoryboard: 1

[Editor]
DistanceSpacing: 1
BeatDivisor: 12
GridSize: 4
TimelineZoom: 2.4

[Metadata]
Title:GIBARA
TitleUnicode:ギバラ
Artist:Otogibaraera
ArtistUnicode:御伽原江良
Creator:Nagato
Version:G·I·B·A·R·AA [AR10]
Source:
Tags:Virtual Youtuber バーチャル にじさんじ
BeatmapID:2024024
BeatmapSetID:967068

[Difficulty]
HPDrainRate:6
CircleSize:5
OverallDifficulty:7
ApproachRate:10
SliderMultiplier:1.6
SliderTickRate:2

[Events]
//Background and Video events
0,0,"QQ图片20190505212239.png",0,0
//Break Periods
//Storyboard Layer 0 (Background)
//Storyboard Layer 1 (Fail)
//Storyboard Layer 2 (Pass)
//Storyboard Layer 3 (Foreground)
//Storyboard Sound Samples

[TimingPoints]
1275,454.545454545455,4,3,0,20,1,0

[HitObjects]
176,192,1275,5,0,0:0:0:0:
60,192,1351,1,0,0:0:0:0:
412,80,1578,1,0,0:0:0:0:
296,80,1730,1,0,0:0:0:0:
80,312,1957,1,0,0:0:0:0:
376,240,2184,1,0,0:0:0:0:
236,244,2260,1,0,0:0:0:0:
76,76,2487,1,0,0:0:0:0:
380,308,2639,1,0,0:0:0:0:
396,308,2753,1,0,0:0:0:0:
412,308,2866,1,0,0:0:0:0:
428,308,2980,1,0,0:0:0:0:
256,60,3093,5,0,0:0:0:0:
392,64,3169,1,0,0:0:0:0:
212,172,3434,1,0,0:0:0:0:
352,176,3548,1,0,0:0:0:0:
148,60,3775,1,0,0:0:0:0:
316,296,4003,1,0,0:0:0:0:
176,296,4116,1,0,0:0:0:0:
40,192,4230,2,0,P|80:192|80:192,1,40
252,124,4457,2,0,P|200:124|200:124,1,40
0,44,4646,1,0,0:0:0:0:
116,44,4760,1,0,0:0:0:0:
336,192,4912,5,0,0:0:0:0:
452,192,4988,1,0,0:0:0:0:
100,80,5215,1,0,0:0:0:0:
216,80,5365,1,0,0:0:0:0:
432,312,5594,1,0,0:0:0:0:
136,240,5821,1,0,0:0:0:0:
276,244,5897,1,0,0:0:0:0:
436,76,6124,1,0,0:0:0:0:
132,308,6276,1,0,0:0:0:0:
116,308,6388,1,0,0:0:0:0:
100,308,6502,1,0,0:0:0:0:
84,308,6615,1,0,0:0:0:0:
256,60,6729,5,0,0:0:0:0:
120,64,6805,1,0,0:0:0:0:
300,172,7070,1,0,0:0:0:0:
160,168,7184,1,0,0:0:0:0:
364,60,7412,1,0,0:0:0:0:
256,296,7638,1,0,0:0:0:0:
384,292,7752,1,0,0:0:0:0:
104,192,7941,1,0,0:0:0:0:
400,148,8093,1,0,0:0:0:0:
308,148,8206,1,0,0:0:0:0:
400,76,8320,1,0,0:0:0:0:
308,76,8434,1,0,0:0:0:0:
176,192,8548,5,0,0:0:0:0:
60,192,8624,1,0,0:0:0:0:
412,80,8851,1,0,0:0:0:0:
296,80,9003,1,0,0:0:0:0:
80,312,9230,1,0,0:0:0:0:
376,240,9457,1,0,0:0:0:0:
236,244,9533,1,0,0:0:0:0:
76,76,9760,1,0,0:0:0:0:
380,308,9912,1,0,0:0:0:0:
396,308,10026,1,0,0:0:0:0:
412,308,10139,1,0,0:0:0:0:
428,308,10253,1,0,0:0:0:0:
256,60,10366,5,0,0:0:0:0:
392,64,10442,1,0,0:0:0:0:
212,172,10707,1,0,0:0:0:0:
352,176,10821,1,0,0:0:0:0:
148,60,11048,1,0,0:0:0:0:
316,296,11276,1,0,0:0:0:0:
176,296,11389,1,0,0:0:0:0:
40,192,11503,2,0,P|80:192|80:192,1,40
252,124,11730,2,0,P|200:124|200:124,1,40
0,44,11919,1,0,0:0:0:0:
116,44,12033,1,0,0:0:0:0:
336,192,12185,5,0,0:0:0:0:
452,192,12259,1,0,0:0:0:0:
100,80,12487,1,0,0:0:0:0:
216,80,12638,1,0,0:0:0:0:
432,312,12865,1,0,0:0:0:0:
136,240,13094,1,0,0:0:0:0:
276,244,13168,1,0,0:0:0:0:
436,76,13397,1,0,0:0:0:0:
132,308,13547,1,0,0:0:0:0:
116,308,13661,1,0,0:0:0:0:
100,308,13775,1,0,0:0:0:0:
84,308,13888,1,0,0:0:0:0:
256,60,14003,5,0,0:0:0:0:
120,64,14079,1,0,0:0:0:0:
300,172,14344,1,0,0:0:0:0:
160,168,14456,1,0,0:0:0:0:
364,60,14685,1,0,0:0:0:0:
256,296,14911,1,0,0:0:0:0:
384,292,15062,1,0,0:0:0:0:
104,192,15215,1,0,0:0:0:0:
400,148,15366,1,0,0:0:0:0:
308,148,15480,1,0,0:0:0:0:
400,76,15594,1,0,0:0:0:0:
308,76,15707,1,0,0:0:0:0:
176,192,15821,5,0,0:0:0:0:
60,192,15897,1,0,0:0:0:0:
412,80,16124,1,0,0:0:0:0:
296,80,16276,1,0,0:0:0:0:
80,312,16503,1,0,0:0:0:0:
376,240,16730,1,0,0:0:0:0:
236,244,16806,1,0,0:0:0:0:
76,76,17033,1,0,0:0:0:0:
380,308,17185,1,0,0:0:0:0:
396,308,17297,1,0,0:0:0:0:
412,308,17411,1,0,0:0:0:0:
428,308,17525,1,0,0:0:0:0:
256,60,17639,5,0,0:0:0:0:
392,64,17715,1,0,0:0:0:0:
212,172,17980,1,0,0:0:0:0:
352,176,18094,1,0,0:0:0:0:
148,60,18321,1,0,0:0:0:0:
316,296,18547,1,0,0:0:0:0:
176,296,18662,1,0,0:0:0:0:
40,192,18776,2,0,P|80:192|80:192,1,40
252,124,19003,2,0,P|200:124|200:124,1,40
0,44,19192,1,0,0:0:0:0:
116,44,19306,1,0,0:0:0:0:
336,192,19456,5,0,0:0:0:0:
452,192,19532,1,0,0:0:0:0:
100,80,19759,1,0,0:0:0:0:
216,80,19911,1,0,0:0:0:0:
432,312,20138,1,0,0:0:0:0:
136,240,20365,1,0,0:0:0:0:
276,244,20441,1,0,0:0:0:0:
436,76,20668,1,0,0:0:0:0:
132,308,20820,1,0,0:0:0:0:
116,308,20934,1,0,0:0:0:0:
100,308,21047,1,0,0:0:0:0:
84,308,21161,1,0,0:0:0:0:
256,60,21276,5,0,0:0:0:0:
120,64,21350,1,0,0:0:0:0:
300,172,21615,1,0,0:0:0:0:
160,168,21729,1,0,0:0:0:0:
364,60,21956,1,0,0:0:0:0:
256,296,22184,1,0,0:0:0:0:
384,292,22297,1,0,0:0:0:0:
104,192,22488,1,0,0:0:0:0:
400,148,22639,1,0,0:0:0:0:
308,148,22753,1,0,0:0:0:0:
400,76,22865,1,0,0:0:0:0:
308,76,22979,1,0,0:0:0:0:
176,192,23093,5,0,0:0:0:0:
60,192,23169,1,0,0:0:0:0:
412,80,23396,1,0,0:0:0:0:
296,80,23548,1,0,0:0:0:0:
80,312,23775,1,0,0:0:0:0:
376,240,24002,1,0,0:0:0:0:
236,244,24078,1,0,0:0:0:0:
76,76,24305,1,0,0:0:0:0:
380,308,24457,1,0,0:0:0:0:
396,308,24571,1,0,0:0:0:0:
412,308,24684,1,0,0:0:0:0:
428,308,24798,1,0,0:0:0:0:
256,60,24911,5,0,0:0:0:0:
392,64,24987,1,0,0:0:0:0:
212,172,25252,1,0,0:0:0:0:
352,176,25366,1,0,0:0:0:0:
148,60,25593,1,0,0:0:0:0:
316,296,25821,1,0,0:0:0:0:
176,296,25934,1,0,0:0:0:0:
40,192,26048,2,0,P|80:192|80:192,1,40
252,124,26275,2,0,P|200:124|200:124,1,40
0,44,26464,1,0,0:0:0:0:
116,44,26578,1,0,0:0:0:0:
336,192,26730,5,0,0:0:0:0:
452,192,26806,1,0,0:0:0:0:
100,80,27033,1,0,0:0:0:0:
216,80,27185,1,0,0:0:0:0:
432,312,27412,1,0,0:0:0:0:
136,240,27639,1,0,0:0:0:0:
276,244,27715,1,0,0:0:0:0:
436,76,27942,1,0,0:0:0:0:
132,308,28094,1,0,0:0:0:0:
116,308,28206,1,0,0:0:0:0:
100,308,28321,1,0,0:0:0:0:
84,308,28435,1,0,0:0:0:0:
256,60,28548,5,0,0:0:0:0:
120,64,28624,1,0,0:0:0:0:
300,172,28889,1,0,0:0:0:0:
160,168,29003,1,0,0:0:0:0:
364,60,29230,1,0,0:0:0:0:
256,296,29456,1,0,0:0:0:0:
384,292,29571,1,0,0:0:0:0:
104,192,29760,1,0,0:0:0:0:
400,148,29911,1,0,0:0:0:0:
308,148,30025,1,0,0:0:0:0:
400,76,30139,1,0,0:0:0:0:
308,76,30252,1,0,0:0:0:0:
176,192,30366,5,0,0:0:0:0:
60,192,30442,1,0,0:0:0:0:
412,80,30669,1,0,0:0:0:0:
296,80,30821,1,0,0:0:0:0:
80,312,31048,1,0,0:0:0:0:
376,240,31275,1,0,0:0:0:0:
236,244,31351,1,0,0:0:0:0:
76,76,31578,1,0,0:0:0:0:
380,308,31730,1,0,0:0:0:0:
396,308,31844,1,0,0:0:0:0:
412,308,31957,1,0,0:0:0:0:
428,308,32071,1,0,0:0:0:0:
256,60,32184,5,0,0:0:0:0:
392,64,32260,1,0,0:0:0:0:
212,172,32525,1,0,0:0:0:0:
352,176,32639,1,0,0:0:0:0:
148,60,32866,1,0,0:0:0:0:
316,296,33094,1,0,0:0:0:0:
176,296,33207,1,0,0:0:0:0:
40,192,33321,2,0,P|80:192|80:192,1,40
252,124,33548,2,0,P|200:124|200:124,1,40
0,44,33737,1,0,0:0:0:0:
116,44,33851,1,0,0:0:0:0:
336,192,34003,5,0,0:0:0:0:
452,192,34079,1,0,0:0:0:0:
100,80,34306,1,0,0:0:0:0:
216,80,34456,1,0,0:0:0:0:
432,312,34684,1,0,0:0:0:0:
136,240,34912,1,0,0:0:0:0:
276,244,34988,1,0,0:0:0:0:
436,76,35215,1,0,0:0:0:0:
132,308,35365,1,0,0:0:0:0:
116,308,35479,1,0,0:0:0:0:
100,308,35594,1,0,0:0:0:0:
84,308,35706,1,0,0:0:0:0:
256,60,35821,5,0,0:0:0:0:
120,64,35897,1,0,0:0:0:0:
300,172,36162,1,0,0:0:0:0:
160,168,36276,1,0,0:0:0:0:
364,60,36503,1,0,0:0:0:0:
256,296,36729,1,0,0:0:0:0:
384,292,36844,1,0,0:0:0:0:
104,192,37033,1,0,0:0:0:0:
400,148,37184,1,0,0:0:0:0:
308,148,37298,1,0,0:0:0:0:
400,76,37412,1,0,0:0:0:0:
308,76,37525,1,0,0:0:0:0:
