osu file format v14

[General]
AudioFilename: audio.mp3
AudioLeadIn: 0
PreviewTime: 54101
Countdown: 0
SampleSet: Normal
StackLeniency: 0.7
Mode: 1
LetterboxInBreaks: 0
WidescreenStoryboard: 1

[Editor]
DistanceSpacing: 1.6
BeatDivisor: 4
GridSize: 32
TimelineZoom: 2.1

[Metadata]
Title:1+1 de Q.E.D.!!
TitleUnicode:1+1でQ.E.D.!!
Artist:Otogibara Era, Warabeda Meiji
ArtistUnicode:御伽原江良、童田明治
Creator:taiko_ryuki
Version:Muzukashii
Source:
Tags:Nor SMASH The PAINT!! Gibara ギバラ vtuber virtual youtuber バーチャルyoutuber にじさんじ Nijisanji 2434 japanese pop jpop がぶりえら Gaburiera
BeatmapID:2318105
BeatmapSetID:1107475

[Difficulty]
HPDrainRate:6
CircleSize:5
OverallDifficulty:5
ApproachRate:5
SliderMultiplier:1.4
SliderTickRate:1

[Events]
//Background and Video events
0,0,"bg.jpg",0,50
//Break Periods
//Storyboard Layer 0 (Background)
//Storyboard Layer 1 (Fail)
//Storyboard Layer 2 (Pass)
//Storyboard Layer 3 (Foreground)
//Storyboard Layer 4 (Overlay)
//Storyboard Sound Samples

[TimingPoints]
340,342.857142857143,4,1,0,70,1,0
5782,-100,4,1,0,85,0,0
11268,-100,4,1,0,75,0,0
16754,-100,4,1,0,80,0,0
22239,-100,4,1,0,85,0,0
27725,-100,4,1,0,80,0,0
33039,-100,4,1,0,75,0,0
44182,-100,4,1,0,80,0,0
49668,-100,4,1,0,85,0,0
54125,-100,4,1,0,90,0,0
55154,-100,4,1,0,95,0,0
55197,-100,4,1,0,95,0,1
66125,-100,4,1,0,90,0,1
79497,-100,4,1,0,95,0,1
79540,-100,4,1,0,95,0,0

[HitObjects]
136,108,340,5,8,0:0:0:0:
136,108,682,1,8,0:0:0:0:
136,108,854,1,8,0:0:0:0:
136,108,1197,1,8,0:0:0:0:
136,108,1540,1,8,0:0:0:0:
136,108,1882,1,0,0:0:0:0:
136,108,2225,1,0,0:0:0:0:
136,108,2740,1,0,0:0:0:0:
136,108,3082,1,8,0:0:0:0:
136,108,3425,1,0,0:0:0:0:
136,108,3597,1,8,0:0:0:0:
136,108,3940,1,8,0:0:0:0:
136,108,4282,1,0,0:0:0:0:
136,108,4625,1,8,0:0:0:0:
136,108,4968,1,0,0:0:0:0:
132,112,5311,1,0,0:0:0:0:
136,108,5482,1,8,0:0:0:0:
136,108,5825,1,4,0:0:0:0:
136,108,6168,1,8,0:0:0:0:
136,108,6340,1,8,0:0:0:0:
136,108,6511,1,0,0:0:0:0:
136,108,7025,1,8,0:0:0:0:
136,108,7197,1,0,0:0:0:0:
136,108,7540,1,8,0:0:0:0:
136,108,7711,1,8,0:0:0:0:
136,108,7882,1,0,0:0:0:0:
136,108,8568,1,0,0:0:0:0:
136,108,8740,1,0,0:0:0:0:
136,108,8911,1,8,0:0:0:0:
136,108,9254,1,0,0:0:0:0:
136,108,9425,1,0,0:0:0:0:
136,108,9597,1,8,0:0:0:0:
127,117,9768,1,8,0:0:0:0:
136,108,10111,1,0,0:0:0:0:
136,108,10197,1,0,0:0:0:0:
136,108,10282,1,0,0:0:0:0:
136,108,10454,1,8,0:0:0:0:
138,112,10625,1,8,0:0:0:0:
138,112,10968,1,0,0:0:0:0:
136,108,11311,1,4,0:0:0:0:
133,107,11654,1,0,0:0:0:0:
136,108,11997,1,8,0:0:0:0:
136,108,12340,1,0,0:0:0:0:
136,108,12682,1,0,0:0:0:0:
136,108,12854,1,8,0:0:0:0:
136,108,13197,1,8,0:0:0:0:
136,108,13540,1,0,0:0:0:0:
136,108,13882,1,8,0:0:0:0:
136,108,14225,1,0,0:0:0:0:
136,108,14397,1,8,0:0:0:0:
136,108,14740,1,0,0:0:0:0:
136,108,14911,1,0,0:0:0:0:
136,108,15082,1,8,0:0:0:0:
136,108,15425,1,8,0:0:0:0:
136,108,15597,1,8,0:0:0:0:
142,114,15940,1,8,0:0:0:0:
142,114,16282,1,0,0:0:0:0:
136,108,16797,1,4,0:0:0:0:
136,108,17140,1,8,0:0:0:0:
136,108,17311,1,0,0:0:0:0:
136,108,17482,1,0,0:0:0:0:
136,108,17654,1,0,0:0:0:0:
136,108,17825,1,8,0:0:0:0:
136,108,18168,1,0,0:0:0:0:
136,108,18511,1,8,0:0:0:0:
136,108,18682,1,0,0:0:0:0:
136,108,19025,1,0,0:0:0:0:
136,108,19197,1,8,0:0:0:0:
125,106,19368,1,0,0:0:0:0:
136,108,19540,1,0,0:0:0:0:
136,108,19882,1,8,0:0:0:0:
136,108,20225,1,0,0:0:0:0:
136,108,20568,1,8,0:0:0:0:
136,108,20740,1,0,0:0:0:0:
136,108,21082,1,0,0:0:0:0:
136,108,21254,1,8,0:0:0:0:
136,108,21597,1,8,0:0:0:0:
136,108,22282,1,4,0:0:0:0:
136,108,22625,1,8,0:0:0:0:
123,104,22968,1,8,0:0:0:0:
136,108,23311,1,0,0:0:0:0:
136,108,23654,1,0,0:0:0:0:
136,108,23825,1,0,0:0:0:0:
136,108,23997,1,8,0:0:0:0:
136,108,24168,1,0,0:0:0:0:
136,108,24511,1,0,0:0:0:0:
136,108,24854,1,8,0:0:0:0:
136,108,25025,1,0,0:0:0:0:
136,108,25197,1,0,0:0:0:0:
136,108,25368,1,8,0:0:0:0:
136,108,25711,1,8,0:0:0:0:
136,108,25882,1,0,0:0:0:0:
136,108,26054,1,0,0:0:0:0:
136,108,26397,1,0,0:0:0:0:
155,99,26568,1,0,0:0:0:0:
136,108,26740,1,8,0:0:0:0:
136,108,26911,1,0,0:0:0:0:
136,108,26997,1,0,0:0:0:0:
136,108,27082,1,0,0:0:0:0:
136,108,27254,1,8,0:0:0:0:
136,108,27768,1,0,0:0:0:0:
136,108,28111,1,8,0:0:0:0:
136,108,28282,1,0,0:0:0:0:
136,108,28454,1,0,0:0:0:0:
136,108,28625,1,0,0:0:0:0:
136,108,28797,1,8,0:0:0:0:
136,108,29140,1,0,0:0:0:0:
136,108,29311,1,0,0:0:0:0:
136,108,29482,1,8,0:0:0:0:
136,108,29654,1,0,0:0:0:0:
136,108,29997,1,0,0:0:0:0:
136,108,30168,1,8,0:0:0:0:
136,108,30340,1,0,0:0:0:0:
136,108,30511,1,0,0:0:0:0:
136,108,30854,1,8,0:0:0:0:
136,108,31025,1,0,0:0:0:0:
136,108,31368,1,0,0:0:0:0:
136,108,31540,1,8,0:0:0:0:
136,108,31711,1,0,0:0:0:0:
141,112,31882,1,8,0:0:0:0:
141,112,31968,1,8,0:0:0:0:
141,112,32054,1,8,0:0:0:0:
141,112,32225,1,0,0:0:0:0:
141,112,32311,1,0,0:0:0:0:
141,112,32397,1,0,0:0:0:0:
141,112,32568,1,8,0:0:0:0:
141,112,33254,1,4,0:0:0:0:
162,110,33940,1,8,0:0:0:0:
162,110,34454,1,0,0:0:0:0:
162,110,34625,1,0,0:0:0:0:
162,110,34968,1,0,0:0:0:0:
162,110,35311,1,8,0:0:0:0:
148,111,35997,1,0,0:0:0:0:
148,111,36511,1,0,0:0:0:0:
148,111,36682,1,8,0:0:0:0:
148,111,37197,1,0,0:0:0:0:
148,111,37368,1,0,0:0:0:0:
148,111,37711,1,0,0:0:0:0:
148,111,38054,1,8,0:0:0:0:
153,122,38225,1,8,0:0:0:0:
148,111,38397,1,0,0:0:0:0:
148,111,38740,1,12,0:0:0:0:
148,111,39082,1,0,0:0:0:0:
147,115,39254,1,0,0:0:0:0:
149,116,39425,1,8,0:0:0:0:
152,108,39940,1,0,0:0:0:0:
152,108,40111,1,0,0:0:0:0:
152,108,40454,1,0,0:0:0:0:
152,108,40797,1,8,0:0:0:0:
152,108,40968,1,0,0:0:0:0:
152,108,41140,1,0,0:0:0:0:
152,108,41482,1,0,0:0:0:0:
152,108,41997,1,0,0:0:0:0:
152,108,42168,1,8,0:0:0:0:
152,108,42511,1,0,0:0:0:0:
152,108,42854,1,8,0:0:0:0:
152,108,43197,1,8,0:0:0:0:
152,108,43540,1,0,0:0:0:0:
152,108,44225,1,4,0:0:0:0:
152,108,44568,1,0,0:0:0:0:
152,108,44911,1,0,0:0:0:0:
152,108,45254,1,0,0:0:0:0:
152,108,45425,1,8,0:0:0:0:
152,108,45597,1,0,0:0:0:0:
152,108,45940,1,0,0:0:0:0:
152,108,46282,1,0,0:0:0:0:
152,108,46454,1,8,0:0:0:0:
152,108,46625,1,0,0:0:0:0:
152,108,46797,1,8,0:0:0:0:
152,108,46968,1,0,0:0:0:0:
152,108,47311,1,0,0:0:0:0:
152,108,47654,1,0,0:0:0:0:
152,108,47997,1,0,0:0:0:0:
152,108,48168,1,8,0:0:0:0:
152,108,48340,1,0,0:0:0:0:
152,108,48511,1,8,0:0:0:0:
152,108,48682,1,0,0:0:0:0:
152,108,49025,1,0,0:0:0:0:
152,108,49711,1,0,0:0:0:0:
152,108,50054,1,8,0:0:0:0:
158,106,50225,1,8,0:0:0:0:
152,108,50397,1,0,0:0:0:0:
152,108,50740,1,8,0:0:0:0:
152,108,51082,1,0,0:0:0:0:
152,108,51425,1,8,0:0:0:0:
152,108,51597,1,0,0:0:0:0:
152,108,51768,1,0,0:0:0:0:
152,108,52111,1,8,0:0:0:0:
152,108,52454,1,0,0:0:0:0:
152,108,52625,1,8,0:0:0:0:
152,108,52797,1,8,0:0:0:0:
152,108,52968,1,8,0:0:0:0:
152,108,53140,1,0,0:0:0:0:
152,108,53311,1,8,0:0:0:0:
152,108,53482,1,8,0:0:0:0:
152,108,53654,1,8,0:0:0:0:
152,108,53825,1,0,0:0:0:0:
152,108,54168,1,4,0:0:0:0:
152,108,54511,1,4,0:0:0:0:
152,108,54854,1,12,0:0:0:0:
152,108,55197,1,0,0:0:0:0:
152,108,55882,1,0,0:0:0:0:
152,108,56054,1,8,0:0:0:0:
152,108,56140,1,8,0:0:0:0:
131,93,56225,1,8,0:0:0:0:
152,108,56397,1,8,0:0:0:0:
152,108,56568,1,4,0:0:0:0:
152,108,56911,1,12,0:0:0:0:
152,108,57254,1,12,0:0:0:0:
152,108,57597,1,4,0:0:0:0:
155,117,57768,1,8,0:0:0:0:
152,108,57940,1,0,0:0:0:0:
152,108,58282,1,0,0:0:0:0:
152,108,58454,1,8,0:0:0:0:
152,108,58625,1,0,0:0:0:0:
152,108,58797,1,0,0:0:0:0:
152,108,58882,1,0,0:0:0:0:
152,108,58968,1,0,0:0:0:0:
152,108,59140,1,8,0:0:0:0:
152,108,59311,1,0,0:0:0:0:
152,108,59482,1,8,0:0:0:0:
152,108,59568,1,8,0:0:0:0:
155,117,59654,1,8,0:0:0:0:
152,108,59825,1,8,0:0:0:0:
152,108,59997,1,0,0:0:0:0:
152,108,60340,1,8,0:0:0:0:
152,108,60511,1,0,0:0:0:0:
160,114,60597,1,0,0:0:0:0:
152,108,60682,1,0,0:0:0:0:
152,108,61025,1,8,0:0:0:0:
152,108,61197,1,8,0:0:0:0:
160,114,61282,1,8,0:0:0:0:
152,108,61368,1,8,0:0:0:0:
152,108,61882,1,8,0:0:0:0:
152,108,62054,1,0,0:0:0:0:
152,108,62397,1,8,0:0:0:0:
152,108,62740,1,0,0:0:0:0:
152,108,63082,1,8,0:0:0:0:
150,116,63254,1,8,0:0:0:0:
150,116,63340,1,8,0:0:0:0:
152,108,63425,1,8,0:0:0:0:
152,108,63768,1,8,0:0:0:0:
152,108,64111,1,0,0:0:0:0:
152,108,64454,1,0,0:0:0:0:
152,108,64625,1,8,0:0:0:0:
152,108,64797,1,0,0:0:0:0:
153,112,64968,1,0,0:0:0:0:
153,112,65054,1,0,0:0:0:0:
152,108,65140,1,0,0:0:0:0:
152,108,65482,1,8,0:0:0:0:
152,108,66168,1,4,0:0:0:0:
152,108,66511,1,8,0:0:0:0:
152,108,66682,1,8,0:0:0:0:
152,108,66854,1,0,0:0:0:0:
152,108,67111,1,0,0:0:0:0:
152,108,67368,1,8,0:0:0:0:
152,108,67540,1,4,0:0:0:0:
152,108,67882,1,12,0:0:0:0:
152,108,68225,1,12,0:0:0:0:
152,108,68568,1,0,0:0:0:0:
152,108,68740,1,8,0:0:0:0:
152,108,68911,1,8,0:0:0:0:
152,108,69082,1,0,0:0:0:0:
152,108,69254,1,0,0:0:0:0:
152,108,69425,1,8,0:0:0:0:
152,108,69597,1,0,0:0:0:0:
152,108,69768,1,8,0:0:0:0:
152,108,70111,1,8,0:0:0:0:
152,108,70282,1,0,0:0:0:0:
152,108,70540,1,8,0:0:0:0:
152,108,70797,1,0,0:0:0:0:
152,108,70968,1,8,0:0:0:0:
152,108,71482,1,0,0:0:0:0:
168,111,71568,1,0,0:0:0:0:
152,108,71654,1,0,0:0:0:0:
152,108,72168,1,8,0:0:0:0:
152,108,72254,1,8,0:0:0:0:
152,108,72340,1,8,0:0:0:0:
152,108,72854,1,8,0:0:0:0:
152,108,73025,1,0,0:0:0:0:
152,108,73368,1,0,0:0:0:0:
152,108,73711,1,8,0:0:0:0:
152,108,74054,1,8,0:0:0:0:
152,108,74225,1,0,0:0:0:0:
141,102,74311,1,0,0:0:0:0:
152,108,74397,1,0,0:0:0:0:
152,108,74740,1,8,0:0:0:0:
152,108,74911,1,8,0:0:0:0:
152,108,75082,1,0,0:0:0:0:
152,108,75425,1,0,0:0:0:0:
152,108,75768,1,8,0:0:0:0:
152,108,76111,1,0,0:0:0:0:
152,108,76282,1,8,0:0:0:0:
152,108,76454,1,0,0:0:0:0:
152,108,76797,1,8,0:0:0:0:
152,108,76968,1,8,0:0:0:0:
256,192,77140,12,0,77482,0:0:0:0:
152,108,77825,5,8,0:0:0:0:
152,108,77997,1,8,0:0:0:0:
152,108,78340,1,8,0:0:0:0:
152,108,78682,1,8,0:0:0:0:
152,108,79025,1,0,0:0:0:0:
152,108,79197,1,8,0:0:0:0:
152,108,79540,1,4,0:0:0:0:
152,108,80225,1,12,0:0:0:0:
