osu file format v14

[General]
AudioFilename: audio.mp3
AudioLeadIn: 0
PreviewTime: 54187
Countdown: 0
SampleSet: Soft
StackLeniency: 0.7
Mode: 0
LetterboxInBreaks: 0
WidescreenStoryboard: 1

[Editor]
DistanceSpacing: 1.1
BeatDivisor: 4
GridSize: 32
TimelineZoom: 2.3

[Metadata]
Title:1+1 de Q.E.D.!!
TitleUnicode:1+1でQ.E.D.!!
Artist:Otogibara Era, Warabeda Meiji
ArtistUnicode:御伽原江良、童田明治
Creator:Yugu
Version:Normal
Source:
Tags:Nor SMASH The PAINT!! Gibara ギバラ vtuber virtual youtuber バーチャルyoutuber にじさんじ 2434 japanese pop jpop がぶりえら
BeatmapID:2313527
BeatmapSetID:1106912

[Difficulty]
HPDrainRate:4
CircleSize:3.5
OverallDifficulty:5
ApproachRate:6
SliderMultiplier:1.1
SliderTickRate:1

[Events]
//Background and Video events
0,0,"77205110_p0.png",0,0
Video,0,"video.avi"
//Break Periods
//Storyboard Layer 0 (Background)
//Storyboard Layer 1 (Fail)
//Storyboard Layer 2 (Pass)
//Storyboard Layer 3 (Foreground)
//Storyboard Layer 4 (Overlay)
//Storyboard Sound Samples

[TimingPoints]
359,342.857142857143,4,2,1,30,1,0
359,-100,4,2,1,40,0,0
5159,-100,4,2,1,50,0,0
5844,-100,4,2,1,70,0,0
11330,-100,4,2,1,50,0,0
16130,-100,4,2,0,50,0,0
16473,-100,4,2,1,40,0,0
16816,-100,4,2,1,70,0,0
22301,-100,4,2,1,70,0,0
27787,-100,4,2,1,70,0,0
33273,-100,4,2,1,50,0,0
44244,-100,4,2,1,70,0,0
51101,-100,4,2,1,80,0,0
55216,-100,4,2,1,90,0,0
57959,-100,4,2,1,90,0,0
60701,-100,4,2,1,90,0,0
62073,-100,4,2,1,90,0,0
63444,-100,4,2,1,90,0,0
65501,-100,4,2,1,90,0,0
65844,-100,4,2,1,90,0,0
66187,-100,4,2,1,90,0,0
68930,-100,4,2,1,90,0,0
71673,-100,4,2,1,80,0,0
73044,-100,4,2,1,80,0,0
74416,-100,4,2,1,70,0,0
80244,-100,4,2,1,70,0,0

[Colours]
Combo1 : 255,190,92
Combo2 : 227,78,79

[HitObjects]
51,73,359,6,0,P|129:99|187:157,1,165,4|0,0:0|0:0,0:0:0:0:
200,266,1216,1,0,0:0:0:0:
292,207,1559,2,0,P|340:184|406:182,2,110,0|0|0,0:0|0:0|0:0,0:0:0:0:
200,266,2587,2,0,L|189:336,2,55,2|2|2,3:2|3:2|3:2,0:0:0:0:
169,220,3101,6,0,L|156:34,1,165,0|0,0:0|0:0,0:0:0:0:
255,5,3959,1,0,3:0:0:0:
344,68,4301,2,0,P|424:63|465:38,2,110,0|0|0,0:0|3:0|3:0,0:0:0:0:
308,111,5159,1,2,3:2:0:0:
388,185,5501,1,10,3:2:0:0:
348,287,5844,6,0,P|301:296|238:294,1,110,14|10,0:2|0:2,0:0:0:0:
145,235,6530,2,0,P|98:226|35:228,1,110,10|10,0:2|0:2,0:0:0:0:
6,121,7216,1,10,0:2:0:0:
86,45,7559,1,10,0:2:0:0:
183,94,7901,2,0,L|310:86,1,110,10|10,0:2|0:2,0:0:0:0:
389,33,8587,6,0,P|398:211|227:265,1,385,10|8,0:2|0:2,0:0:0:0:
128,218,10130,2,0,L|53:209,2,55,2|2|0,0:3|0:3|0:0,0:0:0:0:
41,49,10987,1,8,0:3:0:0:
146,16,11330,6,0,P|217:28|265:66,1,110,12|0,0:0|3:0,0:0:0:0:
225,267,12359,1,0,3:0:0:0:
434,333,13044,1,0,3:0:0:0:
503,124,13730,1,0,3:0:0:0:
503,124,13901,6,0,L|494:58,1,55,2|2,0:0|0:0,0:0:0:0:
397,19,14416,1,0,3:0:0:0:
196,108,15101,1,0,3:0:0:0:
212,327,15787,1,0,3:0:0:0:
316,361,16130,2,0,P|328:313|323:243,1,110,8|8,0:3|0:1,0:0:0:0:
237,186,16816,6,0,L|111:172,1,110,8|0,0:0|3:0,0:0:0:0:
93,130,17330,1,8,0:0:0:0:
93,130,17501,1,0,0:0:0:0:
160,43,17844,1,8,0:1:0:0:
267,65,18187,1,8,0:0:0:0:
267,65,18359,2,0,L|402:52,1,110,0|8,0:0|0:0,0:0:0:0:
463,194,19216,5,8,0:1:0:0:
463,194,19387,2,0,P|456:251|407:304,1,110,8|0,0:0|0:0,0:0:0:0:
370,299,19901,2,0,L|249:288,1,110,0|0,3:0|0:0,0:0:0:0:
155,322,20587,1,8,0:1:0:0:
155,322,20759,2,0,P|106:315|57:275,1,110,0|0,0:0|0:0,0:0:0:0:
62,223,21273,1,0,3:0:0:0:
91,117,21616,2,0,L|78:57,2,55,0|8|8,0:0|0:0|0:1,0:0:0:0:
195,150,22301,5,12,0:0:0:0:
299,116,22644,2,0,P|312:175|300:241,1,110,0|0,1:0|3:0,0:0:0:0:
241,313,23330,1,0,1:0:0:0:
339,361,23673,1,8,0:0:0:0:
339,361,23844,2,0,L|458:356,1,110,8|0,0:0|3:0,0:0:0:0:
493,255,24530,1,8,0:0:0:0:
442,157,24873,1,0,1:0:0:0:
337,122,25216,5,0,0:0:0:0:
337,122,25387,2,0,L|220:112,1,110,0|0,1:0|3:0,0:0:0:0:
152,31,26073,1,0,1:0:0:0:
94,124,26416,1,8,0:0:0:0:
94,124,26587,2,0,P|91:172|120:237,1,110,8|0,0:0|3:0,0:0:0:0:
222,248,27273,1,8,0:0:0:0:
327,374,27787,6,0,L|342:249,1,110,8|0,0:0|3:0,0:0:0:0:
379,226,28301,1,8,0:0:0:0:
379,226,28473,1,0,0:0:0:0:
332,126,28815,1,8,0:1:0:0:
403,43,29159,1,8,0:0:0:0:
403,43,29330,2,0,L|538:30,1,110,0|8,0:0|0:0,0:0:0:0:
502,201,30187,5,8,0:1:0:0:
502,201,30358,2,0,P|495:258|446:311,2,110,8|0|8,0:0|0:0|0:0,0:0:0:0:
412,136,31387,2,0,L|350:122,2,55,8|8|0,0:0|0:1|0:0,0:0:0:0:
454,101,31901,6,0,P|434:59|259:159,1,330,8|8,0:0|0:1,0:0:0:0:
291,258,33273,6,0,P|279:309|149:268,1,220,12|8,0:0|0:1,0:0:0:0:
23,176,34473,1,8,0:0:0:0:
23,176,34644,2,0,P|57:107|202:82,1,220,0|8,0:0|0:1,0:0:0:0:
400,17,36016,6,0,L|386:255,1,220,8|8,0:0|0:1,0:0:0:0:
286,367,37216,1,8,0:0:0:0:
286,367,37387,2,0,P|248:325|273:163,1,220,0|8,0:0|0:1,0:0:0:0:
189,90,38416,1,8,0:0:0:0:
84,124,38759,6,0,L|105:350,1,220,12|8,0:0|0:1,0:0:0:0:
261,292,39959,1,8,0:0:0:0:
261,292,40130,2,0,P|385:301|463:376,1,220,0|8,0:0|0:1,0:0:0:0:
505,147,41501,6,0,L|280:166,1,220,8|8,0:0|0:1,0:0:0:0:
181,203,42530,1,2,0:0:0:0:
117,113,42873,2,0,L|-6:101,2,110,2|10|8,0:0|0:0|0:1,0:0:0:0:
189,29,43901,1,10,0:0:0:0:
293,63,44244,6,0,L|420:48,1,110,4|8,0:0|0:1,0:0:0:0:
495,109,44930,1,8,0:1:0:0:
439,204,45273,2,0,L|452:269,1,55,8|8,0:1|0:1,0:0:0:0:
432,310,45616,6,0,P|384:326|320:286,1,110,8|8,0:1|0:1,0:0:0:0:
256,223,46301,2,0,L|261:154,2,55,8|8|8,0:1|0:1|0:1,0:0:0:0:
217,262,46816,1,8,0:1:0:0:
217,262,46987,6,0,P|161:254|130:193,1,110,8|8,0:1|0:1,0:0:0:0:
31,166,47673,2,0,L|36:278,1,110,8|8,0:1|0:1,0:0:0:0:
44,335,48187,1,8,0:1:0:0:
44,335,48359,6,0,L|264:357,1,220,8|8,0:1|0:1,0:0:0:0:
360,306,49387,1,8,0:1:0:0:
302,211,49730,6,0,P|300:133|505:115,1,330,4|8,0:0|0:1,0:0:0:0:
487,160,50930,1,8,0:1:0:0:
487,160,51101,2,0,L|153:138,1,330,8|8,0:1|0:1,0:0:0:0:
109,38,52473,6,0,P|49:86|243:267,1,440,8|8,3:1|3:2,0:0:0:0:
367,126,55216,6,0,L|485:112,1,110,12|2,0:0|0:3,0:0:0:0:
494,221,55901,1,8,0:0:0:0:
439,316,56244,1,2,0:3:0:0:
329,305,56587,2,0,P|271:312|224:347,2,110,8|8|8,0:0|0:0|0:0,0:0:0:0:
309,196,57616,1,2,1:3:0:0:
229,120,57959,6,0,L|220:51,2,55,8|0|2,0:0|0:0|0:3,0:0:0:0:
143,189,58644,2,0,L|42:167,2,82.5,8|8|8,0:0|0:0|0:0,0:0:0:0:
181,228,59330,2,0,P|203:267|212:316,1,82.5,8|8,0:0|0:0,0:0:0:0:
157,365,59844,1,8,0:0:0:0:
157,365,60016,2,0,L|44:342,1,110,8|2,0:0|0:3,0:0:0:0:
8,240,60701,6,0,P|18:190|64:123,1,110,8|2,0:0|0:3,0:0:0:0:
122,58,61387,2,0,L|249:72,1,110,8|2,0:0|0:3,0:0:0:0:
283,50,61901,1,0,0:0:0:0:
283,50,62073,6,0,P|334:43|397:18,2,110,8|8|8,0:0|0:0|0:0,0:0:0:0:
242,152,63101,1,2,0:3:0:0:
333,213,63444,2,0,P|352:251|353:319,1,110,8|2,0:0|0:3,0:0:0:0:
248,350,64130,2,0,L|119:334,1,110,8|2,0:0|0:3,0:0:0:0:
105,292,64644,1,8,0:0:0:0:
105,292,64816,6,0,P|96:238|52:171,2,110,8|2|8,0:0|0:3|0:0,0:0:0:0:
205,247,65844,1,8,1:3:0:0:
273,160,66187,6,0,P|278:95|274:29,1,110,14|2,0:0|0:0,0:0:0:0:
165,47,66873,2,0,P|126:41|74:15,2,82.5,2|2|10,3:0|0:0|0:0,0:0:0:0:
177,100,67559,2,0,L|185:233,2,110,2|8|2,0:0|0:0|0:3,0:0:0:0:
273,46,68587,1,0,0:0:0:0:
375,86,68930,6,0,P|411:119|439:189,1,110,10|2,0:0|0:0,0:0:0:0:
411,223,69444,1,2,0:0:0:0:
411,223,69616,2,0,P|397:285|396:297,1,55,2|2,0:3|0:0,0:0:0:0:
321,355,70130,1,8,0:0:0:0:
321,355,70301,6,0,L|235:341,2,82.5,2|2|2,0:0|0:0|0:0,0:0:0:0:
297,305,70987,2,0,L|279:181,1,110,2|0,0:0|0:0,0:0:0:0:
190,133,71673,6,0,P|134:134|70:179,1,110,8|0,0:0|0:0,0:0:0:0:
22,248,72359,2,0,L|39:363,1,110,2|0,0:3|0:0,0:0:0:0:
94,378,72873,1,0,0:0:0:0:
94,378,73044,6,0,P|145:371|208:346,2,110,8|8|8,0:0|0:0|0:0,0:0:0:0:
110,268,74073,1,2,0:0:0:0:
79,162,74416,2,0,P|64:103|65:53,1,110,12|2,0:0|0:0,0:0:0:0:
168,17,75101,2,0,L|298:4,1,110,8|0,0:1|0:0,0:0:0:0:
334,26,75616,1,10,0:0:0:0:
334,26,75788,6,0,P|325:80|281:147,2,110,8|8|8,0:0|0:0|0:1,0:0:0:0:
422,91,76816,1,8,0:0:0:0:
428,200,77159,2,0,P|414:262|272:323,1,220,6|2,3:0|3:0,0:0:0:0:
237,295,78016,1,2,3:0:0:0:
237,295,78187,2,0,L|168:303,1,55,2|2,3:0|3:0,0:0:0:0:
88,359,78701,5,2,3:0:0:0:
26,267,79044,1,2,3:0:0:0:
26,267,79216,2,0,P|51:195|90:167,1,110,2|2,0:0|1:2,0:0:0:0:
293,146,80244,1,12,0:0:0:0:
