osu file format v14

[General]
AudioFilename: audio.mp3
AudioLeadIn: 0
PreviewTime: 54187
Countdown: 0
SampleSet: Soft
StackLeniency: 0.7
Mode: 0
LetterboxInBreaks: 0
WidescreenStoryboard: 1

[Editor]
Bookmarks: 33273
DistanceSpacing: 1.1
BeatDivisor: 4
GridSize: 32
TimelineZoom: 2.3

[Metadata]
Title:1+1 de Q.E.D.!!
TitleUnicode:1+1でQ.E.D.!!
Artist:Otogibara Era, Warabeda Meiji
ArtistUnicode:御伽原江良、童田明治
Creator:Yugu
Version:Hard
Source:
Tags:Nor SMASH The PAINT!! Gibara ギバラ vtuber virtual youtuber バーチャルyoutuber にじさんじ 2434 japanese pop jpop がぶりえら
BeatmapID:2313526
BeatmapSetID:1106912

[Difficulty]
HPDrainRate:5
CircleSize:4
OverallDifficulty:7
ApproachRate:8
SliderMultiplier:1.4
SliderTickRate:1

[Events]
//Background and Video events
0,0,"77205110_p0.png",0,0
Video,0,"video.avi"
//Break Periods
//Storyboard Layer 0 (Background)
//Storyboard Layer 1 (Fail)
//Storyboard Layer 2 (Pass)
//Storyboard Layer 3 (Foreground)
//Storyboard Layer 4 (Overlay)
//Storyboard Sound Samples

[TimingPoints]
359,342.857142857143,4,2,1,30,1,0
359,-100,4,2,1,40,0,0
5159,-100,4,2,1,50,0,0
5844,-100,4,2,1,70,0,0
11330,-100,4,2,1,50,0,0
16130,-100,4,2,0,50,0,0
16473,-100,4,2,1,40,0,0
16816,-100,4,2,1,70,0,0
22301,-100,4,2,1,70,0,0
27787,-100,4,2,1,70,0,0
33273,-133.333333333333,4,2,1,50,0,0
44244,-100,4,2,1,70,0,0
51101,-100,4,2,1,80,0,0
55216,-100,4,2,1,90,0,0
57959,-100,4,2,1,90,0,0
60701,-100,4,2,1,90,0,0
62073,-100,4,2,1,90,0,0
63444,-100,4,2,1,90,0,0
65501,-100,4,2,1,90,0,0
65844,-100,4,2,1,90,0,0
66187,-100,4,2,1,90,0,0
68930,-100,4,2,1,90,0,0
71673,-100,4,2,1,80,0,0
73044,-100,4,2,1,80,0,0
74416,-100,4,2,1,70,0,0
80244,-100,4,2,1,70,0,0

[Colours]
Combo1 : 255,190,92
Combo2 : 227,78,79

[HitObjects]
102,67,359,6,0,L|120:227,1,140,4|0,0:0|3:0,0:0:0:0:
178,253,873,1,0,0:0:0:0:
334,253,1216,1,0,0:0:0:0:
256,118,1559,1,0,0:0:0:0:
178,243,1901,1,0,0:0:0:0:
334,243,2244,1,0,0:0:0:0:
256,108,2587,2,0,L|256:25,2,70,2|2|2,3:2|3:2|3:2,0:0:0:0:
256,185,3101,6,0,L|256:339,1,140,0|0,0:0|3:0,0:0:0:0:
332,340,3616,1,0,0:0:0:0:
332,185,3959,1,0,3:0:0:0:
180,185,4301,1,0,0:0:0:0:
180,340,4644,1,0,3:0:0:0:
332,340,4987,1,0,3:0:0:0:
384,283,5159,2,0,L|429:279,2,35,2|2|2,3:2|0:2|3:2,0:0:0:0:
346,215,5501,2,0,L|301:211,2,35,10|2|2,3:2|0:0|3:2,0:0:0:0:
402,161,5844,6,0,P|406:96|345:46,1,140,14|10,0:2|0:2,0:0:0:0:
282,76,6359,1,2,3:2:0:0:
211,44,6530,2,0,L|60:28,1,140,10|10,0:2|0:2,0:0:0:0:
6,70,7044,1,2,3:2:0:0:
40,139,7216,6,0,L|47:194,2,35,10|2|2,0:2|0:0|3:2,0:0:0:0:
116,146,7559,2,0,L|123:201,2,35,10|2|2,0:2|0:0|3:2,0:0:0:0:
192,153,7901,2,0,L|199:208,2,35,10|2|2,0:2|0:0|3:2,0:0:0:0:
268,160,8244,2,0,L|275:215,2,35,10|2|2,0:2|0:0|3:2,0:0:0:0:
344,167,8587,6,0,P|355:130|355:97,1,70,10|8,0:2|0:2,0:0:0:0:
403,215,8930,2,0,P|414:252|414:285,1,70,2|8,0:3|0:2,0:0:0:0:
361,339,9273,1,8,0:2:0:0:
284,348,9444,1,8,0:2:0:0:
207,358,9616,1,2,0:3:0:0:
136,327,9787,6,0,P|88:305|-5:289,1,140,8|2,0:2|0:3,0:0:0:0:
2,289,10216,1,2,0:3:0:0:
2,289,10301,1,2,0:3:0:0:
46,225,10473,2,0,L|34:138,2,70,2|4|2,0:3|0:1|0:1,0:0:0:0:
118,199,10987,6,0,P|185:192|257:148,1,140,8|12,0:3|0:0,0:0:0:0:
309,15,11673,1,0,3:0:0:0:
479,160,12359,1,0,3:0:0:0:
268,234,13044,1,0,3:0:0:0:
309,15,13730,1,0,3:0:0:0:
387,49,13901,1,2,0:0:0:0:
387,49,13987,1,2,0:0:0:0:
387,49,14073,6,0,L|368:198,1,140,2|0,0:0|3:0,0:0:0:0:
148,224,15101,1,0,3:0:0:0:
218,11,15787,1,0,3:0:0:0:
275,118,16130,1,8,0:3:0:0:
275,118,16216,1,8,0:3:0:0:
275,118,16301,2,0,L|268:164,2,35,8|0|8,0:3|3:0|0:1,0:0:0:0:
176,171,16816,6,0,L|190:321,1,140,8|0,0:0|3:0,0:0:0:0:
249,358,17330,1,8,0:0:0:0:
249,358,17501,2,0,L|336:347,2,70,0|8|8,0:0|0:0|0:1,0:0:0:0:
103,307,18187,5,8,0:0:0:0:
27,324,18359,2,0,P|25:257|7:182,1,140,0|8,0:0|0:0,0:0:0:0:
101,63,19044,1,8,0:0:0:0:
164,104,19216,1,8,0:1:0:0:
164,104,19387,6,0,P|233:96|291:57,1,140,8|0,0:0|0:0,0:0:0:0:
367,41,19901,2,0,L|446:56,1,70,0|8,3:0|0:0,0:0:0:0:
431,131,20244,2,0,P|419:176|420:211,1,70,0|8,0:0|0:0,0:0:0:0:
443,272,20587,1,8,0:1:0:0:
380,316,20759,6,0,L|239:277,1,140,0|0,0:0|0:0,0:0:0:0:
180,236,21273,1,0,3:0:0:0:
104,249,21444,1,8,0:0:0:0:
20,378,21787,1,8,0:0:0:0:
20,378,21959,2,0,L|12:311,2,35,8|0|8,0:1|0:0|0:0,0:0:0:0:
96,378,22301,5,12,0:0:0:0:
187,254,22644,1,0,1:0:0:0:
133,198,22816,2,0,L|75:181,4,35,0|0|0|0|8,3:0|1:0|3:0|1:0|0:0,0:0:0:0:
176,133,23330,1,0,1:0:0:0:
317,71,23673,5,8,0:0:0:0:
381,112,23844,2,0,L|377:195,1,70,8|0,0:0|1:0,0:0:0:0:
330,243,24187,2,0,L|333:289,4,35,0|0|0|0|8,3:0|1:0|3:0|1:0|0:0,0:0:0:0:
403,308,24701,1,0,1:0:0:0:
403,308,24873,1,0,1:0:0:0:
472,276,25044,6,0,L|482:117,1,140,8|0,0:0|1:0,0:0:0:0:
460,61,25559,2,0,L|490:28,4,35,0|0|0|0|8,3:0|1:0|3:0|1:0|0:0,0:0:0:0:
384,78,26073,1,0,1:0:0:0:
236,34,26416,5,8,0:0:0:0:
159,43,26587,2,0,L|70:53,1,70,8|0,0:0|1:0,0:0:0:0:
27,96,26930,2,0,L|-4:77,4,35,0|0|0|0|8,3:0|1:0|3:0|1:0|0:0,0:0:0:0:
57,167,27444,1,0,1:0:0:0:
57,167,27616,1,0,1:0:0:0:
125,201,27787,6,0,L|139:351,1,140,8|0,0:0|3:0,0:0:0:0:
207,373,28301,1,8,0:0:0:0:
206,373,28473,2,0,P|230:347|261:331,2,70,0|8|8,0:0|0:0|0:1,0:0:0:0:
272,233,29158,5,8,0:0:0:0:
346,211,29330,2,0,P|361:159|344:70,1,140,0|8,0:0|0:0,0:0:0:0:
196,39,30016,1,8,0:0:0:0:
125,68,30187,1,8,0:1:0:0:
125,68,30359,6,0,P|144:117|152:152,1,70,8|8,0:0|0:0,0:0:0:0:
196,193,30701,2,0,P|187:244|177:279,1,70,0|0,0:0|3:0,0:0:0:0:
113,295,31044,1,8,0:0:0:0:
266,307,31387,2,0,L|274:385,2,70,8|8|0,0:0|0:1|0:0,0:0:0:0:
316,248,31901,6,0,P|372:206|372:344,1,280,8|0,0:0|3:0,0:0:0:0:
322,353,32759,1,8,0:0:0:0:
245,343,32930,1,8,0:1:0:0:
245,343,33101,1,8,0:0:0:0:
191,287,33273,6,0,P|186:184|246:100,1,210.000008010865,12|8,0:0|0:1,0:0:0:0:
403,26,34473,1,8,0:0:0:0:
403,26,34644,2,0,L|383:247,1,210.000008010865,0|8,0:0|0:1,0:0:0:0:
176,338,36016,6,0,P|78:315|35:223,1,210.000008010865,8|8,0:0|0:1,0:0:0:0:
99,62,37216,1,8,0:0:0:0:
99,62,37387,2,0,L|330:83,1,210.000008010865,0|8,0:0|0:1,0:0:0:0:
415,38,38416,1,8,0:0:0:0:
453,147,38759,6,0,P|461:223|372:317,1,210.000008010865,12|8,0:0|0:1,0:0:0:0:
216,246,39959,1,8,0:0:0:0:
216,246,40130,2,0,L|-8:221,1,210.000008010865,0|8,0:0|0:1,0:0:0:0:
156,45,41501,5,8,0:0:0:0:
369,132,42187,1,8,0:1:0:0:
386,246,42530,1,2,0:0:0:0:
386,246,42701,1,8,0:0:0:0:
386,246,42873,6,0,L|363:349,1,105.000004005432,2|10,0:0|0:0,0:0:0:0:
247,349,43559,2,0,L|224:246,1,105.000004005432,8|10,0:1|0:0,0:0:0:0:
103,150,44244,6,0,L|12:137,1,70,4|2,0:0|0:0,0:0:0:0:
156,94,44587,2,0,L|247:81,1,70,8|2,0:1|0:0,0:0:0:0:
290,43,44930,2,0,L|381:56,1,70,8|2,0:1|0:0,0:0:0:0:
435,39,45273,1,8,0:1:0:0:
462,110,45444,1,8,0:1:0:0:
413,168,45616,6,0,P|392:197|377:228,1,70,8|2,0:1|0:0,0:0:0:0:
338,295,45959,2,0,P|358:323|373:354,1,70,8|2,0:1|0:0,0:0:0:0:
449,367,46301,1,8,0:1:0:0:
505,314,46473,1,8,0:1:0:0:
493,238,46644,1,8,0:1:0:0:
434,187,46816,1,8,0:1:0:0:
434,187,46901,1,0,3:0:0:0:
434,187,46987,6,0,P|416:138|416:108,1,70,8|2,0:1|0:0,0:0:0:0:
360,66,47330,2,0,L|265:52,1,70,8|2,0:1|0:0,0:0:0:0:
221,20,47673,2,0,L|139:30,1,70,8|2,0:1|0:0,0:0:0:0:
75,14,48016,1,8,0:1:0:0:
45,84,48187,1,8,0:1:0:0:
80,152,48359,6,0,L|74:229,3,70,8|8|8|8,0:1|0:1|0:1|0:1,0:0:0:0:
18,274,49044,1,8,0:1:0:0:
145,360,49387,1,8,0:1:0:0:
219,328,49559,1,8,0:1:0:0:
219,328,49644,1,0,3:0:0:0:
219,328,49730,6,0,L|311:318,1,70,4|8,0:0|0:1,0:0:0:0:
310,246,50073,2,0,L|218:236,1,70,8|8,0:1|0:1,0:0:0:0:
219,164,50416,2,0,L|311:154,1,70,8|8,0:1|0:1,0:0:0:0:
310,82,50759,2,0,L|218:72,1,70,8|8,0:1|0:1,0:0:0:0:
182,24,51101,5,8,0:1:0:0:
110,53,51273,1,8,0:1:0:0:
90,127,51444,2,0,L|77:214,1,70,8|8,0:1|0:1,0:0:0:0:
97,271,51787,1,8,0:1:0:0:
169,297,51959,1,8,0:1:0:0:
240,268,52130,2,0,L|327:261,1,70,8|8,0:1|0:1,0:0:0:0:
380,230,52473,6,0,L|424:232,6,35,8|0|8|0|8|0|8,3:1|3:0|3:1|3:0|3:1|3:0|3:1,0:0:0:0:
383,152,53159,2,0,L|427:154,6,35,8|0|8|0|8|0|8,3:1|3:0|3:1|3:0|3:1|3:0|3:1,0:0:0:0:
306,149,53844,1,8,3:2:0:0:
169,32,55216,6,0,P|163:98|180:165,1,105,12|0,0:0|0:0,0:0:0:0:
192,162,55559,1,2,0:3:0:0:
337,211,55901,2,0,P|343:277|326:344,1,105,8|0,0:0|0:0,0:0:0:0:
314,341,56244,1,2,0:3:0:0:
165,300,56587,6,0,L|72:290,1,70,8|0,0:0|0:0,0:0:0:0:
31,248,56930,1,8,0:0:0:0:
72,183,57101,1,0,0:0:0:0:
37,113,57273,2,0,P|46:71|76:46,1,70,8|0,0:0|0:0,0:0:0:0:
138,74,57616,1,2,1:3:0:0:
203,34,57787,1,0,0:0:0:0:
203,34,57873,1,0,0:0:0:0:
203,34,57959,6,0,L|320:44,1,105,8|0,0:0|0:0,0:0:0:0:
340,31,58301,2,0,L|330:148,1,105,2|0,0:3|0:0,0:0:0:0:
310,164,58644,1,8,0:0:0:0:
281,235,58816,1,0,0:0:0:0:
281,235,58901,1,8,0:0:0:0:
281,235,58987,1,2,0:3:0:0:
343,280,59159,1,8,0:0:0:0:
410,243,59330,6,0,L|522:233,2,105,8|8|8,0:0|0:0|0:0,0:0:0:0:
343,280,60016,2,0,P|304:330|293:380,1,105,8|0,0:0|0:0,0:0:0:0:
261,382,60359,1,2,0:3:0:0:
189,354,60530,1,0,0:0:0:0:
189,354,60616,1,0,0:0:0:0:
189,354,60701,6,0,L|183:195,1,140,8|2,0:0|0:3,0:0:0:0:
255,177,61216,1,0,0:0:0:0:
255,177,61302,1,0,0:0:0:0:
255,177,61387,2,0,L|249:18,1,140,8|2,0:0|0:3,0:0:0:0:
177,8,61901,1,0,0:0:0:0:
101,25,62073,6,0,P|48:57|35:119,1,105,8|0,0:0|0:0,0:0:0:0:
8,119,62416,2,0,P|9:180|56:223,1,105,8|0,0:0|0:0,0:0:0:0:
42,246,62759,2,0,P|96:275|156:256,1,105,8|0,0:0|0:0,0:0:0:0:
160,243,63101,1,2,0:3:0:0:
230,211,63273,1,0,0:0:0:0:
230,211,63359,1,0,0:0:0:0:
230,211,63444,6,0,L|365:221,1,105,8|0,0:0|0:0,0:0:0:0:
366,203,63787,2,0,L|356:338,1,105,2|0,0:3|0:0,0:0:0:0:
379,335,64130,1,8,0:0:0:0:
455,324,64301,1,0,0:0:0:0:
455,324,64387,1,8,0:0:0:0:
455,324,64473,1,2,0:3:0:0:
487,254,64644,1,8,0:0:0:0:
459,181,64816,6,0,P|455:126|463:73,2,105,8|8|8,0:0|0:0|0:0,0:0:0:0:
388,211,65501,2,0,L|269:197,1,105,8|0,0:0|0:0,0:0:0:0:
259,169,65844,1,8,1:3:0:0:
259,169,66187,6,0,P|193:162|149:111,1,105,14|0,0:0|0:0,0:0:0:0:
157,104,66530,1,2,0:0:0:0:
29,17,66873,2,0,P|55:77|33:141,1,105,2|2,3:0|0:0,0:0:0:0:
24,138,67216,1,0,0:0:0:0:
74,195,67387,1,10,0:0:0:0:
38,264,67559,6,0,P|29:314|58:356,1,105,2|0,0:0|0:0,0:0:0:0:
91,344,67901,2,0,L|200:331,1,105,10|0,0:0|0:0,0:0:0:0:
228,341,68244,1,2,0:3:0:0:
296,304,68416,2,0,L|449:318,1,140,8|0,0:0|0:0,0:0:0:0:
464,245,68930,6,0,P|479:202|501:174,2,70,10|2|2,0:0|0:0|0:0,0:0:0:0:
394,211,69444,2,0,L|291:202,1,70,2|2,0:0|0:3,0:0:0:0:
264,156,69787,2,0,L|161:165,1,70,2|0,0:0|0:0,0:0:0:0:
135,212,70130,1,8,0:0:0:0:
86,152,70301,6,0,P|29:124|-17:119,2,105,2|2|2,0:0|0:0|0:0,0:0:0:0:
135,92,70987,2,0,L|129:23,1,70,2|8,0:0|0:0,0:0:0:0:
205,35,71330,1,0,0:0:0:0:
283,71,71501,1,0,0:0:0:0:
283,71,71587,1,0,0:0:0:0:
283,71,71673,6,0,P|337:45|422:37,1,140,8|0,0:0|0:0,0:0:0:0:
504,163,72359,2,0,L|492:314,1,140,2|0,0:3|0:0,0:0:0:0:
425,339,72873,1,0,0:0:0:0:
366,287,73044,6,0,P|322:260|270:255,1,105,8|0,0:0|0:0,0:0:0:0:
249,227,73387,2,0,P|196:225|149:247,1,105,8|0,0:0|0:0,0:0:0:0:
116,233,73730,2,0,P|70:257|39:300,1,105,8|0,0:0|0:0,0:0:0:0:
46,333,74073,1,2,0:0:0:0:
124,367,74244,1,2,0:0:0:0:
124,367,74330,1,0,0:0:0:0:
124,367,74416,6,0,L|403:326,1,280,12|8,0:0|0:1,0:0:0:0:
494,203,75444,1,0,0:0:0:0:
494,203,75616,1,10,0:0:0:0:
464,132,75787,6,0,P|377:132|212:243,1,280,8|8,0:0|0:1,0:0:0:0:
71,185,76816,1,8,0:0:0:0:
71,185,76987,1,2,0:0:0:0:
30,119,77159,6,0,P|55:39|230:67,1,280,6|2,3:0|3:0,0:0:0:0:
303,76,78016,1,2,3:0:0:0:
303,76,78101,1,2,3:0:0:0:
303,76,78187,1,2,3:0:0:0:
276,148,78359,5,2,3:0:0:0:
312,297,78701,1,2,3:0:0:0:
424,192,79044,1,2,3:0:0:0:
424,192,79216,1,2,0:0:0:0:
276,148,79559,1,2,1:2:0:0:
182,350,80244,5,12,0:0:0:0:
