osu file format v14

[General]
AudioFilename: audio.mp3
AudioLeadIn: 0
PreviewTime: 54187
Countdown: 0
SampleSet: Soft
StackLeniency: 0.7
Mode: 0
LetterboxInBreaks: 0
WidescreenStoryboard: 0

[Editor]
Bookmarks: 66187
DistanceSpacing: 1.6
BeatDivisor: 4
GridSize: 32
TimelineZoom: 2.3

[Metadata]
Title:1+1 de Q.E.D.!!
TitleUnicode:1+1でQ.E.D.!!
Artist:Otogibara Era, Warabeda Meiji
ArtistUnicode:御伽原江良、童田明治
Creator:Yugu
Version:Gaburiera
Source:
Tags:Nor SMASH The PAINT!! Gibara ギバラ vtuber virtual youtuber バーチャルyoutuber にじさんじ 2434 japanese pop jpop がぶりえら
BeatmapID:2313525
BeatmapSetID:1106912

[Difficulty]
HPDrainRate:6
CircleSize:4
OverallDifficulty:8
ApproachRate:9
SliderMultiplier:1.8
SliderTickRate:1

[Events]
//Background and Video events
0,0,"77205110_p0.png",0,0
Video,0,"video.avi"
//Break Periods
//Storyboard Layer 0 (Background)
//Storyboard Layer 1 (Fail)
//Storyboard Layer 2 (Pass)
//Storyboard Layer 3 (Foreground)
//Storyboard Layer 4 (Overlay)
//Storyboard Sound Samples

[TimingPoints]
359,342.857142857143,4,2,1,30,1,0
359,-133.333333333333,4,2,1,40,0,0
5159,-133.333333333333,4,2,1,50,0,0
5844,-133.333333333333,4,2,1,70,0,0
11330,-133.333333333333,4,2,1,50,0,0
16130,-133.333333333333,4,2,0,50,0,0
16473,-200,4,2,1,40,0,0
16816,-133.333333333333,4,2,1,70,0,0
22301,-100,4,2,1,70,0,0
27787,-133.333333333333,4,2,1,70,0,0
33273,-200,4,2,1,50,0,0
44244,-100,4,2,1,70,0,0
51101,-100,4,2,1,80,0,0
55216,-250,4,2,1,90,0,0
57959,-83.3333333333333,4,2,1,90,0,0
60701,-133.333333333333,4,2,1,90,0,0
62073,-83.3333333333333,4,2,1,90,0,0
63444,-100,4,2,1,90,0,0
65501,-200,4,2,1,90,0,0
65844,-50,4,2,1,90,0,0
66187,-250,4,2,1,90,0,0
68930,-133.333333333333,4,2,1,90,0,0
71673,-133.333333333333,4,2,1,80,0,0
73044,-83.3333333333333,4,2,1,80,0,0
74416,-133.333333333333,4,2,1,70,0,0
80244,-83.3333333333333,4,2,1,70,0,0
80587,-83.3333333333333,4,2,1,5,0,0

[Colours]
Combo1 : 255,190,92
Combo2 : 227,78,79

[HitObjects]
354,96,359,6,0,P|379:159|373:225,1,135.000005149842,4|0,0:0|3:0,0:0:0:0:
302,277,873,1,0,0:0:0:0:
302,277,1216,2,0,L|230:263,1,67.5000025749208,0|0,0:0|3:0,0:0:0:0:
169,206,1559,1,0,0:0:0:0:
169,206,1902,2,0,L|97:220,1,67.5000025749208,0|0,0:0|3:0,0:0:0:0:
235,147,2244,2,0,P|243:98|230:49,1,101.250003862381,0|0,0:0|0:0,0:0:0:0:
200,33,2587,2,0,L|125:24,2,67.5000025749208,2|2|2,3:2|3:2|3:2,0:0:0:0:
330,100,3101,6,0,P|396:93|450:55,1,135.000005149842,0|0,0:0|3:0,0:0:0:0:
503,125,3616,1,0,0:0:0:0:
503,125,3959,2,0,L|507:173,2,33.7500012874604,0|0|0,3:0|3:0|3:0,0:0:0:0:
450,55,4301,1,0,0:0:0:0:
450,55,4644,2,0,L|460:-15,1,67.5000025749208,0|0,3:0|3:0,0:0:0:0:
367,86,4987,1,0,3:0:0:0:
367,86,5159,5,2,3:2:0:0:
376,119,5244,1,2,0:2:0:0:
375,153,5330,1,2,3:2:0:0:
365,185,5416,1,2,3:2:0:0:
346,212,5501,1,10,3:2:0:0:
320,234,5587,1,2,0:0:0:0:
289,247,5673,1,2,3:2:0:0:
256,251,5759,1,2,0:0:0:0:
223,245,5844,6,0,L|173:238,3,33.7500012874604,14|2|2|2,0:2|0:0|0:0|0:0,0:0:0:0:
132,300,6187,1,10,0:2:0:0:
88,309,6273,1,2,0:0:0:0:
54,337,6359,2,0,L|64:290,1,33.7500012874604,2|2,3:2|0:0,0:0:0:0:
109,187,6530,2,0,L|103:132,3,33.7500012874604,10|2|2|2,0:2|0:0|3:2|0:0,0:0:0:0:
14,120,6873,1,10,0:2:0:0:
37,83,6959,1,2,0:0:0:0:
42,40,7044,2,0,L|100:30,1,33.7500012874604,2|2,3:2|0:0,0:0:0:0:
162,70,7216,6,0,L|220:60,3,33.7500012874604,10|2|2|2,0:2|0:0|3:2|0:0,0:0:0:0:
271,21,7559,1,10,0:2:0:0:
313,29,7644,1,2,0:0:0:0:
350,51,7730,2,0,L|363:99,1,33.7500012874604,2|2,3:2|0:0,0:0:0:0:
310,160,7901,2,0,L|297:208,3,33.7500012874604,10|2|2|2,0:2|0:0|3:2|0:0,0:0:0:0:
340,284,8244,1,10,0:2:0:0:
370,301,8329,1,2,0:0:0:0:
403,306,8415,1,2,3:2:0:0:
436,298,8501,1,2,0:0:0:0:
463,280,8587,5,10,0:2:0:0:
463,280,8759,1,8,0:2:0:0:
400,216,8930,5,2,0:3:0:0:
507,204,9101,1,8,0:2:0:0:
342,69,9273,5,8,0:2:0:0:
368,197,9444,1,8,0:2:0:0:
144,197,9616,5,2,0:3:0:0:
256,288,9787,1,8,0:2:0:0:
170,69,9959,1,2,0:3:0:0:
144,197,10130,5,2,0:3:0:0:
144,197,10216,1,2,0:3:0:0:
144,197,10301,1,2,0:3:0:0:
86,20,10473,5,2,0:3:0:0:
19,129,10644,2,0,P|14:107|24:86,1,33.7500012874604,4|0,0:1|0:0,0:0:0:0:
170,69,10816,2,0,P|172:85|167:101,1,33.7500012874604,2|0,0:1|0:0,0:0:0:0:
77,263,10987,2,0,B|81:216|112:203|112:203|110:240,1,101.250003862381,8|0,0:3|0:0,0:0:0:0:
153,312,11330,5,12,0:0:0:0:
256,192,11673,1,0,3:0:0:0:
256,178,12359,1,0,3:0:0:0:
256,164,13044,5,0,3:0:0:0:
256,150,13730,1,0,3:0:0:0:
256,256,13901,2,0,L|256:320,2,33.7500012874604,2|2|2,0:0|0:0|0:0,0:0:0:0:
256,136,14416,5,0,3:0:0:0:
256,122,15101,1,0,3:0:0:0:
256,108,15787,1,0,3:0:0:0:
331,50,15959,1,2,0:0:0:0:
331,50,16044,1,2,0:0:0:0:
331,50,16130,5,8,0:3:0:0:
353,77,16216,1,8,0:3:0:0:
381,94,16301,1,8,0:3:0:0:
414,101,16387,1,0,3:0:0:0:
447,97,16473,2,0,L|456:12,1,67.5,8|0,0:1|0:0,0:0:0:0:
498,167,16816,6,0,P|500:234|473:296,1,135.000005149842,8|0,0:0|3:0,0:0:0:0:
396,321,17330,1,8,0:0:0:0:
306,197,17501,2,0,L|314:273,1,67.5000025749208,0|8,0:0|0:0,0:0:0:0:
192,353,17844,2,0,P|141:348|99:322,1,101.250003862381,8|0,0:1|0:0,0:0:0:0:
90,282,18187,5,8,0:0:0:0:
223,176,18359,2,0,L|215:108,1,67.5000025749208,0|0,0:0|3:0,0:0:0:0:
77,151,18701,1,8,0:0:0:0:
77,151,18787,1,0,0:0:0:0:
77,151,18873,2,0,L|35:144,2,33.7500012874604,0|0|8,0:0|0:0|0:0,0:0:0:0:
224,25,19216,1,8,0:1:0:0:
144,39,19387,1,8,0:0:0:0:
144,39,19559,6,0,L|70:26,1,67.5000025749208,8|0,0:0|0:0,0:0:0:0:
223,176,19901,2,0,L|296:163,1,67.5000025749208,0|8,3:0|0:0,0:0:0:0:
398,61,20244,2,0,P|400:94|391:126,1,67.5000025749208,0|8,0:0|0:0,0:0:0:0:
359,277,20587,1,8,0:1:0:0:
279,261,20759,1,0,0:0:0:0:
278,261,20930,6,0,P|279:294|292:325,1,67.5000025749208,8|0,0:0|0:0,0:0:0:0:
470,372,21273,1,0,3:0:0:0:
389,383,21444,1,8,0:0:0:0:
389,383,21787,1,8,0:0:0:0:
204,295,21959,2,0,L|155:286,1,33.7500012874604,8|0,0:1|0:0,0:0:0:0:
278,261,22130,1,8,0:0:0:0:
123,372,22301,6,0,P|59:354|27:296,1,135,12|0,0:0|0:0,0:0:0:0:
68,226,22644,1,0,1:0:0:0:
128,120,22816,1,0,3:0:0:0:
128,120,22901,1,0,1:0:0:0:
128,120,22987,2,0,L|120:51,2,45,0|0|8,3:0|1:0|0:0,0:0:0:0:
292,107,23330,1,0,1:0:0:0:
214,167,23501,1,0,3:0:0:0:
214,167,23587,1,0,1:0:0:0:
214,167,23673,6,0,L|199:291,1,90,8|8,0:0|0:0,0:0:0:0:
357,331,24016,1,0,1:0:0:0:
410,251,24187,1,0,3:0:0:0:
410,251,24273,1,0,1:0:0:0:
410,251,24359,2,0,L|466:238,1,45,0|0,3:0|1:0,0:0:0:0:
288,249,24530,2,0,L|344:236,1,45,8|8,0:0|0:0,0:0:0:0:
467,156,24701,1,0,1:0:0:0:
467,156,24873,1,0,1:0:0:0:
411,0,25044,6,0,P|357:38|338:102,1,135,8|0,0:0|0:0,0:0:0:0:
371,177,25387,1,0,1:0:0:0:
288,249,25559,1,0,3:0:0:0:
288,249,25644,1,0,1:0:0:0:
288,249,25730,2,0,L|223:234,2,45,0|0|8,3:0|1:0|0:0,0:0:0:0:
170,136,26073,1,0,1:0:0:0:
112,268,26244,1,0,3:0:0:0:
112,268,26330,1,0,1:0:0:0:
111,268,26416,6,0,P|107:312|118:355,1,90,8|8,0:0|0:0,0:0:0:0:
198,155,26759,1,0,1:0:0:0:
132,78,26930,1,0,3:0:0:0:
132,78,27016,1,0,1:0:0:0:
132,78,27101,2,0,L|78:85,1,45,0|0,3:0|1:0,0:0:0:0:
33,202,27273,2,0,L|28:158,1,45,8|8,0:0|0:0,0:0:0:0:
132,78,27444,1,0,1:0:0:0:
111,268,27616,1,0,1:0:0:0:
286,160,27787,6,0,P|352:146|408:110,1,135.000005149842,8|0,0:0|3:0,0:0:0:0:
420,29,28301,1,8,0:0:0:0:
279,73,28473,2,0,P|245:69|214:56,1,67.5000025749208,0|8,0:0|0:0,0:0:0:0:
376,171,28816,2,0,P|381:215|366:282,1,101.250003862381,8|0,0:1|0:0,0:0:0:0:
340,297,29159,5,8,0:0:0:0:
207,256,29330,2,0,L|200:175,1,67.5000025749208,0|0,0:0|3:0,0:0:0:0:
111,382,29673,2,0,L|117:315,2,67.5000025749208,8|0|8,0:0|0:0|0:0,0:0:0:0:
0,228,30187,1,8,0:1:0:0:
80,241,30359,6,0,L|85:173,1,67.5000025749208,8|8,0:0|0:0,0:0:0:0:
159,67,30701,2,0,L|153:0,1,67.5000025749208,0|0,0:0|3:0,0:0:0:0:
0,112,31044,1,8,0:0:0:0:
0,112,31387,1,8,0:0:0:0:
69,153,31559,2,0,P|102:152|134:140,1,67.5000025749208,8|0,0:1|0:0,0:0:0:0:
262,60,31901,5,8,0:0:0:0:
295,61,31986,1,2,0:0:0:0:
326,74,32072,1,2,0:0:0:0:
352,95,32158,1,2,0:0:0:0:
370,123,32243,1,2,3:2:0:0:
379,156,32329,1,2,0:0:0:0:
377,190,32416,2,0,L|367:243,2,33.7500012874604,10|0|0,0:0|3:0|3:0,0:0:0:0:
460,170,32759,1,8,0:0:0:0:
217,133,32930,1,8,0:1:0:0:
391,111,33101,1,8,0:0:0:0:
206,219,33273,6,0,P|137:166|154:74,1,180,12|8,0:0|0:1,0:0:0:0:
389,204,34473,1,8,0:0:0:0:
389,204,34644,2,0,P|393:260|378:293,1,90,0|8,0:0|0:0,0:0:0:0:
212,355,35330,1,8,0:1:0:0:
212,355,35844,1,0,0:0:0:0:
127,343,36016,6,0,P|91:262|124:181,1,180,8|8,0:0|0:1,0:0:0:0:
232,41,37216,1,8,0:0:0:0:
232,41,37387,2,0,P|276:41|312:66,1,90,0|8,0:0|0:0,0:0:0:0:
441,196,38073,1,8,0:1:0:0:
363,361,38416,1,8,0:0:0:0:
166,279,38759,6,0,P|77:283|11:341,1,180,12|8,0:0|0:1,0:0:0:0:
267,199,39959,1,8,0:0:0:0:
297,118,40130,2,0,P|293:74|265:39,1,90,0|8,0:0|0:0,0:0:0:0:
76,11,40816,1,8,0:1:0:0:
12,155,41501,5,8,0:0:0:0:
107,330,42187,1,8,0:1:0:0:
227,308,42530,2,0,P|238:288|243:266,1,45,2|8,0:0|0:0,0:0:0:0:
196,181,42873,6,0,L|183:79,1,90,2|10,0:0|0:0,0:0:0:0:
327,91,43559,2,0,L|316:181,1,90,8|10,0:1|0:0,0:0:0:0:
316,384,44244,6,0,P|356:366|387:333,1,90,4|2,0:0|0:0,0:0:0:0:
342,171,44587,2,0,P|336:215|350:258,1,90,8|2,0:1|0:0,0:0:0:0:
512,300,44930,2,0,P|476:273|432:263,1,90,8|2,0:1|0:0,0:0:0:0:
225,252,45273,1,8,0:1:0:0:
240,340,45444,1,8,0:1:0:0:
342,171,45616,6,0,L|229:156,1,90,8|2,0:1|0:0,0:0:0:0:
411,77,45959,2,0,L|500:65,1,90,8|2,0:1|0:0,0:0:0:0:
222,59,46301,1,8,0:1:0:0:
207,147,46472,1,8,0:1:0:0:
134,44,46644,1,8,0:1:0:0:
119,132,46816,1,8,0:1:0:0:
119,132,46901,1,0,3:0:0:0:
119,131,46987,6,0,P|88:164|68:205,1,90,8|2,0:1|0:0,0:0:0:0:
0,321,47330,2,0,P|39:300|83:291,1,90,8|2,0:1|0:0,0:0:0:0:
236,284,47673,2,0,L|247:394,1,90,8|2,0:1|0:0,0:0:0:0:
401,250,48016,1,8,0:1:0:0:
312,232,48187,1,8,0:1:0:0:
471,84,48359,5,8,0:1:0:0:
481,173,48530,1,8,0:1:0:0:
450,95,48701,1,8,0:1:0:0:
460,184,48872,1,8,0:1:0:0:
294,120,49044,2,0,L|189:129,1,90,8|2,0:1|0:0,0:0:0:0:
331,37,49387,1,8,0:1:0:0:
380,205,49559,1,8,0:1:0:0:
380,205,49644,1,0,3:0:0:0:
380,205,49730,6,0,L|423:231,1,45,4|2,0:0|0:0,0:0:0:0:
346,289,49901,2,0,L|358:337,1,45,8|2,0:1|0:0,0:0:0:0:
262,323,50073,2,0,L|236:366,1,45,8|2,0:1|0:0,0:0:0:0:
179,289,50244,2,0,L|130:301,1,45,8|2,0:1|0:0,0:0:0:0:
145,205,50415,2,0,L|102:179,1,45,8|2,0:1|0:0,0:0:0:0:
179,122,50587,2,0,L|166:73,1,45,8|2,0:1|0:0,0:0:0:0:
262,88,50758,2,0,L|288:44,1,45,8|2,0:1|0:0,0:0:0:0:
346,122,50930,2,0,L|394:109,1,45,8|2,0:1|0:0,0:0:0:0:
395,205,51101,6,0,L|443:234,1,45,8|2,0:1|0:0,0:0:0:0:
357,300,51273,2,0,L|370:354,1,45,8|2,0:1|0:0,0:0:0:0:
262,338,51444,2,0,L|232:386,1,45,8|2,0:1|0:0,0:0:0:0:
168,300,51615,2,0,L|112:313,1,45,8|2,0:1|0:0,0:0:0:0:
129,205,51787,2,0,L|80:175,1,45,8|2,0:1|0:0,0:0:0:0:
168,111,51958,2,0,L|153:55,1,45,8|2,0:1|0:0,0:0:0:0:
262,72,52130,2,0,L|291:22,1,45,8|2,0:1|0:0,0:0:0:0:
357,111,52301,2,0,L|411:96,1,45,8|2,0:1|0:0,0:0:0:0:
370,251,52473,5,8,3:1:0:0:
344,288,52559,1,0,3:0:0:0:
307,313,52645,1,8,3:1:0:0:
263,322,52730,1,0,3:0:0:0:
219,313,52816,1,8,3:1:0:0:
181,288,52902,1,0,3:0:0:0:
156,250,52988,1,8,3:1:0:0:
148,206,53073,1,0,3:0:0:0:
156,162,53159,1,8,3:1:0:0:
181,125,53245,1,0,3:0:0:0:
219,100,53330,1,8,3:1:0:0:
263,91,53416,1,0,3:0:0:0:
307,100,53502,1,8,3:1:0:0:
344,125,53588,1,0,3:0:0:0:
370,162,53673,2,0,L|362:226,1,45,8|0,3:1|3:0,0:0:0:0:
342,384,53844,5,8,3:2:0:0:
342,384,55216,6,0,L|338:318,1,54,12|0,0:0|0:0,0:0:0:0:
267,274,55559,2,0,L|231:276,1,36,2|0,0:3|0:0,0:0:0:0:
385,205,55901,2,0,L|389:139,1,54,8|0,0:0|0:0,0:0:0:0:
460,95,56244,2,0,L|495:97,1,36,2|0,0:3|0:0,0:0:0:0:
378,40,56587,6,0,L|318:43,1,54,8|0,0:0|0:0,0:0:0:0:
252,47,56930,2,0,L|192:50,1,54,8|0,0:0|0:0,0:0:0:0:
126,54,57273,2,0,L|66:57,1,54,8|0,0:0|0:0,0:0:0:0:
0,15,57616,1,2,1:3:0:0:
0,15,57787,1,0,0:0:0:0:
0,15,57873,1,0,0:0:0:0:
0,15,57959,6,0,P|29:60|41:112,1,107.999996704102,8|0,0:0|0:0,0:0:0:0:
65,262,58301,2,0,P|89:214|128:177,1,107.999996704102,2|0,0:3|0:0,0:0:0:0:
264,18,58644,1,8,0:0:0:0:
264,18,58730,2,0,L|273:86,1,53.9999983520508,0|0,0:0|0:0,0:0:0:0:
235,138,58901,2,0,L|226:206,1,53.9999983520508,8|2,0:0|0:3,0:0:0:0:
432,68,59159,1,8,0:0:0:0:
334,281,59330,5,8,0:0:0:0:
334,281,59416,2,0,P|324:255|321:229,1,53.9999983520508,0|0,0:0|0:0,0:0:0:0:
375,169,59587,2,0,L|440:175,1,53.9999983520508,8|2,0:0|0:3,0:0:0:0:
489,351,59844,1,8,0:0:0:0:
242,302,60016,2,0,P|161:308|88:341,1,161.999995056153,8|0,0:0|0:0,0:0:0:0:
175,384,60359,1,2,0:3:0:0:
321,229,60530,1,0,0:0:0:0:
321,229,60616,1,0,0:0:0:0:
321,229,60701,6,2,P|320:183|309:120,1,101.250003862381,8|2,0:0|0:0,0:0:0:0:
252,77,61044,1,2,0:3:0:0:
443,160,61216,1,0,0:0:0:0:
443,160,61302,1,0,0:0:0:0:
443,160,61387,6,0,P|444:114|455:51,1,101.250003862381,8|0,0:0|0:0,0:0:0:0:
512,8,61730,1,2,0:3:0:0:
512,226,61901,1,0,0:0:0:0:
208,108,62073,6,0,P|162:171|177:248,1,161.999995056153,8|0,0:0|0:0,0:0:0:0:
352,193,62416,2,0,P|321:121|246:96,1,161.999995056153,8|0,0:0|0:0,0:0:0:0:
206,274,62759,2,0,P|284:283|343:231,1,161.999995056153,8|0,0:0|0:0,0:0:0:0:
256,192,63101,1,2,0:3:0:0:
127,316,63273,1,0,0:0:0:0:
127,316,63359,1,0,0:0:0:0:
127,316,63444,6,0,L|31:295,1,90,8|0,0:0|0:0,0:0:0:0:
124,126,63787,2,0,P|146:164|146:208,1,90,2|0,0:3|0:0,0:0:0:0:
25,90,64130,1,8,0:0:0:0:
134,28,64301,1,0,0:0:0:0:
134,28,64387,2,0,L|187:22,1,45,8|2,0:0|0:3,0:0:0:0:
360,65,64644,1,8,0:0:0:0:
124,126,64816,5,8,0:0:0:0:
260,158,64987,1,0,0:0:0:0:
260,158,65073,2,0,L|207:152,1,45,8|2,0:0|0:3,0:0:0:0:
6,205,65330,1,8,0:0:0:0:
243,274,65501,6,0,L|327:264,1,67.5,8|0,0:0|0:0,0:0:0:0:
268,311,65844,2,0,L|-20:282,1,270,8|0,1:3|0:0,0:0:0:0:
28,376,66187,6,0,L|99:370,1,72,14|2,0:0|0:0,0:0:0:0:
143,298,66701,1,0,0:0:0:0:
356,323,66873,2,0,L|347:388,2,54,2|2|8,3:0|0:0|0:0,0:0:0:0:
432,258,67559,2,0,L|485:265,1,54,2|0,0:0|0:0,0:0:0:0:
496,189,67901,2,0,L|443:182,1,54,10|0,0:0|0:0,0:0:0:0:
512,114,68244,1,2,0:3:0:0:
326,181,68416,2,0,P|318:148|328:100,1,72,8|0,0:0|0:0,0:0:0:0:
224,4,68930,6,0,L|231:92,2,67.5000025749208,10|2|2,0:0|0:0|0:0,0:0:0:0:
120,154,69444,2,0,L|125:86,1,67.5000025749208,2|2,0:0|0:3,0:0:0:0:
210,203,69787,1,2,0:0:0:0:
210,203,69873,1,0,0:0:0:0:
210,203,69959,1,0,0:0:0:0:
210,203,70130,1,8,0:0:0:0:
41,224,70301,5,2,0:0:0:0:
134,285,70473,1,0,0:0:0:0:
134,285,70559,2,0,L|142:340,1,33.7500012874604,2|8,0:0|0:0,0:0:0:0:
237,184,70816,1,2,0:0:0:0:
225,352,70987,1,2,0:0:0:0:
343,225,71159,2,0,L|354:304,1,67.5000025749208,8|0,0:0|0:0,0:0:0:0:
481,341,71501,1,0,0:0:0:0:
481,341,71587,1,0,0:0:0:0:
481,341,71673,6,0,P|476:269|418:232,1,135.000005149842,8|0,0:0|0:0,0:0:0:0:
512,133,72187,1,0,0:0:0:0:
512,133,72273,1,0,0:0:0:0:
512,133,72359,6,0,P|447:101|386:133,1,135.000005149842,2|0,0:3|0:0,0:0:0:0:
347,3,72873,1,0,0:0:0:0:
184,122,73044,6,0,P|77:112|102:17,2,215.999993408203,8|8|8,0:0|0:0|0:0,0:0:0:0:
256,16,73901,1,2,0:0:0:0:
264,156,74073,1,2,0:0:0:0:
273,295,74244,1,2,0:0:0:0:
273,295,74330,1,0,0:0:0:0:
273,295,74416,6,0,L|130:272,2,135.000005149842,12|2|8,0:0|0:0|0:1,0:0:0:0:
455,374,75444,1,0,0:0:0:0:
433,271,75616,1,10,0:0:0:0:
314,363,75787,6,0,L|180:384,2,135.000005149842,8|10|8,0:0|0:0|0:1,0:0:0:0:
100,318,76816,1,8,0:0:0:0:
143,225,76987,1,2,0:0:0:0:
29,141,77159,6,0,P|19:57|134:101,1,236.250009012223,6|0,3:0|0:0,0:0:0:0:
208,93,77844,1,2,3:0:0:0:
308,28,78016,1,2,3:0:0:0:
291,24,78101,1,2,3:0:0:0:
274,20,78187,1,2,3:0:0:0:
331,164,78359,5,2,3:0:0:0:
403,12,78701,1,2,3:0:0:0:
337,196,79044,1,2,3:0:0:0:
232,90,79216,6,0,L|237:143,1,33.7500012874604,2|2,0:0|0:0,0:0:0:0:
140,190,79387,2,0,L|193:185,1,33.7500012874604,2|2,0:0|0:0,0:0:0:0:
240,282,79559,2,0,L|235:229,1,33.7500012874604,2|2,1:2|0:0,0:0:0:0:
332,182,79730,2,0,L|279:187,1,33.7500012874604,2|2,0:0|0:0,0:0:0:0:
332,182,80244,6,0,P|346:286|432:346,1,215.999993408203,12|0,0:0|0:0,0:0:0:0:
