osu file format v14

[General]
AudioFilename: audio.mp3
AudioLeadIn: 0
PreviewTime: 54428
Countdown: 0
SampleSet: Soft
StackLeniency: 0.7
Mode: 0
LetterboxInBreaks: 0
WidescreenStoryboard: 0

[Editor]
Bookmarks: 9622,14122,41872,89122,100372,104872
DistanceSpacing: 1
BeatDivisor: 2
GridSize: 4
TimelineZoom: 0.8000001

[Metadata]
Title:Zetsubo to no Wakare ~Kyozo to no Tatakai~
TitleUnicode:絶望との別れ ~巨像との戦い~
Artist:Otani Kow
ArtistUnicode:大谷 幸
Creator:RanthFox
Version:Normal
Source:ワンダと巨像
Tags:shadow of the colossus a despair filled farewell battle with the colossus ost fumito ueda team ico
BeatmapID:1589871
BeatmapSetID:745524

[Difficulty]
HPDrainRate:4
CircleSize:3.5
OverallDifficulty:4
ApproachRate:5
SliderMultiplier:1.15
SliderTickRate:1

[Events]
//Background and Video events
0,0,"avion__avis_praeda_by_francoyovich-d8wjsag.jpg",0,0
//Break Periods
//Storyboard Layer 0 (Background)
//Storyboard Layer 1 (Fail)
//Storyboard Layer 2 (Pass)
//Storyboard Layer 3 (Foreground)
//Storyboard Sound Samples

[TimingPoints]
428,375,4,2,0,80,1,0
428,-100,4,2,0,80,0,0
6428,-100,4,2,0,60,0,0
18428,-100,4,2,0,65,0,0
19178,-100,4,2,0,70,0,0
19928,-100,4,2,0,75,0,0
20678,-100,4,2,0,80,0,0
21428,-100,4,2,0,85,0,0
24428,-100,4,2,0,65,0,0
25178,-100,4,2,0,70,0,0
25928,-100,4,2,0,75,0,0
26678,-100,4,2,0,80,0,0
27428,-100,4,2,0,85,0,0
30428,-100,4,2,0,50,0,0
36428,-100,4,2,0,60,0,0
37925,-100,4,2,0,70,0,0
39428,-100,4,2,0,60,0,0
40928,-100,4,2,0,70,0,0
42428,-100,4,2,0,50,0,0
48428,-100,4,2,0,60,0,0
49928,-100,4,2,0,70,0,0
51428,-100,4,2,0,60,0,0
52928,-100,4,2,0,70,0,0
54428,-100,4,2,0,80,0,1
55178,-100,4,2,0,70,0,1
55928,-100,4,2,0,60,0,1
57428,-100,4,2,0,70,0,1
58178,-100,4,2,0,60,0,1
58928,-100,4,2,0,50,0,1
60428,-100,4,2,0,60,0,1
61178,-100,4,2,0,65,0,1
61928,-100,4,2,0,70,0,1
62678,-100,4,2,0,75,0,1
63428,-100,4,2,0,80,0,1
64178,-100,4,2,0,75,0,1
64928,-100,4,2,0,70,0,1
65678,-100,4,2,0,65,0,0
66428,-100,4,2,0,80,0,1
67178,-100,4,2,0,70,0,1
67928,-100,4,2,0,60,0,1
69428,-100,4,2,0,70,0,1
70178,-100,4,2,0,60,0,1
70928,-100,4,2,0,50,0,1
72428,-100,4,2,0,60,0,1
73178,-100,4,2,0,65,0,1
73928,-100,4,2,0,70,0,1
74678,-100,4,2,0,75,0,1
75428,-100,4,2,0,85,0,1
76178,-100,4,2,0,80,0,1
76928,-100,4,2,0,75,0,1
77678,-100,4,2,0,70,0,1
78428,-100,4,2,0,80,0,0
79178,-100,4,2,0,60,0,0
79553,-100,4,2,0,70,0,0
81428,-100,4,2,0,60,0,0
84428,-100,4,2,0,50,0,0
90428,-100,4,2,0,80,0,0
91178,-100,4,2,0,60,0,0
91553,-100,4,2,0,70,0,0
93428,-100,4,2,0,60,0,0
96428,-100,4,2,0,50,0,0
102428,-100,4,2,0,60,0,1
103928,-100,4,2,0,70,0,1
105428,-100,4,2,0,60,0,1
106928,-100,4,2,0,70,0,1
108428,-100,4,2,0,50,0,1
111428,-100,4,2,0,60,0,1
115928,-100,4,2,0,70,0,1
117428,-100,4,2,0,60,0,1
118928,-100,4,2,0,70,0,1
120428,-100,4,2,0,60,0,1
123428,-100,4,2,0,70,0,0

[Colours]
Combo1 : 0,202,202
Combo2 : 128,128,0
Combo3 : 0,106,0
Combo4 : 85,85,85
Combo5 : 128,128,64
Combo6 : 0,106,106
Combo7 : 116,116,116

[HitObjects]
112,204,428,6,0,P|224:64|400:140,1,345,4|0,1:0|0:0,0:0:0:0:
456,172,1928,2,4,L|461:231,1,57.5,4|4,1:3|1:3,1:3:0:0:
60,252,3428,6,0,B|-9:166|79:88|79:88|182:115|149:6|269:36,1,345,4|0,1:0|0:0,0:0:0:0:
320,80,4928,2,4,L|363:132,1,57.5,4|4,1:3|1:3,1:3:0:0:
28,356,6428,6,0,L|200:368,1,172.5,0|0,1:0|0:0,0:0:0:0:
446,220,7928,2,0,L|270:207,1,172.5
124,126,9053,2,4,L|84:179,1,57.5,4|4,3:0|3:0,3:0:0:0:
50,213,9428,6,0,P|66:129|36:49,1,172.5,4|0,1:0|0:0,0:0:0:0:
400,224,11303,2,4,L|468:268,2,57.5,4|4|4,3:0|3:0|3:0,3:0:0:0:
300,168,12053,1,4,3:0:0:0:
252,64,12428,22,0,P|192:136|204:232,1,172.5,4|0,1:0|0:0,0:0:0:0:
452,80,13928,2,0,L|472:256,1,172.5
340,364,15053,2,4,L|296:320,1,57.5,4|4,3:0|3:0,3:0:0:0:
244,312,15428,22,0,P|159:313|91:363,1,172.5,4|0,1:0|0:0,0:0:0:0:
356,60,17303,2,4,L|440:72,2,57.5,4|4|4,3:0|3:0|3:0,3:0:0:0:
248,96,18053,1,4,3:0:0:0:
156,28,18428,6,0,P|48:96|100:200,1,230,4|2,1:0|0:0,0:0:0:0:
264,300,19928,2,0,L|288:184,1,115,2|0,0:0|0:0,0:0:0:0:
351,91,20678,1,2,0:0:0:0:
459,125,21053,2,4,L|501:193,1,57.5,4|4,3:0|3:0,3:0:0:0:
471,227,21428,6,0,P|413:215|348:245,2,115,4|0|2,1:0|0:0|0:0,0:0:0:0:
425,332,22553,1,0,0:0:0:0:
312,320,22928,2,0,B|208:329|208:329|178:355|178:355|98:362|98:362|17:335|41:225,1,345,2|4,0:0|3:0,0:0:0:0:
28,154,24428,6,0,B|42:87|123:72|168:121|168:121|223:115,1,230,4|2,1:0|0:0,0:0:0:0:
447,84,25928,2,0,L|430:222,1,115,2|0,0:0|0:0,0:0:0:0:
407,310,26678,1,2,0:0:0:0:
326,227,27053,2,4,L|334:167,1,57.5,4|4,3:0|3:0,3:0:0:0:
329,112,27428,22,0,P|286:72|272:13,2,115,4|0|2,1:0|0:0|0:0,0:0:0:0:
444,112,28553,1,0,0:0:0:0:
374,19,28928,2,0,B|210:123|210:123|174:79|98:71|50:115,1,345,2|4,0:0|3:0,0:0:0:0:
126,199,30428,22,0,B|153:251|153:251|226:286,1,115,4|0,1:0|0:0,0:0:0:0:
317,294,31178,2,0,B|371:302|371:302|424:274,1,115,4|0,3:0|0:0,0:0:0:0:
454,225,31740,1,2,0:0:0:0:
469,169,31928,2,0,P|398:147|374:100,1,115,4|0,3:0|0:0,0:0:0:0:
322,14,32678,2,0,P|294:63|241:83,1,115,4|0,3:0|0:0,0:0:0:0:
184,86,33240,1,2,0:0:0:0:
126,89,33428,6,0,L|113:210,1,115,4|0,3:0|0:0,0:0:0:0:
203,274,34178,1,4,3:0:0:0:
318,265,34553,2,0,L|377:259,1,57.5,0|2,0:0|0:0,0:0:0:0:
433,255,34928,2,0,P|391:216|385:160,1,115,4|0,3:0|0:0,0:0:0:0:
420,52,35678,1,4,3:0:0:0:
312,17,36053,2,0,L|275:60,1,57.5,0|2,0:0|0:0,0:0:0:0:
220,72,36428,5,4,3:0:0:0:
252,184,36803,1,0,0:0:0:0:
170,264,37178,2,0,P|211:292|284:294,1,115,4|0,3:0|0:0,0:0:0:0:
384,336,37928,1,4,0:0:0:0:
424,228,38303,1,0,0:0:0:0:
372,124,38678,2,0,L|404:76,2,57.5,4|0|0,0:0|0:0|0:0,0:0:0:0:
308,220,39428,5,4,3:0:0:0:
191,218,39803,1,0,0:0:0:0:
105,293,40178,2,0,P|80:238|82:178,1,115,4|0,3:0|0:0,0:0:0:0:
122,75,40928,1,4,0:0:0:0:
238,65,41303,1,0,0:0:0:0:
335,125,41678,2,0,L|402:119,2,57.5,4|0|0,0:0|0:0|0:0,0:0:0:0:
260,212,42428,22,0,B|124:212,1,115,4|0,3:0|0:0,0:0:0:0:
76,120,43178,2,0,P|130:98|197:110,1,115,4|0,3:0|0:0,0:0:0:0:
240,120,43740,1,2,0:0:0:0:
296,104,43928,2,0,B|330:155|330:155|391:173,1,115,4|0,3:0|0:0,0:0:0:0:
484,220,44678,2,0,B|449:271|449:271|389:289,1,115,4|0,3:0|0:0,0:0:0:0:
340,296,45240,1,2,0:0:0:0:
284,304,45428,22,0,P|262:250|274:183,1,115,4|0,3:0|0:0,0:0:0:0:
296,84,46178,1,4,3:0:0:0:
408,112,46553,2,0,L|456:72,1,57.5,0|2,0:0|0:0,0:0:0:0:
509,70,46928,2,0,P|515:126|493:179,1,115,4|0,3:0|0:0,0:0:0:0:
407,255,47678,1,4,3:0:0:0:
384,368,48053,2,0,L|308:361,1,57.5,0|2,0:0|0:0,0:0:0:0:
268,357,48428,5,4,3:0:0:0:
152,347,48803,1,0,0:0:0:0:
84,257,49178,2,0,B|109:198|109:198|95:121,1,115,4|0,3:0|0:0,0:0:0:0:
173,60,49928,1,4,0:0:0:0:
264,128,50303,1,0,0:0:0:0:
369,77,50678,2,0,L|427:46,2,57.5,4|0|0,0:0|0:0|0:0,0:0:0:0:
264,128,51428,5,4,3:0:0:0:
278,243,51803,1,0,0:0:0:0:
384,288,52178,2,0,L|395:160,1,115,4|0,3:0|0:0,0:0:0:0:
488,104,52928,1,4,0:0:0:0:
407,25,53303,1,0,0:0:0:0:
313,89,53678,2,0,L|249:83,2,57.5,4|0|0,0:0|0:0|0:0,0:0:0:0:
392,172,54428,54,0,B|476:276|304:276|392:384,2,230,4|0|4,0:1|0:0|0:3,0:0:0:0:
76,32,57053,2,4,L|36:88,1,57.5,4|4,0:3|3:0,3:0:0:0:
12,128,57428,70,0,P|24:200|164:168,2,230,4|0|4,0:3|0:0|0:3,0:0:0:0:
344,32,60053,2,4,L|348:104,1,57.5,4|4,0:3|3:0,3:0:0:0:
388,132,60428,22,0,B|360:172|360:172|344:172|344:172|320:216|320:216|360:288|304:344,1,230,4|0,0:3|0:0,0:0:0:0:
89,331,61928,2,0,B|93:275|93:275|82:266|82:266|89:182|89:182|102:175|102:175|106:127|158:132,1,230,4|0,0:3|0:0,0:0:0:0:
368,148,63428,70,0,B|463:140|463:140|513:63|431:5,1,230,4|0,0:3|0:0,0:0:0:0:
220,32,64928,2,0,B|140:24|140:24|116:52|72:64|72:64|28:96|44:160,1,230,4|0,0:3|0:0,0:0:0:0:
218,267,66428,22,0,P|257:351|296:267,2,230,4|0|4,0:1|0:0|0:3,0:0:0:0:
472,32,69053,2,4,L|424:76,1,57.5,4|4,0:3|3:0,3:0:0:0:
384,108,69428,70,0,P|276:72|156:120,2,230,4|0|4,0:3|0:0|0:3,0:0:0:0:
152,364,72053,2,4,L|82:346,1,57.5,4|4,0:3|3:0,3:0:0:0:
40,329,72428,22,0,B|92:280|97:212|97:212|152:223|216:202,1,230,4|0,0:3|0:0,0:0:0:0:
413,140,73928,2,0,B|360:180|377:243|377:243|332:271|332:271|260:277,1,230,4|0,0:3|0:0,0:0:0:0:
92,132,75428,70,0,B|65:62|130:24|130:24|179:35|179:35|263:28,1,230,4|0,0:3|0:0,0:0:0:0:
464,16,76928,2,0,B|444:64|460:112|460:112|440:132|440:132|456:196|400:248,1,230,4|0,0:3|0:0,0:0:0:0:
236,368,78428,6,0,B|124:360|124:360|12:296,1,230,4|0,0:1|0:0,0:0:0:0:
96,216,79553,2,0,L|164:208,1,57.5
200,176,79928,2,0,P|340:168|400:72,1,230,4|0,3:0|0:0,0:0:0:0:
180,12,81428,21,4,3:0:0:0:
64,22,81803,1,0,0:0:0:0:
28,132,82178,2,0,L|116:206,1,115,0|4,0:0|3:0,0:0:0:0:
212,272,82928,2,0,B|270:266|270:266|331:235,2,115,4|0|4,3:0|0:0|3:0,0:0:0:0:
96,280,84053,1,0,0:0:0:0:
72,168,84428,6,0,B|136:67|202:172|272:50,1,230,4|4,3:0|3:0,0:0:0:0:
344,144,85553,2,0,L|328:208,1,57.5,4|0,3:0|0:0,0:0:0:0:
312,256,85928,2,0,L|184:244,1,115,4|0,3:0|0:0,0:0:0:0:
94,280,86678,2,0,L|72:160,1,115,4|0,3:0|0:0,0:0:0:0:
144,76,87428,6,0,B|166:128|234:145|234:145|266:87|337:73,1,230,4|4,3:0|3:0,0:0:0:0:
432,100,88553,2,0,L|416:168,1,57.5,4|0,3:0|0:0,0:0:0:0:
404,212,88928,2,0,B|367:254|367:254|312:275,1,115,4|0,3:0|0:0,0:0:0:0:
200,292,89677,2,0,B|184:360,2,57.5,4|0|0,3:0|0:0|0:0,0:0:0:0:
164,184,90428,6,0,P|256:164|328:48,1,230,4|0,0:1|0:0,0:0:0:0:
220,20,91553,2,0,L|144:40,1,57.5
108,48,91928,2,0,B|116:128|116:128|61:181|103:252|152:256,1,230,4|0,3:0|0:0,0:0:0:0:
340,367,93428,21,4,3:0:0:0:
346,251,93803,1,0,0:0:0:0:
353,136,94178,2,0,L|237:146,1,115,0|4,0:0|3:0,0:0:0:0:
133,98,94928,2,0,P|122:149|154:224,2,115,4|0|4,3:0|0:0|3:0,0:0:0:0:
220,24,96053,1,0,0:0:0:0:
332,40,96428,22,0,P|412:97|388:217,1,230,4|4,3:0|3:0,0:0:0:0:
285,259,97553,2,0,L|221:255,1,57.5,4|0,3:0|0:0,0:0:0:0:
170,240,97928,2,0,B|110:242|110:242|45:219,1,115,4|0,3:0|0:0,0:0:0:0:
28,112,98678,2,0,B|87:109|87:109|152:132,1,115,4|0,3:0|0:0,0:0:0:0:
244,76,99428,6,0,B|323:82|323:82|397:65|397:65|481:72,1,230,4|4,3:0|3:0,0:0:0:0:
508,180,100553,2,0,L|444:212,1,57.5,4|0,3:0|0:0,0:0:0:0:
416,248,100928,2,0,L|301:257,1,115,4|0,3:0|0:0,0:0:0:0:
192,228,101678,2,0,L|201:113,1,115,4|0,3:0|0:0,0:0:0:0:
284,36,102428,70,0,P|296:84|354:141,1,115,4|0,3:1|0:0,0:0:0:0:
398,34,103178,2,0,L|434:82,1,57.5
469,248,103928,2,2,L|403:262,1,57.5,2|2,1:0|1:0,1:0:0:0:
356,272,104303,1,4,0:0:0:0:
262,338,104678,2,2,L|196:324,1,57.5,2|2,1:0|1:0,1:0:0:0:
149,314,105053,1,4,0:0:0:0:
44,265,105428,70,0,P|92:253|149:195,1,115,4|0,0:3|0:0,0:0:0:0:
42,151,106178,2,0,L|90:115,1,57.5
237,29,106928,2,2,L|251:106,1,57.5,2|2,1:0|1:0,1:0:0:0:
258,142,107303,1,4,0:0:0:0:
372,142,107678,2,2,L|386:65,1,57.5,2|2,1:0|1:0,1:0:0:0:
393,28,108053,1,4,0:0:0:0:
493,84,108428,22,0,B|512:171|454:164|481:276,2,172.5,4|4|4,0:3|0:3|0:3,0:0:0:0:
393,28,109928,2,0,P|278:13|251:127,1,230,4|4,0:3|0:3,0:0:0:0:
356,303,111428,70,0,L|378:175,1,115,4|4,0:3|0:0,0:0:0:0:
326,84,112178,1,4,0:3:0:0:
218,42,112553,2,0,L|144:47,1,57.5,4|0,0:0|0:0,0:0:0:0:
102,49,112928,2,0,P|109:101|74:161,1,115,4|4,0:3|0:0,0:0:0:0:
66,269,113678,1,4,0:3:0:0:
146,350,114053,2,0,L|213:342,1,57.5,4|0,0:0|0:0,0:0:0:0:
260,338,114428,22,0,L|235:202,1,115,4|0,0:3|0:0,0:0:0:0:
271,114,115178,2,0,L|235:66,1,57.5
72,10,115928,2,2,L|51:74,1,57.5,2|2,1:0|1:0,1:0:0:0:
36,119,116303,1,4,0:0:0:0:
10,231,116678,2,2,L|77:227,1,57.5,2|2,1:0|1:0,1:0:0:0:
126,226,117053,1,4,0:0:0:0:
212,300,117428,70,0,P|237:249|232:188,1,115,4|0,0:3|0:0,0:0:0:0:
180,90,118178,2,0,L|132:126,1,57.5
13,247,118928,2,2,L|90:233,1,57.5,2|2,1:0|1:0,1:0:0:0:
126,226,119303,1,4,0:0:0:0:
240,234,119678,2,2,L|254:157,1,57.5,2|2,1:0|1:0,1:0:0:0:
261,120,120053,1,4,0:0:0:0:
198,23,120428,22,0,B|136:29|137:91|84:113|38:77,2,172.5,4|4|4,0:3|0:3|0:3,0:0:0:0:
313,23,121928,2,0,B|375:29|374:91|427:113|473:77,2,172.5,4|4|4,0:3|0:3|0:3,0:0:0:0:
232,104,123428,70,4,L|227:168,1,57.5,4|4,0:1|0:1,0:1:0:0:
301,251,123990,2,4,L|305:193,1,57.5,4|4,0:1|0:1,0:1:0:0:
310,137,124365,1,4,0:1:0:0:
313,23,124740,21,4,0:1:0:0:
257,18,124928,2,4,L|199:12,1,57.5,4|4,0:1|0:1,0:1:0:0:
116,92,125490,1,4,0:1:0:0:
174,98,125678,2,4,L|232:104,1,57.5,4|4,0:1|0:1,0:1:0:0:
