osu file format v14

[General]
AudioFilename: audio.mp3
AudioLeadIn: 0
PreviewTime: 54428
Countdown: 0
SampleSet: Soft
StackLeniency: 0.6
Mode: 0
LetterboxInBreaks: 0
WidescreenStoryboard: 0

[Editor]
DistanceSpacing: 1
BeatDivisor: 4
GridSize: 4
TimelineZoom: 1.720006

[Metadata]
Title:Zetsubo to no Wakare ~Kyozo to no Tatakai~
TitleUnicode:絶望との別れ ~巨像との戦い~
Artist:Otani Kow
ArtistUnicode:大谷 幸
Creator:RanthFox
Version:Colossus
Source:ワンダと巨像
Tags:shadow of the colossus a despair filled farewell battle with the colossus ost fumito ueda team ico
BeatmapID:1571676
BeatmapSetID:745524

[Difficulty]
HPDrainRate:6
CircleSize:4.2
OverallDifficulty:8
ApproachRate:9
SliderMultiplier:1.7
SliderTickRate:1

[Events]
//Background and Video events
0,0,"avion__avis_praeda_by_francoyovich-d8wjsag.jpg",0,0
//Break Periods
//Storyboard Layer 0 (Background)
//Storyboard Layer 1 (Fail)
//Storyboard Layer 2 (Pass)
//Storyboard Layer 3 (Foreground)
//Storyboard Sound Samples

[TimingPoints]
428,375,4,2,0,80,1,0
428,-125,4,2,0,80,0,0
6428,-100,4,2,0,60,0,0
18428,-125,4,2,0,65,0,0
19178,-111.111111111111,4,2,0,70,0,0
19928,-100,4,2,0,75,0,0
20490,-90.9090909090909,4,2,0,80,0,0
21240,-83.3333333333333,4,2,0,85,0,0
24428,-125,4,2,0,65,0,0
25178,-111.111111111111,4,2,0,70,0,0
25928,-100,4,2,0,75,0,0
26490,-90.9090909090909,4,2,0,80,0,0
27240,-83.3333333333333,4,2,0,85,0,0
30428,-83.3333333333333,4,2,0,70,0,0
36428,-76.9230769230769,4,2,0,75,0,0
37928,-71.4285714285714,4,2,0,80,0,0
39428,-76.9230769230769,4,2,0,75,0,0
40928,-71.4285714285714,4,2,0,80,0,0
42428,-83.3333333333333,4,2,0,70,0,0
48428,-76.9230769230769,4,2,0,75,0,0
49928,-66.6666666666667,4,2,0,90,0,0
51428,-76.9230769230769,4,2,0,75,0,0
52928,-66.6666666666667,4,2,0,90,0,0
54428,-80,4,2,0,80,0,1
55178,-80,4,2,0,70,0,1
55928,-80,4,2,0,60,0,1
57428,-80,4,2,0,70,0,1
58178,-80,4,2,0,60,0,1
58928,-80,4,2,0,50,0,1
60428,-83.3333333333333,4,2,0,60,0,1
61178,-76.9230769230769,4,2,0,65,0,1
61928,-71.4285714285714,4,2,0,70,0,1
62678,-66.6666666666667,4,2,0,75,0,1
63428,-62.5,4,2,0,80,0,1
64178,-66.6666666666667,4,2,0,75,0,1
64928,-71.4285714285714,4,2,0,70,0,1
65678,-76.9230769230769,4,2,0,65,0,0
66428,-80,4,2,0,80,0,1
67178,-80,4,2,0,70,0,1
67928,-80,4,2,0,60,0,1
69428,-80,4,2,0,70,0,1
70178,-80,4,2,0,60,0,1
70928,-80,4,2,0,50,0,1
72428,-83.3333333333333,4,2,0,60,0,1
73178,-76.9230769230769,4,2,0,65,0,1
73928,-71.4285714285714,4,2,0,70,0,1
74678,-64.5161290322581,4,2,0,75,0,1
75428,-58.8235294117647,4,2,0,85,0,1
76178,-62.5,4,2,0,80,0,1
76928,-66.6666666666667,4,2,0,75,0,1
77678,-83.3333333333333,4,2,0,70,0,1
78428,-166.666666666667,4,2,0,80,0,0
79365,-166.666666666667,4,2,0,5,0,0
79553,-166.666666666667,4,2,0,80,0,0
80490,-166.666666666667,4,2,0,5,0,0
80678,-166.666666666667,4,2,0,80,0,0
81240,-166.666666666667,4,2,0,5,0,0
81428,-83.3333333333333,4,2,0,70,0,0
84428,-83.3333333333333,4,2,0,50,0,0
90428,-166.666666666667,4,2,0,80,0,0
91365,-166.666666666667,4,2,0,5,0,0
91553,-166.666666666667,4,2,0,80,0,0
92490,-166.666666666667,4,2,0,5,0,0
92678,-166.666666666667,4,2,0,80,0,0
93240,-166.666666666667,4,2,0,5,0,0
93428,-83.3333333333333,4,2,0,70,0,0
96428,-83.3333333333333,4,2,0,50,0,0
102428,-95.2380952380952,4,2,0,60,0,1
103928,-95.2380952380952,4,2,0,60,0,1
105428,-95.2380952380952,4,2,0,60,0,1
106928,-95.2380952380952,4,2,0,60,0,1
108428,-95.2380952380952,4,2,0,70,0,1
109928,-95.2380952380952,4,2,0,70,0,1
111428,-83.3333333333333,4,2,0,70,0,1
114428,-95.2380952380952,4,2,0,60,0,1
115928,-95.2380952380952,4,2,0,60,0,1
117428,-95.2380952380952,4,2,0,60,0,1
118928,-95.2380952380952,4,2,0,60,0,1
120428,-95.2380952380952,4,2,0,70,0,1
121928,-95.2380952380952,4,2,0,70,0,1
123428,-66.6666666666667,4,2,0,70,0,0

[Colours]
Combo1 : 0,202,202
Combo2 : 128,128,0
Combo3 : 0,106,0
Combo4 : 85,85,85
Combo5 : 128,128,64
Combo6 : 0,106,106
Combo7 : 116,116,116

[HitObjects]
434,48,428,6,0,B|417:120|417:120|495:156|482:232|447:271|391:288|347:258|347:258|326:292|281:303,1,408,4|0,1:0|0:0,0:0:0:0:
42,186,1928,5,4,1:3:0:0:
142,94,2115,1,4,1:3:0:0:
142,94,3428,6,0,B|180:56|272:56|306:157|247:211|247:211|232:312|340:328,1,408,4|0,1:0|0:0,0:0:0:0:
492,108,4928,5,4,1:3:0:0:
380,26,5115,1,4,1:3:0:0:
380,26,6428,22,0,P|441:96|408:167,1,170,0|0,1:0|0:0,0:0:0:0:
368,231,6990,2,0,L|285:271,1,85,0|2,0:0|0:0,0:0:0:0:
206,267,7365,1,0,0:0:0:0:
247,194,7553,1,0,0:0:0:0:
291,267,7740,1,0,0:0:0:0:
188,345,7928,22,0,P|126:274|159:203,1,170,2|0,0:0|0:0,0:0:0:0:
200,140,8490,2,0,L|282:99,1,85,0|2,0:0|0:0,0:0:0:0:
361,103,8865,1,0,0:0:0:0:
397,269,9053,1,4,3:0:0:0:
241,200,9240,1,4,3:0:0:0:
307,37,9428,22,0,P|396:23|443:81,1,170,4|0,3:1|0:0,0:0:0:0:
455,162,9990,1,0,0:0:0:0:
436,245,10178,2,0,B|441:289|441:289|430:327,2,85,2|0|0,0:0|0:0|0:0,0:0:0:0:
368,192,10740,1,0,0:0:0:0:
298,142,10928,6,0,P|247:136|206:158,1,85,2|0,0:0|0:0,0:0:0:0:
110,284,11303,1,4,3:0:0:0:
263,214,11490,1,4,3:0:0:0:
118,126,11678,1,4,3:0:0:0:
352,372,12053,1,4,3:0:0:0:
400,36,12428,22,0,P|328:13|266:73,1,170,4|0,3:1|0:0,0:0:0:0:
372,171,12990,2,0,L|344:91,1,85,0|2,0:0|0:0,0:0:0:0:
311,19,13365,1,0,0:0:0:0:
226,6,13553,1,0,0:0:0:0:
159,59,13740,1,0,0:0:0:0:
163,189,13928,22,0,P|201:252|289:248,1,170,2|0,0:0|0:0,0:0:0:0:
283,112,14490,2,0,L|240:185,1,85,0|2,0:0|0:0,0:0:0:0:
203,255,14865,1,0,0:0:0:0:
370,221,15053,1,4,3:0:0:0:
341,53,15240,1,4,3:0:0:0:
240,185,15428,6,0,B|301:191|301:191|329:134|400:150,1,170,4|0,3:1|0:0,0:0:0:0:
428,72,15990,1,0,0:0:0:0:
353,32,16178,2,0,B|314:58|314:58|251:67,2,85,2|0|0,0:0|0:0|0:0,0:0:0:0:
428,72,16740,1,0,0:0:0:0:
391,148,16928,6,0,P|392:193|369:239,1,85,2|0,0:0|0:0,0:0:0:0:
236,327,17303,1,4,3:0:0:0:
304,175,17490,1,4,3:0:0:0:
336,336,17678,1,4,3:0:0:0:
175,38,18053,1,4,0:3:0:0:
143,69,18146,1,0,0:0:0:0:
112,100,18240,1,0,0:0:0:0:
81,131,18334,1,0,0:0:0:0:
55,156,18428,70,0,L|260:103,1,204,4|0,3:1|0:0,0:0:0:0:
360,148,19178,2,0,B|138:208,1,229.499992996216,2|0,0:0|0:0,0:0:0:0:
260,248,19928,6,0,L|425:205,1,170,2|0,0:0|0:0,0:0:0:0:
288,168,20490,1,0,0:0:0:0:
242,180,20584,1,0,0:0:0:0:
195,192,20678,2,0,L|-9:246,1,187.000005706787,2|4,0:0|0:3,0:0:0:0:
120,352,21240,1,4,0:3:0:0:
172,352,21334,1,0,0:0:0:0:
224,352,21428,6,0,P|272:318|290:276,1,101.999996887207,4|0,3:1|0:0,0:0:0:0:
269,179,21803,2,0,P|319:180|362:206,1,101.999996887207
300,77,22178,2,0,P|241:76|202:99,1,101.999996887207,2|0,0:0|0:0,0:0:0:0:
104,116,22553,2,0,P|123:163|165:194,1,101.999996887207
289,279,22928,6,0,L|338:309,2,50.9999984436036,2|0|0,0:0|0:0|0:0,0:0:0:0:
121,160,23303,1,4,3:0:0:0:
10,330,23490,1,4,3:0:0:0:
212,368,23678,1,4,3:0:0:0:
120,76,24053,1,4,3:0:0:0:
384,12,24428,22,0,P|386:109|286:169,1,204,4|0,3:1|0:0,0:0:0:0:
192,175,25178,2,0,P|272:251|255:361,1,229.499992996216,2|0,0:0|0:0,0:0:0:0:
128,358,25928,22,0,P|50:329|24:251,1,170,2|0,0:0|0:0,0:0:0:0:
56,116,26490,1,0,0:0:0:0:
100,96,26584,1,0,0:0:0:0:
144,80,26678,2,0,P|231:98|264:182,1,187.000005706787,2|4,0:0|0:3,0:0:0:0:
412,144,27240,1,4,0:3:0:0:
400,192,27334,1,0,0:0:0:0:
388,240,27428,6,0,L|272:296,1,101.999996887207,4|0,3:1|0:0,0:0:0:0:
388,324,27803,2,0,L|272:380,1,101.999996887207
192,368,28178,2,0,L|76:312,1,101.999996887207,2|0,0:0|0:0,0:0:0:0:
192,284,28553,2,0,L|76:228,1,101.999996887207
59,145,28928,6,0,L|11:121,2,50.9999984436036,2|0|0,0:0|0:0|0:0,0:0:0:0:
249,219,29303,1,4,0:3:0:0:
314,26,29490,1,4,0:3:0:0:
190,116,29678,1,4,0:3:0:0:
495,98,30053,1,4,0:3:0:0:
95,14,30428,6,0,L|30:105,1,101.999996887207,4|2,3:1|0:0,0:0:0:0:
55,195,30803,2,0,L|117:105,1,101.999996887207,0|2,0:0|0:0,0:0:0:0:
215,93,31178,2,0,L|150:184,1,101.999996887207,4|2,3:0|0:0,0:0:0:0:
175,274,31553,2,0,L|237:184,1,101.999996887207,0|10,0:0|0:3,0:0:0:0:
352,96,31928,22,0,P|344:160|351:197,1,101.999996887207,4|2,3:0|0:0,0:0:0:0:
381,294,32303,2,0,P|317:286|280:293,1,101.999996887207,0|2,0:0|0:0,0:0:0:0:
183,323,32678,2,0,P|191:259|184:222,1,101.999996887207,4|2,3:0|0:0,0:0:0:0:
154,125,33053,2,0,P|218:133|255:126,1,101.999996887207,0|8,0:0|0:3,0:0:0:0:
301,107,33334,1,4,0:3:0:0:
344,79,33428,21,4,0:3:0:0:
425,20,33615,1,2,0:0:0:0:
461,116,33803,1,0,0:0:0:0:
380,175,33990,1,2,0:0:0:0:
232,131,34178,1,4,3:0:0:0:
288,46,34365,1,2,0:0:0:0:
308,145,34553,1,0,0:0:0:0:
247,227,34740,1,10,0:3:0:0:
144,341,34928,21,4,3:0:0:0:
240,313,35115,1,2,0:0:0:0:
157,254,35303,1,0,0:0:0:0:
165,152,35491,1,2,0:0:0:0:
315,152,35678,1,0,0:0:0:0:
323,254,35866,1,2,0:0:0:0:
240,313,36053,1,0,0:0:0:0:
336,341,36240,1,10,0:3:0:0:
78,339,36428,6,0,L|47:226,1,110.499994941712,2|0,0:0|0:0,0:0:0:0:
14,103,36803,2,0,L|129:71,1,110.499994941712,2|0,0:0|0:0,0:0:0:0:
302,27,37178,2,0,L|332:139,1,110.499994941712,2|0,0:0|0:0,0:0:0:0:
365,262,37553,2,0,L|249:293,1,110.499994941712,2|0,0:0|0:0,0:0:0:0:
96,216,37928,21,6,0:0:0:0:
121,74,38115,1,0,0:0:0:0:
262,99,38303,1,2,0:0:0:0:
237,241,38490,1,0,0:0:0:0:
96,216,38678,21,6,0:0:0:0:
121,74,38865,1,0,0:0:0:0:
262,99,39053,1,2,0:0:0:0:
237,241,39240,1,0,0:0:0:0:
12,216,39428,22,0,L|52:332,1,110.499994941712,2|0,0:0|0:0,0:0:0:0:
96,216,39803,2,0,L|136:328,1,110.499994941712,2|0,0:0|0:0,0:0:0:0:
308,328,40178,2,0,L|348:216,1,110.499994941712,2|0,0:0|0:0,0:0:0:0:
392,328,40553,2,0,L|432:216,1,110.499994941712,2|0,0:0|0:0,0:0:0:0:
480,52,40928,5,6,0:0:0:0:
340,14,41115,1,0,0:0:0:0:
420,131,41303,1,2,0:0:0:0:
281,94,41490,1,0,0:0:0:0:
480,52,41678,21,6,0:0:0:0:
340,14,41865,1,0,0:0:0:0:
420,131,42053,1,2,0:0:0:0:
281,94,42240,1,0,0:0:0:0:
480,52,42428,21,4,3:1:0:0:
504,152,42615,1,2,0:0:0:0:
456,244,42803,1,0,0:0:0:0:
361,277,42990,1,2,0:0:0:0:
272,152,43178,1,4,3:0:0:0:
372,176,43365,1,2,0:0:0:0:
288,232,43553,1,0,0:0:0:0:
188,208,43740,1,10,0:3:0:0:
212,56,43928,21,4,3:0:0:0:
144,132,44115,1,2,0:0:0:0:
76,56,44303,1,0,0:0:0:0:
8,132,44490,1,2,0:0:0:0:
44,280,44678,1,4,3:0:0:0:
144,288,44865,1,2,0:0:0:0:
88,200,45053,1,0,0:0:0:0:
188,208,45240,1,10,0:3:0:0:
328,276,45428,6,0,P|324:342|361:390,1,101.999996887207,4|2,3:0|0:0,0:0:0:0:
423,312,45803,2,0,P|425:245|388:197,1,101.999996887207,0|2,0:0|0:0,0:0:0:0:
425,114,46178,2,0,P|471:132|501:172,1,101.999996887207,4|2,3:0|0:0,0:0:0:0:
462,20,46553,1,0,0:0:0:0:
309,25,46740,1,14,0:3:0:0:
261,45,46834,1,4,3:0:0:0:
214,66,46928,22,0,L|152:166,1,101.999996887207,4|2,3:0|0:0,0:0:0:0:
155,257,47303,2,0,L|249:185,1,101.999996887207,0|2,0:0|0:0,0:0:0:0:
337,180,47678,2,0,L|275:280,1,101.999996887207,0|2,0:0|0:0,0:0:0:0:
279,371,48053,2,0,L|373:299,1,101.999996887207,0|10,0:0|0:3,0:0:0:0:
444,104,48428,22,0,B|400:64|400:64|344:60,1,110.499994941712,2|0,0:0|0:0,0:0:0:0:
228,8,48803,2,0,B|188:52|188:52|184:108,1,110.499994941712,2|0,0:0|0:0,0:0:0:0:
104,272,49178,2,0,B|148:312|148:312|204:316,1,110.499994941712,2|0,0:0|0:0,0:0:0:0:
320,368,49553,2,0,B|360:324|360:324|364:268,1,110.499994941712,2|0,0:0|0:0,0:0:0:0:
372,16,49928,21,6,0:0:0:0:
186,65,50115,1,0,0:0:0:0:
292,224,50303,1,2,0:0:0:0:
440,104,50490,1,0,0:0:0:0:
186,65,50678,5,6,0:0:0:0:
183,255,50865,1,0,0:0:0:0:
296,100,51053,1,2,0:0:0:0:
108,139,51240,1,0,0:0:0:0:
208,336,51428,22,0,P|256:296|264:232,1,110.499994941712,2|0,0:0|0:0,0:0:0:0:
228,147,51803,2,0,P|279:180|343:169,1,110.499994941712,2|0,0:0|0:0,0:0:0:0:
508,136,52178,2,0,P|452:165|431:226,1,110.499994941712,2|0,0:0|0:0,0:0:0:0:
448,316,52553,2,0,P|404:272|339:269,1,110.499994941712,2|0,0:0|0:0,0:0:0:0:
116,320,52928,21,6,0:0:0:0:
284,372,53115,1,0,0:0:0:0:
116,320,53303,1,2,0:0:0:0:
284,372,53490,1,0,0:0:0:0:
140,176,53678,5,6,0:0:0:0:
296,260,53865,1,0,0:0:0:0:
140,176,54053,1,2,0:0:0:0:
296,260,54240,1,0,0:0:0:0:
460,124,54428,70,0,B|450:42|371:25|321:67|321:67|296:138|212:144,1,318.75,4|0,0:1|0:0,0:0:0:0:
64,132,55178,2,0,B|15:107|25:39|96:29|96:29|134:82|212:82|246:48,1,318.75,0|4,0:0|0:3,0:0:0:0:
403,48,55928,70,0,B|461:59|501:159|441:215|411:240|441:321|441:321|381:363|307:321,1,425,4|0,0:3|0:0,0:0:0:0:
246,21,57053,1,4,0:3:0:0:
319,97,57240,1,4,0:3:0:0:
189,194,57428,22,0,B|83:239|38:218|7:151|57:114|57:114|91:134|131:135,1,318.75,4|0,0:3|0:0,0:0:0:0:
285,173,58178,2,0,B|400:180|435:145|441:71|381:53|381:53|356:84|319:98,1,318.75,0|4,0:0|0:3,0:0:0:0:
250,241,58928,70,0,B|191:278|111:300|47:280|47:280|106:358|106:358|147:362|221:336,1,425,4|0,0:3|0:0,0:0:0:0:
341,44,60053,1,4,0:3:0:0:
446,25,60240,1,4,0:3:0:0:
341,44,60428,22,0,B|295:59|220:19|220:19|200:31|221:97|188:138|188:138|234:163,1,305.999990661621,4|0,0:3|0:0,0:0:0:0:
392,104,61178,2,0,B|480:128|464:208|464:208|432:268|420:324|420:324|392:300|364:291,1,331.499984825135,0|4,0:0|0:3,0:0:0:0:
234,163,61928,70,0,P|190:291|286:195,1,356.999989105225,4|0,0:3|0:0,0:0:0:0:
110,143,62678,2,0,B|74:197|83:258|83:258|30:335|30:335|125:335|125:335|154:366|221:381,1,382.500014591218,0|4,0:0|0:3,0:0:0:0:
366,269,63428,22,0,B|378:227|364:187|364:187|474:91|474:91|381:71|381:71|304:137,1,408,4|0,0:3|0:0,0:0:0:0:
227,232,64178,2,0,B|172:274|172:274|206:321|302:337|366:215|284:149|226:135|165:189,1,382.500014591218,0|4,0:0|0:3,0:0:0:0:
22,187,64928,70,0,B|22:255|74:255|74:255|134:211|134:211|104:148|153:107|153:107|118:27,1,356.999989105225,4|0,0:3|0:0,0:0:0:0:
292,44,65678,1,4,0:3:0:0:
476,320,66053,2,0,L|404:300,1,55.2499974708558,4|0,3:0|0:0,0:0:0:0:
360,360,66240,2,0,L|323:294,1,55.2499974708558,4|0,3:0|0:0,0:0:0:0:
256,336,66428,22,0,B|144:296|108:228|108:228|136:168|136:168|220:168,1,318.75,4|0,0:1|0:0,0:0:0:0:
348,108,67178,2,0,B|452:108|452:108|456:160|504:176|504:176|508:248|452:288,1,318.75,0|4,0:0|0:3,0:0:0:0:
296,272,67928,70,0,B|240:256|220:240|220:240|296:216|288:120|228:100|228:100|228:24|228:24|176:48|124:8,1,425,4|0,0:3|0:0,0:0:0:0:
32,200,69053,1,4,0:3:0:0:
52,96,69240,1,4,0:3:0:0:
120,180,69428,22,0,L|448:148,1,318.75,4|0,0:3|0:0,0:0:0:0:
300,64,70178,2,0,B|104:84|104:84|188:176,1,318.75,0|4,0:0|0:3,0:0:0:0:
304,284,70928,70,0,B|392:372|392:372|504:372|504:372|364:232,1,425,4|0,0:3|0:0,0:0:0:0:
260,56,72053,1,4,0:3:0:0:
156,60,72240,1,4,0:3:0:0:
217,143,72428,22,0,B|287:169|339:111|339:111|428:188|428:188|488:188,1,305.999990661621,4|0,0:3|0:0,0:0:0:0:
505,24,73178,2,0,B|366:184|366:184|313:228|244:221,1,331.499984825135,0|4,0:0|0:3,0:0:0:0:
74,223,73928,70,0,B|19:181|26:114|74:62|152:59|188:134|188:134|226:150|264:151,1,356.999989105225,4|0,0:3|0:0,0:0:0:0:
448,202,74678,2,0,B|499:251|483:338|398:359|345:315|345:315|265:295|281:369|174:357,1,395.250003015518,0|4,0:0|0:3,0:0:0:0:
116,160,75428,22,0,B|206:61|206:61|396:113|396:113|453:117|496:68,1,433.500008268356,4|0,0:3|0:0,0:0:0:0:
400,260,76178,2,0,B|175:199|175:199|228:140|228:140|372:178,1,408,0|4,0:0|0:3,0:0:0:0:
408,336,76928,70,0,B|145:265|145:265|110:240|110:240|41:221,1,382.500014591218,4|0,0:3|0:0,0:0:0:0:
48,55,77678,2,0,B|89:130|202:104|162:3|280:-19|327:79,1,305.999990661621,0|4,0:0|0:3,0:0:0:0:
296,216,78428,6,0,B|268:252|268:252|172:196|153:292|57:205,1,254.999992218018,4|0,0:1|0:0,0:0:0:0:
30,150,79553,1,0,0:0:0:0:
45,75,79740,1,0,0:0:0:0:
242,119,79928,22,0,P|308:145|385:96,1,152.999995330811,4|0,0:3|0:0,0:0:0:0:
425,48,80678,2,0,L|433:213,1,152.999995330811
328,316,81428,5,4,0:3:0:0:
245,372,81615,1,0,0:0:0:0:
185,287,81803,1,0,0:0:0:0:
267,230,81990,1,0,0:0:0:0:
315,344,82178,1,0,0:0:0:0:
216,360,82365,1,0,0:0:0:0:
197,258,82553,1,4,0:3:0:0:
296,241,82740,1,4,0:3:0:0:
92,240,82928,6,0,B|40:144|40:144|52:24,2,203.999993774414,4|0|4,0:3|0:0|0:3,0:0:0:0:
209,338,83865,1,0,0:0:0:0:
257,318,83959,1,0,0:0:0:0:
303,298,84053,2,0,P|330:246|331:197,1,101.999996887207
216,34,84428,6,0,L|142:147,1,101.999996887207,4|0,0:3|0:0,0:0:0:0:
80,248,84803,2,0,L|135:161,1,101.999996887207
164,14,85178,2,0,L|145:146,1,101.999996887207,4|0,0:3|0:0,0:0:0:0:
131,266,85552,1,4,0:3:0:0:
222,219,85740,1,4,0:3:0:0:
248,71,85928,22,0,L|137:-3,1,101.999996887207,4|0,0:3|0:0,0:0:0:0:
64,57,86303,2,0,L|148:114,1,101.999996887207
248,71,86678,2,0,L|137:-3,1,101.999996887207,4|0,0:3|0:0,0:0:0:0:
64,57,87053,2,0,L|148:114,1,101.999996887207
293,165,87428,21,4,0:3:0:0:
248,71,87615,1,0,0:0:0:0:
148,114,87803,1,0,0:0:0:0:
193,208,87990,1,0,0:0:0:0:
277,336,88178,1,4,0:3:0:0:
374,293,88365,1,0,0:0:0:0:
382,193,88553,1,4,0:3:0:0:
290,237,88740,1,4,0:3:0:0:
374,293,88928,5,4,0:3:0:0:
382,193,89115,1,0,0:0:0:0:
298,137,89303,1,0,0:0:0:0:
290,237,89490,1,0,0:0:0:0:
492,268,89678,5,4,0:3:0:0:
468,244,89771,1,0,0:0:0:0:
456,212,89865,1,0,0:0:0:0:
456,176,89959,1,0,0:0:0:0:
472,144,90053,1,0,0:0:0:0:
484,112,90146,1,0,0:0:0:0:
480,76,90240,1,0,0:0:0:0:
460,48,90334,1,0,0:0:0:0:
432,36,90428,6,0,B|369:17|324:77|247:31|247:31|209:85,1,254.999992218018,4|0,0:1|0:0,0:0:0:0:
162,144,91553,1,0,0:0:0:0:
150,220,91740,1,0,0:0:0:0:
308,348,91928,22,0,B|332:335|376:329|378:317|378:317|358:313|332:297|322:263,1,152.999995330811,4|0,0:3|0:0,0:0:0:0:
396,243,92678,2,0,P|443:194|377:164,1,152.999995330811
236,172,93428,22,0,P|172:164|104:128,1,101.999996887207,4|0,0:3|0:0,0:0:0:0:
60,216,93803,2,0,P|124:208|192:172,1,101.999996887207
236,260,94178,2,0,P|172:252|104:216,1,101.999996887207,4|0,0:3|0:0,0:0:0:0:
60,304,94553,2,0,P|124:296|192:260,1,101.999996887207,4|4,0:3|0:3,0:0:0:0:
295,216,94928,6,0,P|383:165|484:163,2,203.999993774414,4|0|4,0:3|0:0|0:3,0:0:0:0:
158,282,95865,1,0,0:0:0:0:
121,244,95959,1,0,0:0:0:0:
89,204,96053,2,0,P|87:144|110:101,1,101.999996887207
304,64,96428,21,4,0:3:0:0:
395,16,96615,1,0,0:0:0:0:
467,88,96803,1,0,0:0:0:0:
420,180,96990,1,0,0:0:0:0:
320,163,97178,1,4,0:3:0:0:
273,255,97365,1,0,0:0:0:0:
345,327,97553,1,4,0:3:0:0:
436,279,97740,1,4,0:3:0:0:
420,180,97928,22,0,L|368:72,1,101.999996887207,4|0,0:3|0:0,0:0:0:0:
308,164,98303,2,0,L|215:88,1,101.999996887207
204,200,98678,2,0,L|87:170,1,101.999996887207,4|0,0:3|0:0,0:0:0:0:
119,275,99053,2,0,L|1:297,1,101.999996887207
152,368,99428,21,4,0:3:0:0:
252,352,99615,1,0,0:0:0:0:
196,268,99803,1,0,0:0:0:0:
296,278,99990,1,0,0:0:0:0:
272,180,100178,1,4,0:3:0:0:
366,216,100365,1,0,0:0:0:0:
376,116,100553,1,4,0:3:0:0:
458,176,100740,1,4,0:3:0:0:
480,276,100928,5,4,0:3:0:0:
412,352,101115,1,0,0:0:0:0:
384,256,101303,1,0,0:0:0:0:
480,276,101490,1,0,0:0:0:0:
412,352,101678,1,4,0:3:0:0:
458,176,101865,1,4,0:3:0:0:
445,126,101959,1,0,0:0:0:0:
431,77,102053,1,0,0:0:0:0:
288,23,102240,1,4,0:3:0:0:
121,127,102428,69,4,3:1:0:0:
201,162,102615,1,0,0:0:0:0:
262,96,102803,1,4,0:0:0:0:
216,19,102990,1,0,0:0:0:0:
131,36,103178,2,0,L|121:124,1,89.2499972763062
118,215,103552,1,4,0:0:0:0:
340,364,103928,69,2,1:0:0:0:
340,364,104115,2,0,L|435:372,1,89.2499972763062,2|4,1:0|0:0,0:0:0:0:
486,109,104678,1,2,1:0:0:0:
486,109,104865,2,0,L|390:117,1,89.2499972763062,2|4,1:0|0:0,0:0:0:0:
172,261,105428,21,4,0:3:0:0:
228,329,105615,1,0,0:0:0:0:
288,261,105803,1,4,0:0:0:0:
344,329,105990,1,0,0:0:0:0:
400,261,106178,2,0,B|419:217|400:174,1,89.2499972763062
372,90,106552,1,4,0:0:0:0:
112,22,106928,69,2,1:0:0:0:
112,22,107115,2,0,L|103:117,1,89.2499972763062,2|4,1:0|0:0,0:0:0:0:
49,373,107678,1,2,1:0:0:0:
49,373,107865,2,0,L|40:277,1,89.2499972763062,2|4,1:0|0:0,0:0:0:0:
212,80,108428,22,0,P|308:88|364:172,1,178.499994552612,4|0,0:3|0:0,0:0:0:0:
364,236,108990,2,0,B|344:304|344:304|300:272|228:280,1,178.499994552612,4|0,0:3|0:0,0:0:0:0:
152,264,109553,2,0,P|180:212|212:192,1,89.2499972763062,4|0,0:3|0:0,0:0:0:0:
256,124,109928,70,0,B|132:124|132:24|132:24|65:16|16:60,1,267.749991828919,4|0,0:3|0:0,0:0:0:0:
40,128,110678,2,0,B|64:204|8:232|52:316,1,178.499994552612,4|0,0:3|0:0,0:0:0:0:
347,351,111428,22,0,L|393:260,1,101.999996887207,4|0,0:3|0:0,0:0:0:0:
434,353,111803,2,0,L|393:260,1,101.999996887207,4|0,0:0|0:0,0:0:0:0:
490,289,112178,2,0,L|393:260,1,101.999996887207,4|0,0:3|0:0,0:0:0:0:
478,204,112553,2,0,L|393:260,1,101.999996887207,4|0,0:0|0:0,0:0:0:0:
252,320,112928,69,4,0:3:0:0:
348,352,113115,1,0,0:0:0:0:
393,260,113303,1,4,0:0:0:0:
297,228,113490,1,0,0:0:0:0:
299,127,113678,1,4,0:3:0:0:
395,159,113865,1,0,0:0:0:0:
441,68,114053,1,4,0:0:0:0:
345,36,114240,1,0,0:0:0:0:
166,36,114428,21,4,0:3:0:0:
82,60,114615,1,0,0:0:0:0:
42,140,114803,1,4,0:0:0:0:
70,224,114990,1,0,0:0:0:0:
151,261,115178,2,0,L|237:237,1,89.2499972763062
322,214,115552,1,4,0:0:0:0:
152,24,115928,69,2,1:0:0:0:
152,24,116115,2,0,P|92:44|64:92,1,89.2499972763062,2|4,1:0|0:0,0:0:0:0:
116,328,116678,1,2,1:0:0:0:
116,328,116865,2,0,P|176:308|204:260,1,89.2499972763062,2|4,1:0|0:0,0:0:0:0:
340,64,117428,21,4,3:0:0:0:
256,33,117615,1,0,0:0:0:0:
225,118,117803,1,4,0:0:0:0:
310,148,117990,1,0,0:0:0:0:
340,64,118178,2,0,L|257:34,1,89.2499972763062
168,43,118553,1,4,0:0:0:0:
76,296,118928,69,2,1:0:0:0:
76,296,119115,2,0,B|108:324|108:324|188:336,1,89.2499972763062,2|4,1:0|0:0,0:0:0:0:
420,296,119678,1,2,1:0:0:0:
420,296,119865,2,0,B|388:324|388:324|341:330,1,89.2499972763062,2|4,1:0|0:0,0:0:0:0:
76,296,120428,22,0,B|68:212|68:212|82:183|82:183|76:115|128:92|182:85,2,267.749991828919,4|4|4,0:3|0:3|0:3,0:0:0:0:
420,296,121928,70,0,B|428:212|428:212|414:183|414:183|420:115|368:92|314:85,2,267.749991828919,4|4|4,0:3|0:3|0:3,0:0:0:0:
56,72,123428,21,4,0:1:0:0:
246,51,123615,1,4,0:1:0:0:
246,51,123990,69,4,0:1:0:0:
56,72,124178,1,4,0:1:0:0:
246,51,124365,1,4,0:1:0:0:
316,352,124740,21,4,0:1:0:0:
461,227,124928,1,4,0:1:0:0:
282,159,125115,1,4,0:1:0:0:
316,352,125490,69,4,0:1:0:0:
396,107,125678,1,4,0:1:0:0:
142,121,125865,1,4,0:1:0:0:
