osu file format v14

[General]
AudioFilename: Tier X.mp3
AudioLeadIn: 0
PreviewTime: 192984
Countdown: 0
SampleSet: Soft
StackLeniency: 0.7
Mode: 3
LetterboxInBreaks: 0
SpecialStyle: 0
WidescreenStoryboard: 0

[Editor]
DistanceSpacing: 1.1
BeatDivisor: 2
GridSize: 4
TimelineZoom: 2.200001

[Metadata]
Title:4K LN 5TH PHASE
TitleUnicode:4K LN 5TH PHASE
Artist:Osu! Mania 4-Key Long Note Tiers
ArtistUnicode:Osu! Mania 4-Key Long Note Tiers
Creator:arcwinolivirus
Version:Tier X
Source:
Tags:four key master training
BeatmapID:1135861
BeatmapSetID:536309

[Difficulty]
HPDrainRate:7
CircleSize:4
OverallDifficulty:7
ApproachRate:5
SliderMultiplier:1.4
SliderTickRate:1

[Events]
//Background and Video events
0,0,"Tier X WIDE.jpg",0,0
//Break Periods
2,173601,186136
2,307591,319534
2,567850,578933
//Storyboard Layer 0 (Background)
//Storyboard Layer 1 (Fail)
//Storyboard Layer 2 (Pass)
//Storyboard Layer 3 (Foreground)
//Storyboard Sound Samples

[TimingPoints]
14329,750,4,2,1,20,1,0
14329,-50,4,2,1,20,0,0
20329,375,4,2,1,20,1,0
88579,387.096774193548,4,2,1,20,1,0
88579,-97.0873786407767,4,2,1,20,0,0
90902,375,4,2,1,20,1,0
140402,750,4,2,1,20,1,0
140402,-50,4,2,1,20,0,0
146402,375,4,2,1,20,1,0
150902,750,4,2,1,20,1,0
150902,-50,4,2,1,20,0,0
150995,375,4,2,1,20,1,0
151042,187.5,4,2,1,20,1,0
151042,-200,4,2,1,20,0,0
151089,375,4,2,1,20,1,0
187392,352.941176470588,4,2,1,20,1,0
187392,-106.382978723404,4,2,1,20,0,0
320734,333.333333333333,4,2,1,20,1,0
320734,-112.612612612613,4,2,1,20,0,0
580133,375,4,2,1,20,1,0
581136,375,4,2,1,20,1,0

[HitObjects]
192,192,14329,5,0,0:0:0:0:
448,192,14329,1,0,0:0:0:0:
64,192,14329,128,0,15079:0:0:0:0:
320,192,14704,1,0,0:0:0:0:
192,192,15079,128,0,15829:0:0:0:0:
320,192,15454,1,0,0:0:0:0:
448,192,15641,1,0,0:0:0:0:
320,192,15829,1,0,0:0:0:0:
448,192,15829,128,0,16579:0:0:0:0:
192,192,16204,1,0,0:0:0:0:
64,192,16579,128,0,17329:0:0:0:0:
320,192,16954,1,0,0:0:0:0:
448,192,17141,1,0,0:0:0:0:
320,192,17329,1,0,0:0:0:0:
448,192,17329,128,0,17704:0:0:0:0:
320,192,17704,128,0,18079:0:0:0:0:
192,192,18079,128,0,18454:0:0:0:0:
320,192,18454,1,0,0:0:0:0:
448,192,18641,1,0,0:0:0:0:
320,192,18829,1,0,0:0:0:0:
64,192,18829,128,0,19204:0:0:0:0:
448,192,19204,128,0,19579:0:0:0:0:
64,192,19579,1,0,0:0:0:0:
320,192,19954,1,0,0:0:0:0:
192,192,20329,1,0,0:0:0:0:
448,192,20329,1,0,0:0:0:0:
320,192,20329,128,0,20516:0:0:0:0:
64,192,20516,1,0,0:0:0:0:
192,192,20610,1,0,0:0:0:0:
64,192,20704,1,0,0:0:0:0:
448,192,20704,1,0,0:0:0:0:
320,192,20704,128,0,20891:0:0:0:0:
192,192,20891,1,0,0:0:0:0:
64,192,21079,1,0,0:0:0:0:
448,192,21079,1,0,0:0:0:0:
320,192,21079,128,0,21266:0:0:0:0:
192,192,21454,1,0,0:0:0:0:
448,192,21454,1,0,0:0:0:0:
320,192,21454,128,0,21641:0:0:0:0:
64,192,21641,1,0,0:0:0:0:
448,192,21829,1,0,0:0:0:0:
64,192,21829,1,0,0:0:0:0:
320,192,21829,128,0,22016:0:0:0:0:
192,192,22016,1,0,0:0:0:0:
448,192,22204,1,0,0:0:0:0:
64,192,22204,1,0,0:0:0:0:
320,192,22204,128,0,22391:0:0:0:0:
64,192,22391,1,0,0:0:0:0:
448,192,22579,1,0,0:0:0:0:
192,192,22579,1,0,0:0:0:0:
320,192,22579,128,0,22766:0:0:0:0:
64,192,22954,1,0,0:0:0:0:
448,192,22954,1,0,0:0:0:0:
320,192,22954,128,0,23141:0:0:0:0:
448,192,23141,1,0,0:0:0:0:
64,192,23329,128,0,23422:0:0:0:0:
448,192,23329,1,0,0:0:0:0:
192,192,23375,128,0,23469:0:0:0:0:
320,192,23422,128,0,23657:0:0:0:0:
448,192,23469,128,0,23610:0:0:0:0:
64,192,23516,128,0,23610:0:0:0:0:
192,192,23563,128,0,23657:0:0:0:0:
448,192,23704,128,0,23797:0:0:0:0:
320,192,23750,128,0,23844:0:0:0:0:
192,192,23797,128,0,24032:0:0:0:0:
64,192,23844,128,0,23985:0:0:0:0:
448,192,23891,128,0,23985:0:0:0:0:
320,192,23938,128,0,24032:0:0:0:0:
64,192,24079,128,0,24172:0:0:0:0:
192,192,24125,128,0,24219:0:0:0:0:
320,192,24172,128,0,24407:0:0:0:0:
448,192,24219,128,0,24360:0:0:0:0:
64,192,24266,128,0,24360:0:0:0:0:
192,192,24313,128,0,24407:0:0:0:0:
64,192,24454,128,0,24829:0:0:0:0:
192,192,24500,128,0,24547:0:0:0:0:
320,192,24547,128,0,24594:0:0:0:0:
448,192,24594,128,0,24641:0:0:0:0:
192,192,24641,128,0,24829:0:0:0:0:
320,192,24688,128,0,24829:0:0:0:0:
448,192,24829,128,0,25485:0:0:0:0:
192,192,24922,1,0,0:0:0:0:
320,192,25016,1,0,0:0:0:0:
192,192,25110,1,0,0:0:0:0:
320,192,25204,1,0,0:0:0:0:
192,192,25297,1,0,0:0:0:0:
320,192,25391,1,0,0:0:0:0:
192,192,25485,1,0,0:0:0:0:
448,192,25579,1,0,0:0:0:0:
320,192,25579,1,0,0:0:0:0:
64,192,25579,128,0,25954:0:0:0:0:
192,192,25672,1,0,0:0:0:0:
320,192,25766,1,0,0:0:0:0:
192,192,25860,1,0,0:0:0:0:
320,192,25954,1,0,0:0:0:0:
448,192,25954,128,0,26235:0:0:0:0:
192,192,26047,1,0,0:0:0:0:
320,192,26141,1,0,0:0:0:0:
192,192,26235,1,0,0:0:0:0:
448,192,26329,1,0,0:0:0:0:
64,192,26329,1,0,0:0:0:0:
320,192,26329,128,0,26516:0:0:0:0:
192,192,26516,1,0,0:0:0:0:
64,192,26516,128,0,26704:0:0:0:0:
320,192,26704,1,0,0:0:0:0:
448,192,26704,128,0,26891:0:0:0:0:
320,192,26891,1,0,0:0:0:0:
192,192,26891,128,0,27079:0:0:0:0:
320,192,27079,128,0,27266:0:0:0:0:
64,192,27079,1,0,0:0:0:0:
448,192,27266,1,0,0:0:0:0:
192,192,27266,128,0,27454:0:0:0:0:
64,192,27454,1,0,0:0:0:0:
320,192,27454,128,0,27641:0:0:0:0:
192,192,27641,128,0,27829:0:0:0:0:
448,192,27641,1,0,0:0:0:0:
64,192,27829,128,0,27922:0:0:0:0:
192,192,27875,128,0,27969:0:0:0:0:
320,192,27922,128,0,28016:0:0:0:0:
448,192,27969,128,0,28438:0:0:0:0:
64,192,28016,128,0,28157:0:0:0:0:
192,192,28063,128,0,28250:0:0:0:0:
320,192,28110,128,0,28344:0:0:0:0:
64,192,28204,1,0,0:0:0:0:
64,192,28297,128,0,28344:0:0:0:0:
192,192,28297,1,0,0:0:0:0:
192,192,28391,128,0,28438:0:0:0:0:
320,192,28391,1,0,0:0:0:0:
320,192,28485,128,0,28532:0:0:0:0:
448,192,28485,1,0,0:0:0:0:
64,192,28579,128,0,28672:0:0:0:0:
448,192,28579,128,0,28625:0:0:0:0:
192,192,28672,128,0,28766:0:0:0:0:
448,192,28766,128,0,28813:0:0:0:0:
320,192,28766,128,0,28860:0:0:0:0:
192,192,28860,1,0,0:0:0:0:
448,192,28954,128,0,29235:0:0:0:0:
320,192,28954,128,0,29235:0:0:0:0:
64,192,28954,128,0,29235:0:0:0:0:
448,192,29329,1,0,0:0:0:0:
320,192,29329,128,0,29516:0:0:0:0:
64,192,29516,1,0,0:0:0:0:
448,192,29516,128,0,30079:0:0:0:0:
192,192,29516,128,0,29704:0:0:0:0:
64,192,29704,1,0,0:0:0:0:
320,192,29704,128,0,29891:0:0:0:0:
64,192,29891,128,0,30079:0:0:0:0:
192,192,29985,128,0,30266:0:0:0:0:
320,192,30079,128,0,30266:0:0:0:0:
448,192,30266,1,0,0:0:0:0:
64,192,30266,128,0,30454:0:0:0:0:
448,192,30454,128,0,30641:0:0:0:0:
320,192,30454,128,0,30641:0:0:0:0:
192,192,30454,128,0,31016:0:0:0:0:
64,192,30641,128,0,30829:0:0:0:0:
448,192,30829,128,0,31016:0:0:0:0:
320,192,30829,128,0,31204:0:0:0:0:
64,192,31016,128,0,31204:0:0:0:0:
448,192,31204,128,0,31391:0:0:0:0:
192,192,31204,128,0,31391:0:0:0:0:
64,192,31391,128,0,31766:0:0:0:0:
320,192,31391,128,0,31766:0:0:0:0:
448,192,31766,1,0,0:0:0:0:
192,192,31766,128,0,31954:0:0:0:0:
320,192,31954,128,0,32047:0:0:0:0:
64,192,31954,128,0,32141:0:0:0:0:
320,192,32141,128,0,32329:0:0:0:0:
192,192,32141,1,0,0:0:0:0:
64,192,32329,128,0,32422:0:0:0:0:
192,192,32329,128,0,32516:0:0:0:0:
448,192,32329,128,0,32891:0:0:0:0:
320,192,32516,1,0,0:0:0:0:
64,192,32516,128,0,32704:0:0:0:0:
192,192,32704,128,0,32797:0:0:0:0:
320,192,32704,128,0,32891:0:0:0:0:
64,192,32891,1,0,0:0:0:0:
192,192,32891,128,0,33079:0:0:0:0:
320,192,33079,128,0,33172:0:0:0:0:
448,192,33079,128,0,33266:0:0:0:0:
64,192,33079,128,0,33641:0:0:0:0:
320,192,33266,1,0,0:0:0:0:
192,192,33266,128,0,33454:0:0:0:0:
448,192,33454,128,0,33547:0:0:0:0:
320,192,33454,128,0,33641:0:0:0:0:
448,192,33641,1,0,0:0:0:0:
192,192,33641,128,0,33829:0:0:0:0:
448,192,33829,128,0,34016:0:0:0:0:
64,192,33829,128,0,34016:0:0:0:0:
320,192,33829,128,0,33922:0:0:0:0:
320,192,34016,1,0,0:0:0:0:
192,192,34016,128,0,34204:0:0:0:0:
64,192,34204,128,0,34297:0:0:0:0:
448,192,34204,128,0,34391:0:0:0:0:
320,192,34204,128,0,34579:0:0:0:0:
192,192,34391,128,0,34579:0:0:0:0:
64,192,34391,1,0,0:0:0:0:
64,192,34579,128,0,34672:0:0:0:0:
448,192,34579,128,0,34672:0:0:0:0:
192,192,34672,128,0,34860:0:0:0:0:
448,192,34766,128,0,34860:0:0:0:0:
320,192,34766,128,0,34860:0:0:0:0:
320,192,34954,128,0,35047:0:0:0:0:
64,192,34954,1,0,0:0:0:0:
192,192,34954,128,0,35047:0:0:0:0:
448,192,35141,128,0,35235:0:0:0:0:
320,192,35141,128,0,35235:0:0:0:0:
192,192,35141,1,0,0:0:0:0:
320,192,35329,128,0,35422:0:0:0:0:
192,192,35329,128,0,35516:0:0:0:0:
64,192,35329,128,0,35891:0:0:0:0:
448,192,35516,128,0,35610:0:0:0:0:
320,192,35516,128,0,35610:0:0:0:0:
320,192,35704,1,0,0:0:0:0:
192,192,35704,128,0,35797:0:0:0:0:
448,192,35704,128,0,35891:0:0:0:0:
192,192,35891,128,0,36079:0:0:0:0:
320,192,35891,128,0,35985:0:0:0:0:
448,192,36079,128,0,36172:0:0:0:0:
320,192,36079,128,0,36266:0:0:0:0:
64,192,36079,1,0,0:0:0:0:
448,192,36266,128,0,36454:0:0:0:0:
192,192,36266,128,0,36360:0:0:0:0:
64,192,36266,128,0,36829:0:0:0:0:
192,192,36454,128,0,36641:0:0:0:0:
320,192,36454,128,0,36547:0:0:0:0:
320,192,36641,128,0,36829:0:0:0:0:
448,192,36641,128,0,36735:0:0:0:0:
192,192,36829,128,0,37016:0:0:0:0:
448,192,36829,128,0,38329:0:0:0:0:
320,192,37016,128,0,37204:0:0:0:0:
64,192,37016,128,0,37110:0:0:0:0:
64,192,37204,128,0,37391:0:0:0:0:
192,192,37204,128,0,37297:0:0:0:0:
192,192,37391,128,0,37579:0:0:0:0:
320,192,37391,128,0,37485:0:0:0:0:
320,192,37579,128,0,37766:0:0:0:0:
64,192,37579,128,0,37672:0:0:0:0:
64,192,37766,128,0,37954:0:0:0:0:
192,192,37766,128,0,37954:0:0:0:0:
320,192,37954,1,0,0:0:0:0:
192,192,38047,1,0,0:0:0:0:
320,192,38141,1,0,0:0:0:0:
64,192,38141,128,0,38329:0:0:0:0:
192,192,38235,1,0,0:0:0:0:
320,192,38329,128,0,38704:0:0:0:0:
448,192,38516,128,0,38704:0:0:0:0:
192,192,38704,128,0,38797:0:0:0:0:
320,192,38797,128,0,38891:0:0:0:0:
192,192,38891,1,0,0:0:0:0:
64,192,38891,128,0,39266:0:0:0:0:
448,192,38891,128,0,39079:0:0:0:0:
192,192,39079,128,0,39266:0:0:0:0:
448,192,39266,1,0,0:0:0:0:
320,192,39266,128,0,39454:0:0:0:0:
64,192,39454,128,0,39641:0:0:0:0:
448,192,39641,1,0,0:0:0:0:
320,192,39641,1,0,0:0:0:0:
192,192,39641,128,0,39829:0:0:0:0:
64,192,39829,1,0,0:0:0:0:
320,192,39829,128,0,40016:0:0:0:0:
448,192,39829,128,0,40391:0:0:0:0:
64,192,40016,128,0,40204:0:0:0:0:
192,192,40016,128,0,40204:0:0:0:0:
320,192,40204,128,0,40391:0:0:0:0:
64,192,40391,128,0,40579:0:0:0:0:
192,192,40391,128,0,40954:0:0:0:0:
448,192,40579,128,0,40766:0:0:0:0:
320,192,40579,128,0,40766:0:0:0:0:
64,192,40766,128,0,40954:0:0:0:0:
448,192,40954,128,0,41141:0:0:0:0:
320,192,40954,128,0,41141:0:0:0:0:
64,192,41141,1,0,0:0:0:0:
192,192,41141,128,0,41329:0:0:0:0:
320,192,41235,1,0,0:0:0:0:
64,192,41329,1,0,0:0:0:0:
448,192,41329,1,0,0:0:0:0:
192,192,41422,1,0,0:0:0:0:
448,192,41516,1,0,0:0:0:0:
64,192,41516,128,0,41610:0:0:0:0:
192,192,41610,1,0,0:0:0:0:
320,192,41704,1,0,0:0:0:0:
448,192,41704,128,0,41797:0:0:0:0:
192,192,41797,1,0,0:0:0:0:
64,192,41891,128,0,41985:0:0:0:0:
320,192,41985,1,0,0:0:0:0:
64,192,42079,1,0,0:0:0:0:
448,192,42079,128,0,42172:0:0:0:0:
192,192,42172,1,0,0:0:0:0:
320,192,42266,128,0,42360:0:0:0:0:
448,192,42360,1,0,0:0:0:0:
64,192,42360,1,0,0:0:0:0:
320,192,42454,1,0,0:0:0:0:
192,192,42454,128,0,42547:0:0:0:0:
448,192,42547,1,0,0:0:0:0:
192,192,42641,1,0,0:0:0:0:
64,192,42641,128,0,42735:0:0:0:0:
320,192,42735,1,0,0:0:0:0:
448,192,42829,1,0,0:0:0:0:
192,192,42829,1,0,0:0:0:0:
64,192,42922,1,0,0:0:0:0:
192,192,43016,128,0,43204:0:0:0:0:
448,192,43016,128,0,43110:0:0:0:0:
320,192,43110,1,0,0:0:0:0:
448,192,43204,1,0,0:0:0:0:
64,192,43204,128,0,43297:0:0:0:0:
320,192,43297,1,0,0:0:0:0:
192,192,43297,1,0,0:0:0:0:
448,192,43391,128,0,43485:0:0:0:0:
64,192,43485,1,0,0:0:0:0:
320,192,43485,1,0,0:0:0:0:
192,192,43579,128,0,43954:0:0:0:0:
448,192,43579,128,0,43672:0:0:0:0:
64,192,43672,1,0,0:0:0:0:
320,192,43766,128,0,43860:0:0:0:0:
448,192,43860,1,0,0:0:0:0:
64,192,43954,128,0,44141:0:0:0:0:
320,192,43954,128,0,44047:0:0:0:0:
448,192,44047,1,0,0:0:0:0:
192,192,44047,1,0,0:0:0:0:
320,192,44141,1,0,0:0:0:0:
192,192,44235,1,0,0:0:0:0:
320,192,44329,1,0,0:0:0:0:
64,192,44329,1,0,0:0:0:0:
448,192,44422,1,0,0:0:0:0:
64,192,44516,128,0,44610:0:0:0:0:
192,192,44610,1,0,0:0:0:0:
448,192,44704,1,0,0:0:0:0:
320,192,44704,128,0,44797:0:0:0:0:
192,192,44797,1,0,0:0:0:0:
64,192,44797,1,0,0:0:0:0:
448,192,44891,128,0,44985:0:0:0:0:
320,192,44985,1,0,0:0:0:0:
192,192,45079,1,0,0:0:0:0:
64,192,45079,128,0,45172:0:0:0:0:
448,192,45172,1,0,0:0:0:0:
320,192,45172,1,0,0:0:0:0:
192,192,45266,128,0,45360:0:0:0:0:
448,192,45360,1,0,0:0:0:0:
64,192,45360,1,0,0:0:0:0:
192,192,45454,1,0,0:0:0:0:
320,192,45454,128,0,45547:0:0:0:0:
64,192,45547,1,0,0:0:0:0:
320,192,45641,1,0,0:0:0:0:
448,192,45641,128,0,45735:0:0:0:0:
64,192,45735,1,0,0:0:0:0:
192,192,45735,1,0,0:0:0:0:
320,192,45829,1,0,0:0:0:0:
448,192,45829,128,0,45922:0:0:0:0:
192,192,45922,1,0,0:0:0:0:
64,192,46016,1,0,0:0:0:0:
320,192,46016,128,0,46204:0:0:0:0:
448,192,46110,1,0,0:0:0:0:
192,192,46204,128,0,46297:0:0:0:0:
448,192,46297,1,0,0:0:0:0:
64,192,46297,1,0,0:0:0:0:
192,192,46391,128,0,46485:0:0:0:0:
320,192,46391,1,0,0:0:0:0:
64,192,46485,1,0,0:0:0:0:
448,192,46485,128,0,46579:0:0:0:0:
192,192,46579,1,0,0:0:0:0:
320,192,46579,128,0,46860:0:0:0:0:
448,192,46672,1,0,0:0:0:0:
192,192,46766,1,0,0:0:0:0:
64,192,46860,1,0,0:0:0:0:
448,192,46860,128,0,47141:0:0:0:0:
320,192,46954,1,0,0:0:0:0:
64,192,47047,1,0,0:0:0:0:
192,192,47047,1,0,0:0:0:0:
320,192,47141,1,0,0:0:0:0:
448,192,47235,1,0,0:0:0:0:
320,192,47329,1,0,0:0:0:0:
64,192,47329,1,0,0:0:0:0:
192,192,47422,1,0,0:0:0:0:
64,192,47516,128,0,47610:0:0:0:0:
192,192,47610,1,0,0:0:0:0:
448,192,47704,1,0,0:0:0:0:
320,192,47704,128,0,47797:0:0:0:0:
64,192,47797,1,0,0:0:0:0:
192,192,47891,128,0,47985:0:0:0:0:
448,192,47985,1,0,0:0:0:0:
192,192,48079,1,0,0:0:0:0:
64,192,48079,128,0,48172:0:0:0:0:
320,192,48172,1,0,0:0:0:0:
448,192,48266,128,0,48360:0:0:0:0:
192,192,48360,1,0,0:0:0:0:
320,192,48360,1,0,0:0:0:0:
448,192,48454,1,0,0:0:0:0:
64,192,48454,1,0,0:0:0:0:
320,192,48547,1,0,0:0:0:0:
64,192,48641,1,0,0:0:0:0:
192,192,48641,128,0,48735:0:0:0:0:
448,192,48735,1,0,0:0:0:0:
64,192,48829,1,0,0:0:0:0:
320,192,48829,1,0,0:0:0:0:
448,192,48922,1,0,0:0:0:0:
320,192,49016,1,0,0:0:0:0:
192,192,49016,128,0,49204:0:0:0:0:
64,192,49110,1,0,0:0:0:0:
448,192,49204,1,0,0:0:0:0:
320,192,49204,128,0,49391:0:0:0:0:
64,192,49297,1,0,0:0:0:0:
192,192,49297,1,0,0:0:0:0:
448,192,49391,128,0,49485:0:0:0:0:
192,192,49485,1,0,0:0:0:0:
448,192,49579,1,0,0:0:0:0:
64,192,49579,1,0,0:0:0:0:
320,192,49579,128,0,49954:0:0:0:0:
192,192,49672,1,0,0:0:0:0:
448,192,49766,1,0,0:0:0:0:
64,192,49860,1,0,0:0:0:0:
448,192,49954,1,0,0:0:0:0:
192,192,49954,128,0,50141:0:0:0:0:
320,192,50047,1,0,0:0:0:0:
64,192,50141,1,0,0:0:0:0:
320,192,50235,1,0,0:0:0:0:
64,192,50329,1,0,0:0:0:0:
192,192,50329,128,0,50516:0:0:0:0:
320,192,50422,1,0,0:0:0:0:
448,192,50516,128,0,50610:0:0:0:0:
320,192,50610,1,0,0:0:0:0:
192,192,50704,1,0,0:0:0:0:
64,192,50704,128,0,50891:0:0:0:0:
320,192,50797,1,0,0:0:0:0:
448,192,50891,128,0,50985:0:0:0:0:
192,192,50985,1,0,0:0:0:0:
448,192,51079,1,0,0:0:0:0:
64,192,51079,1,0,0:0:0:0:
320,192,51079,128,0,51266:0:0:0:0:
192,192,51172,1,0,0:0:0:0:
64,192,51266,128,0,51360:0:0:0:0:
320,192,51360,1,0,0:0:0:0:
448,192,51454,1,0,0:0:0:0:
64,192,51454,1,0,0:0:0:0:
192,192,51454,128,0,51547:0:0:0:0:
448,192,51641,1,0,0:0:0:0:
64,192,51641,1,0,0:0:0:0:
320,192,51641,128,0,51735:0:0:0:0:
64,192,51829,1,0,0:0:0:0:
448,192,51829,1,0,0:0:0:0:
192,192,51829,1,0,0:0:0:0:
320,192,52016,128,0,52204:0:0:0:0:
64,192,52204,1,0,0:0:0:0:
448,192,52204,128,0,52391:0:0:0:0:
192,192,52391,128,0,52579:0:0:0:0:
320,192,52391,1,0,0:0:0:0:
64,192,52579,128,0,52766:0:0:0:0:
448,192,52579,128,0,53329:0:0:0:0:
192,192,52672,128,0,52766:0:0:0:0:
320,192,52766,128,0,52954:0:0:0:0:
64,192,52860,128,0,52954:0:0:0:0:
192,192,52954,128,0,53141:0:0:0:0:
320,192,53047,128,0,53141:0:0:0:0:
64,192,53141,128,0,53329:0:0:0:0:
192,192,53235,128,0,53329:0:0:0:0:
320,192,53329,1,0,0:0:0:0:
192,192,53422,1,0,0:0:0:0:
64,192,53516,1,0,0:0:0:0:
448,192,53516,128,0,53704:0:0:0:0:
320,192,53704,1,0,0:0:0:0:
64,192,53704,128,0,53891:0:0:0:0:
192,192,53797,1,0,0:0:0:0:
448,192,53891,1,0,0:0:0:0:
320,192,53891,128,0,54079:0:0:0:0:
64,192,54079,1,0,0:0:0:0:
192,192,54079,128,0,54266:0:0:0:0:
448,192,54172,1,0,0:0:0:0:
320,192,54266,1,0,0:0:0:0:
64,192,54266,128,0,54454:0:0:0:0:
192,192,54454,128,0,54641:0:0:0:0:
320,192,54547,1,0,0:0:0:0:
64,192,54641,1,0,0:0:0:0:
448,192,54641,128,0,55016:0:0:0:0:
192,192,54829,128,0,55016:0:0:0:0:
320,192,55016,128,0,55204:0:0:0:0:
448,192,55204,1,0,0:0:0:0:
192,192,55204,1,0,0:0:0:0:
64,192,55204,128,0,55391:0:0:0:0:
448,192,55391,128,0,55954:0:0:0:0:
320,192,55391,1,0,0:0:0:0:
192,192,55579,1,0,0:0:0:0:
64,192,55766,128,0,55860:0:0:0:0:
192,192,55860,128,0,55954:0:0:0:0:
64,192,55954,1,0,0:0:0:0:
320,192,55954,128,0,56047:0:0:0:0:
448,192,56047,128,0,56141:0:0:0:0:
192,192,56141,1,0,0:0:0:0:
320,192,56141,128,0,56235:0:0:0:0:
448,192,56235,128,0,56329:0:0:0:0:
192,192,56329,1,0,0:0:0:0:
320,192,56329,128,0,56704:0:0:0:0:
64,192,56329,128,0,56516:0:0:0:0:
448,192,56516,1,0,0:0:0:0:
64,192,56704,1,0,0:0:0:0:
448,192,56704,128,0,57079:0:0:0:0:
192,192,56704,128,0,56891:0:0:0:0:
320,192,56891,1,0,0:0:0:0:
320,192,57079,128,0,57454:0:0:0:0:
64,192,57079,128,0,57266:0:0:0:0:
192,192,57266,1,0,0:0:0:0:
448,192,57266,1,0,0:0:0:0:
448,192,57454,128,0,57829:0:0:0:0:
64,192,57454,1,0,0:0:0:0:
192,192,57454,1,0,0:0:0:0:
320,192,57641,1,0,0:0:0:0:
64,192,57829,1,0,0:0:0:0:
192,192,57829,128,0,58579:0:0:0:0:
320,192,57829,128,0,58204:0:0:0:0:
448,192,58016,1,0,0:0:0:0:
64,192,58204,1,0,0:0:0:0:
448,192,58204,128,0,58579:0:0:0:0:
320,192,58391,1,0,0:0:0:0:
320,192,58579,1,0,0:0:0:0:
64,192,58579,128,0,58672:0:0:0:0:
192,192,58672,128,0,58766:0:0:0:0:
64,192,58766,1,0,0:0:0:0:
448,192,58766,128,0,58860:0:0:0:0:
320,192,58860,128,0,58954:0:0:0:0:
448,192,58954,128,0,59047:0:0:0:0:
64,192,58954,1,0,0:0:0:0:
192,192,58954,1,0,0:0:0:0:
320,192,59047,128,0,59141:0:0:0:0:
448,192,59141,1,0,0:0:0:0:
192,192,59141,128,0,59235:0:0:0:0:
320,192,59235,128,0,59329:0:0:0:0:
448,192,59329,128,0,60079:0:0:0:0:
64,192,59329,1,0,0:0:0:0:
192,192,59329,1,0,0:0:0:0:
320,192,59422,1,0,0:0:0:0:
192,192,59516,1,0,0:0:0:0:
64,192,59610,1,0,0:0:0:0:
320,192,59704,128,0,60079:0:0:0:0:
192,192,59704,1,0,0:0:0:0:
64,192,59797,1,0,0:0:0:0:
192,192,59891,1,0,0:0:0:0:
64,192,59985,1,0,0:0:0:0:
192,192,60079,128,0,60829:0:0:0:0:
448,192,60172,1,0,0:0:0:0:
320,192,60266,1,0,0:0:0:0:
64,192,60360,1,0,0:0:0:0:
320,192,60454,1,0,0:0:0:0:
448,192,60454,128,0,60829:0:0:0:0:
64,192,60547,1,0,0:0:0:0:
320,192,60641,1,0,0:0:0:0:
64,192,60735,1,0,0:0:0:0:
320,192,60829,128,0,61485:0:0:0:0:
448,192,60922,1,0,0:0:0:0:
192,192,61016,1,0,0:0:0:0:
64,192,61110,1,0,0:0:0:0:
192,192,61204,128,0,61485:0:0:0:0:
448,192,61204,1,0,0:0:0:0:
64,192,61297,1,0,0:0:0:0:
448,192,61391,1,0,0:0:0:0:
64,192,61485,1,0,0:0:0:0:
320,192,61579,128,0,61766:0:0:0:0:
64,192,61579,128,0,61860:0:0:0:0:
192,192,61579,128,0,61625:0:0:0:0:
448,192,61579,128,0,61907:0:0:0:0:
192,192,61766,1,0,0:0:0:0:
448,192,61954,1,0,0:0:0:0:
64,192,61954,1,0,0:0:0:0:
192,192,62000,1,0,0:0:0:0:
320,192,62047,1,0,0:0:0:0:
448,192,62094,1,0,0:0:0:0:
64,192,62141,1,0,0:0:0:0:
192,192,62188,1,0,0:0:0:0:
320,192,62235,1,0,0:0:0:0:
448,192,62282,1,0,0:0:0:0:
192,192,62329,1,0,0:0:0:0:
64,192,62329,128,0,62516:0:0:0:0:
448,192,62516,1,0,0:0:0:0:
192,192,62516,128,0,62704:0:0:0:0:
320,192,62704,128,0,62891:0:0:0:0:
64,192,62704,1,0,0:0:0:0:
64,192,62891,1,0,0:0:0:0:
192,192,62891,1,0,0:0:0:0:
448,192,62891,128,0,62985:0:0:0:0:
320,192,63079,1,0,0:0:0:0:
192,192,63079,1,0,0:0:0:0:
64,192,63266,1,0,0:0:0:0:
320,192,63266,1,0,0:0:0:0:
448,192,63266,128,0,63641:0:0:0:0:
192,192,63454,1,0,0:0:0:0:
64,192,63641,1,0,0:0:0:0:
192,192,63641,1,0,0:0:0:0:
320,192,63641,128,0,63829:0:0:0:0:
448,192,63829,1,0,0:0:0:0:
64,192,63829,128,0,64579:0:0:0:0:
192,192,63922,1,0,0:0:0:0:
192,192,64016,128,0,64110:0:0:0:0:
320,192,64016,1,0,0:0:0:0:
320,192,64110,128,0,64204:0:0:0:0:
448,192,64110,1,0,0:0:0:0:
192,192,64204,1,0,0:0:0:0:
448,192,64204,128,0,64297:0:0:0:0:
320,192,64297,1,0,0:0:0:0:
192,192,64297,128,0,64391:0:0:0:0:
448,192,64391,1,0,0:0:0:0:
320,192,64391,128,0,64579:0:0:0:0:
192,192,64485,1,0,0:0:0:0:
192,192,64579,1,0,0:0:0:0:
448,192,64579,128,0,65329:0:0:0:0:
320,192,64672,1,0,0:0:0:0:
192,192,64766,1,0,0:0:0:0:
320,192,64766,128,0,64860:0:0:0:0:
64,192,64860,1,0,0:0:0:0:
192,192,64860,128,0,64954:0:0:0:0:
320,192,64954,1,0,0:0:0:0:
64,192,64954,128,0,65047:0:0:0:0:
192,192,65047,1,0,0:0:0:0:
320,192,65047,128,0,65141:0:0:0:0:
64,192,65141,1,0,0:0:0:0:
192,192,65141,128,0,65235:0:0:0:0:
320,192,65235,1,0,0:0:0:0:
64,192,65235,128,0,65329:0:0:0:0:
192,192,65329,128,0,65422:0:0:0:0:
64,192,65422,128,0,65516:0:0:0:0:
320,192,65422,128,0,65516:0:0:0:0:
192,192,65516,1,0,0:0:0:0:
448,192,65516,128,0,65610:0:0:0:0:
320,192,65610,128,0,65704:0:0:0:0:
448,192,65704,128,0,65797:0:0:0:0:
192,192,65704,128,0,65797:0:0:0:0:
320,192,65797,1,0,0:0:0:0:
64,192,65797,128,0,65891:0:0:0:0:
192,192,65891,128,0,66079:0:0:0:0:
320,192,65985,128,0,66172:0:0:0:0:
64,192,66079,128,0,66266:0:0:0:0:
448,192,66079,128,0,66266:0:0:0:0:
192,192,66172,128,0,66360:0:0:0:0:
320,192,66266,128,0,66454:0:0:0:0:
64,192,66360,128,0,66547:0:0:0:0:
448,192,66360,128,0,66547:0:0:0:0:
192,192,66454,128,0,66547:0:0:0:0:
320,192,66547,1,0,0:0:0:0:
64,192,66641,1,0,0:0:0:0:
448,192,66641,1,0,0:0:0:0:
320,192,66735,1,0,0:0:0:0:
192,192,66735,1,0,0:0:0:0:
448,192,66829,128,0,66922:0:0:0:0:
64,192,66829,128,0,66922:0:0:0:0:
64,192,67016,1,0,0:0:0:0:
448,192,67016,1,0,0:0:0:0:
64,192,67110,1,0,0:0:0:0:
448,192,67110,128,0,67579:0:0:0:0:
192,192,67204,1,0,0:0:0:0:
320,192,67204,1,0,0:0:0:0:
320,192,67391,1,0,0:0:0:0:
64,192,67391,128,0,67485:0:0:0:0:
320,192,67485,1,0,0:0:0:0:
64,192,67579,1,0,0:0:0:0:
192,192,67579,128,0,67672:0:0:0:0:
64,192,67766,1,0,0:0:0:0:
448,192,67766,1,0,0:0:0:0:
64,192,67860,128,0,68235:0:0:0:0:
448,192,67860,1,0,0:0:0:0:
192,192,67954,1,0,0:0:0:0:
320,192,67954,1,0,0:0:0:0:
448,192,68141,1,0,0:0:0:0:
320,192,68141,1,0,0:0:0:0:
64,192,68329,128,0,68516:0:0:0:0:
320,192,68329,1,0,0:0:0:0:
192,192,68422,1,0,0:0:0:0:
64,192,68610,1,0,0:0:0:0:
448,192,68610,128,0,68797:0:0:0:0:
192,192,68704,1,0,0:0:0:0:
320,192,68704,1,0,0:0:0:0:
448,192,68891,1,0,0:0:0:0:
320,192,68891,1,0,0:0:0:0:
64,192,68891,128,0,69079:0:0:0:0:
448,192,69079,1,0,0:0:0:0:
320,192,69079,128,0,69641:0:0:0:0:
192,192,69079,128,0,69266:0:0:0:0:
64,192,69172,1,0,0:0:0:0:
448,192,69266,1,0,0:0:0:0:
192,192,69360,1,0,0:0:0:0:
64,192,69454,1,0,0:0:0:0:
448,192,69454,1,0,0:0:0:0:
192,192,69547,1,0,0:0:0:0:
448,192,69641,1,0,0:0:0:0:
64,192,69641,128,0,69829:0:0:0:0:
192,192,69735,1,0,0:0:0:0:
320,192,69735,128,0,69829:0:0:0:0:
448,192,69829,128,0,70204:0:0:0:0:
320,192,69922,1,0,0:0:0:0:
192,192,70016,1,0,0:0:0:0:
64,192,70016,1,0,0:0:0:0:
192,192,70204,1,0,0:0:0:0:
64,192,70204,1,0,0:0:0:0:
320,192,70204,128,0,70579:0:0:0:0:
192,192,70391,1,0,0:0:0:0:
64,192,70579,128,0,70672:0:0:0:0:
192,192,70579,1,0,0:0:0:0:
448,192,70579,128,0,71329:0:0:0:0:
320,192,70672,128,0,70766:0:0:0:0:
64,192,70766,1,0,0:0:0:0:
192,192,70766,128,0,70860:0:0:0:0:
320,192,70860,128,0,70954:0:0:0:0:
192,192,70954,1,0,0:0:0:0:
64,192,70954,128,0,71047:0:0:0:0:
320,192,71047,128,0,71141:0:0:0:0:
192,192,71141,1,0,0:0:0:0:
64,192,71141,128,0,71235:0:0:0:0:
320,192,71235,128,0,71329:0:0:0:0:
192,192,71329,1,0,0:0:0:0:
64,192,71329,128,0,71610:0:0:0:0:
320,192,71610,1,0,0:0:0:0:
448,192,71610,1,0,0:0:0:0:
192,192,71610,128,0,71891:0:0:0:0:
448,192,71891,1,0,0:0:0:0:
64,192,71891,1,0,0:0:0:0:
320,192,71891,128,0,72079:0:0:0:0:
64,192,72079,1,0,0:0:0:0:
192,192,72079,1,0,0:0:0:0:
448,192,72079,128,0,72829:0:0:0:0:
320,192,72454,1,0,0:0:0:0:
64,192,72454,1,0,0:0:0:0:
192,192,72547,1,0,0:0:0:0:
64,192,72641,1,0,0:0:0:0:
192,192,72735,1,0,0:0:0:0:
64,192,72829,128,0,72922:0:0:0:0:
320,192,72829,1,0,0:0:0:0:
192,192,72922,128,0,73016:0:0:0:0:
64,192,73016,1,0,0:0:0:0:
320,192,73016,128,0,73110:0:0:0:0:
448,192,73110,128,0,73204:0:0:0:0:
64,192,73204,1,0,0:0:0:0:
320,192,73204,128,0,73297:0:0:0:0:
192,192,73297,128,0,73391:0:0:0:0:
64,192,73391,1,0,0:0:0:0:
320,192,73391,128,0,73485:0:0:0:0:
448,192,73485,128,0,73579:0:0:0:0:
320,192,73579,1,0,0:0:0:0:
192,192,73579,128,0,73672:0:0:0:0:
448,192,73672,128,0,73766:0:0:0:0:
192,192,73766,1,0,0:0:0:0:
64,192,73766,128,0,73860:0:0:0:0:
320,192,73860,128,0,73954:0:0:0:0:
64,192,73954,1,0,0:0:0:0:
192,192,73954,128,0,74047:0:0:0:0:
320,192,74047,128,0,74141:0:0:0:0:
192,192,74141,1,0,0:0:0:0:
448,192,74141,128,0,74235:0:0:0:0:
320,192,74235,128,0,74329:0:0:0:0:
64,192,74329,1,0,0:0:0:0:
448,192,74329,128,0,74422:0:0:0:0:
320,192,74422,128,0,74516:0:0:0:0:
448,192,74516,1,0,0:0:0:0:
192,192,74516,128,0,74610:0:0:0:0:
64,192,74610,128,0,74704:0:0:0:0:
448,192,74704,1,0,0:0:0:0:
192,192,74704,128,0,74797:0:0:0:0:
320,192,74797,128,0,74891:0:0:0:0:
64,192,74891,1,0,0:0:0:0:
448,192,74891,128,0,74985:0:0:0:0:
320,192,74985,128,0,75079:0:0:0:0:
448,192,75079,1,0,0:0:0:0:
64,192,75079,128,0,75172:0:0:0:0:
192,192,75172,128,0,75266:0:0:0:0:
64,192,75266,1,0,0:0:0:0:
320,192,75266,128,0,75360:0:0:0:0:
192,192,75360,1,0,0:0:0:0:
448,192,75360,128,0,75454:0:0:0:0:
64,192,75454,1,0,0:0:0:0:
320,192,75454,128,0,75547:0:0:0:0:
448,192,75547,1,0,0:0:0:0:
192,192,75547,128,0,75641:0:0:0:0:
64,192,75641,1,0,0:0:0:0:
320,192,75641,128,0,75735:0:0:0:0:
448,192,75735,128,0,75829:0:0:0:0:
64,192,75829,1,0,0:0:0:0:
320,192,75829,128,0,75922:0:0:0:0:
448,192,75922,1,0,0:0:0:0:
192,192,75922,128,0,76016:0:0:0:0:
64,192,76016,1,0,0:0:0:0:
320,192,76016,128,0,76110:0:0:0:0:
192,192,76110,1,0,0:0:0:0:
448,192,76110,128,0,76204:0:0:0:0:
320,192,76204,1,0,0:0:0:0:
448,192,76297,1,0,0:0:0:0:
64,192,76297,128,0,76391:0:0:0:0:
320,192,76391,1,0,0:0:0:0:
192,192,76391,128,0,76485:0:0:0:0:
448,192,76485,128,0,76579:0:0:0:0:
320,192,76579,128,0,76672:0:0:0:0:
64,192,76579,1,0,0:0:0:0:
192,192,76672,128,0,76766:0:0:0:0:
320,192,76766,1,0,0:0:0:0:
448,192,76766,128,0,76860:0:0:0:0:
64,192,76860,128,0,76954:0:0:0:0:
192,192,76954,1,0,0:0:0:0:
448,192,76954,128,0,77047:0:0:0:0:
64,192,77047,1,0,0:0:0:0:
320,192,77047,128,0,77141:0:0:0:0:
192,192,77141,1,0,0:0:0:0:
448,192,77141,128,0,77235:0:0:0:0:
320,192,77235,1,0,0:0:0:0:
192,192,77329,1,0,0:0:0:0:
64,192,77329,128,0,77610:0:0:0:0:
448,192,77329,1,0,0:0:0:0:
320,192,77329,1,0,0:0:0:0:
192,192,77610,128,0,77657:0:0:0:0:
448,192,77610,128,0,77704:0:0:0:0:
64,192,77704,128,0,77750:0:0:0:0:
320,192,77704,128,0,77797:0:0:0:0:
448,192,77797,128,0,77844:0:0:0:0:
192,192,77797,128,0,77891:0:0:0:0:
320,192,77891,128,0,77938:0:0:0:0:
64,192,77891,128,0,77985:0:0:0:0:
448,192,77985,128,0,78079:0:0:0:0:
192,192,77985,128,0,78032:0:0:0:0:
64,192,78079,128,0,78125:0:0:0:0:
320,192,78079,128,0,78172:0:0:0:0:
448,192,78172,128,0,78219:0:0:0:0:
192,192,78172,128,0,78266:0:0:0:0:
64,192,78266,128,0,78313:0:0:0:0:
320,192,78266,128,0,78360:0:0:0:0:
192,192,78360,128,0,78407:0:0:0:0:
448,192,78360,128,0,78454:0:0:0:0:
320,192,78454,128,0,78500:0:0:0:0:
64,192,78547,1,0,0:0:0:0:
192,192,78594,1,0,0:0:0:0:
320,192,78641,1,0,0:0:0:0:
448,192,78688,1,0,0:0:0:0:
64,192,78735,1,0,0:0:0:0:
192,192,78782,1,0,0:0:0:0:
448,192,78829,128,0,78922:0:0:0:0:
320,192,78829,128,0,79016:0:0:0:0:
64,192,78922,128,0,79016:0:0:0:0:
448,192,79016,1,0,0:0:0:0:
192,192,79016,128,0,79110:0:0:0:0:
64,192,79110,1,0,0:0:0:0:
320,192,79110,128,0,79204:0:0:0:0:
192,192,79204,1,0,0:0:0:0:
448,192,79204,128,0,79391:0:0:0:0:
64,192,79297,128,0,79391:0:0:0:0:
320,192,79391,128,0,79485:0:0:0:0:
448,192,79485,128,0,79579:0:0:0:0:
192,192,79579,1,0,0:0:0:0:
64,192,79579,128,0,79766:0:0:0:0:
320,192,79579,128,0,79672:0:0:0:0:
448,192,79672,128,0,79766:0:0:0:0:
192,192,79766,1,0,0:0:0:0:
320,192,79766,128,0,79860:0:0:0:0:
64,192,79860,128,0,79954:0:0:0:0:
320,192,79954,1,0,0:0:0:0:
448,192,79954,128,0,80141:0:0:0:0:
192,192,79954,128,0,80047:0:0:0:0:
64,192,80047,128,0,80141:0:0:0:0:
320,192,80141,1,0,0:0:0:0:
192,192,80141,128,0,80235:0:0:0:0:
64,192,80235,128,0,80329:0:0:0:0:
320,192,80329,128,0,80422:0:0:0:0:
448,192,80329,128,0,80516:0:0:0:0:
192,192,80422,128,0,80516:0:0:0:0:
64,192,80516,1,0,0:0:0:0:
320,192,80516,128,0,80610:0:0:0:0:
448,192,80610,128,0,80704:0:0:0:0:
320,192,80704,1,0,0:0:0:0:
192,192,80704,128,0,80797:0:0:0:0:
64,192,80704,128,0,80891:0:0:0:0:
448,192,80797,128,0,80891:0:0:0:0:
320,192,80891,128,0,80985:0:0:0:0:
192,192,80985,128,0,81079:0:0:0:0:
64,192,81079,1,0,0:0:0:0:
320,192,81079,1,0,0:0:0:0:
448,192,81079,128,0,81641:0:0:0:0:
192,192,81266,1,0,0:0:0:0:
320,192,81454,1,0,0:0:0:0:
64,192,81454,1,0,0:0:0:0:
192,192,81454,1,0,0:0:0:0:
320,192,81641,128,0,81829:0:0:0:0:
192,192,81829,1,0,0:0:0:0:
64,192,81829,128,0,82016:0:0:0:0:
448,192,81829,128,0,81922:0:0:0:0:
320,192,81922,128,0,82016:0:0:0:0:
192,192,82016,128,0,82110:0:0:0:0:
320,192,82110,128,0,82204:0:0:0:0:
448,192,82204,1,0,0:0:0:0:
192,192,82204,128,0,82297:0:0:0:0:
64,192,82204,128,0,82579:0:0:0:0:
320,192,82297,128,0,82391:0:0:0:0:
448,192,82391,128,0,82485:0:0:0:0:
192,192,82485,128,0,82579:0:0:0:0:
448,192,82579,1,0,0:0:0:0:
320,192,82579,128,0,82766:0:0:0:0:
64,192,82672,1,0,0:0:0:0:
192,192,82672,128,0,82766:0:0:0:0:
448,192,82766,128,0,82860:0:0:0:0:
320,192,82860,128,0,82954:0:0:0:0:
448,192,82954,1,0,0:0:0:0:
192,192,82954,128,0,83141:0:0:0:0:
64,192,83047,128,0,83141:0:0:0:0:
320,192,83141,128,0,83235:0:0:0:0:
448,192,83235,128,0,83329:0:0:0:0:
64,192,83329,1,0,0:0:0:0:
192,192,83329,128,0,83422:0:0:0:0:
320,192,83329,128,0,83516:0:0:0:0:
448,192,83422,128,0,83516:0:0:0:0:
192,192,83516,1,0,0:0:0:0:
64,192,83516,128,0,83610:0:0:0:0:
320,192,83610,128,0,83797:0:0:0:0:
448,192,83610,128,0,83704:0:0:0:0:
192,192,83704,128,0,83797:0:0:0:0:
64,192,83797,128,0,83891:0:0:0:0:
448,192,83797,1,0,0:0:0:0:
192,192,83891,128,0,83985:0:0:0:0:
320,192,83891,1,0,0:0:0:0:
64,192,83985,128,0,84079:0:0:0:0:
448,192,83985,1,0,0:0:0:0:
192,192,84079,128,0,84454:0:0:0:0:
320,192,84079,1,0,0:0:0:0:
448,192,84266,1,0,0:0:0:0:
64,192,84266,1,0,0:0:0:0:
448,192,84454,1,0,0:0:0:0:
320,192,84454,128,0,84829:0:0:0:0:
192,192,84641,1,0,0:0:0:0:
64,192,84829,128,0,84922:0:0:0:0:
448,192,84829,1,0,0:0:0:0:
192,192,84875,128,0,84969:0:0:0:0:
320,192,84922,128,0,85157:0:0:0:0:
448,192,84969,128,0,85016:0:0:0:0:
64,192,85016,128,0,85063:0:0:0:0:
192,192,85063,128,0,85157:0:0:0:0:
448,192,85110,1,0,0:0:0:0:
64,192,85157,1,0,0:0:0:0:
448,192,85204,128,0,85297:0:0:0:0:
320,192,85250,128,0,85344:0:0:0:0:
192,192,85297,128,0,85532:0:0:0:0:
64,192,85344,128,0,85391:0:0:0:0:
448,192,85391,128,0,85438:0:0:0:0:
320,192,85438,128,0,85532:0:0:0:0:
64,192,85485,1,0,0:0:0:0:
448,192,85532,1,0,0:0:0:0:
64,192,85579,128,0,85672:0:0:0:0:
192,192,85625,128,0,85719:0:0:0:0:
320,192,85672,128,0,85813:0:0:0:0:
448,192,85719,128,0,85766:0:0:0:0:
64,192,85766,128,0,85860:0:0:0:0:
192,192,85813,128,0,85907:0:0:0:0:
448,192,85860,1,0,0:0:0:0:
320,192,85907,1,0,0:0:0:0:
64,192,85954,128,0,86141:0:0:0:0:
192,192,86000,128,0,86047:0:0:0:0:
320,192,86047,128,0,86094:0:0:0:0:
448,192,86094,128,0,86141:0:0:0:0:
192,192,86141,128,0,86188:0:0:0:0:
320,192,86188,128,0,86235:0:0:0:0:
64,192,86235,128,0,86329:0:0:0:0:
448,192,86235,128,0,86282:0:0:0:0:
192,192,86282,128,0,86329:0:0:0:0:
320,192,86329,128,0,86516:0:0:0:0:
448,192,86375,128,0,86422:0:0:0:0:
192,192,86422,128,0,86516:0:0:0:0:
64,192,86469,128,0,86563:0:0:0:0:
448,192,86516,128,0,86610:0:0:0:0:
320,192,86563,1,0,0:0:0:0:
192,192,86610,128,0,86657:0:0:0:0:
448,192,86704,128,0,86797:0:0:0:0:
64,192,86704,1,0,0:0:0:0:
320,192,86750,128,0,86844:0:0:0:0:
192,192,86797,128,0,87032:0:0:0:0:
64,192,86844,128,0,86891:0:0:0:0:
448,192,86891,128,0,86938:0:0:0:0:
320,192,86938,128,0,87032:0:0:0:0:
64,192,86985,1,0,0:0:0:0:
448,192,87032,1,0,0:0:0:0:
64,192,87079,128,0,87172:0:0:0:0:
192,192,87125,128,0,87219:0:0:0:0:
320,192,87172,128,0,87407:0:0:0:0:
448,192,87219,128,0,87266:0:0:0:0:
64,192,87266,128,0,87313:0:0:0:0:
192,192,87313,128,0,87407:0:0:0:0:
448,192,87360,1,0,0:0:0:0:
64,192,87407,1,0,0:0:0:0:
448,192,87454,128,0,87547:0:0:0:0:
320,192,87500,128,0,87594:0:0:0:0:
192,192,87547,128,0,87688:0:0:0:0:
64,192,87594,128,0,87641:0:0:0:0:
448,192,87641,128,0,87735:0:0:0:0:
320,192,87688,128,0,87782:0:0:0:0:
64,192,87735,1,0,0:0:0:0:
192,192,87782,128,0,87829:0:0:0:0:
64,192,87829,1,0,0:0:0:0:
448,192,87829,128,0,88063:0:0:0:0:
320,192,87875,128,0,87922:0:0:0:0:
192,192,87922,128,0,87969:0:0:0:0:
64,192,87969,128,0,88016:0:0:0:0:
320,192,88016,128,0,88110:0:0:0:0:
192,192,88063,128,0,88157:0:0:0:0:
64,192,88110,128,0,88204:0:0:0:0:
448,192,88157,128,0,88297:0:0:0:0:
320,192,88204,128,0,88250:0:0:0:0:
192,192,88250,128,0,88344:0:0:0:0:
64,192,88297,128,0,88485:0:0:0:0:
320,192,88344,128,0,88391:0:0:0:0:
448,192,88391,128,0,88485:0:0:0:0:
192,192,88438,128,0,88485:0:0:0:0:
320,192,88485,128,0,88579:0:0:0:0:
448,192,88532,128,0,88579:0:0:0:0:
64,192,88579,128,0,88675:0:0:0:0:
192,192,88627,128,0,88724:0:0:0:0:
320,192,88675,128,0,88917:0:0:0:0:
448,192,88724,128,0,88772:0:0:0:0:
64,192,88772,128,0,88820:0:0:0:0:
192,192,88820,128,0,88917:0:0:0:0:
448,192,88869,1,0,0:0:0:0:
64,192,88917,1,0,0:0:0:0:
448,192,88966,128,0,89062:0:0:0:0:
320,192,89014,128,0,89111:0:0:0:0:
192,192,89062,128,0,89353:0:0:0:0:
64,192,89111,128,0,89159:0:0:0:0:
448,192,89159,128,0,89208:0:0:0:0:
320,192,89208,128,0,89256:0:0:0:0:
64,192,89256,1,0,0:0:0:0:
448,192,89304,128,0,89353:0:0:0:0:
320,192,89353,1,0,0:0:0:0:
448,192,89449,1,0,0:0:0:0:
64,192,89449,128,0,89546:0:0:0:0:
192,192,89498,128,0,89595:0:0:0:0:
320,192,89546,128,0,89643:0:0:0:0:
448,192,89595,128,0,89691:0:0:0:0:
64,192,89643,1,0,0:0:0:0:
192,192,89691,1,0,0:0:0:0:
320,192,89740,1,0,0:0:0:0:
448,192,89788,1,0,0:0:0:0:
64,192,89788,128,0,89885:0:0:0:0:
192,192,89837,128,0,89933:0:0:0:0:
320,192,89885,128,0,89982:0:0:0:0:
448,192,89933,128,0,90030:0:0:0:0:
64,192,89982,1,0,0:0:0:0:
192,192,90030,1,0,0:0:0:0:
320,192,90079,1,0,0:0:0:0:
64,192,90127,128,0,90224:0:0:0:0:
448,192,90127,1,0,0:0:0:0:
192,192,90175,128,0,90272:0:0:0:0:
320,192,90175,1,0,0:0:0:0:
448,192,90224,128,0,90320:0:0:0:0:
320,192,90272,128,0,90369:0:0:0:0:
64,192,90320,1,0,0:0:0:0:
448,192,90369,1,0,0:0:0:0:
192,192,90369,1,0,0:0:0:0:
320,192,90417,1,0,0:0:0:0:
192,192,90466,1,0,0:0:0:0:
448,192,90466,128,0,90562:0:0:0:0:
320,192,90514,128,0,90611:0:0:0:0:
64,192,90562,128,0,90659:0:0:0:0:
192,192,90611,128,0,90708:0:0:0:0:
448,192,90659,1,0,0:0:0:0:
320,192,90708,1,0,0:0:0:0:
64,192,90756,1,0,0:0:0:0:
320,192,90804,128,0,90902:0:0:0:0:
192,192,90804,1,0,0:0:0:0:
192,192,90901,1,0,0:0:0:0:
448,192,90902,1,0,0:0:0:0:
64,192,90902,128,0,91652:0:0:0:0:
320,192,90995,1,0,0:0:0:0:
192,192,91089,1,0,0:0:0:0:
448,192,91183,1,0,0:0:0:0:
192,192,91277,1,0,0:0:0:0:
320,192,91277,1,0,0:0:0:0:
448,192,91370,1,0,0:0:0:0:
320,192,91464,1,0,0:0:0:0:
192,192,91558,1,0,0:0:0:0:
448,192,91652,128,0,92402:0:0:0:0:
320,192,91652,1,0,0:0:0:0:
64,192,91745,1,0,0:0:0:0:
192,192,91839,1,0,0:0:0:0:
320,192,91933,1,0,0:0:0:0:
64,192,92027,1,0,0:0:0:0:
192,192,92027,1,0,0:0:0:0:
320,192,92120,1,0,0:0:0:0:
192,192,92214,1,0,0:0:0:0:
64,192,92308,1,0,0:0:0:0:
320,192,92402,1,0,0:0:0:0:
192,192,92402,128,0,93152:0:0:0:0:
448,192,92495,1,0,0:0:0:0:
64,192,92589,1,0,0:0:0:0:
448,192,92683,1,0,0:0:0:0:
320,192,92777,1,0,0:0:0:0:
64,192,92777,1,0,0:0:0:0:
448,192,92870,1,0,0:0:0:0:
320,192,92964,1,0,0:0:0:0:
64,192,93058,1,0,0:0:0:0:
448,192,93152,128,0,93902:0:0:0:0:
320,192,93152,1,0,0:0:0:0:
192,192,93245,1,0,0:0:0:0:
64,192,93339,1,0,0:0:0:0:
320,192,93433,1,0,0:0:0:0:
64,192,93527,1,0,0:0:0:0:
192,192,93527,1,0,0:0:0:0:
320,192,93620,1,0,0:0:0:0:
192,192,93714,1,0,0:0:0:0:
64,192,93808,1,0,0:0:0:0:
320,192,93902,1,0,0:0:0:0:
192,192,93902,128,0,94277:0:0:0:0:
448,192,93995,1,0,0:0:0:0:
320,192,94089,1,0,0:0:0:0:
64,192,94183,1,0,0:0:0:0:
320,192,94277,1,0,0:0:0:0:
448,192,94277,128,0,94652:0:0:0:0:
192,192,94370,1,0,0:0:0:0:
64,192,94464,1,0,0:0:0:0:
192,192,94558,1,0,0:0:0:0:
64,192,94652,128,0,95214:0:0:0:0:
320,192,94652,1,0,0:0:0:0:
448,192,94745,1,0,0:0:0:0:
320,192,94839,1,0,0:0:0:0:
192,192,94933,1,0,0:0:0:0:
448,192,95027,1,0,0:0:0:0:
320,192,95027,1,0,0:0:0:0:
192,192,95120,1,0,0:0:0:0:
448,192,95214,1,0,0:0:0:0:
320,192,95214,1,0,0:0:0:0:
192,192,95308,1,0,0:0:0:0:
320,192,95402,1,0,0:0:0:0:
64,192,95402,1,0,0:0:0:0:
448,192,95402,128,0,95683:0:0:0:0:
320,192,95683,1,0,0:0:0:0:
192,192,95683,1,0,0:0:0:0:
64,192,95683,128,0,95964:0:0:0:0:
320,192,95777,1,0,0:0:0:0:
448,192,95777,1,0,0:0:0:0:
320,192,95964,1,0,0:0:0:0:
192,192,95964,128,0,96152:0:0:0:0:
320,192,96152,1,0,0:0:0:0:
64,192,96152,128,0,96433:0:0:0:0:
448,192,96152,128,0,96433:0:0:0:0:
64,192,96527,1,0,0:0:0:0:
192,192,96573,1,0,0:0:0:0:
320,192,96620,1,0,0:0:0:0:
448,192,96667,1,0,0:0:0:0:
64,192,96714,1,0,0:0:0:0:
192,192,96761,1,0,0:0:0:0:
320,192,96808,1,0,0:0:0:0:
448,192,96855,1,0,0:0:0:0:
320,192,96902,1,0,0:0:0:0:
192,192,96902,1,0,0:0:0:0:
64,192,96902,128,0,97558:0:0:0:0:
448,192,96995,1,0,0:0:0:0:
192,192,97089,1,0,0:0:0:0:
320,192,97183,1,0,0:0:0:0:
448,192,97277,1,0,0:0:0:0:
192,192,97277,1,0,0:0:0:0:
320,192,97370,1,0,0:0:0:0:
192,192,97464,1,0,0:0:0:0:
320,192,97558,1,0,0:0:0:0:
448,192,97558,128,0,97745:0:0:0:0:
64,192,97652,1,0,0:0:0:0:
192,192,97652,1,0,0:0:0:0:
320,192,97745,1,0,0:0:0:0:
64,192,97839,1,0,0:0:0:0:
192,192,97839,128,0,98027:0:0:0:0:
320,192,97933,1,0,0:0:0:0:
64,192,98027,128,0,98214:0:0:0:0:
448,192,98027,1,0,0:0:0:0:
192,192,98120,1,0,0:0:0:0:
448,192,98214,1,0,0:0:0:0:
320,192,98214,128,0,98402:0:0:0:0:
64,192,98308,1,0,0:0:0:0:
192,192,98402,1,0,0:0:0:0:
448,192,98402,128,0,98777:0:0:0:0:
320,192,98495,1,0,0:0:0:0:
64,192,98589,1,0,0:0:0:0:
192,192,98589,1,0,0:0:0:0:
320,192,98683,1,0,0:0:0:0:
192,192,98777,1,0,0:0:0:0:
64,192,98777,128,0,99152:0:0:0:0:
448,192,98870,1,0,0:0:0:0:
192,192,98964,1,0,0:0:0:0:
320,192,98964,1,0,0:0:0:0:
448,192,99058,1,0,0:0:0:0:
192,192,99152,1,0,0:0:0:0:
320,192,99152,128,0,99527:0:0:0:0:
448,192,99245,1,0,0:0:0:0:
64,192,99245,1,0,0:0:0:0:
192,192,99339,1,0,0:0:0:0:
448,192,99433,1,0,0:0:0:0:
64,192,99527,1,0,0:0:0:0:
192,192,99573,1,0,0:0:0:0:
320,192,99620,1,0,0:0:0:0:
448,192,99667,1,0,0:0:0:0:
64,192,99714,1,0,0:0:0:0:
192,192,99761,1,0,0:0:0:0:
320,192,99808,1,0,0:0:0:0:
448,192,99855,1,0,0:0:0:0:
64,192,99902,128,0,100183:0:0:0:0:
320,192,99902,1,0,0:0:0:0:
192,192,99995,128,0,100089:0:0:0:0:
448,192,100089,1,0,0:0:0:0:
320,192,100089,128,0,100370:0:0:0:0:
192,192,100183,128,0,100277:0:0:0:0:
448,192,100277,1,0,0:0:0:0:
64,192,100277,128,0,100558:0:0:0:0:
192,192,100370,128,0,100464:0:0:0:0:
320,192,100464,128,0,100745:0:0:0:0:
448,192,100464,1,0,0:0:0:0:
192,192,100558,128,0,100652:0:0:0:0:
448,192,100652,1,0,0:0:0:0:
64,192,100652,128,0,100933:0:0:0:0:
192,192,100745,128,0,100839:0:0:0:0:
448,192,100839,1,0,0:0:0:0:
320,192,100839,128,0,101120:0:0:0:0:
192,192,100933,128,0,101027:0:0:0:0:
448,192,101027,1,0,0:0:0:0:
64,192,101027,128,0,101308:0:0:0:0:
192,192,101120,128,0,101214:0:0:0:0:
448,192,101214,1,0,0:0:0:0:
320,192,101214,128,0,101402:0:0:0:0:
192,192,101308,128,0,101402:0:0:0:0:
448,192,101402,128,0,101542:0:0:0:0:
64,192,101402,1,0,0:0:0:0:
192,192,101495,1,0,0:0:0:0:
320,192,101589,1,0,0:0:0:0:
448,192,101589,128,0,101730:0:0:0:0:
64,192,101683,1,0,0:0:0:0:
192,192,101777,1,0,0:0:0:0:
448,192,101777,128,0,101917:0:0:0:0:
320,192,101870,1,0,0:0:0:0:
64,192,101964,1,0,0:0:0:0:
192,192,101964,1,0,0:0:0:0:
448,192,101964,128,0,102105:0:0:0:0:
320,192,102058,1,0,0:0:0:0:
64,192,102105,128,0,102175:0:0:0:0:
192,192,102152,128,0,102222:0:0:0:0:
320,192,102198,128,0,102269:0:0:0:0:
64,192,102245,128,0,102316:0:0:0:0:
448,192,102245,128,0,102316:0:0:0:0:
192,192,102292,128,0,102362:0:0:0:0:
320,192,102339,128,0,102409:0:0:0:0:
64,192,102386,128,0,102456:0:0:0:0:
448,192,102386,128,0,102456:0:0:0:0:
192,192,102433,128,0,102503:0:0:0:0:
320,192,102480,128,0,102550:0:0:0:0:
64,192,102527,128,0,102597:0:0:0:0:
448,192,102527,128,0,102597:0:0:0:0:
192,192,102573,128,0,102644:0:0:0:0:
320,192,102620,128,0,102691:0:0:0:0:
64,192,102667,128,0,102737:0:0:0:0:
448,192,102667,128,0,102737:0:0:0:0:
192,192,102714,128,0,102784:0:0:0:0:
320,192,102761,128,0,102831:0:0:0:0:
448,192,102808,1,0,0:0:0:0:
192,192,102855,1,0,0:0:0:0:
320,192,102902,1,0,0:0:0:0:
64,192,102902,1,0,0:0:0:0:
448,192,102902,128,0,103370:0:0:0:0:
192,192,102995,1,0,0:0:0:0:
64,192,103089,1,0,0:0:0:0:
320,192,103183,1,0,0:0:0:0:
192,192,103183,1,0,0:0:0:0:
64,192,103277,1,0,0:0:0:0:
320,192,103370,1,0,0:0:0:0:
192,192,103370,128,0,103652:0:0:0:0:
64,192,103464,1,0,0:0:0:0:
448,192,103558,1,0,0:0:0:0:
320,192,103558,1,0,0:0:0:0:
64,192,103652,128,0,103933:0:0:0:0:
320,192,103745,1,0,0:0:0:0:
192,192,103745,1,0,0:0:0:0:
448,192,103839,1,0,0:0:0:0:
192,192,103933,1,0,0:0:0:0:
320,192,103933,1,0,0:0:0:0:
64,192,104027,1,0,0:0:0:0:
448,192,104027,128,0,104308:0:0:0:0:
320,192,104120,1,0,0:0:0:0:
192,192,104120,1,0,0:0:0:0:
64,192,104214,1,0,0:0:0:0:
320,192,104308,1,0,0:0:0:0:
192,192,104308,1,0,0:0:0:0:
64,192,104402,1,0,0:0:0:0:
448,192,104402,128,0,105058:0:0:0:0:
192,192,104495,1,0,0:0:0:0:
64,192,104589,1,0,0:0:0:0:
192,192,104683,1,0,0:0:0:0:
320,192,104777,1,0,0:0:0:0:
64,192,104777,1,0,0:0:0:0:
192,192,104870,1,0,0:0:0:0:
64,192,104964,1,0,0:0:0:0:
192,192,105058,1,0,0:0:0:0:
320,192,105058,1,0,0:0:0:0:
64,192,105152,1,0,0:0:0:0:
448,192,105152,128,0,105433:0:0:0:0:
192,192,105245,1,0,0:0:0:0:
320,192,105339,1,0,0:0:0:0:
192,192,105433,1,0,0:0:0:0:
64,192,105527,1,0,0:0:0:0:
448,192,105527,1,0,0:0:0:0:
320,192,105527,128,0,105808:0:0:0:0:
192,192,105620,1,0,0:0:0:0:
448,192,105714,1,0,0:0:0:0:
64,192,105714,1,0,0:0:0:0:
192,192,105808,1,0,0:0:0:0:
64,192,105902,1,0,0:0:0:0:
320,192,105902,1,0,0:0:0:0:
448,192,105902,128,0,106558:0:0:0:0:
192,192,105995,1,0,0:0:0:0:
320,192,106089,1,0,0:0:0:0:
64,192,106183,1,0,0:0:0:0:
320,192,106277,1,0,0:0:0:0:
192,192,106277,1,0,0:0:0:0:
64,192,106370,1,0,0:0:0:0:
320,192,106464,1,0,0:0:0:0:
192,192,106558,1,0,0:0:0:0:
448,192,106652,1,0,0:0:0:0:
320,192,106652,1,0,0:0:0:0:
64,192,106652,128,0,106933:0:0:0:0:
192,192,106745,1,0,0:0:0:0:
448,192,106839,1,0,0:0:0:0:
320,192,106839,1,0,0:0:0:0:
192,192,106933,1,0,0:0:0:0:
448,192,107027,1,0,0:0:0:0:
320,192,107027,128,0,107308:0:0:0:0:
64,192,107027,1,0,0:0:0:0:
192,192,107120,1,0,0:0:0:0:
448,192,107214,1,0,0:0:0:0:
64,192,107214,1,0,0:0:0:0:
192,192,107308,1,0,0:0:0:0:
448,192,107402,1,0,0:0:0:0:
320,192,107402,128,0,108058:0:0:0:0:
64,192,107495,1,0,0:0:0:0:
192,192,107495,1,0,0:0:0:0:
448,192,107589,1,0,0:0:0:0:
192,192,107683,1,0,0:0:0:0:
64,192,107683,1,0,0:0:0:0:
448,192,107777,1,0,0:0:0:0:
64,192,107870,1,0,0:0:0:0:
192,192,107870,1,0,0:0:0:0:
448,192,107964,1,0,0:0:0:0:
64,192,108058,1,0,0:0:0:0:
320,192,108152,128,0,108245:0:0:0:0:
192,192,108152,1,0,0:0:0:0:
64,192,108245,1,0,0:0:0:0:
448,192,108245,128,0,108339:0:0:0:0:
192,192,108339,1,0,0:0:0:0:
320,192,108339,128,0,108433:0:0:0:0:
64,192,108433,1,0,0:0:0:0:
192,192,108433,128,0,108527:0:0:0:0:
320,192,108527,1,0,0:0:0:0:
448,192,108527,128,0,108714:0:0:0:0:
192,192,108620,1,0,0:0:0:0:
64,192,108714,1,0,0:0:0:0:
320,192,108714,128,0,108902:0:0:0:0:
192,192,108808,1,0,0:0:0:0:
448,192,108808,1,0,0:0:0:0:
64,192,108902,128,0,109183:0:0:0:0:
448,192,108995,128,0,109277:0:0:0:0:
192,192,109089,128,0,109370:0:0:0:0:
320,192,109183,128,0,109464:0:0:0:0:
64,192,109277,128,0,109558:0:0:0:0:
448,192,109370,128,0,109652:0:0:0:0:
192,192,109464,128,0,109745:0:0:0:0:
320,192,109558,128,0,109839:0:0:0:0:
64,192,109652,128,0,109745:0:0:0:0:
448,192,109745,128,0,109839:0:0:0:0:
64,192,109839,1,0,0:0:0:0:
192,192,109839,128,0,109933:0:0:0:0:
448,192,109933,1,0,0:0:0:0:
320,192,109933,128,0,110027:0:0:0:0:
64,192,110027,128,0,110120:0:0:0:0:
192,192,110027,1,0,0:0:0:0:
448,192,110120,128,0,110214:0:0:0:0:
320,192,110120,1,0,0:0:0:0:
64,192,110214,1,0,0:0:0:0:
192,192,110214,128,0,110308:0:0:0:0:
448,192,110308,1,0,0:0:0:0:
320,192,110308,128,0,110402:0:0:0:0:
192,192,110402,1,0,0:0:0:0:
64,192,110402,128,0,110589:0:0:0:0:
448,192,110589,1,0,0:0:0:0:
320,192,110589,1,0,0:0:0:0:
64,192,110683,1,0,0:0:0:0:
448,192,110777,1,0,0:0:0:0:
320,192,110777,1,0,0:0:0:0:
192,192,110777,1,0,0:0:0:0:
448,192,110964,1,0,0:0:0:0:
64,192,110964,128,0,111152:0:0:0:0:
192,192,111058,1,0,0:0:0:0:
448,192,111152,1,0,0:0:0:0:
320,192,111152,128,0,111527:0:0:0:0:
64,192,111339,1,0,0:0:0:0:
192,192,111433,1,0,0:0:0:0:
448,192,111527,1,0,0:0:0:0:
64,192,111527,128,0,111714:0:0:0:0:
448,192,111714,1,0,0:0:0:0:
320,192,111714,1,0,0:0:0:0:
64,192,111808,1,0,0:0:0:0:
320,192,111902,128,0,112277:0:0:0:0:
64,192,112089,1,0,0:0:0:0:
192,192,112089,1,0,0:0:0:0:
192,192,112277,1,0,0:0:0:0:
64,192,112277,128,0,112652:0:0:0:0:
448,192,112464,128,0,112652:0:0:0:0:
320,192,112652,1,0,0:0:0:0:
448,192,112839,1,0,0:0:0:0:
192,192,112839,1,0,0:0:0:0:
448,192,113027,1,0,0:0:0:0:
320,192,113027,128,0,113214:0:0:0:0:
192,192,113214,1,0,0:0:0:0:
448,192,113214,1,0,0:0:0:0:
64,192,113402,1,0,0:0:0:0:
320,192,113402,128,0,113495:0:0:0:0:
64,192,113589,128,0,113777:0:0:0:0:
320,192,113589,128,0,113777:0:0:0:0:
192,192,113777,1,0,0:0:0:0:
448,192,113777,1,0,0:0:0:0:
64,192,113964,128,0,114339:0:0:0:0:
448,192,113964,128,0,114058:0:0:0:0:
320,192,114152,1,0,0:0:0:0:
448,192,114339,1,0,0:0:0:0:
192,192,114339,1,0,0:0:0:0:
64,192,114527,1,0,0:0:0:0:
320,192,114527,1,0,0:0:0:0:
448,192,114714,1,0,0:0:0:0:
64,192,114714,128,0,114808:0:0:0:0:
320,192,114902,1,0,0:0:0:0:
448,192,114902,1,0,0:0:0:0:
64,192,114902,128,0,114995:0:0:0:0:
192,192,115089,128,0,115277:0:0:0:0:
448,192,115089,128,0,115277:0:0:0:0:
64,192,115277,1,0,0:0:0:0:
320,192,115277,1,0,0:0:0:0:
64,192,115464,1,0,0:0:0:0:
448,192,115464,128,0,115839:0:0:0:0:
192,192,115652,1,0,0:0:0:0:
64,192,115839,1,0,0:0:0:0:
320,192,115839,128,0,115933:0:0:0:0:
448,192,116027,1,0,0:0:0:0:
192,192,116027,128,0,116120:0:0:0:0:
64,192,116214,1,0,0:0:0:0:
320,192,116214,128,0,116589:0:0:0:0:
192,192,116402,1,0,0:0:0:0:
64,192,116402,1,0,0:0:0:0:
448,192,116402,1,0,0:0:0:0:
448,192,116589,1,0,0:0:0:0:
192,192,116589,128,0,116777:0:0:0:0:
320,192,116777,128,0,116964:0:0:0:0:
448,192,116964,1,0,0:0:0:0:
64,192,116964,128,0,117339:0:0:0:0:
320,192,117152,1,0,0:0:0:0:
448,192,117339,1,0,0:0:0:0:
192,192,117339,128,0,117433:0:0:0:0:
64,192,117527,1,0,0:0:0:0:
448,192,117527,128,0,117620:0:0:0:0:
64,192,117714,1,0,0:0:0:0:
320,192,117714,128,0,118089:0:0:0:0:
448,192,117902,1,0,0:0:0:0:
192,192,117902,1,0,0:0:0:0:
64,192,117902,1,0,0:0:0:0:
64,192,118089,128,0,118277:0:0:0:0:
448,192,118089,128,0,118277:0:0:0:0:
320,192,118277,128,0,118370:0:0:0:0:
64,192,118464,128,0,118839:0:0:0:0:
320,192,118464,128,0,118839:0:0:0:0:
192,192,118652,1,0,0:0:0:0:
448,192,118839,128,0,118933:0:0:0:0:
64,192,119027,1,0,0:0:0:0:
192,192,119027,1,0,0:0:0:0:
320,192,119027,128,0,119120:0:0:0:0:
448,192,119214,1,0,0:0:0:0:
192,192,119214,128,0,119402:0:0:0:0:
448,192,119402,1,0,0:0:0:0:
64,192,119402,128,0,119964:0:0:0:0:
320,192,119495,1,0,0:0:0:0:
192,192,119589,1,0,0:0:0:0:
448,192,119683,1,0,0:0:0:0:
320,192,119777,1,0,0:0:0:0:
192,192,119870,1,0,0:0:0:0:
448,192,119964,1,0,0:0:0:0:
320,192,120058,1,0,0:0:0:0:
64,192,120058,128,0,120339:0:0:0:0:
192,192,120152,1,0,0:0:0:0:
448,192,120245,1,0,0:0:0:0:
320,192,120339,128,0,120433:0:0:0:0:
192,192,120433,1,0,0:0:0:0:
64,192,120527,1,0,0:0:0:0:
448,192,120527,128,0,120620:0:0:0:0:
320,192,120620,1,0,0:0:0:0:
64,192,120714,1,0,0:0:0:0:
192,192,120714,128,0,120902:0:0:0:0:
320,192,120808,1,0,0:0:0:0:
448,192,120902,1,0,0:0:0:0:
64,192,120902,128,0,121089:0:0:0:0:
320,192,120995,1,0,0:0:0:0:
448,192,121089,1,0,0:0:0:0:
192,192,121089,128,0,121277:0:0:0:0:
320,192,121183,1,0,0:0:0:0:
448,192,121277,1,0,0:0:0:0:
64,192,121277,128,0,121464:0:0:0:0:
320,192,121370,1,0,0:0:0:0:
448,192,121464,128,0,121652:0:0:0:0:
192,192,121464,1,0,0:0:0:0:
64,192,121558,1,0,0:0:0:0:
192,192,121652,1,0,0:0:0:0:
320,192,121652,128,0,121745:0:0:0:0:
64,192,121745,128,0,121839:0:0:0:0:
320,192,121839,1,0,0:0:0:0:
448,192,121839,128,0,121933:0:0:0:0:
192,192,121933,128,0,122027:0:0:0:0:
448,192,122027,1,0,0:0:0:0:
64,192,122027,128,0,122120:0:0:0:0:
320,192,122120,128,0,122214:0:0:0:0:
64,192,122214,1,0,0:0:0:0:
192,192,122214,128,0,122308:0:0:0:0:
320,192,122308,128,0,122402:0:0:0:0:
64,192,122402,1,0,0:0:0:0:
448,192,122402,128,0,122777:0:0:0:0:
320,192,122495,128,0,122589:0:0:0:0:
64,192,122589,128,0,122683:0:0:0:0:
192,192,122683,128,0,122777:0:0:0:0:
64,192,122777,1,0,0:0:0:0:
320,192,122777,128,0,123152:0:0:0:0:
192,192,122870,128,0,122964:0:0:0:0:
448,192,122964,1,0,0:0:0:0:
64,192,122964,128,0,123058:0:0:0:0:
192,192,123058,128,0,123152:0:0:0:0:
64,192,123152,1,0,0:0:0:0:
448,192,123152,128,0,123527:0:0:0:0:
320,192,123245,128,0,123339:0:0:0:0:
64,192,123339,128,0,123433:0:0:0:0:
192,192,123433,128,0,123527:0:0:0:0:
64,192,123527,1,0,0:0:0:0:
320,192,123527,128,0,123902:0:0:0:0:
448,192,123620,128,0,123714:0:0:0:0:
64,192,123714,128,0,123808:0:0:0:0:
192,192,123808,128,0,123902:0:0:0:0:
448,192,123902,1,0,0:0:0:0:
64,192,123902,128,0,124277:0:0:0:0:
320,192,123995,128,0,124089:0:0:0:0:
448,192,124089,128,0,124183:0:0:0:0:
320,192,124183,128,0,124277:0:0:0:0:
448,192,124277,1,0,0:0:0:0:
192,192,124277,128,0,124652:0:0:0:0:
64,192,124370,128,0,124464:0:0:0:0:
448,192,124464,1,0,0:0:0:0:
320,192,124464,128,0,124558:0:0:0:0:
64,192,124558,128,0,124652:0:0:0:0:
448,192,124652,1,0,0:0:0:0:
320,192,124652,128,0,125027:0:0:0:0:
192,192,124745,128,0,124839:0:0:0:0:
448,192,124839,128,0,124933:0:0:0:0:
192,192,124933,128,0,125027:0:0:0:0:
64,192,125027,128,0,125214:0:0:0:0:
448,192,125027,1,0,0:0:0:0:
192,192,125120,128,0,125214:0:0:0:0:
448,192,125214,128,0,125308:0:0:0:0:
320,192,125308,128,0,125402:0:0:0:0:
64,192,125402,1,0,0:0:0:0:
192,192,125402,1,0,0:0:0:0:
448,192,125402,128,0,125777:0:0:0:0:
320,192,125495,128,0,125589:0:0:0:0:
192,192,125589,128,0,125683:0:0:0:0:
64,192,125683,128,0,125777:0:0:0:0:
320,192,125777,128,0,126152:0:0:0:0:
192,192,125777,1,0,0:0:0:0:
64,192,125870,128,0,125964:0:0:0:0:
448,192,125964,128,0,126058:0:0:0:0:
192,192,126058,128,0,126152:0:0:0:0:
64,192,126152,1,0,0:0:0:0:
448,192,126152,128,0,126527:0:0:0:0:
320,192,126245,128,0,126339:0:0:0:0:
192,192,126339,128,0,126433:0:0:0:0:
64,192,126433,128,0,126527:0:0:0:0:
192,192,126527,1,0,0:0:0:0:
320,192,126527,128,0,126902:0:0:0:0:
64,192,126620,128,0,126714:0:0:0:0:
448,192,126714,128,0,126808:0:0:0:0:
192,192,126808,128,0,126902:0:0:0:0:
448,192,126902,1,0,0:0:0:0:
64,192,126902,128,0,127277:0:0:0:0:
320,192,126995,128,0,127089:0:0:0:0:
192,192,127089,128,0,127183:0:0:0:0:
320,192,127183,128,0,127277:0:0:0:0:
448,192,127277,1,0,0:0:0:0:
192,192,127277,128,0,127652:0:0:0:0:
64,192,127370,128,0,127464:0:0:0:0:
320,192,127464,128,0,127558:0:0:0:0:
448,192,127558,128,0,127652:0:0:0:0:
64,192,127652,1,0,0:0:0:0:
320,192,127652,128,0,128027:0:0:0:0:
192,192,127745,128,0,127839:0:0:0:0:
64,192,127839,128,0,127933:0:0:0:0:
192,192,127933,128,0,128027:0:0:0:0:
448,192,128027,128,0,128402:0:0:0:0:
64,192,128027,1,0,0:0:0:0:
320,192,128120,128,0,128214:0:0:0:0:
192,192,128214,128,0,128308:0:0:0:0:
320,192,128308,128,0,128402:0:0:0:0:
64,192,128402,128,0,128777:0:0:0:0:
192,192,128402,1,0,0:0:0:0:
448,192,128495,128,0,128589:0:0:0:0:
320,192,128589,128,0,128683:0:0:0:0:
448,192,128683,128,0,128777:0:0:0:0:
192,192,128777,128,0,129152:0:0:0:0:
320,192,128777,1,0,0:0:0:0:
64,192,128870,128,0,128964:0:0:0:0:
320,192,128964,128,0,129058:0:0:0:0:
448,192,129058,128,0,129152:0:0:0:0:
320,192,129152,128,0,129527:0:0:0:0:
64,192,129152,1,0,0:0:0:0:
192,192,129245,128,0,129339:0:0:0:0:
64,192,129339,128,0,129433:0:0:0:0:
192,192,129433,128,0,129527:0:0:0:0:
64,192,129527,1,0,0:0:0:0:
448,192,129527,128,0,129902:0:0:0:0:
320,192,129620,128,0,129714:0:0:0:0:
192,192,129714,128,0,129808:0:0:0:0:
320,192,129808,128,0,129902:0:0:0:0:
192,192,129902,128,0,130183:0:0:0:0:
320,192,129995,128,0,130089:0:0:0:0:
64,192,129995,128,0,130089:0:0:0:0:
320,192,130183,128,0,130464:0:0:0:0:
64,192,130183,1,0,0:0:0:0:
448,192,130277,128,0,130370:0:0:0:0:
192,192,130277,128,0,130370:0:0:0:0:
192,192,130464,1,0,0:0:0:0:
448,192,130464,128,0,130745:0:0:0:0:
64,192,130558,128,0,130652:0:0:0:0:
320,192,130558,128,0,130652:0:0:0:0:
192,192,130652,128,0,131027:0:0:0:0:
64,192,130745,128,0,130839:0:0:0:0:
320,192,130839,128,0,130933:0:0:0:0:
64,192,130933,128,0,131027:0:0:0:0:
448,192,131027,1,0,0:0:0:0:
320,192,131027,128,0,131402:0:0:0:0:
192,192,131120,128,0,131214:0:0:0:0:
64,192,131214,128,0,131308:0:0:0:0:
192,192,131308,128,0,131402:0:0:0:0:
64,192,131402,128,0,131495:0:0:0:0:
448,192,131402,128,0,132808:0:0:0:0:
192,192,131495,128,0,131589:0:0:0:0:
64,192,131589,128,0,131683:0:0:0:0:
320,192,131589,128,0,131870:0:0:0:0:
192,192,131683,128,0,131777:0:0:0:0:
64,192,131777,128,0,131870:0:0:0:0:
192,192,131870,128,0,131964:0:0:0:0:
320,192,131964,128,0,132058:0:0:0:0:
64,192,131964,128,0,132152:0:0:0:0:
192,192,132058,128,0,132152:0:0:0:0:
320,192,132152,128,0,132245:0:0:0:0:
64,192,132245,128,0,132339:0:0:0:0:
192,192,132245,128,0,132433:0:0:0:0:
320,192,132339,128,0,132433:0:0:0:0:
64,192,132433,128,0,132527:0:0:0:0:
192,192,132527,128,0,132620:0:0:0:0:
320,192,132620,128,0,132714:0:0:0:0:
192,192,132714,128,0,132808:0:0:0:0:
320,192,132808,128,0,132902:0:0:0:0:
448,192,132902,128,0,132995:0:0:0:0:
192,192,132902,128,0,133089:0:0:0:0:
64,192,132902,128,0,133558:0:0:0:0:
320,192,132995,128,0,133089:0:0:0:0:
448,192,133089,128,0,133277:0:0:0:0:
192,192,133183,128,0,133277:0:0:0:0:
320,192,133277,128,0,133370:0:0:0:0:
192,192,133370,128,0,133464:0:0:0:0:
448,192,133464,128,0,133558:0:0:0:0:
192,192,133558,1,0,0:0:0:0:
320,192,133558,1,0,0:0:0:0:
64,192,133652,128,0,133933:0:0:0:0:
448,192,133652,1,0,0:0:0:0:
320,192,133745,1,0,0:0:0:0:
192,192,133745,128,0,134027:0:0:0:0:
448,192,133839,128,0,133933:0:0:0:0:
320,192,133933,128,0,134027:0:0:0:0:
64,192,134027,128,0,134120:0:0:0:0:
448,192,134027,1,0,0:0:0:0:
192,192,134120,128,0,134214:0:0:0:0:
64,192,134214,1,0,0:0:0:0:
320,192,134214,128,0,134308:0:0:0:0:
448,192,134308,128,0,134402:0:0:0:0:
192,192,134308,1,0,0:0:0:0:
320,192,134402,1,0,0:0:0:0:
64,192,134402,128,0,134589:0:0:0:0:
320,192,134589,1,0,0:0:0:0:
448,192,134589,1,0,0:0:0:0:
192,192,134589,128,0,134777:0:0:0:0:
448,192,134777,1,0,0:0:0:0:
64,192,134777,1,0,0:0:0:0:
320,192,134777,128,0,134964:0:0:0:0:
192,192,134964,1,0,0:0:0:0:
64,192,134964,1,0,0:0:0:0:
448,192,134964,128,0,135339:0:0:0:0:
192,192,135339,1,0,0:0:0:0:
320,192,135339,128,0,135527:0:0:0:0:
448,192,135527,1,0,0:0:0:0:
64,192,135527,1,0,0:0:0:0:
192,192,135527,128,0,135714:0:0:0:0:
64,192,135714,128,0,135902:0:0:0:0:
448,192,135902,128,0,136089:0:0:0:0:
192,192,136089,1,0,0:0:0:0:
64,192,136089,1,0,0:0:0:0:
320,192,136089,128,0,136277:0:0:0:0:
64,192,136277,1,0,0:0:0:0:
448,192,136277,1,0,0:0:0:0:
192,192,136277,128,0,136464:0:0:0:0:
320,192,136464,128,0,136652:0:0:0:0:
64,192,136464,128,0,136652:0:0:0:0:
448,192,136652,128,0,136839:0:0:0:0:
320,192,136839,1,0,0:0:0:0:
192,192,136839,1,0,0:0:0:0:
64,192,136839,128,0,137214:0:0:0:0:
448,192,137027,1,0,0:0:0:0:
192,192,137027,1,0,0:0:0:0:
320,192,137027,1,0,0:0:0:0:
320,192,137214,128,0,137402:0:0:0:0:
192,192,137214,1,0,0:0:0:0:
448,192,137402,1,0,0:0:0:0:
64,192,137402,1,0,0:0:0:0:
192,192,137402,1,0,0:0:0:0:
448,192,137589,1,0,0:0:0:0:
64,192,137589,1,0,0:0:0:0:
320,192,137589,1,0,0:0:0:0:
448,192,137777,1,0,0:0:0:0:
192,192,137777,1,0,0:0:0:0:
64,192,137777,1,0,0:0:0:0:
64,192,137964,1,0,0:0:0:0:
448,192,137964,1,0,0:0:0:0:
320,192,137964,1,0,0:0:0:0:
320,192,138152,1,0,0:0:0:0:
192,192,138152,1,0,0:0:0:0:
64,192,138152,1,0,0:0:0:0:
448,192,138339,1,0,0:0:0:0:
320,192,138339,1,0,0:0:0:0:
192,192,138339,1,0,0:0:0:0:
64,192,138527,1,0,0:0:0:0:
448,192,138527,1,0,0:0:0:0:
320,192,138527,128,0,138808:0:0:0:0:
192,192,138527,128,0,138808:0:0:0:0:
192,192,138902,1,0,0:0:0:0:
448,192,138902,128,0,139089:0:0:0:0:
320,192,138902,128,0,138995:0:0:0:0:
320,192,139089,1,0,0:0:0:0:
64,192,139089,128,0,139277:0:0:0:0:
192,192,139089,128,0,139183:0:0:0:0:
192,192,139277,1,0,0:0:0:0:
448,192,139277,128,0,139464:0:0:0:0:
320,192,139277,128,0,139370:0:0:0:0:
320,192,139464,1,0,0:0:0:0:
64,192,139464,128,0,139652:0:0:0:0:
192,192,139464,128,0,139558:0:0:0:0:
448,192,139652,1,0,0:0:0:0:
320,192,139652,1,0,0:0:0:0:
192,192,139652,128,0,139745:0:0:0:0:
64,192,139745,1,0,0:0:0:0:
320,192,139745,128,0,139839:0:0:0:0:
448,192,139839,1,0,0:0:0:0:
64,192,139839,128,0,139933:0:0:0:0:
192,192,139933,1,0,0:0:0:0:
448,192,139933,128,0,140027:0:0:0:0:
320,192,140027,1,0,0:0:0:0:
192,192,140027,128,0,140120:0:0:0:0:
64,192,140120,1,0,0:0:0:0:
320,192,140120,128,0,140214:0:0:0:0:
64,192,140214,1,0,0:0:0:0:
448,192,140214,128,0,140308:0:0:0:0:
192,192,140308,128,0,140402:0:0:0:0:
64,192,140402,1,0,0:0:0:0:
320,192,140402,128,0,141152:0:0:0:0:
448,192,140495,1,0,0:0:0:0:
192,192,140589,1,0,0:0:0:0:
64,192,140683,1,0,0:0:0:0:
448,192,140777,1,0,0:0:0:0:
192,192,140870,1,0,0:0:0:0:
192,192,141152,1,0,0:0:0:0:
64,192,141152,128,0,141902:0:0:0:0:
320,192,141245,1,0,0:0:0:0:
448,192,141339,1,0,0:0:0:0:
192,192,141433,1,0,0:0:0:0:
320,192,141527,1,0,0:0:0:0:
448,192,141620,1,0,0:0:0:0:
320,192,141902,1,0,0:0:0:0:
448,192,141902,128,0,142652:0:0:0:0:
64,192,141995,1,0,0:0:0:0:
192,192,142089,1,0,0:0:0:0:
320,192,142183,1,0,0:0:0:0:
64,192,142277,1,0,0:0:0:0:
192,192,142370,1,0,0:0:0:0:
320,192,142464,1,0,0:0:0:0:
64,192,142652,1,0,0:0:0:0:
192,192,142652,128,0,143402:0:0:0:0:
320,192,142745,1,0,0:0:0:0:
448,192,142839,1,0,0:0:0:0:
64,192,142933,1,0,0:0:0:0:
320,192,143027,1,0,0:0:0:0:
64,192,143402,1,0,0:0:0:0:
448,192,143402,128,0,144152:0:0:0:0:
192,192,143495,1,0,0:0:0:0:
320,192,143589,1,0,0:0:0:0:
192,192,143683,1,0,0:0:0:0:
320,192,143777,1,0,0:0:0:0:
64,192,143870,1,0,0:0:0:0:
192,192,143964,1,0,0:0:0:0:
64,192,144058,1,0,0:0:0:0:
192,192,144152,1,0,0:0:0:0:
320,192,144245,1,0,0:0:0:0:
192,192,144339,1,0,0:0:0:0:
320,192,144433,1,0,0:0:0:0:
448,192,144527,1,0,0:0:0:0:
192,192,144902,1,0,0:0:0:0:
64,192,144902,128,0,145652:0:0:0:0:
320,192,144995,1,0,0:0:0:0:
448,192,145089,1,0,0:0:0:0:
192,192,145183,1,0,0:0:0:0:
448,192,145277,1,0,0:0:0:0:
320,192,145370,1,0,0:0:0:0:
192,192,145464,1,0,0:0:0:0:
320,192,145558,1,0,0:0:0:0:
192,192,145652,1,0,0:0:0:0:
448,192,145652,128,0,146402:0:0:0:0:
64,192,145745,1,0,0:0:0:0:
192,192,145839,1,0,0:0:0:0:
320,192,145933,1,0,0:0:0:0:
192,192,146027,1,0,0:0:0:0:
64,192,146027,1,0,0:0:0:0:
320,192,146120,1,0,0:0:0:0:
192,192,146214,1,0,0:0:0:0:
64,192,146308,1,0,0:0:0:0:
192,192,146402,1,0,0:0:0:0:
320,192,146402,128,0,146495:0:0:0:0:
64,192,146495,1,0,0:0:0:0:
192,192,146589,128,0,146683:0:0:0:0:
320,192,146683,128,0,146777:0:0:0:0:
192,192,146777,1,0,0:0:0:0:
64,192,146777,1,0,0:0:0:0:
448,192,146777,1,0,0:0:0:0:
320,192,146870,128,0,146964:0:0:0:0:
448,192,146964,1,0,0:0:0:0:
64,192,146964,128,0,147058:0:0:0:0:
192,192,147058,1,0,0:0:0:0:
320,192,147152,1,0,0:0:0:0:
64,192,147152,1,0,0:0:0:0:
448,192,147152,128,0,147245:0:0:0:0:
192,192,147245,1,0,0:0:0:0:
448,192,147339,1,0,0:0:0:0:
64,192,147339,128,0,147433:0:0:0:0:
320,192,147433,1,0,0:0:0:0:
448,192,147527,1,0,0:0:0:0:
64,192,147527,1,0,0:0:0:0:
192,192,147527,128,0,147620:0:0:0:0:
320,192,147620,1,0,0:0:0:0:
64,192,147714,1,0,0:0:0:0:
448,192,147714,128,0,147808:0:0:0:0:
192,192,147808,1,0,0:0:0:0:
64,192,147902,1,0,0:0:0:0:
448,192,147902,1,0,0:0:0:0:
320,192,147902,128,0,147995:0:0:0:0:
192,192,147995,1,0,0:0:0:0:
448,192,148089,1,0,0:0:0:0:
64,192,148089,128,0,148183:0:0:0:0:
320,192,148183,1,0,0:0:0:0:
448,192,148277,1,0,0:0:0:0:
64,192,148277,1,0,0:0:0:0:
192,192,148277,128,0,148370:0:0:0:0:
320,192,148370,1,0,0:0:0:0:
64,192,148464,1,0,0:0:0:0:
448,192,148464,128,0,148558:0:0:0:0:
192,192,148558,128,0,148652:0:0:0:0:
64,192,148652,1,0,0:0:0:0:
448,192,148652,1,0,0:0:0:0:
320,192,148652,128,0,148745:0:0:0:0:
192,192,148745,1,0,0:0:0:0:
448,192,148839,1,0,0:0:0:0:
64,192,148839,128,0,148933:0:0:0:0:
320,192,148933,1,0,0:0:0:0:
64,192,149027,1,0,0:0:0:0:
192,192,149027,1,0,0:0:0:0:
448,192,149027,128,0,149120:0:0:0:0:
320,192,149120,1,0,0:0:0:0:
64,192,149214,1,0,0:0:0:0:
192,192,149214,128,0,149308:0:0:0:0:
320,192,149308,1,0,0:0:0:0:
192,192,149402,1,0,0:0:0:0:
448,192,149402,1,0,0:0:0:0:
64,192,149402,128,0,149495:0:0:0:0:
320,192,149495,1,0,0:0:0:0:
64,192,149589,1,0,0:0:0:0:
448,192,149589,128,0,149683:0:0:0:0:
192,192,149683,1,0,0:0:0:0:
448,192,149777,1,0,0:0:0:0:
64,192,149777,1,0,0:0:0:0:
320,192,149777,128,0,149870:0:0:0:0:
192,192,149870,1,0,0:0:0:0:
320,192,149964,1,0,0:0:0:0:
448,192,149964,128,0,150058:0:0:0:0:
192,192,150058,1,0,0:0:0:0:
320,192,150152,1,0,0:0:0:0:
448,192,150152,1,0,0:0:0:0:
64,192,150152,1,0,0:0:0:0:
192,192,150245,1,0,0:0:0:0:
64,192,150339,1,0,0:0:0:0:
448,192,150339,128,0,150433:0:0:0:0:
320,192,150433,1,0,0:0:0:0:
448,192,150527,1,0,0:0:0:0:
192,192,150527,1,0,0:0:0:0:
64,192,150527,1,0,0:0:0:0:
320,192,150620,128,0,150714:0:0:0:0:
192,192,150714,1,0,0:0:0:0:
448,192,150714,1,0,0:0:0:0:
64,192,150808,1,0,0:0:0:0:
448,192,150902,128,0,150995:0:0:0:0:
320,192,150902,128,0,150995:0:0:0:0:
192,192,150902,1,0,0:0:0:0:
192,192,151089,128,0,151135:0:0:0:0:
448,192,151089,128,0,151182:0:0:0:0:
64,192,151182,128,0,151229:0:0:0:0:
320,192,151182,128,0,151276:0:0:0:0:
192,192,151276,128,0,151370:0:0:0:0:
448,192,151276,128,0,151323:0:0:0:0:
64,192,151370,128,0,151464:0:0:0:0:
320,192,151370,128,0,151417:0:0:0:0:
448,192,151464,128,0,151557:0:0:0:0:
192,192,151464,128,0,151510:0:0:0:0:
320,192,151557,128,0,151651:0:0:0:0:
64,192,151557,128,0,151604:0:0:0:0:
448,192,151651,128,0,151698:0:0:0:0:
192,192,151651,128,0,151745:0:0:0:0:
320,192,151745,128,0,151839:0:0:0:0:
64,192,151745,128,0,151792:0:0:0:0:
192,192,151839,128,0,151885:0:0:0:0:
448,192,151839,128,0,151932:0:0:0:0:
64,192,151932,128,0,152026:0:0:0:0:
320,192,151932,128,0,151979:0:0:0:0:
192,192,152026,128,0,152120:0:0:0:0:
448,192,152026,128,0,152073:0:0:0:0:
64,192,152120,128,0,152167:0:0:0:0:
320,192,152120,128,0,152214:0:0:0:0:
192,192,152214,128,0,152260:0:0:0:0:
448,192,152214,128,0,152307:0:0:0:0:
64,192,152307,128,0,152354:0:0:0:0:
320,192,152307,1,0,0:0:0:0:
448,192,152401,128,0,152448:0:0:0:0:
192,192,152401,1,0,0:0:0:0:
320,192,152401,1,0,0:0:0:0:
192,192,152495,128,0,152542:0:0:0:0:
320,192,152589,128,0,152635:0:0:0:0:
64,192,152589,1,0,0:0:0:0:
448,192,152589,1,0,0:0:0:0:
192,192,152682,128,0,152729:0:0:0:0:
64,192,152776,1,0,0:0:0:0:
320,192,152776,128,0,152823:0:0:0:0:
448,192,152776,128,0,152964:0:0:0:0:
192,192,152870,128,0,153057:0:0:0:0:
64,192,152964,128,0,153010:0:0:0:0:
320,192,153057,128,0,153104:0:0:0:0:
448,192,153057,1,0,0:0:0:0:
64,192,153151,1,0,0:0:0:0:
192,192,153151,128,0,153198:0:0:0:0:
320,192,153245,1,0,0:0:0:0:
448,192,153245,128,0,153292:0:0:0:0:
192,192,153339,1,0,0:0:0:0:
64,192,153339,128,0,153385:0:0:0:0:
320,192,153432,1,0,0:0:0:0:
448,192,153432,128,0,153479:0:0:0:0:
64,192,153526,128,0,153573:0:0:0:0:
192,192,153526,128,0,153714:0:0:0:0:
448,192,153620,128,0,153667:0:0:0:0:
320,192,153714,128,0,153760:0:0:0:0:
448,192,153807,1,0,0:0:0:0:
64,192,153807,1,0,0:0:0:0:
192,192,153807,128,0,153854:0:0:0:0:
320,192,153901,128,0,153948:0:0:0:0:
448,192,153995,1,0,0:0:0:0:
64,192,153995,128,0,154042:0:0:0:0:
192,192,153995,1,0,0:0:0:0:
320,192,154089,128,0,154135:0:0:0:0:
64,192,154182,1,0,0:0:0:0:
448,192,154182,128,0,154229:0:0:0:0:
192,192,154276,128,0,154323:0:0:0:0:
320,192,154276,128,0,154464:0:0:0:0:
64,192,154370,1,0,0:0:0:0:
192,192,154464,128,0,154510:0:0:0:0:
448,192,154557,128,0,154604:0:0:0:0:
64,192,154651,128,0,154698:0:0:0:0:
192,192,154651,1,0,0:0:0:0:
320,192,154651,1,0,0:0:0:0:
448,192,154745,128,0,154792:0:0:0:0:
64,192,154839,1,0,0:0:0:0:
192,192,154839,1,0,0:0:0:0:
320,192,154839,128,0,154885:0:0:0:0:
448,192,154932,128,0,154979:0:0:0:0:
320,192,155026,1,0,0:0:0:0:
192,192,155026,128,0,155073:0:0:0:0:
64,192,155120,128,0,155307:0:0:0:0:
448,192,155120,1,0,0:0:0:0:
192,192,155214,1,0,0:0:0:0:
320,192,155214,128,0,155260:0:0:0:0:
448,192,155307,1,0,0:0:0:0:
320,192,155401,1,0,0:0:0:0:
192,192,155401,1,0,0:0:0:0:
64,192,155401,128,0,155448:0:0:0:0:
448,192,155495,1,0,0:0:0:0:
64,192,155589,1,0,0:0:0:0:
192,192,155589,128,0,155635:0:0:0:0:
448,192,155682,128,0,155729:0:0:0:0:
320,192,155682,1,0,0:0:0:0:
192,192,155776,1,0,0:0:0:0:
64,192,155776,128,0,155823:0:0:0:0:
448,192,155870,128,0,155917:0:0:0:0:
320,192,155870,128,0,156057:0:0:0:0:
64,192,155964,1,0,0:0:0:0:
192,192,155964,128,0,156151:0:0:0:0:
448,192,156057,1,0,0:0:0:0:
64,192,156151,128,0,156198:0:0:0:0:
320,192,156151,1,0,0:0:0:0:
192,192,156245,128,0,156292:0:0:0:0:
64,192,156339,1,0,0:0:0:0:
448,192,156339,1,0,0:0:0:0:
320,192,156339,128,0,156385:0:0:0:0:
192,192,156432,128,0,156479:0:0:0:0:
64,192,156526,1,0,0:0:0:0:
448,192,156526,128,0,156573:0:0:0:0:
320,192,156620,128,0,156667:0:0:0:0:
192,192,156620,128,0,156807:0:0:0:0:
448,192,156714,128,0,156760:0:0:0:0:
320,192,156807,5,0,0:0:0:0:
64,192,156807,128,0,156854:0:0:0:0:
192,192,156901,128,0,156948:0:0:0:0:
448,192,156901,1,0,0:0:0:0:
320,192,156995,128,0,157042:0:0:0:0:
64,192,157089,1,0,0:0:0:0:
192,192,157089,1,0,0:0:0:0:
448,192,157089,128,0,157135:0:0:0:0:
320,192,157182,128,0,157229:0:0:0:0:
192,192,157276,128,0,157323:0:0:0:0:
448,192,157276,1,0,0:0:0:0:
320,192,157370,128,0,157557:0:0:0:0:
64,192,157370,128,0,157417:0:0:0:0:
448,192,157464,128,0,157510:0:0:0:0:
192,192,157557,128,0,157604:0:0:0:0:
64,192,157557,1,0,0:0:0:0:
64,192,157651,128,0,157698:0:0:0:0:
448,192,157651,128,0,158401:0:0:0:0:
320,192,157698,128,0,157745:0:0:0:0:
192,192,157745,128,0,157792:0:0:0:0:
64,192,157792,128,0,157839:0:0:0:0:
320,192,157839,128,0,157885:0:0:0:0:
192,192,157885,128,0,157932:0:0:0:0:
64,192,157932,128,0,157979:0:0:0:0:
320,192,157979,128,0,158026:0:0:0:0:
192,192,158026,128,0,158073:0:0:0:0:
64,192,158073,128,0,158120:0:0:0:0:
320,192,158120,128,0,158167:0:0:0:0:
192,192,158167,128,0,158214:0:0:0:0:
64,192,158214,1,0,0:0:0:0:
320,192,158260,128,0,158307:0:0:0:0:
320,192,158401,1,0,0:0:0:0:
192,192,158401,128,0,158495:0:0:0:0:
64,192,158401,128,0,158682:0:0:0:0:
320,192,158495,128,0,158589:0:0:0:0:
448,192,158589,1,0,0:0:0:0:
192,192,158589,128,0,158682:0:0:0:0:
320,192,158682,128,0,158776:0:0:0:0:
64,192,158776,1,0,0:0:0:0:
192,192,158776,128,0,158870:0:0:0:0:
448,192,158776,128,0,159057:0:0:0:0:
320,192,158870,128,0,158964:0:0:0:0:
64,192,158964,1,0,0:0:0:0:
192,192,158964,128,0,159057:0:0:0:0:
320,192,159057,128,0,159151:0:0:0:0:
64,192,159151,128,0,159432:0:0:0:0:
192,192,159151,1,0,0:0:0:0:
448,192,159151,128,0,159245:0:0:0:0:
320,192,159245,128,0,159339:0:0:0:0:
192,192,159339,1,0,0:0:0:0:
448,192,159339,128,0,159432:0:0:0:0:
320,192,159432,128,0,159526:0:0:0:0:
64,192,159526,1,0,0:0:0:0:
192,192,159526,128,0,159620:0:0:0:0:
448,192,159526,128,0,159807:0:0:0:0:
320,192,159620,128,0,159714:0:0:0:0:
192,192,159714,1,0,0:0:0:0:
64,192,159714,128,0,159807:0:0:0:0:
320,192,159807,128,0,159901:0:0:0:0:
448,192,159901,1,0,0:0:0:0:
192,192,159901,128,0,160182:0:0:0:0:
64,192,159901,128,0,159995:0:0:0:0:
320,192,159995,128,0,160089:0:0:0:0:
448,192,160089,1,0,0:0:0:0:
64,192,160089,128,0,160182:0:0:0:0:
320,192,160182,128,0,160276:0:0:0:0:
64,192,160276,1,0,0:0:0:0:
192,192,160276,128,0,160370:0:0:0:0:
448,192,160276,128,0,160557:0:0:0:0:
320,192,160370,128,0,160464:0:0:0:0:
64,192,160464,1,0,0:0:0:0:
192,192,160464,128,0,160557:0:0:0:0:
320,192,160557,128,0,160651:0:0:0:0:
64,192,160651,1,0,0:0:0:0:
192,192,160651,128,0,160932:0:0:0:0:
448,192,160651,128,0,160745:0:0:0:0:
320,192,160745,128,0,160839:0:0:0:0:
64,192,160839,128,0,160932:0:0:0:0:
448,192,160839,1,0,0:0:0:0:
320,192,160932,128,0,161026:0:0:0:0:
64,192,161026,128,0,161120:0:0:0:0:
192,192,161026,1,0,0:0:0:0:
448,192,161026,128,0,161307:0:0:0:0:
320,192,161120,128,0,161214:0:0:0:0:
64,192,161214,128,0,161307:0:0:0:0:
192,192,161214,1,0,0:0:0:0:
320,192,161307,128,0,161401:0:0:0:0:
64,192,161401,1,0,0:0:0:0:
192,192,161401,1,0,0:0:0:0:
448,192,161401,128,0,161682:0:0:0:0:
320,192,161495,128,0,161589:0:0:0:0:
64,192,161589,1,0,0:0:0:0:
192,192,161589,128,0,161870:0:0:0:0:
320,192,161682,128,0,161776:0:0:0:0:
448,192,161776,128,0,162057:0:0:0:0:
64,192,161776,1,0,0:0:0:0:
320,192,161870,128,0,161964:0:0:0:0:
64,192,161964,1,0,0:0:0:0:
192,192,161964,128,0,162245:0:0:0:0:
320,192,162057,128,0,162151:0:0:0:0:
64,192,162151,1,0,0:0:0:0:
448,192,162151,128,0,162432:0:0:0:0:
320,192,162245,128,0,162339:0:0:0:0:
192,192,162339,128,0,162620:0:0:0:0:
64,192,162339,1,0,0:0:0:0:
320,192,162432,128,0,162526:0:0:0:0:
448,192,162526,128,0,162807:0:0:0:0:
64,192,162526,1,0,0:0:0:0:
320,192,162620,128,0,162714:0:0:0:0:
192,192,162714,128,0,162901:0:0:0:0:
64,192,162714,1,0,0:0:0:0:
320,192,162807,128,0,162901:0:0:0:0:
448,192,162901,128,0,162995:0:0:0:0:
64,192,162901,128,0,163557:0:0:0:0:
320,192,162995,128,0,163089:0:0:0:0:
192,192,163089,1,0,0:0:0:0:
448,192,163089,128,0,163182:0:0:0:0:
320,192,163182,128,0,163276:0:0:0:0:
192,192,163276,128,0,163370:0:0:0:0:
448,192,163276,1,0,0:0:0:0:
320,192,163370,128,0,163464:0:0:0:0:
448,192,163464,128,0,163557:0:0:0:0:
320,192,163510,128,0,163698:0:0:0:0:
192,192,163557,128,0,163651:0:0:0:0:
448,192,163604,128,0,163745:0:0:0:0:
64,192,163651,128,0,163792:0:0:0:0:
192,192,163698,128,0,163885:0:0:0:0:
320,192,163745,128,0,163979:0:0:0:0:
448,192,163792,128,0,164073:0:0:0:0:
64,192,163839,128,0,164120:0:0:0:0:
192,192,163932,128,0,164120:0:0:0:0:
320,192,164026,128,0,164167:0:0:0:0:
448,192,164120,128,0,164354:0:0:0:0:
192,192,164167,128,0,164260:0:0:0:0:
64,192,164167,128,0,164260:0:0:0:0:
320,192,164214,128,0,164401:0:0:0:0:
192,192,164307,128,0,164401:0:0:0:0:
64,192,164401,128,0,165901:0:0:0:0:
448,192,164401,1,0,0:0:0:0:
448,192,164495,128,0,164870:0:0:0:0:
320,192,164589,1,0,0:0:0:0:
320,192,164682,128,0,164870:0:0:0:0:
192,192,164776,1,0,0:0:0:0:
192,192,164870,128,0,165245:0:0:0:0:
320,192,164964,1,0,0:0:0:0:
320,192,165057,128,0,165245:0:0:0:0:
448,192,165151,1,0,0:0:0:0:
448,192,165245,128,0,165620:0:0:0:0:
320,192,165339,1,0,0:0:0:0:
320,192,165432,128,0,165620:0:0:0:0:
192,192,165526,1,0,0:0:0:0:
192,192,165620,128,0,165807:0:0:0:0:
320,192,165714,128,0,165807:0:0:0:0:
448,192,165807,1,0,0:0:0:0:
192,192,165901,128,0,165995:0:0:0:0:
320,192,165901,128,0,166089:0:0:0:0:
448,192,165901,128,0,167401:0:0:0:0:
192,192,166089,128,0,166182:0:0:0:0:
64,192,166089,128,0,166276:0:0:0:0:
192,192,166276,128,0,166370:0:0:0:0:
320,192,166276,128,0,166464:0:0:0:0:
64,192,166464,128,0,166557:0:0:0:0:
192,192,166464,128,0,166651:0:0:0:0:
320,192,166651,128,0,166745:0:0:0:0:
64,192,166651,128,0,166839:0:0:0:0:
192,192,166839,128,0,166932:0:0:0:0:
320,192,166839,128,0,167026:0:0:0:0:
64,192,167026,128,0,167120:0:0:0:0:
192,192,167026,128,0,167214:0:0:0:0:
64,192,167214,128,0,167307:0:0:0:0:
320,192,167214,128,0,167401:0:0:0:0:
64,192,167401,1,0,0:0:0:0:
192,192,167401,128,0,167776:0:0:0:0:
320,192,167776,1,0,0:0:0:0:
448,192,167776,128,0,168151:0:0:0:0:
64,192,167776,128,0,167870:0:0:0:0:
192,192,167870,1,0,0:0:0:0:
320,192,167964,1,0,0:0:0:0:
64,192,167964,128,0,168057:0:0:0:0:
192,192,168057,1,0,0:0:0:0:
320,192,168151,1,0,0:0:0:0:
64,192,168151,1,0,0:0:0:0:
448,192,168245,1,0,0:0:0:0:
64,192,168339,128,0,168526:0:0:0:0:
192,192,168339,128,0,168432:0:0:0:0:
320,192,168432,1,0,0:0:0:0:
192,192,168526,128,0,168714:0:0:0:0:
448,192,168526,1,0,0:0:0:0:
64,192,168620,1,0,0:0:0:0:
320,192,168714,128,0,168901:0:0:0:0:
448,192,168714,128,0,168807:0:0:0:0:
192,192,168807,1,0,0:0:0:0:
64,192,168901,1,0,0:0:0:0:
448,192,168901,1,0,0:0:0:0:
192,192,168995,1,0,0:0:0:0:
448,192,169089,128,0,169370:0:0:0:0:
320,192,169089,128,0,169182:0:0:0:0:
64,192,169182,1,0,0:0:0:0:
192,192,169276,128,0,169464:0:0:0:0:
320,192,169276,128,0,169370:0:0:0:0:
64,192,169370,1,0,0:0:0:0:
320,192,169464,128,0,169651:0:0:0:0:
448,192,169464,128,0,169557:0:0:0:0:
192,192,169557,1,0,0:0:0:0:
64,192,169651,128,0,169839:0:0:0:0:
448,192,169651,128,0,169745:0:0:0:0:
192,192,169839,128,0,170026:0:0:0:0:
320,192,169839,128,0,169932:0:0:0:0:
448,192,169932,1,0,0:0:0:0:
64,192,170026,128,0,170214:0:0:0:0:
320,192,170026,128,0,170120:0:0:0:0:
192,192,170120,128,0,170214:0:0:0:0:
320,192,170214,128,0,170307:0:0:0:0:
448,192,170214,128,0,170307:0:0:0:0:
64,192,170401,128,0,170964:0:0:0:0:
192,192,170401,128,0,170776:0:0:0:0:
448,192,170401,128,0,170776:0:0:0:0:
448,192,170964,128,0,171526:0:0:0:0:
320,192,170964,128,0,171339:0:0:0:0:
192,192,170964,128,0,171339:0:0:0:0:
320,192,171526,128,0,171901:0:0:0:0:
192,192,171526,128,0,171901:0:0:0:0:
64,192,171526,128,0,171901:0:0:0:0:
192,192,172089,128,0,173354:0:0:0:0:
320,192,172089,128,0,173354:0:0:0:0:
448,192,172089,128,0,173401:0:0:0:0:
64,192,172089,128,0,173401:0:0:0:0:
64,192,187392,5,0,0:0:0:0:
192,192,187392,5,0,0:0:0:0:
448,192,187392,128,0,187480:0:0:0:0:
320,192,187480,128,0,187568:0:0:0:0:
192,192,187568,128,0,187656:0:0:0:0:
64,192,187656,128,0,187744:0:0:0:0:
320,192,187744,128,0,187833:0:0:0:0:
192,192,187833,128,0,187921:0:0:0:0:
448,192,187921,128,0,188009:0:0:0:0:
64,192,188009,128,0,188097:0:0:0:0:
192,192,188097,128,0,188186:0:0:0:0:
320,192,188186,128,0,188274:0:0:0:0:
448,192,188274,128,0,188362:0:0:0:0:
192,192,188362,128,0,188450:0:0:0:0:
320,192,188450,128,0,188539:0:0:0:0:
64,192,188539,128,0,188627:0:0:0:0:
448,192,188627,128,0,188715:0:0:0:0:
320,192,188715,128,0,188803:0:0:0:0:
64,192,188803,128,0,188892:0:0:0:0:
192,192,188803,1,0,0:0:0:0:
192,192,188980,128,0,189068:0:0:0:0:
320,192,188980,1,0,0:0:0:0:
448,192,189156,128,0,189244:0:0:0:0:
320,192,189156,1,0,0:0:0:0:
320,192,189333,128,0,189421:0:0:0:0:
192,192,189333,1,0,0:0:0:0:
192,192,189509,128,0,189597:0:0:0:0:
64,192,189509,128,0,190215:0:0:0:0:
320,192,189686,128,0,189774:0:0:0:0:
192,192,189686,1,0,0:0:0:0:
448,192,189862,128,0,189950:0:0:0:0:
320,192,189862,1,0,0:0:0:0:
192,192,190039,128,0,190127:0:0:0:0:
448,192,190039,1,0,0:0:0:0:
320,192,190215,128,0,190303:0:0:0:0:
192,192,190215,128,0,190303:0:0:0:0:
448,192,190215,1,0,0:0:0:0:
64,192,190303,128,0,190392:0:0:0:0:
320,192,190392,128,0,190480:0:0:0:0:
448,192,190392,1,0,0:0:0:0:
192,192,190480,128,0,190568:0:0:0:0:
320,192,190568,128,0,190656:0:0:0:0:
448,192,190568,128,0,190656:0:0:0:0:
64,192,190568,1,0,0:0:0:0:
192,192,190656,128,0,190744:0:0:0:0:
64,192,190744,128,0,190833:0:0:0:0:
448,192,190744,1,0,0:0:0:0:
320,192,190833,128,0,190921:0:0:0:0:
448,192,190921,128,0,191009:0:0:0:0:
192,192,190921,128,0,191009:0:0:0:0:
64,192,190921,1,0,0:0:0:0:
320,192,191009,128,0,191097:0:0:0:0:
64,192,191097,128,0,191186:0:0:0:0:
192,192,191097,1,0,0:0:0:0:
448,192,191186,128,0,191274:0:0:0:0:
64,192,191274,128,0,191362:0:0:0:0:
192,192,191274,128,0,191362:0:0:0:0:
320,192,191274,1,0,0:0:0:0:
448,192,191362,128,0,191450:0:0:0:0:
320,192,191450,128,0,191539:0:0:0:0:
192,192,191450,1,0,0:0:0:0:
64,192,191539,128,0,191627:0:0:0:0:
320,192,191627,128,0,191715:0:0:0:0:
192,192,191627,128,0,191715:0:0:0:0:
448,192,191627,1,0,0:0:0:0:
64,192,191715,128,0,191803:0:0:0:0:
448,192,191803,128,0,191892:0:0:0:0:
320,192,191803,1,0,0:0:0:0:
192,192,191892,128,0,191980:0:0:0:0:
448,192,191980,128,0,192068:0:0:0:0:
320,192,191980,128,0,192068:0:0:0:0:
64,192,191980,1,0,0:0:0:0:
192,192,192068,128,0,192156:0:0:0:0:
64,192,192156,128,0,192244:0:0:0:0:
448,192,192156,1,0,0:0:0:0:
320,192,192244,128,0,192333:0:0:0:0:
192,192,192244,1,0,0:0:0:0:
64,192,192333,128,0,192421:0:0:0:0:
448,192,192333,128,0,192421:0:0:0:0:
192,192,192421,128,0,192509:0:0:0:0:
448,192,192509,128,0,192597:0:0:0:0:
320,192,192509,128,0,192597:0:0:0:0:
192,192,192597,128,0,192686:0:0:0:0:
64,192,192686,128,0,192774:0:0:0:0:
320,192,192686,128,0,192774:0:0:0:0:
448,192,192774,128,0,192862:0:0:0:0:
192,192,192774,128,0,192862:0:0:0:0:
64,192,192862,128,0,192950:0:0:0:0:
320,192,192862,128,0,192950:0:0:0:0:
192,192,192950,128,0,193039:0:0:0:0:
320,192,193039,1,0,0:0:0:0:
448,192,193039,128,0,193392:0:0:0:0:
64,192,193039,1,0,0:0:0:0:
192,192,193127,1,0,0:0:0:0:
64,192,193215,1,0,0:0:0:0:
320,192,193215,1,0,0:0:0:0:
192,192,193303,1,0,0:0:0:0:
64,192,193392,1,0,0:0:0:0:
320,192,193392,128,0,193744:0:0:0:0:
448,192,193480,1,0,0:0:0:0:
192,192,193568,1,0,0:0:0:0:
64,192,193568,1,0,0:0:0:0:
448,192,193656,1,0,0:0:0:0:
64,192,193744,1,0,0:0:0:0:
192,192,193744,128,0,194097:0:0:0:0:
320,192,193833,1,0,0:0:0:0:
448,192,193921,1,0,0:0:0:0:
64,192,193921,1,0,0:0:0:0:
320,192,194009,1,0,0:0:0:0:
448,192,194097,1,0,0:0:0:0:
64,192,194097,128,0,194450:0:0:0:0:
320,192,194186,1,0,0:0:0:0:
192,192,194274,1,0,0:0:0:0:
448,192,194274,1,0,0:0:0:0:
320,192,194362,1,0,0:0:0:0:
448,192,194450,1,0,0:0:0:0:
192,192,194450,128,0,194803:0:0:0:0:
64,192,194539,1,0,0:0:0:0:
320,192,194627,1,0,0:0:0:0:
448,192,194627,1,0,0:0:0:0:
64,192,194715,1,0,0:0:0:0:
448,192,194803,1,0,0:0:0:0:
320,192,194803,128,0,195156:0:0:0:0:
192,192,194892,1,0,0:0:0:0:
448,192,194980,1,0,0:0:0:0:
64,192,194980,1,0,0:0:0:0:
192,192,195068,1,0,0:0:0:0:
64,192,195156,1,0,0:0:0:0:
448,192,195156,128,0,195509:0:0:0:0:
320,192,195244,1,0,0:0:0:0:
192,192,195333,1,0,0:0:0:0:
64,192,195333,1,0,0:0:0:0:
320,192,195421,1,0,0:0:0:0:
192,192,195509,1,0,0:0:0:0:
64,192,195509,128,0,195862:0:0:0:0:
320,192,195597,1,0,0:0:0:0:
192,192,195686,1,0,0:0:0:0:
448,192,195686,1,0,0:0:0:0:
320,192,195774,1,0,0:0:0:0:
448,192,195862,128,0,196215:0:0:0:0:
192,192,195862,1,0,0:0:0:0:
64,192,195950,1,0,0:0:0:0:
192,192,196039,1,0,0:0:0:0:
320,192,196039,1,0,0:0:0:0:
64,192,196127,1,0,0:0:0:0:
192,192,196215,1,0,0:0:0:0:
320,192,196215,128,0,196568:0:0:0:0:
448,192,196303,1,0,0:0:0:0:
64,192,196392,1,0,0:0:0:0:
192,192,196392,1,0,0:0:0:0:
448,192,196480,1,0,0:0:0:0:
64,192,196568,1,0,0:0:0:0:
192,192,196568,128,0,196921:0:0:0:0:
320,192,196656,1,0,0:0:0:0:
448,192,196744,1,0,0:0:0:0:
64,192,196744,1,0,0:0:0:0:
320,192,196833,1,0,0:0:0:0:
448,192,196921,1,0,0:0:0:0:
64,192,196921,128,0,197274:0:0:0:0:
320,192,197009,1,0,0:0:0:0:
192,192,197097,1,0,0:0:0:0:
448,192,197097,1,0,0:0:0:0:
320,192,197186,1,0,0:0:0:0:
448,192,197274,1,0,0:0:0:0:
192,192,197274,128,0,197627:0:0:0:0:
64,192,197362,1,0,0:0:0:0:
320,192,197450,1,0,0:0:0:0:
448,192,197450,1,0,0:0:0:0:
64,192,197539,1,0,0:0:0:0:
448,192,197627,1,0,0:0:0:0:
320,192,197627,128,0,197980:0:0:0:0:
192,192,197715,1,0,0:0:0:0:
64,192,197803,1,0,0:0:0:0:
448,192,197803,1,0,0:0:0:0:
192,192,197892,1,0,0:0:0:0:
64,192,197980,128,0,198068:0:0:0:0:
448,192,197980,128,0,198509:0:0:0:0:
320,192,198068,128,0,198156:0:0:0:0:
64,192,198156,128,0,198244:0:0:0:0:
192,192,198156,128,0,198244:0:0:0:0:
320,192,198244,128,0,198333:0:0:0:0:
64,192,198333,128,0,198421:0:0:0:0:
192,192,198333,128,0,198421:0:0:0:0:
320,192,198421,128,0,198597:0:0:0:0:
64,192,198509,128,0,198597:0:0:0:0:
192,192,198509,128,0,198597:0:0:0:0:
448,192,198597,128,0,198686:0:0:0:0:
320,192,198686,1,0,0:0:0:0:
192,192,198686,128,0,198774:0:0:0:0:
64,192,198686,128,0,198862:0:0:0:0:
448,192,198774,128,0,198862:0:0:0:0:
192,192,198862,128,0,198950:0:0:0:0:
320,192,198862,128,0,198950:0:0:0:0:
64,192,198950,128,0,199039:0:0:0:0:
448,192,199039,128,0,199127:0:0:0:0:
192,192,199039,128,0,199215:0:0:0:0:
320,192,199039,1,0,0:0:0:0:
64,192,199127,128,0,199215:0:0:0:0:
448,192,199215,128,0,199303:0:0:0:0:
320,192,199215,128,0,199303:0:0:0:0:
192,192,199303,128,0,199392:0:0:0:0:
64,192,199392,128,0,199480:0:0:0:0:
320,192,199392,128,0,199568:0:0:0:0:
448,192,199392,1,0,0:0:0:0:
192,192,199480,128,0,199568:0:0:0:0:
448,192,199568,128,0,199656:0:0:0:0:
64,192,199568,128,0,199656:0:0:0:0:
320,192,199656,128,0,199744:0:0:0:0:
448,192,199744,128,0,199921:0:0:0:0:
192,192,199744,128,0,199833:0:0:0:0:
64,192,199744,1,0,0:0:0:0:
320,192,199833,128,0,199921:0:0:0:0:
64,192,199921,128,0,200009:0:0:0:0:
192,192,199921,128,0,200009:0:0:0:0:
448,192,200009,128,0,200097:0:0:0:0:
64,192,200097,128,0,200274:0:0:0:0:
320,192,200097,128,0,200186:0:0:0:0:
192,192,200097,1,0,0:0:0:0:
448,192,200186,128,0,200274:0:0:0:0:
192,192,200274,128,0,200362:0:0:0:0:
320,192,200274,128,0,200362:0:0:0:0:
64,192,200362,128,0,200450:0:0:0:0:
192,192,200450,128,0,200627:0:0:0:0:
320,192,200450,1,0,0:0:0:0:
448,192,200450,128,0,200539:0:0:0:0:
64,192,200539,128,0,200627:0:0:0:0:
448,192,200627,128,0,200715:0:0:0:0:
320,192,200627,128,0,200715:0:0:0:0:
192,192,200715,128,0,200803:0:0:0:0:
320,192,200803,128,0,200980:0:0:0:0:
64,192,200803,128,0,200892:0:0:0:0:
448,192,200803,1,0,0:0:0:0:
192,192,200892,128,0,200980:0:0:0:0:
64,192,200980,128,0,201068:0:0:0:0:
448,192,200980,128,0,201068:0:0:0:0:
320,192,201068,128,0,201244:0:0:0:0:
64,192,201156,128,0,201244:0:0:0:0:
192,192,201156,128,0,201244:0:0:0:0:
448,192,201244,128,0,201421:0:0:0:0:
192,192,201333,128,0,201421:0:0:0:0:
320,192,201333,128,0,201421:0:0:0:0:
64,192,201421,128,0,201509:0:0:0:0:
192,192,201509,128,0,201597:0:0:0:0:
448,192,201509,128,0,201686:0:0:0:0:
320,192,201509,1,0,0:0:0:0:
64,192,201597,128,0,201686:0:0:0:0:
320,192,201686,128,0,201774:0:0:0:0:
192,192,201686,128,0,201774:0:0:0:0:
448,192,201774,128,0,201862:0:0:0:0:
64,192,201862,128,0,201950:0:0:0:0:
320,192,201862,128,0,202039:0:0:0:0:
192,192,201862,1,0,0:0:0:0:
448,192,201950,128,0,202039:0:0:0:0:
64,192,202039,128,0,202127:0:0:0:0:
192,192,202039,128,0,202127:0:0:0:0:
320,192,202127,128,0,202215:0:0:0:0:
192,192,202215,128,0,202392:0:0:0:0:
448,192,202215,128,0,202303:0:0:0:0:
64,192,202215,1,0,0:0:0:0:
320,192,202303,128,0,202392:0:0:0:0:
64,192,202392,128,0,202480:0:0:0:0:
448,192,202392,128,0,202480:0:0:0:0:
192,192,202480,128,0,202568:0:0:0:0:
64,192,202568,128,0,202744:0:0:0:0:
320,192,202568,128,0,202656:0:0:0:0:
448,192,202568,1,0,0:0:0:0:
192,192,202656,128,0,202744:0:0:0:0:
448,192,202744,128,0,202833:0:0:0:0:
320,192,202744,128,0,202833:0:0:0:0:
64,192,202833,128,0,202921:0:0:0:0:
192,192,202921,128,0,203009:0:0:0:0:
448,192,202921,128,0,203097:0:0:0:0:
320,192,202921,1,0,0:0:0:0:
64,192,203009,128,0,203097:0:0:0:0:
320,192,203097,128,0,203186:0:0:0:0:
192,192,203097,128,0,203186:0:0:0:0:
448,192,203186,128,0,203274:0:0:0:0:
64,192,203274,128,0,203362:0:0:0:0:
192,192,203274,1,0,0:0:0:0:
320,192,203274,128,0,203450:0:0:0:0:
448,192,203362,128,0,203450:0:0:0:0:
64,192,203450,128,0,203539:0:0:0:0:
192,192,203450,128,0,203539:0:0:0:0:
320,192,203539,128,0,203627:0:0:0:0:
192,192,203627,128,0,203803:0:0:0:0:
448,192,203627,128,0,203715:0:0:0:0:
64,192,203627,1,0,0:0:0:0:
320,192,203715,128,0,203803:0:0:0:0:
448,192,203803,128,0,203892:0:0:0:0:
64,192,203803,128,0,203892:0:0:0:0:
320,192,203892,128,0,203936:0:0:0:0:
192,192,203892,128,0,203980:0:0:0:0:
448,192,203980,128,0,204024:0:0:0:0:
64,192,203980,128,0,204024:0:0:0:0:
320,192,204024,128,0,204068:0:0:0:0:
192,192,204068,128,0,204112:0:0:0:0:
64,192,204112,128,0,204156:0:0:0:0:
320,192,204156,128,0,204200:0:0:0:0:
448,192,204156,128,0,204200:0:0:0:0:
192,192,204200,128,0,204244:0:0:0:0:
64,192,204244,128,0,204289:0:0:0:0:
448,192,204289,128,0,204333:0:0:0:0:
192,192,204333,128,0,204421:0:0:0:0:
320,192,204333,1,0,0:0:0:0:
64,192,204421,128,0,204509:0:0:0:0:
320,192,204509,128,0,204597:0:0:0:0:
448,192,204509,1,0,0:0:0:0:
192,192,204597,128,0,204686:0:0:0:0:
448,192,204686,128,0,204862:0:0:0:0:
320,192,204686,1,0,0:0:0:0:
64,192,204686,1,0,0:0:0:0:
192,192,204774,1,0,0:0:0:0:
64,192,204862,1,0,0:0:0:0:
320,192,204862,128,0,204950:0:0:0:0:
192,192,204950,128,0,205039:0:0:0:0:
320,192,205039,1,0,0:0:0:0:
448,192,205039,1,0,0:0:0:0:
64,192,205039,128,0,205215:0:0:0:0:
192,192,205127,1,0,0:0:0:0:
448,192,205215,1,0,0:0:0:0:
320,192,205215,128,0,205303:0:0:0:0:
192,192,205303,128,0,205392:0:0:0:0:
64,192,205392,1,0,0:0:0:0:
320,192,205392,1,0,0:0:0:0:
448,192,205392,128,0,205568:0:0:0:0:
320,192,205568,1,0,0:0:0:0:
64,192,205568,128,0,205744:0:0:0:0:
320,192,205744,1,0,0:0:0:0:
448,192,205744,1,0,0:0:0:0:
192,192,205744,128,0,205921:0:0:0:0:
448,192,205921,1,0,0:0:0:0:
320,192,205921,128,0,206274:0:0:0:0:
192,192,206097,1,0,0:0:0:0:
64,192,206097,128,0,206274:0:0:0:0:
192,192,206274,1,0,0:0:0:0:
448,192,206274,128,0,206627:0:0:0:0:
64,192,206450,1,0,0:0:0:0:
192,192,206450,128,0,206627:0:0:0:0:
320,192,206627,1,0,0:0:0:0:
64,192,206686,1,0,0:0:0:0:
448,192,206744,1,0,0:0:0:0:
64,192,206803,1,0,0:0:0:0:
320,192,206803,128,0,206980:0:0:0:0:
192,192,206803,1,0,0:0:0:0:
192,192,206980,128,0,207156:0:0:0:0:
64,192,206980,1,0,0:0:0:0:
448,192,206980,1,0,0:0:0:0:
64,192,207156,128,0,207333:0:0:0:0:
448,192,207156,1,0,0:0:0:0:
320,192,207156,1,0,0:0:0:0:
192,192,207244,1,0,0:0:0:0:
448,192,207333,128,0,207509:0:0:0:0:
320,192,207333,1,0,0:0:0:0:
64,192,207421,1,0,0:0:0:0:
320,192,207509,1,0,0:0:0:0:
192,192,207509,128,0,207686:0:0:0:0:
64,192,207597,1,0,0:0:0:0:
448,192,207686,1,0,0:0:0:0:
320,192,207686,128,0,207862:0:0:0:0:
192,192,207774,1,0,0:0:0:0:
448,192,207862,1,0,0:0:0:0:
64,192,207862,128,0,208039:0:0:0:0:
320,192,207950,1,0,0:0:0:0:
448,192,208039,1,0,0:0:0:0:
192,192,208039,128,0,208127:0:0:0:0:
320,192,208127,128,0,208215:0:0:0:0:
192,192,208215,1,0,0:0:0:0:
64,192,208215,1,0,0:0:0:0:
448,192,208215,128,0,208392:0:0:0:0:
192,192,208392,128,0,208568:0:0:0:0:
320,192,208392,1,0,0:0:0:0:
448,192,208568,1,0,0:0:0:0:
320,192,208568,128,0,208744:0:0:0:0:
448,192,208744,1,0,0:0:0:0:
64,192,208744,128,0,208833:0:0:0:0:
192,192,208833,128,0,208921:0:0:0:0:
64,192,208921,1,0,0:0:0:0:
448,192,208921,128,0,209009:0:0:0:0:
320,192,209009,128,0,209274:0:0:0:0:
192,192,209097,1,0,0:0:0:0:
448,192,209274,1,0,0:0:0:0:
64,192,209274,1,0,0:0:0:0:
192,192,209274,128,0,209627:0:0:0:0:
320,192,209450,1,0,0:0:0:0:
448,192,209539,1,0,0:0:0:0:
64,192,209539,1,0,0:0:0:0:
320,192,209627,1,0,0:0:0:0:
448,192,209627,128,0,209715:0:0:0:0:
64,192,209715,128,0,209803:0:0:0:0:
320,192,209803,1,0,0:0:0:0:
192,192,209803,128,0,209892:0:0:0:0:
448,192,209892,128,0,209980:0:0:0:0:
192,192,209980,128,0,210068:0:0:0:0:
320,192,209980,128,0,210156:0:0:0:0:
64,192,209980,1,0,0:0:0:0:
448,192,210068,128,0,210156:0:0:0:0:
64,192,210156,128,0,210244:0:0:0:0:
192,192,210156,128,0,210244:0:0:0:0:
448,192,210244,128,0,210333:0:0:0:0:
192,192,210333,128,0,210421:0:0:0:0:
64,192,210333,128,0,210509:0:0:0:0:
320,192,210333,1,0,0:0:0:0:
448,192,210421,128,0,210509:0:0:0:0:
192,192,210509,128,0,210597:0:0:0:0:
320,192,210509,128,0,210597:0:0:0:0:
64,192,210597,128,0,210686:0:0:0:0:
320,192,210686,128,0,210774:0:0:0:0:
192,192,210686,128,0,210862:0:0:0:0:
448,192,210686,1,0,0:0:0:0:
64,192,210774,128,0,210862:0:0:0:0:
320,192,210862,128,0,210950:0:0:0:0:
448,192,210862,128,0,210950:0:0:0:0:
192,192,210950,128,0,211039:0:0:0:0:
320,192,211039,128,0,211215:0:0:0:0:
64,192,211039,128,0,211127:0:0:0:0:
448,192,211039,1,0,0:0:0:0:
192,192,211127,128,0,211215:0:0:0:0:
448,192,211215,128,0,211303:0:0:0:0:
64,192,211215,128,0,211303:0:0:0:0:
320,192,211303,128,0,211392:0:0:0:0:
448,192,211392,128,0,211568:0:0:0:0:
64,192,211392,1,0,0:0:0:0:
192,192,211392,128,0,211480:0:0:0:0:
320,192,211480,128,0,211568:0:0:0:0:
64,192,211568,128,0,211656:0:0:0:0:
192,192,211568,128,0,211656:0:0:0:0:
448,192,211656,128,0,211744:0:0:0:0:
192,192,211744,128,0,211833:0:0:0:0:
64,192,211744,128,0,211921:0:0:0:0:
320,192,211744,1,0,0:0:0:0:
448,192,211833,128,0,211921:0:0:0:0:
192,192,211921,128,0,212009:0:0:0:0:
320,192,211921,128,0,212009:0:0:0:0:
64,192,212009,128,0,212097:0:0:0:0:
320,192,212097,128,0,212186:0:0:0:0:
192,192,212097,128,0,212274:0:0:0:0:
448,192,212097,1,0,0:0:0:0:
64,192,212186,128,0,212274:0:0:0:0:
448,192,212274,128,0,212362:0:0:0:0:
320,192,212274,128,0,212362:0:0:0:0:
192,192,212362,128,0,212450:0:0:0:0:
64,192,212450,128,0,212539:0:0:0:0:
320,192,212450,128,0,212539:0:0:0:0:
448,192,212450,128,0,212539:0:0:0:0:
192,192,212539,128,0,212627:0:0:0:0:
64,192,212627,128,0,212715:0:0:0:0:
448,192,212627,128,0,212715:0:0:0:0:
320,192,212627,128,0,212715:0:0:0:0:
192,192,212715,128,0,212803:0:0:0:0:
448,192,212803,128,0,212891:0:0:0:0:
320,192,212803,128,0,212980:0:0:0:0:
64,192,212803,1,0,0:0:0:0:
192,192,212891,128,0,212980:0:0:0:0:
448,192,212980,128,0,213068:0:0:0:0:
64,192,212980,128,0,213068:0:0:0:0:
320,192,213068,128,0,213156:0:0:0:0:
64,192,213156,128,0,213244:0:0:0:0:
448,192,213156,128,0,213333:0:0:0:0:
192,192,213156,1,0,0:0:0:0:
320,192,213244,128,0,213333:0:0:0:0:
64,192,213333,128,0,213421:0:0:0:0:
192,192,213333,128,0,213421:0:0:0:0:
448,192,213421,128,0,213509:0:0:0:0:
192,192,213509,128,0,213597:0:0:0:0:
64,192,213509,128,0,213686:0:0:0:0:
320,192,213509,1,0,0:0:0:0:
448,192,213597,128,0,213686:0:0:0:0:
192,192,213686,128,0,213774:0:0:0:0:
320,192,213686,128,0,213774:0:0:0:0:
64,192,213774,128,0,213862:0:0:0:0:
320,192,213862,128,0,213950:0:0:0:0:
192,192,213862,128,0,214039:0:0:0:0:
448,192,213862,1,0,0:0:0:0:
64,192,213950,128,0,214039:0:0:0:0:
448,192,214039,128,0,214127:0:0:0:0:
320,192,214039,128,0,214127:0:0:0:0:
192,192,214127,128,0,214215:0:0:0:0:
448,192,214215,128,0,214303:0:0:0:0:
320,192,214215,128,0,214391:0:0:0:0:
64,192,214215,1,0,0:0:0:0:
192,192,214303,128,0,214391:0:0:0:0:
64,192,214391,128,0,214480:0:0:0:0:
448,192,214391,128,0,214480:0:0:0:0:
320,192,214480,128,0,214568:0:0:0:0:
448,192,214568,128,0,214656:0:0:0:0:
192,192,214568,1,0,0:0:0:0:
64,192,214568,128,0,214744:0:0:0:0:
320,192,214656,128,0,214744:0:0:0:0:
448,192,214744,128,0,214833:0:0:0:0:
192,192,214744,128,0,214833:0:0:0:0:
64,192,214833,128,0,214921:0:0:0:0:
192,192,214921,128,0,215009:0:0:0:0:
320,192,214921,128,0,215097:0:0:0:0:
448,192,214921,1,0,0:0:0:0:
64,192,215009,128,0,215097:0:0:0:0:
448,192,215097,128,0,215186:0:0:0:0:
192,192,215097,128,0,215186:0:0:0:0:
320,192,215186,128,0,215274:0:0:0:0:
64,192,215274,128,0,215318:0:0:0:0:
448,192,215274,128,0,215318:0:0:0:0:
192,192,215318,128,0,215362:0:0:0:0:
320,192,215362,128,0,215406:0:0:0:0:
448,192,215406,128,0,215450:0:0:0:0:
192,192,215450,128,0,215494:0:0:0:0:
64,192,215450,128,0,215494:0:0:0:0:
320,192,215494,128,0,215539:0:0:0:0:
448,192,215539,128,0,215583:0:0:0:0:
64,192,215583,128,0,215627:0:0:0:0:
192,192,215627,1,0,0:0:0:0:
320,192,215627,128,0,215715:0:0:0:0:
448,192,215715,128,0,215803:0:0:0:0:
192,192,215803,128,0,215891:0:0:0:0:
64,192,215803,1,0,0:0:0:0:
320,192,215891,128,0,215980:0:0:0:0:
64,192,215980,128,0,216156:0:0:0:0:
192,192,215980,1,0,0:0:0:0:
448,192,215980,1,0,0:0:0:0:
320,192,216068,1,0,0:0:0:0:
448,192,216156,1,0,0:0:0:0:
192,192,216156,128,0,216244:0:0:0:0:
320,192,216244,128,0,216333:0:0:0:0:
192,192,216333,1,0,0:0:0:0:
64,192,216333,1,0,0:0:0:0:
448,192,216333,128,0,216509:0:0:0:0:
320,192,216421,1,0,0:0:0:0:
64,192,216509,1,0,0:0:0:0:
192,192,216509,128,0,216597:0:0:0:0:
320,192,216597,128,0,216686:0:0:0:0:
192,192,216686,1,0,0:0:0:0:
448,192,216686,1,0,0:0:0:0:
64,192,216686,128,0,216862:0:0:0:0:
192,192,216862,1,0,0:0:0:0:
448,192,216862,128,0,217039:0:0:0:0:
192,192,217039,1,0,0:0:0:0:
64,192,217039,1,0,0:0:0:0:
320,192,217039,128,0,217215:0:0:0:0:
64,192,217215,1,0,0:0:0:0:
192,192,217215,128,0,217568:0:0:0:0:
320,192,217391,1,0,0:0:0:0:
448,192,217391,128,0,217568:0:0:0:0:
320,192,217568,1,0,0:0:0:0:
64,192,217568,128,0,217921:0:0:0:0:
448,192,217744,1,0,0:0:0:0:
320,192,217744,128,0,217921:0:0:0:0:
192,192,217921,1,0,0:0:0:0:
448,192,217980,1,0,0:0:0:0:
64,192,218039,1,0,0:0:0:0:
448,192,218097,1,0,0:0:0:0:
192,192,218097,128,0,218274:0:0:0:0:
320,192,218097,1,0,0:0:0:0:
320,192,218274,128,0,218450:0:0:0:0:
448,192,218274,1,0,0:0:0:0:
64,192,218274,1,0,0:0:0:0:
448,192,218450,128,0,218627:0:0:0:0:
64,192,218450,1,0,0:0:0:0:
192,192,218450,1,0,0:0:0:0:
320,192,218539,1,0,0:0:0:0:
64,192,218627,128,0,218803:0:0:0:0:
192,192,218627,1,0,0:0:0:0:
448,192,218715,1,0,0:0:0:0:
192,192,218803,1,0,0:0:0:0:
320,192,218803,128,0,218980:0:0:0:0:
448,192,218891,1,0,0:0:0:0:
64,192,218980,1,0,0:0:0:0:
192,192,218980,128,0,219156:0:0:0:0:
320,192,219068,1,0,0:0:0:0:
64,192,219156,1,0,0:0:0:0:
448,192,219156,128,0,219333:0:0:0:0:
192,192,219244,1,0,0:0:0:0:
64,192,219333,1,0,0:0:0:0:
320,192,219333,128,0,219421:0:0:0:0:
192,192,219421,128,0,219509:0:0:0:0:
320,192,219509,1,0,0:0:0:0:
448,192,219509,1,0,0:0:0:0:
64,192,219509,128,0,219686:0:0:0:0:
192,192,219686,1,0,0:0:0:0:
320,192,219686,128,0,219862:0:0:0:0:
64,192,219862,1,0,0:0:0:0:
192,192,219862,128,0,220039:0:0:0:0:
64,192,220039,1,0,0:0:0:0:
448,192,220039,128,0,220127:0:0:0:0:
320,192,220127,128,0,220215:0:0:0:0:
448,192,220215,1,0,0:0:0:0:
64,192,220215,128,0,220303:0:0:0:0:
192,192,220303,128,0,220568:0:0:0:0:
320,192,220391,1,0,0:0:0:0:
64,192,220568,1,0,0:0:0:0:
448,192,220568,1,0,0:0:0:0:
320,192,220568,128,0,220921:0:0:0:0:
192,192,220744,1,0,0:0:0:0:
64,192,220833,1,0,0:0:0:0:
448,192,220833,1,0,0:0:0:0:
192,192,220921,1,0,0:0:0:0:
64,192,220921,128,0,221009:0:0:0:0:
448,192,221009,128,0,221097:0:0:0:0:
64,192,221097,1,0,0:0:0:0:
192,192,221097,128,0,221186:0:0:0:0:
320,192,221186,128,0,221274:0:0:0:0:
448,192,221274,128,0,221362:0:0:0:0:
192,192,221274,128,0,221450:0:0:0:0:
64,192,221274,1,0,0:0:0:0:
320,192,221362,128,0,221450:0:0:0:0:
64,192,221450,128,0,221539:0:0:0:0:
448,192,221450,128,0,221539:0:0:0:0:
192,192,221539,128,0,221627:0:0:0:0:
448,192,221627,128,0,221715:0:0:0:0:
64,192,221627,128,0,221803:0:0:0:0:
320,192,221627,1,0,0:0:0:0:
192,192,221715,128,0,221803:0:0:0:0:
448,192,221803,128,0,221891:0:0:0:0:
320,192,221803,128,0,221891:0:0:0:0:
64,192,221891,128,0,221980:0:0:0:0:
320,192,221980,128,0,222068:0:0:0:0:
448,192,221980,128,0,222156:0:0:0:0:
192,192,221980,1,0,0:0:0:0:
64,192,222068,128,0,222156:0:0:0:0:
320,192,222156,128,0,222244:0:0:0:0:
192,192,222156,128,0,222244:0:0:0:0:
448,192,222244,128,0,222333:0:0:0:0:
192,192,222333,128,0,222421:0:0:0:0:
320,192,222333,128,0,222509:0:0:0:0:
64,192,222333,1,0,0:0:0:0:
448,192,222421,128,0,222509:0:0:0:0:
64,192,222509,128,0,222597:0:0:0:0:
192,192,222509,128,0,222597:0:0:0:0:
320,192,222597,128,0,222686:0:0:0:0:
64,192,222686,128,0,222774:0:0:0:0:
192,192,222686,128,0,222862:0:0:0:0:
448,192,222686,128,0,222774:0:0:0:0:
320,192,222774,128,0,222862:0:0:0:0:
64,192,222862,128,0,222950:0:0:0:0:
448,192,222862,128,0,222950:0:0:0:0:
192,192,222950,128,0,223039:0:0:0:0:
448,192,223039,128,0,223127:0:0:0:0:
64,192,223039,128,0,223215:0:0:0:0:
320,192,223039,1,0,0:0:0:0:
192,192,223127,128,0,223215:0:0:0:0:
448,192,223215,128,0,223303:0:0:0:0:
320,192,223215,128,0,223303:0:0:0:0:
64,192,223303,128,0,223391:0:0:0:0:
448,192,223391,128,0,223568:0:0:0:0:
320,192,223391,128,0,223480:0:0:0:0:
192,192,223391,1,0,0:0:0:0:
64,192,223480,128,0,223568:0:0:0:0:
192,192,223568,128,0,223656:0:0:0:0:
320,192,223568,128,0,223656:0:0:0:0:
448,192,223656,128,0,223744:0:0:0:0:
192,192,223744,128,0,223833:0:0:0:0:
320,192,223744,128,0,223833:0:0:0:0:
64,192,223744,1,0,0:0:0:0:
448,192,223833,128,0,223921:0:0:0:0:
64,192,223921,128,0,224009:0:0:0:0:
192,192,223921,128,0,224009:0:0:0:0:
320,192,223921,1,0,0:0:0:0:
448,192,224009,128,0,224097:0:0:0:0:
64,192,224097,128,0,224186:0:0:0:0:
320,192,224097,128,0,224274:0:0:0:0:
192,192,224097,1,0,0:0:0:0:
448,192,224186,128,0,224274:0:0:0:0:
64,192,224274,128,0,224362:0:0:0:0:
192,192,224274,128,0,224362:0:0:0:0:
320,192,224362,128,0,224450:0:0:0:0:
448,192,224450,128,0,224627:0:0:0:0:
192,192,224450,128,0,224539:0:0:0:0:
64,192,224450,1,0,0:0:0:0:
320,192,224539,128,0,224627:0:0:0:0:
64,192,224627,128,0,224715:0:0:0:0:
192,192,224627,1,0,0:0:0:0:
448,192,224715,128,0,224803:0:0:0:0:
192,192,224803,128,0,224891:0:0:0:0:
64,192,224803,128,0,224980:0:0:0:0:
320,192,224803,1,0,0:0:0:0:
448,192,224891,128,0,224980:0:0:0:0:
192,192,224980,128,0,225068:0:0:0:0:
320,192,224980,128,0,225068:0:0:0:0:
64,192,225068,128,0,225156:0:0:0:0:
320,192,225156,128,0,225244:0:0:0:0:
448,192,225156,128,0,225333:0:0:0:0:
192,192,225156,1,0,0:0:0:0:
64,192,225244,128,0,225333:0:0:0:0:
320,192,225333,128,0,225421:0:0:0:0:
192,192,225333,128,0,225421:0:0:0:0:
448,192,225421,128,0,225509:0:0:0:0:
192,192,225509,128,0,225597:0:0:0:0:
64,192,225509,128,0,225686:0:0:0:0:
320,192,225509,1,0,0:0:0:0:
448,192,225597,128,0,225686:0:0:0:0:
192,192,225686,128,0,225774:0:0:0:0:
320,192,225686,128,0,225774:0:0:0:0:
64,192,225774,128,0,225862:0:0:0:0:
320,192,225862,128,0,225950:0:0:0:0:
192,192,225862,128,0,226039:0:0:0:0:
448,192,225862,1,0,0:0:0:0:
64,192,225950,128,0,226039:0:0:0:0:
320,192,226039,128,0,226127:0:0:0:0:
448,192,226039,128,0,226127:0:0:0:0:
192,192,226127,128,0,226215:0:0:0:0:
320,192,226215,128,0,226303:0:0:0:0:
448,192,226215,128,0,226391:0:0:0:0:
64,192,226215,1,0,0:0:0:0:
192,192,226303,128,0,226391:0:0:0:0:
64,192,226391,128,0,226480:0:0:0:0:
320,192,226391,128,0,226480:0:0:0:0:
192,192,226480,128,0,226568:0:0:0:0:
448,192,226568,128,0,226612:0:0:0:0:
64,192,226568,128,0,226612:0:0:0:0:
320,192,226612,128,0,226656:0:0:0:0:
192,192,226656,128,0,226700:0:0:0:0:
64,192,226700,128,0,226744:0:0:0:0:
448,192,226744,128,0,226789:0:0:0:0:
320,192,226744,128,0,226789:0:0:0:0:
192,192,226789,128,0,226833:0:0:0:0:
64,192,226833,128,0,226877:0:0:0:0:
448,192,226877,128,0,226921:0:0:0:0:
192,192,226921,1,0,0:0:0:0:
320,192,226921,128,0,227627:0:0:0:0:
448,192,227186,1,0,0:0:0:0:
64,192,227186,1,0,0:0:0:0:
192,192,227627,128,0,228333:0:0:0:0:
320,192,227803,1,0,0:0:0:0:
64,192,227803,128,0,227891:0:0:0:0:
448,192,227891,128,0,227980:0:0:0:0:
320,192,227980,128,0,228068:0:0:0:0:
64,192,228068,128,0,228156:0:0:0:0:
448,192,228156,128,0,228244:0:0:0:0:
320,192,228244,128,0,228333:0:0:0:0:
64,192,228333,128,0,228421:0:0:0:0:
448,192,228333,128,0,229039:0:0:0:0:
192,192,228421,128,0,228509:0:0:0:0:
320,192,228509,128,0,228597:0:0:0:0:
64,192,228597,128,0,228686:0:0:0:0:
320,192,228686,128,0,228774:0:0:0:0:
192,192,228774,128,0,228862:0:0:0:0:
64,192,228862,1,0,0:0:0:0:
320,192,228862,128,0,228950:0:0:0:0:
192,192,228950,128,0,229039:0:0:0:0:
320,192,229039,128,0,229127:0:0:0:0:
64,192,229039,128,0,229744:0:0:0:0:
448,192,229127,128,0,229215:0:0:0:0:
192,192,229215,1,0,0:0:0:0:
320,192,229215,128,0,229303:0:0:0:0:
448,192,229303,128,0,229391:0:0:0:0:
192,192,229391,1,0,0:0:0:0:
320,192,229436,1,0,0:0:0:0:
448,192,229480,1,0,0:0:0:0:
192,192,229524,1,0,0:0:0:0:
320,192,229568,128,0,229656:0:0:0:0:
448,192,229656,128,0,229744:0:0:0:0:
192,192,229744,128,0,229833:0:0:0:0:
320,192,229744,1,0,0:0:0:0:
64,192,229833,128,0,229921:0:0:0:0:
448,192,229921,128,0,230009:0:0:0:0:
320,192,230009,128,0,230097:0:0:0:0:
64,192,230097,128,0,230450:0:0:0:0:
192,192,230097,128,0,230450:0:0:0:0:
448,192,230450,128,0,230539:0:0:0:0:
320,192,230539,128,0,230627:0:0:0:0:
192,192,230627,128,0,230715:0:0:0:0:
64,192,230715,128,0,230803:0:0:0:0:
320,192,230803,128,0,230862:0:0:0:0:
448,192,230803,128,0,230862:0:0:0:0:
192,192,230921,128,0,230980:0:0:0:0:
320,192,230921,128,0,230980:0:0:0:0:
64,192,231039,128,0,231097:0:0:0:0:
192,192,231039,128,0,231097:0:0:0:0:
64,192,231156,128,0,231244:0:0:0:0:
448,192,231156,1,0,0:0:0:0:
192,192,231244,128,0,231333:0:0:0:0:
320,192,231333,128,0,231421:0:0:0:0:
448,192,231421,128,0,231509:0:0:0:0:
192,192,231509,128,0,231568:0:0:0:0:
64,192,231509,128,0,231568:0:0:0:0:
192,192,231627,128,0,231686:0:0:0:0:
320,192,231627,128,0,231686:0:0:0:0:
320,192,231744,128,0,231803:0:0:0:0:
448,192,231744,128,0,231803:0:0:0:0:
64,192,231862,1,0,0:0:0:0:
448,192,231862,128,0,232039:0:0:0:0:
320,192,231950,128,0,232127:0:0:0:0:
192,192,232039,128,0,232215:0:0:0:0:
64,192,232127,128,0,232215:0:0:0:0:
448,192,232215,128,0,232303:0:0:0:0:
320,192,232259,1,0,0:0:0:0:
64,192,232303,128,0,232391:0:0:0:0:
192,192,232347,1,0,0:0:0:0:
320,192,232391,128,0,232480:0:0:0:0:
448,192,232391,1,0,0:0:0:0:
192,192,232480,128,0,232568:0:0:0:0:
448,192,232568,128,0,232656:0:0:0:0:
64,192,232568,1,0,0:0:0:0:
320,192,232656,128,0,232744:0:0:0:0:
192,192,232744,128,0,232833:0:0:0:0:
320,192,232833,128,0,232921:0:0:0:0:
448,192,232921,128,0,233009:0:0:0:0:
192,192,232921,1,0,0:0:0:0:
64,192,232921,1,0,0:0:0:0:
320,192,233009,128,0,233097:0:0:0:0:
64,192,233097,128,0,233186:0:0:0:0:
448,192,233186,128,0,233274:0:0:0:0:
320,192,233274,128,0,233362:0:0:0:0:
192,192,233274,1,0,0:0:0:0:
64,192,233362,128,0,233450:0:0:0:0:
448,192,233450,128,0,233539:0:0:0:0:
320,192,233539,128,0,233627:0:0:0:0:
192,192,233627,128,0,233715:0:0:0:0:
448,192,233627,1,0,0:0:0:0:
64,192,233627,1,0,0:0:0:0:
320,192,233715,128,0,233803:0:0:0:0:
64,192,233803,128,0,233891:0:0:0:0:
448,192,233891,128,0,233980:0:0:0:0:
192,192,233980,128,0,234068:0:0:0:0:
320,192,233980,1,0,0:0:0:0:
64,192,234068,128,0,234156:0:0:0:0:
448,192,234156,128,0,234244:0:0:0:0:
192,192,234244,128,0,234333:0:0:0:0:
64,192,234333,128,0,234421:0:0:0:0:
320,192,234333,1,0,0:0:0:0:
448,192,234333,1,0,0:0:0:0:
192,192,234421,128,0,234509:0:0:0:0:
320,192,234509,128,0,234597:0:0:0:0:
64,192,234597,128,0,234686:0:0:0:0:
448,192,234686,128,0,234774:0:0:0:0:
192,192,234686,1,0,0:0:0:0:
320,192,234774,128,0,234862:0:0:0:0:
64,192,234862,128,0,234950:0:0:0:0:
192,192,234950,128,0,235039:0:0:0:0:
320,192,235039,128,0,235127:0:0:0:0:
64,192,235039,1,0,0:0:0:0:
448,192,235039,1,0,0:0:0:0:
192,192,235127,128,0,235215:0:0:0:0:
448,192,235215,128,0,235303:0:0:0:0:
64,192,235303,128,0,235391:0:0:0:0:
320,192,235391,128,0,235480:0:0:0:0:
192,192,235391,1,0,0:0:0:0:
448,192,235480,128,0,235568:0:0:0:0:
64,192,235568,128,0,235656:0:0:0:0:
320,192,235656,128,0,235744:0:0:0:0:
192,192,235744,128,0,235833:0:0:0:0:
64,192,235744,1,0,0:0:0:0:
448,192,235744,1,0,0:0:0:0:
320,192,235833,128,0,235921:0:0:0:0:
64,192,235921,128,0,236009:0:0:0:0:
320,192,236009,128,0,236097:0:0:0:0:
64,192,236097,1,0,0:0:0:0:
448,192,236097,128,0,236186:0:0:0:0:
192,192,236186,128,0,236274:0:0:0:0:
320,192,236274,128,0,236362:0:0:0:0:
448,192,236362,128,0,236450:0:0:0:0:
64,192,236450,128,0,236539:0:0:0:0:
320,192,236450,1,0,0:0:0:0:
192,192,236450,1,0,0:0:0:0:
448,192,236539,128,0,236627:0:0:0:0:
192,192,236627,128,0,236715:0:0:0:0:
320,192,236715,128,0,236803:0:0:0:0:
448,192,236803,128,0,236891:0:0:0:0:
64,192,236803,1,0,0:0:0:0:
192,192,236891,128,0,236980:0:0:0:0:
320,192,236980,128,0,237068:0:0:0:0:
64,192,237068,128,0,237156:0:0:0:0:
192,192,237156,128,0,237244:0:0:0:0:
320,192,237156,1,0,0:0:0:0:
448,192,237156,1,0,0:0:0:0:
64,192,237244,128,0,237333:0:0:0:0:
448,192,237333,128,0,237421:0:0:0:0:
320,192,237421,128,0,237509:0:0:0:0:
448,192,237509,128,0,238215:0:0:0:0:
64,192,237509,1,0,0:0:0:0:
192,192,237509,1,0,0:0:0:0:
320,192,237774,1,0,0:0:0:0:
192,192,237774,1,0,0:0:0:0:
320,192,237862,1,0,0:0:0:0:
192,192,237862,1,0,0:0:0:0:
64,192,238039,1,0,0:0:0:0:
192,192,238039,1,0,0:0:0:0:
64,192,238215,128,0,238568:0:0:0:0:
320,192,238215,1,0,0:0:0:0:
192,192,238215,1,0,0:0:0:0:
448,192,238303,1,0,0:0:0:0:
320,192,238391,1,0,0:0:0:0:
448,192,238480,1,0,0:0:0:0:
320,192,238568,1,0,0:0:0:0:
192,192,238568,128,0,238921:0:0:0:0:
448,192,238656,1,0,0:0:0:0:
320,192,238744,1,0,0:0:0:0:
64,192,238833,1,0,0:0:0:0:
320,192,238921,128,0,239274:0:0:0:0:
64,192,238921,1,0,0:0:0:0:
448,192,238921,1,0,0:0:0:0:
192,192,239009,1,0,0:0:0:0:
448,192,239097,1,0,0:0:0:0:
192,192,239186,1,0,0:0:0:0:
64,192,239274,1,0,0:0:0:0:
448,192,239274,128,0,239627:0:0:0:0:
320,192,239362,1,0,0:0:0:0:
192,192,239450,1,0,0:0:0:0:
320,192,239539,1,0,0:0:0:0:
192,192,239627,128,0,239803:0:0:0:0:
64,192,239627,128,0,239980:0:0:0:0:
320,192,239627,1,0,0:0:0:0:
448,192,239715,1,0,0:0:0:0:
320,192,239803,1,0,0:0:0:0:
448,192,239891,1,0,0:0:0:0:
448,192,239980,128,0,240156:0:0:0:0:
192,192,239980,1,0,0:0:0:0:
320,192,239980,128,0,240333:0:0:0:0:
64,192,240068,1,0,0:0:0:0:
192,192,240156,1,0,0:0:0:0:
64,192,240244,1,0,0:0:0:0:
64,192,240333,1,0,0:0:0:0:
192,192,240333,128,0,240686:0:0:0:0:
448,192,240333,128,0,240509:0:0:0:0:
320,192,240421,1,0,0:0:0:0:
64,192,240509,1,0,0:0:0:0:
320,192,240597,1,0,0:0:0:0:
320,192,240686,1,0,0:0:0:0:
64,192,240686,128,0,240862:0:0:0:0:
448,192,240686,128,0,241039:0:0:0:0:
192,192,240774,1,0,0:0:0:0:
320,192,240862,1,0,0:0:0:0:
192,192,240950,1,0,0:0:0:0:
64,192,241039,128,0,241215:0:0:0:0:
192,192,241039,128,0,241215:0:0:0:0:
320,192,241039,1,0,0:0:0:0:
320,192,241215,1,0,0:0:0:0:
448,192,241215,1,0,0:0:0:0:
192,192,241303,1,0,0:0:0:0:
64,192,241303,1,0,0:0:0:0:
448,192,241391,128,0,241568:0:0:0:0:
320,192,241391,128,0,241568:0:0:0:0:
192,192,241391,1,0,0:0:0:0:
192,192,241568,1,0,0:0:0:0:
64,192,241568,1,0,0:0:0:0:
320,192,241656,1,0,0:0:0:0:
448,192,241656,1,0,0:0:0:0:
64,192,241744,128,0,241921:0:0:0:0:
192,192,241744,128,0,241921:0:0:0:0:
320,192,241744,1,0,0:0:0:0:
320,192,241921,1,0,0:0:0:0:
448,192,241921,1,0,0:0:0:0:
64,192,242009,1,0,0:0:0:0:
192,192,242009,1,0,0:0:0:0:
320,192,242097,128,0,242274:0:0:0:0:
448,192,242097,128,0,242274:0:0:0:0:
64,192,242097,1,0,0:0:0:0:
192,192,242274,1,0,0:0:0:0:
64,192,242274,1,0,0:0:0:0:
448,192,242362,1,0,0:0:0:0:
320,192,242362,1,0,0:0:0:0:
448,192,242450,128,0,242627:0:0:0:0:
64,192,242450,128,0,242627:0:0:0:0:
192,192,242450,1,0,0:0:0:0:
320,192,242627,1,0,0:0:0:0:
192,192,242627,1,0,0:0:0:0:
64,192,242715,1,0,0:0:0:0:
448,192,242715,1,0,0:0:0:0:
192,192,242803,128,0,242980:0:0:0:0:
64,192,242803,128,0,242980:0:0:0:0:
320,192,242803,1,0,0:0:0:0:
320,192,242980,1,0,0:0:0:0:
448,192,242980,1,0,0:0:0:0:
192,192,243068,1,0,0:0:0:0:
64,192,243068,1,0,0:0:0:0:
448,192,243156,128,0,243333:0:0:0:0:
320,192,243156,128,0,243862:0:0:0:0:
192,192,243156,1,0,0:0:0:0:
192,192,243333,1,0,0:0:0:0:
64,192,243333,1,0,0:0:0:0:
64,192,243509,1,0,0:0:0:0:
192,192,243553,1,0,0:0:0:0:
448,192,243597,1,0,0:0:0:0:
64,192,243641,1,0,0:0:0:0:
192,192,243686,1,0,0:0:0:0:
448,192,243730,1,0,0:0:0:0:
64,192,243774,1,0,0:0:0:0:
192,192,243818,1,0,0:0:0:0:
448,192,243862,128,0,245274:0:0:0:0:
192,192,244568,128,0,245274:0:0:0:0:
64,192,245274,128,0,245362:0:0:0:0:
320,192,245274,1,0,0:0:0:0:
320,192,245362,128,0,245450:0:0:0:0:
192,192,245362,1,0,0:0:0:0:
192,192,245450,128,0,245539:0:0:0:0:
448,192,245450,1,0,0:0:0:0:
448,192,245539,128,0,245627:0:0:0:0:
64,192,245539,1,0,0:0:0:0:
64,192,245627,128,0,245715:0:0:0:0:
320,192,245627,1,0,0:0:0:0:
320,192,245715,128,0,245803:0:0:0:0:
192,192,245715,1,0,0:0:0:0:
192,192,245803,128,0,245891:0:0:0:0:
448,192,245803,1,0,0:0:0:0:
448,192,245891,128,0,245980:0:0:0:0:
64,192,245891,1,0,0:0:0:0:
192,192,245980,1,0,0:0:0:0:
320,192,245980,128,0,246039:0:0:0:0:
64,192,246039,128,0,246097:0:0:0:0:
448,192,246097,1,0,0:0:0:0:
192,192,246097,128,0,246156:0:0:0:0:
320,192,246156,128,0,246215:0:0:0:0:
64,192,246215,1,0,0:0:0:0:
448,192,246215,128,0,246274:0:0:0:0:
192,192,246274,128,0,246333:0:0:0:0:
320,192,246333,1,0,0:0:0:0:
64,192,246333,128,0,246391:0:0:0:0:
448,192,246391,128,0,246450:0:0:0:0:
192,192,246450,1,0,0:0:0:0:
320,192,246450,128,0,246509:0:0:0:0:
64,192,246509,128,0,246568:0:0:0:0:
320,192,246568,1,0,0:0:0:0:
192,192,246568,128,0,246627:0:0:0:0:
448,192,246627,128,0,246686:0:0:0:0:
192,192,246686,128,0,246774:0:0:0:0:
64,192,246686,128,0,247039:0:0:0:0:
320,192,246686,1,0,0:0:0:0:
448,192,246774,128,0,246862:0:0:0:0:
320,192,246862,128,0,246950:0:0:0:0:
192,192,246862,1,0,0:0:0:0:
448,192,246950,128,0,247039:0:0:0:0:
320,192,247039,128,0,247127:0:0:0:0:
192,192,247039,128,0,247391:0:0:0:0:
64,192,247127,128,0,247215:0:0:0:0:
448,192,247215,128,0,247303:0:0:0:0:
320,192,247215,1,0,0:0:0:0:
64,192,247303,128,0,247391:0:0:0:0:
320,192,247391,128,0,247480:0:0:0:0:
448,192,247391,128,0,247744:0:0:0:0:
192,192,247480,128,0,247568:0:0:0:0:
64,192,247568,128,0,247656:0:0:0:0:
320,192,247568,1,0,0:0:0:0:
192,192,247656,128,0,247744:0:0:0:0:
64,192,247744,128,0,247833:0:0:0:0:
320,192,247744,128,0,248097:0:0:0:0:
448,192,247833,128,0,247921:0:0:0:0:
192,192,247921,128,0,248009:0:0:0:0:
64,192,247921,1,0,0:0:0:0:
448,192,248009,128,0,248097:0:0:0:0:
192,192,248097,128,0,248274:0:0:0:0:
64,192,248097,128,0,248450:0:0:0:0:
320,192,248274,128,0,248362:0:0:0:0:
448,192,248274,1,0,0:0:0:0:
192,192,248450,128,0,248627:0:0:0:0:
448,192,248450,1,0,0:0:0:0:
320,192,248450,128,0,248803:0:0:0:0:
64,192,248627,128,0,248715:0:0:0:0:
448,192,248627,1,0,0:0:0:0:
448,192,248803,128,0,248980:0:0:0:0:
64,192,248803,1,0,0:0:0:0:
192,192,248803,128,0,249156:0:0:0:0:
320,192,248980,128,0,249068:0:0:0:0:
64,192,248980,1,0,0:0:0:0:
320,192,249156,128,0,249244:0:0:0:0:
64,192,249156,128,0,249333:0:0:0:0:
448,192,249156,128,0,249509:0:0:0:0:
320,192,249333,128,0,249421:0:0:0:0:
192,192,249333,128,0,249421:0:0:0:0:
320,192,249509,1,0,0:0:0:0:
192,192,249509,128,0,249597:0:0:0:0:
64,192,249509,128,0,249862:0:0:0:0:
320,192,249597,128,0,249686:0:0:0:0:
448,192,249686,128,0,249774:0:0:0:0:
192,192,249686,1,0,0:0:0:0:
320,192,249774,128,0,249862:0:0:0:0:
448,192,249862,128,0,249950:0:0:0:0:
192,192,249862,128,0,250215:0:0:0:0:
64,192,249950,128,0,250039:0:0:0:0:
320,192,250039,128,0,250127:0:0:0:0:
448,192,250039,1,0,0:0:0:0:
64,192,250127,128,0,250215:0:0:0:0:
448,192,250215,128,0,250303:0:0:0:0:
320,192,250215,128,0,250568:0:0:0:0:
192,192,250303,128,0,250391:0:0:0:0:
448,192,250391,128,0,250480:0:0:0:0:
64,192,250391,1,0,0:0:0:0:
192,192,250480,128,0,250568:0:0:0:0:
64,192,250568,128,0,250656:0:0:0:0:
448,192,250568,128,0,250921:0:0:0:0:
320,192,250656,128,0,250744:0:0:0:0:
192,192,250744,128,0,250833:0:0:0:0:
64,192,250744,1,0,0:0:0:0:
320,192,250833,128,0,250921:0:0:0:0:
64,192,250921,128,0,251009:0:0:0:0:
192,192,250921,128,0,251274:0:0:0:0:
448,192,251009,128,0,251097:0:0:0:0:
320,192,251097,128,0,251186:0:0:0:0:
64,192,251097,1,0,0:0:0:0:
448,192,251186,128,0,251274:0:0:0:0:
64,192,251274,128,0,251362:0:0:0:0:
320,192,251274,128,0,251627:0:0:0:0:
192,192,251362,128,0,251450:0:0:0:0:
448,192,251450,128,0,251539:0:0:0:0:
64,192,251450,1,0,0:0:0:0:
192,192,251539,128,0,251627:0:0:0:0:
448,192,251627,128,0,251715:0:0:0:0:
64,192,251627,128,0,251980:0:0:0:0:
320,192,251715,128,0,251803:0:0:0:0:
192,192,251803,128,0,251891:0:0:0:0:
448,192,251803,1,0,0:0:0:0:
320,192,251891,128,0,251980:0:0:0:0:
192,192,251980,128,0,252068:0:0:0:0:
448,192,251980,128,0,252244:0:0:0:0:
64,192,252068,128,0,252156:0:0:0:0:
320,192,252156,128,0,252244:0:0:0:0:
192,192,252156,1,0,0:0:0:0:
64,192,252244,128,0,252333:0:0:0:0:
448,192,252333,128,0,252421:0:0:0:0:
320,192,252333,128,0,252421:0:0:0:0:
192,192,252333,128,0,252509:0:0:0:0:
64,192,252421,128,0,252509:0:0:0:0:
448,192,252509,128,0,252597:0:0:0:0:
320,192,252509,128,0,252597:0:0:0:0:
192,192,252597,128,0,252686:0:0:0:0:
448,192,252686,128,0,252774:0:0:0:0:
320,192,252686,128,0,252862:0:0:0:0:
64,192,252686,1,0,0:0:0:0:
192,192,252774,128,0,252862:0:0:0:0:
448,192,252862,128,0,252950:0:0:0:0:
64,192,252862,128,0,252950:0:0:0:0:
320,192,252950,128,0,253039:0:0:0:0:
448,192,253039,128,0,253215:0:0:0:0:
64,192,253039,128,0,253127:0:0:0:0:
192,192,253039,1,0,0:0:0:0:
320,192,253127,128,0,253215:0:0:0:0:
64,192,253215,128,0,253303:0:0:0:0:
192,192,253215,128,0,253303:0:0:0:0:
448,192,253303,128,0,253391:0:0:0:0:
320,192,253391,1,0,0:0:0:0:
192,192,253391,128,0,253480:0:0:0:0:
64,192,253391,128,0,253568:0:0:0:0:
448,192,253480,128,0,253568:0:0:0:0:
192,192,253568,128,0,253656:0:0:0:0:
320,192,253568,128,0,253656:0:0:0:0:
64,192,253656,128,0,253744:0:0:0:0:
320,192,253744,128,0,253833:0:0:0:0:
448,192,253744,128,0,253921:0:0:0:0:
192,192,253744,1,0,0:0:0:0:
64,192,253833,128,0,253921:0:0:0:0:
320,192,253921,128,0,254009:0:0:0:0:
192,192,253921,128,0,254009:0:0:0:0:
448,192,254009,128,0,254097:0:0:0:0:
192,192,254097,128,0,254186:0:0:0:0:
320,192,254097,128,0,254274:0:0:0:0:
64,192,254097,1,0,0:0:0:0:
448,192,254186,128,0,254274:0:0:0:0:
192,192,254274,128,0,254362:0:0:0:0:
64,192,254274,128,0,254362:0:0:0:0:
320,192,254362,128,0,254450:0:0:0:0:
64,192,254450,128,0,254539:0:0:0:0:
448,192,254450,1,0,0:0:0:0:
192,192,254450,128,0,254627:0:0:0:0:
320,192,254539,128,0,254627:0:0:0:0:
64,192,254627,128,0,254715:0:0:0:0:
448,192,254627,128,0,254715:0:0:0:0:
192,192,254715,128,0,254803:0:0:0:0:
448,192,254803,128,0,254891:0:0:0:0:
64,192,254803,128,0,254980:0:0:0:0:
320,192,254803,1,0,0:0:0:0:
192,192,254891,128,0,254980:0:0:0:0:
448,192,254980,128,0,255068:0:0:0:0:
320,192,254980,128,0,255068:0:0:0:0:
64,192,255068,128,0,255156:0:0:0:0:
320,192,255156,128,0,255244:0:0:0:0:
448,192,255156,128,0,255333:0:0:0:0:
192,192,255156,1,0,0:0:0:0:
64,192,255244,128,0,255333:0:0:0:0:
320,192,255333,128,0,255421:0:0:0:0:
192,192,255333,128,0,255421:0:0:0:0:
448,192,255421,128,0,255509:0:0:0:0:
192,192,255509,128,0,255597:0:0:0:0:
64,192,255509,128,0,255686:0:0:0:0:
320,192,255509,1,0,0:0:0:0:
448,192,255597,128,0,255686:0:0:0:0:
192,192,255686,128,0,255774:0:0:0:0:
320,192,255686,128,0,255774:0:0:0:0:
64,192,255774,128,0,255862:0:0:0:0:
320,192,255862,128,0,255950:0:0:0:0:
192,192,255862,128,0,256039:0:0:0:0:
448,192,255862,1,0,0:0:0:0:
64,192,255950,128,0,256039:0:0:0:0:
448,192,256039,128,0,256127:0:0:0:0:
320,192,256039,128,0,256127:0:0:0:0:
192,192,256127,128,0,256215:0:0:0:0:
320,192,256215,128,0,256391:0:0:0:0:
64,192,256215,128,0,256568:0:0:0:0:
448,192,256215,128,0,256568:0:0:0:0:
192,192,256391,1,0,0:0:0:0:
192,192,256568,128,0,256656:0:0:0:0:
320,192,256568,1,0,0:0:0:0:
64,192,256656,128,0,256744:0:0:0:0:
320,192,256744,128,0,256833:0:0:0:0:
448,192,256744,1,0,0:0:0:0:
192,192,256833,128,0,256921:0:0:0:0:
320,192,256921,128,0,257097:0:0:0:0:
64,192,256921,128,0,257274:0:0:0:0:
448,192,256921,128,0,257274:0:0:0:0:
192,192,257097,1,0,0:0:0:0:
192,192,257274,128,0,257362:0:0:0:0:
320,192,257274,1,0,0:0:0:0:
64,192,257362,128,0,257450:0:0:0:0:
320,192,257450,128,0,257539:0:0:0:0:
448,192,257450,1,0,0:0:0:0:
192,192,257539,128,0,257627:0:0:0:0:
448,192,257627,128,0,257715:0:0:0:0:
64,192,257627,1,0,0:0:0:0:
320,192,257715,128,0,257803:0:0:0:0:
64,192,257803,128,0,257891:0:0:0:0:
192,192,257803,1,0,0:0:0:0:
448,192,257891,128,0,257980:0:0:0:0:
192,192,257980,128,0,258068:0:0:0:0:
64,192,257980,128,0,258156:0:0:0:0:
320,192,257980,1,0,0:0:0:0:
448,192,258068,128,0,258156:0:0:0:0:
320,192,258156,128,0,258244:0:0:0:0:
448,192,258244,128,0,258421:0:0:0:0:
192,192,258244,128,0,258333:0:0:0:0:
64,192,258244,1,0,0:0:0:0:
320,192,258333,128,0,258421:0:0:0:0:
192,192,258421,128,0,258509:0:0:0:0:
64,192,258509,128,0,258597:0:0:0:0:
192,192,258597,128,0,258686:0:0:0:0:
448,192,258686,128,0,258774:0:0:0:0:
64,192,258686,128,0,258862:0:0:0:0:
320,192,258686,1,0,0:0:0:0:
192,192,258774,128,0,258862:0:0:0:0:
320,192,258862,128,0,258950:0:0:0:0:
448,192,258950,128,0,259039:0:0:0:0:
320,192,259039,128,0,259127:0:0:0:0:
192,192,259039,1,0,0:0:0:0:
64,192,259039,128,0,259215:0:0:0:0:
448,192,259127,128,0,259215:0:0:0:0:
192,192,259215,128,0,259303:0:0:0:0:
320,192,259303,128,0,259391:0:0:0:0:
448,192,259391,128,0,259480:0:0:0:0:
64,192,259391,1,0,0:0:0:0:
192,192,259391,128,0,259568:0:0:0:0:
320,192,259480,128,0,259568:0:0:0:0:
64,192,259568,128,0,259656:0:0:0:0:
192,192,259656,128,0,259744:0:0:0:0:
448,192,259656,128,0,259744:0:0:0:0:
320,192,259656,1,0,0:0:0:0:
64,192,259744,128,0,259833:0:0:0:0:
448,192,259833,128,0,259921:0:0:0:0:
320,192,259833,128,0,259921:0:0:0:0:
192,192,259833,1,0,0:0:0:0:
64,192,259921,128,0,260009:0:0:0:0:
192,192,260009,128,0,260097:0:0:0:0:
64,192,260097,128,0,260274:0:0:0:0:
448,192,260097,128,0,260186:0:0:0:0:
320,192,260097,1,0,0:0:0:0:
192,192,260186,128,0,260274:0:0:0:0:
320,192,260274,128,0,260362:0:0:0:0:
448,192,260362,128,0,260450:0:0:0:0:
320,192,260450,128,0,260627:0:0:0:0:
64,192,260450,128,0,260539:0:0:0:0:
192,192,260450,1,0,0:0:0:0:
448,192,260539,128,0,260627:0:0:0:0:
192,192,260627,128,0,260715:0:0:0:0:
320,192,260715,128,0,260803:0:0:0:0:
64,192,260803,128,0,260891:0:0:0:0:
448,192,260803,128,0,260980:0:0:0:0:
192,192,260803,1,0,0:0:0:0:
320,192,260891,128,0,260980:0:0:0:0:
64,192,260980,1,0,0:0:0:0:
192,192,260980,128,0,261068:0:0:0:0:
448,192,261068,128,0,261156:0:0:0:0:
320,192,261156,128,0,261244:0:0:0:0:
192,192,261156,1,0,0:0:0:0:
64,192,261244,128,0,261333:0:0:0:0:
320,192,261333,128,0,261421:0:0:0:0:
448,192,261333,1,0,0:0:0:0:
192,192,261421,128,0,261509:0:0:0:0:
64,192,261509,128,0,261686:0:0:0:0:
448,192,261509,128,0,261597:0:0:0:0:
320,192,261509,1,0,0:0:0:0:
192,192,261597,128,0,261686:0:0:0:0:
320,192,261686,128,0,261774:0:0:0:0:
448,192,261686,1,0,0:0:0:0:
64,192,261774,128,0,261862:0:0:0:0:
320,192,261862,128,0,261950:0:0:0:0:
192,192,261862,1,0,0:0:0:0:
448,192,261950,128,0,262039:0:0:0:0:
192,192,262039,128,0,262127:0:0:0:0:
64,192,262039,1,0,0:0:0:0:
320,192,262127,128,0,262215:0:0:0:0:
448,192,262215,128,0,262303:0:0:0:0:
64,192,262215,128,0,262391:0:0:0:0:
192,192,262215,1,0,0:0:0:0:
320,192,262303,128,0,262391:0:0:0:0:
192,192,262391,128,0,262480:0:0:0:0:
448,192,262391,1,0,0:0:0:0:
64,192,262480,128,0,262568:0:0:0:0:
448,192,262568,128,0,262656:0:0:0:0:
192,192,262568,128,0,262744:0:0:0:0:
320,192,262568,1,0,0:0:0:0:
64,192,262656,128,0,262744:0:0:0:0:
320,192,262744,128,0,262833:0:0:0:0:
448,192,262744,1,0,0:0:0:0:
192,192,262833,128,0,262921:0:0:0:0:
320,192,262921,128,0,263097:0:0:0:0:
64,192,262921,1,0,0:0:0:0:
448,192,262921,1,0,0:0:0:0:
192,192,263009,128,0,263097:0:0:0:0:
448,192,263097,128,0,263186:0:0:0:0:
64,192,263097,1,0,0:0:0:0:
320,192,263186,128,0,263274:0:0:0:0:
64,192,263274,128,0,263362:0:0:0:0:
192,192,263274,1,0,0:0:0:0:
448,192,263318,128,0,263406:0:0:0:0:
320,192,263362,128,0,263450:0:0:0:0:
192,192,263406,128,0,263494:0:0:0:0:
64,192,263450,128,0,263539:0:0:0:0:
448,192,263494,128,0,263539:0:0:0:0:
320,192,263539,128,0,263583:0:0:0:0:
192,192,263583,128,0,263627:0:0:0:0:
448,192,263627,1,0,0:0:0:0:
64,192,263627,1,0,0:0:0:0:
320,192,263715,1,0,0:0:0:0:
192,192,263803,1,0,0:0:0:0:
64,192,263891,1,0,0:0:0:0:
320,192,263980,1,0,0:0:0:0:
448,192,263980,128,0,264333:0:0:0:0:
192,192,264068,1,0,0:0:0:0:
64,192,264156,1,0,0:0:0:0:
192,192,264244,1,0,0:0:0:0:
64,192,264333,1,0,0:0:0:0:
320,192,264333,128,0,264686:0:0:0:0:
192,192,264421,1,0,0:0:0:0:
448,192,264509,1,0,0:0:0:0:
64,192,264597,1,0,0:0:0:0:
448,192,264686,1,0,0:0:0:0:
192,192,264686,128,0,265039:0:0:0:0:
64,192,264774,1,0,0:0:0:0:
320,192,264862,1,0,0:0:0:0:
448,192,264950,1,0,0:0:0:0:
320,192,265039,1,0,0:0:0:0:
64,192,265039,128,0,265391:0:0:0:0:
192,192,265215,1,0,0:0:0:0:
448,192,265215,1,0,0:0:0:0:
192,192,265391,1,0,0:0:0:0:
320,192,265391,128,0,265744:0:0:0:0:
448,192,265568,1,0,0:0:0:0:
64,192,265568,1,0,0:0:0:0:
64,192,265744,1,0,0:0:0:0:
192,192,265744,128,0,266097:0:0:0:0:
320,192,265921,1,0,0:0:0:0:
448,192,265921,1,0,0:0:0:0:
64,192,266097,1,0,0:0:0:0:
448,192,266097,128,0,266450:0:0:0:0:
320,192,266274,1,0,0:0:0:0:
192,192,266274,1,0,0:0:0:0:
192,192,266450,128,0,266539:0:0:0:0:
64,192,266450,128,0,266803:0:0:0:0:
320,192,266539,128,0,266627:0:0:0:0:
448,192,266627,128,0,266715:0:0:0:0:
320,192,266715,128,0,266803:0:0:0:0:
448,192,266803,128,0,266891:0:0:0:0:
192,192,266803,128,0,267156:0:0:0:0:
320,192,266891,128,0,266980:0:0:0:0:
64,192,266980,128,0,267068:0:0:0:0:
448,192,267068,128,0,267156:0:0:0:0:
64,192,267156,128,0,267244:0:0:0:0:
320,192,267156,128,0,267509:0:0:0:0:
448,192,267244,128,0,267333:0:0:0:0:
192,192,267333,128,0,267421:0:0:0:0:
64,192,267421,128,0,267509:0:0:0:0:
192,192,267509,128,0,267597:0:0:0:0:
448,192,267509,128,0,267862:0:0:0:0:
64,192,267597,128,0,267686:0:0:0:0:
320,192,267686,128,0,267774:0:0:0:0:
192,192,267774,128,0,267862:0:0:0:0:
320,192,267862,128,0,267950:0:0:0:0:
64,192,267862,128,0,268215:0:0:0:0:
192,192,267950,128,0,268039:0:0:0:0:
448,192,268039,128,0,268127:0:0:0:0:
192,192,268127,128,0,268215:0:0:0:0:
448,192,268215,128,0,268303:0:0:0:0:
320,192,268215,128,0,268568:0:0:0:0:
64,192,268303,128,0,268391:0:0:0:0:
192,192,268391,128,0,268480:0:0:0:0:
448,192,268480,128,0,268568:0:0:0:0:
64,192,268568,128,0,268656:0:0:0:0:
192,192,268568,128,0,268921:0:0:0:0:
320,192,268656,128,0,268744:0:0:0:0:
448,192,268744,128,0,268833:0:0:0:0:
64,192,268833,128,0,268921:0:0:0:0:
320,192,268921,128,0,269009:0:0:0:0:
448,192,268921,128,0,269274:0:0:0:0:
192,192,269009,128,0,269097:0:0:0:0:
64,192,269097,128,0,269186:0:0:0:0:
320,192,269186,128,0,269274:0:0:0:0:
192,192,269274,128,0,269362:0:0:0:0:
64,192,269274,128,0,269627:0:0:0:0:
320,192,269362,128,0,269450:0:0:0:0:
192,192,269450,128,0,269539:0:0:0:0:
320,192,269539,128,0,269627:0:0:0:0:
192,192,269627,128,0,269715:0:0:0:0:
448,192,269627,128,0,269980:0:0:0:0:
320,192,269715,128,0,269803:0:0:0:0:
192,192,269803,128,0,269891:0:0:0:0:
320,192,269891,128,0,269980:0:0:0:0:
64,192,269980,128,0,270068:0:0:0:0:
192,192,269980,128,0,270333:0:0:0:0:
320,192,270068,128,0,270156:0:0:0:0:
448,192,270156,128,0,270244:0:0:0:0:
64,192,270244,128,0,270333:0:0:0:0:
448,192,270333,128,0,270421:0:0:0:0:
320,192,270333,128,0,270686:0:0:0:0:
192,192,270421,128,0,270509:0:0:0:0:
64,192,270509,128,0,270597:0:0:0:0:
448,192,270597,128,0,270686:0:0:0:0:
192,192,270686,128,0,270774:0:0:0:0:
64,192,270686,128,0,271039:0:0:0:0:
320,192,270774,128,0,270862:0:0:0:0:
192,192,270862,128,0,270950:0:0:0:0:
320,192,270950,128,0,271039:0:0:0:0:
192,192,271039,128,0,271127:0:0:0:0:
448,192,271039,128,0,271391:0:0:0:0:
320,192,271127,128,0,271215:0:0:0:0:
192,192,271215,128,0,271303:0:0:0:0:
320,192,271303,128,0,271391:0:0:0:0:
64,192,271391,128,0,271480:0:0:0:0:
192,192,271391,128,0,271744:0:0:0:0:
448,192,271480,128,0,271568:0:0:0:0:
320,192,271568,128,0,271656:0:0:0:0:
64,192,271656,128,0,271744:0:0:0:0:
448,192,271744,128,0,271833:0:0:0:0:
320,192,271744,128,0,272097:0:0:0:0:
192,192,271833,128,0,271921:0:0:0:0:
64,192,271921,128,0,272009:0:0:0:0:
448,192,272009,128,0,272097:0:0:0:0:
192,192,272097,128,0,272186:0:0:0:0:
64,192,272097,1,0,0:0:0:0:
320,192,272186,128,0,272274:0:0:0:0:
448,192,272274,128,0,272362:0:0:0:0:
64,192,272274,1,0,0:0:0:0:
320,192,272362,128,0,272450:0:0:0:0:
192,192,272362,1,0,0:0:0:0:
64,192,272450,128,0,272539:0:0:0:0:
448,192,272450,1,0,0:0:0:0:
192,192,272450,1,0,0:0:0:0:
320,192,272539,128,0,272627:0:0:0:0:
192,192,272627,128,0,272715:0:0:0:0:
64,192,272715,128,0,272803:0:0:0:0:
320,192,272803,128,0,272891:0:0:0:0:
448,192,272803,1,0,0:0:0:0:
192,192,272891,128,0,272980:0:0:0:0:
64,192,272980,128,0,273068:0:0:0:0:
448,192,272980,1,0,0:0:0:0:
192,192,273068,128,0,273156:0:0:0:0:
320,192,273068,1,0,0:0:0:0:
64,192,273156,128,0,273333:0:0:0:0:
448,192,273156,128,0,273509:0:0:0:0:
320,192,273156,1,0,0:0:0:0:
192,192,273333,1,0,0:0:0:0:
64,192,273509,128,0,273597:0:0:0:0:
320,192,273509,1,0,0:0:0:0:
192,192,273597,128,0,273686:0:0:0:0:
448,192,273597,1,0,0:0:0:0:
320,192,273686,128,0,273774:0:0:0:0:
64,192,273686,1,0,0:0:0:0:
448,192,273774,128,0,273862:0:0:0:0:
192,192,273774,1,0,0:0:0:0:
320,192,273862,128,0,274039:0:0:0:0:
64,192,273862,128,0,274215:0:0:0:0:
192,192,273862,1,0,0:0:0:0:
448,192,274039,1,0,0:0:0:0:
448,192,274215,128,0,274303:0:0:0:0:
192,192,274215,1,0,0:0:0:0:
320,192,274303,128,0,274391:0:0:0:0:
192,192,274391,128,0,274480:0:0:0:0:
448,192,274391,1,0,0:0:0:0:
64,192,274480,128,0,274568:0:0:0:0:
320,192,274480,1,0,0:0:0:0:
448,192,274568,128,0,274656:0:0:0:0:
192,192,274568,1,0,0:0:0:0:
320,192,274656,128,0,274744:0:0:0:0:
64,192,274744,128,0,274789:0:0:0:0:
192,192,274789,128,0,274833:0:0:0:0:
320,192,274833,128,0,274877:0:0:0:0:
448,192,274877,128,0,274921:0:0:0:0:
192,192,274921,128,0,275097:0:0:0:0:
320,192,274921,128,0,275097:0:0:0:0:
64,192,274921,128,0,275186:0:0:0:0:
448,192,275186,128,0,275362:0:0:0:0:
320,192,275186,128,0,275274:0:0:0:0:
192,192,275186,128,0,275274:0:0:0:0:
64,192,275362,128,0,275539:0:0:0:0:
192,192,275362,128,0,275450:0:0:0:0:
320,192,275362,128,0,275450:0:0:0:0:
448,192,275450,1,0,0:0:0:0:
192,192,275539,1,0,0:0:0:0:
320,192,275539,1,0,0:0:0:0:
64,192,275627,128,0,275715:0:0:0:0:
448,192,275627,128,0,275803:0:0:0:0:
320,192,275627,128,0,275891:0:0:0:0:
192,192,275715,128,0,275891:0:0:0:0:
64,192,275803,128,0,275891:0:0:0:0:
448,192,275891,128,0,275980:0:0:0:0:
320,192,275980,128,0,276068:0:0:0:0:
64,192,275980,128,0,276244:0:0:0:0:
192,192,275980,128,0,276156:0:0:0:0:
448,192,276068,128,0,276244:0:0:0:0:
320,192,276156,128,0,276244:0:0:0:0:
192,192,276244,128,0,276333:0:0:0:0:
64,192,276333,128,0,276509:0:0:0:0:
448,192,276333,128,0,276509:0:0:0:0:
320,192,276333,128,0,276597:0:0:0:0:
448,192,276597,128,0,276686:0:0:0:0:
192,192,276597,128,0,276686:0:0:0:0:
64,192,276597,128,0,276774:0:0:0:0:
448,192,276774,128,0,276862:0:0:0:0:
320,192,276774,128,0,276862:0:0:0:0:
192,192,276774,128,0,276950:0:0:0:0:
64,192,276862,128,0,276950:0:0:0:0:
320,192,276950,128,0,277039:0:0:0:0:
448,192,276950,1,0,0:0:0:0:
64,192,277039,128,0,277215:0:0:0:0:
448,192,277039,128,0,277391:0:0:0:0:
192,192,277039,128,0,277215:0:0:0:0:
320,192,277391,128,0,277568:0:0:0:0:
192,192,277391,128,0,277568:0:0:0:0:
64,192,277391,128,0,277744:0:0:0:0:
192,192,277744,128,0,277833:0:0:0:0:
448,192,277744,128,0,277833:0:0:0:0:
320,192,277744,128,0,278009:0:0:0:0:
192,192,278009,128,0,278097:0:0:0:0:
64,192,278009,128,0,278097:0:0:0:0:
448,192,278097,1,0,0:0:0:0:
320,192,278186,128,0,278274:0:0:0:0:
192,192,278186,128,0,278274:0:0:0:0:
448,192,278362,1,0,0:0:0:0:
64,192,278362,1,0,0:0:0:0:
448,192,278450,128,0,278539:0:0:0:0:
320,192,278450,128,0,278539:0:0:0:0:
192,192,278450,128,0,278715:0:0:0:0:
320,192,278715,128,0,278803:0:0:0:0:
448,192,278715,128,0,278803:0:0:0:0:
64,192,278803,1,0,0:0:0:0:
192,192,278891,128,0,278980:0:0:0:0:
320,192,278891,128,0,278980:0:0:0:0:
64,192,279068,1,0,0:0:0:0:
448,192,279068,1,0,0:0:0:0:
64,192,279156,128,0,279244:0:0:0:0:
320,192,279156,128,0,279421:0:0:0:0:
192,192,279156,128,0,279333:0:0:0:0:
64,192,279421,1,0,0:0:0:0:
448,192,279421,1,0,0:0:0:0:
192,192,279509,128,0,279686:0:0:0:0:
320,192,279509,128,0,279686:0:0:0:0:
448,192,279509,128,0,279774:0:0:0:0:
192,192,279774,128,0,279862:0:0:0:0:
64,192,279774,1,0,0:0:0:0:
320,192,279862,128,0,279980:0:0:0:0:
64,192,279862,1,0,0:0:0:0:
448,192,279862,1,0,0:0:0:0:
64,192,279980,1,0,0:0:0:0:
192,192,279980,1,0,0:0:0:0:
448,192,279980,128,0,280097:0:0:0:0:
64,192,280097,128,0,280215:0:0:0:0:
192,192,280097,1,0,0:0:0:0:
320,192,280097,1,0,0:0:0:0:
192,192,280215,128,0,280303:0:0:0:0:
320,192,280215,1,0,0:0:0:0:
448,192,280215,1,0,0:0:0:0:
320,192,280391,128,0,280480:0:0:0:0:
448,192,280391,1,0,0:0:0:0:
64,192,280391,1,0,0:0:0:0:
192,192,280568,128,0,281980:0:0:0:0:
64,192,280568,128,0,281891:0:0:0:0:
448,192,280568,128,0,281891:0:0:0:0:
320,192,280568,128,0,281980:0:0:0:0:
64,192,281980,1,0,0:0:0:0:
448,192,281980,128,0,282068:0:0:0:0:
64,192,282068,1,0,0:0:0:0:
192,192,282068,128,0,282156:0:0:0:0:
448,192,282156,1,0,0:0:0:0:
320,192,282156,128,0,282244:0:0:0:0:
448,192,282244,1,0,0:0:0:0:
64,192,282244,128,0,282333:0:0:0:0:
192,192,282333,1,0,0:0:0:0:
320,192,282333,128,0,282421:0:0:0:0:
192,192,282421,1,0,0:0:0:0:
448,192,282421,128,0,282509:0:0:0:0:
320,192,282509,1,0,0:0:0:0:
64,192,282509,128,0,282597:0:0:0:0:
320,192,282597,1,0,0:0:0:0:
192,192,282597,128,0,282686:0:0:0:0:
448,192,282686,1,0,0:0:0:0:
64,192,282686,128,0,282774:0:0:0:0:
448,192,282774,1,0,0:0:0:0:
320,192,282774,128,0,282862:0:0:0:0:
64,192,282862,1,0,0:0:0:0:
192,192,282862,128,0,282950:0:0:0:0:
448,192,282950,128,0,283039:0:0:0:0:
64,192,283039,1,0,0:0:0:0:
192,192,283039,1,0,0:0:0:0:
320,192,283039,128,0,283127:0:0:0:0:
192,192,283127,128,0,283215:0:0:0:0:
64,192,283215,128,0,283303:0:0:0:0:
448,192,283303,128,0,283391:0:0:0:0:
320,192,283391,128,0,283480:0:0:0:0:
192,192,283391,128,0,283568:0:0:0:0:
64,192,283391,1,0,0:0:0:0:
448,192,283480,128,0,283744:0:0:0:0:
320,192,283568,128,0,283656:0:0:0:0:
64,192,283568,1,0,0:0:0:0:
192,192,283656,128,0,283921:0:0:0:0:
320,192,283744,128,0,283833:0:0:0:0:
64,192,283744,1,0,0:0:0:0:
448,192,283833,128,0,284097:0:0:0:0:
320,192,283921,128,0,284009:0:0:0:0:
64,192,283921,1,0,0:0:0:0:
192,192,284009,128,0,284274:0:0:0:0:
320,192,284097,128,0,284186:0:0:0:0:
64,192,284097,1,0,0:0:0:0:
448,192,284186,128,0,284450:0:0:0:0:
320,192,284274,128,0,284362:0:0:0:0:
64,192,284274,1,0,0:0:0:0:
192,192,284362,128,0,284627:0:0:0:0:
320,192,284450,128,0,284539:0:0:0:0:
64,192,284450,1,0,0:0:0:0:
448,192,284539,128,0,284803:0:0:0:0:
320,192,284627,128,0,284715:0:0:0:0:
64,192,284627,1,0,0:0:0:0:
192,192,284715,128,0,284803:0:0:0:0:
64,192,284803,128,0,284891:0:0:0:0:
320,192,284803,128,0,284980:0:0:0:0:
448,192,284980,128,0,285068:0:0:0:0:
192,192,284980,128,0,285156:0:0:0:0:
64,192,285068,1,0,0:0:0:0:
320,192,285156,128,0,285244:0:0:0:0:
448,192,285156,1,0,0:0:0:0:
192,192,285244,128,0,285333:0:0:0:0:
64,192,285333,128,0,285421:0:0:0:0:
448,192,285333,1,0,0:0:0:0:
320,192,285421,128,0,285509:0:0:0:0:
64,192,285509,128,0,285686:0:0:0:0:
192,192,285509,128,0,285597:0:0:0:0:
448,192,285686,128,0,285862:0:0:0:0:
320,192,285686,128,0,285774:0:0:0:0:
64,192,285862,128,0,285950:0:0:0:0:
192,192,285862,1,0,0:0:0:0:
320,192,285950,128,0,286039:0:0:0:0:
448,192,286039,128,0,286127:0:0:0:0:
64,192,286039,1,0,0:0:0:0:
192,192,286127,128,0,286215:0:0:0:0:
320,192,286215,128,0,286303:0:0:0:0:
64,192,286215,128,0,286480:0:0:0:0:
448,192,286215,1,0,0:0:0:0:
192,192,286303,128,0,286391:0:0:0:0:
320,192,286391,128,0,286656:0:0:0:0:
448,192,286391,1,0,0:0:0:0:
192,192,286480,128,0,286568:0:0:0:0:
64,192,286568,128,0,286833:0:0:0:0:
448,192,286568,1,0,0:0:0:0:
192,192,286656,128,0,286744:0:0:0:0:
320,192,286744,128,0,287009:0:0:0:0:
448,192,286744,1,0,0:0:0:0:
192,192,286833,128,0,286921:0:0:0:0:
64,192,286921,128,0,287186:0:0:0:0:
448,192,286921,1,0,0:0:0:0:
192,192,287009,128,0,287097:0:0:0:0:
320,192,287097,128,0,287362:0:0:0:0:
448,192,287097,1,0,0:0:0:0:
192,192,287186,128,0,287274:0:0:0:0:
64,192,287274,128,0,287539:0:0:0:0:
448,192,287274,1,0,0:0:0:0:
192,192,287362,128,0,287450:0:0:0:0:
320,192,287450,128,0,287627:0:0:0:0:
448,192,287450,1,0,0:0:0:0:
192,192,287539,128,0,287627:0:0:0:0:
448,192,287627,128,0,287715:0:0:0:0:
64,192,287627,128,0,287803:0:0:0:0:
448,192,287803,128,0,287891:0:0:0:0:
320,192,287803,128,0,287980:0:0:0:0:
192,192,287891,1,0,0:0:0:0:
448,192,287980,128,0,288068:0:0:0:0:
64,192,287980,1,0,0:0:0:0:
320,192,288068,128,0,288156:0:0:0:0:
64,192,288156,128,0,288333:0:0:0:0:
192,192,288156,128,0,288244:0:0:0:0:
320,192,288333,128,0,288421:0:0:0:0:
192,192,288333,128,0,288509:0:0:0:0:
64,192,288509,128,0,288597:0:0:0:0:
448,192,288509,1,0,0:0:0:0:
192,192,288597,128,0,288686:0:0:0:0:
320,192,288686,128,0,288774:0:0:0:0:
448,192,288686,1,0,0:0:0:0:
64,192,288774,128,0,288862:0:0:0:0:
320,192,288862,1,0,0:0:0:0:
192,192,288862,128,0,288950:0:0:0:0:
448,192,288950,128,0,289039:0:0:0:0:
320,192,289039,128,0,289127:0:0:0:0:
64,192,289039,128,0,289127:0:0:0:0:
192,192,289127,128,0,289215:0:0:0:0:
448,192,289127,128,0,289303:0:0:0:0:
64,192,289215,128,0,289303:0:0:0:0:
320,192,289215,128,0,289391:0:0:0:0:
192,192,289303,128,0,289391:0:0:0:0:
448,192,289391,128,0,289480:0:0:0:0:
64,192,289391,128,0,289480:0:0:0:0:
320,192,289480,128,0,289568:0:0:0:0:
192,192,289480,128,0,289656:0:0:0:0:
64,192,289568,128,0,289744:0:0:0:0:
448,192,289568,128,0,289656:0:0:0:0:
320,192,289656,128,0,289744:0:0:0:0:
448,192,289744,128,0,289833:0:0:0:0:
192,192,289744,128,0,289833:0:0:0:0:
320,192,289833,128,0,289921:0:0:0:0:
64,192,289833,128,0,290009:0:0:0:0:
192,192,289921,128,0,290009:0:0:0:0:
448,192,289921,128,0,290097:0:0:0:0:
320,192,290009,128,0,290097:0:0:0:0:
192,192,290097,128,0,290186:0:0:0:0:
64,192,290097,128,0,290186:0:0:0:0:
448,192,290186,128,0,290362:0:0:0:0:
320,192,290186,128,0,290274:0:0:0:0:
64,192,290274,128,0,290450:0:0:0:0:
192,192,290274,128,0,290362:0:0:0:0:
320,192,290362,128,0,290450:0:0:0:0:
448,192,290450,128,0,290539:0:0:0:0:
192,192,290450,128,0,290539:0:0:0:0:
64,192,290539,128,0,290627:0:0:0:0:
320,192,290539,128,0,290627:0:0:0:0:
448,192,290627,128,0,290715:0:0:0:0:
192,192,290627,128,0,290715:0:0:0:0:
320,192,290715,128,0,290803:0:0:0:0:
64,192,290715,128,0,290891:0:0:0:0:
448,192,290803,128,0,291068:0:0:0:0:
192,192,290803,128,0,290891:0:0:0:0:
320,192,290891,128,0,290980:0:0:0:0:
64,192,290980,128,0,291068:0:0:0:0:
192,192,290980,128,0,291156:0:0:0:0:
320,192,291068,128,0,291156:0:0:0:0:
448,192,291156,128,0,291244:0:0:0:0:
64,192,291156,128,0,291244:0:0:0:0:
320,192,291244,128,0,291333:0:0:0:0:
192,192,291244,128,0,291333:0:0:0:0:
64,192,291333,128,0,291509:0:0:0:0:
448,192,291333,128,0,291421:0:0:0:0:
192,192,291421,128,0,291509:0:0:0:0:
320,192,291421,1,0,0:0:0:0:
448,192,291509,128,0,291597:0:0:0:0:
320,192,291509,128,0,291597:0:0:0:0:
64,192,291597,128,0,291686:0:0:0:0:
192,192,291597,128,0,291686:0:0:0:0:
448,192,291686,128,0,291774:0:0:0:0:
320,192,291686,128,0,291774:0:0:0:0:
192,192,291774,128,0,291862:0:0:0:0:
64,192,291774,1,0,0:0:0:0:
320,192,291862,128,0,292039:0:0:0:0:
64,192,291862,128,0,291950:0:0:0:0:
448,192,291862,1,0,0:0:0:0:
192,192,291950,128,0,292215:0:0:0:0:
64,192,292039,128,0,292127:0:0:0:0:
448,192,292039,1,0,0:0:0:0:
320,192,292127,128,0,292391:0:0:0:0:
64,192,292215,128,0,292303:0:0:0:0:
448,192,292215,1,0,0:0:0:0:
192,192,292303,128,0,292568:0:0:0:0:
448,192,292391,1,0,0:0:0:0:
64,192,292391,128,0,292480:0:0:0:0:
320,192,292480,128,0,292568:0:0:0:0:
448,192,292568,128,0,292656:0:0:0:0:
64,192,292568,128,0,292744:0:0:0:0:
320,192,292656,1,0,0:0:0:0:
192,192,292656,128,0,292744:0:0:0:0:
448,192,292744,128,0,292921:0:0:0:0:
320,192,292744,128,0,292833:0:0:0:0:
192,192,292833,128,0,292921:0:0:0:0:
64,192,292833,1,0,0:0:0:0:
64,192,292921,128,0,293097:0:0:0:0:
320,192,292921,128,0,293009:0:0:0:0:
192,192,293009,1,0,0:0:0:0:
448,192,293009,128,0,293097:0:0:0:0:
192,192,293097,128,0,293186:0:0:0:0:
320,192,293097,128,0,293274:0:0:0:0:
64,192,293186,128,0,293274:0:0:0:0:
448,192,293186,1,0,0:0:0:0:
448,192,293274,128,0,293362:0:0:0:0:
192,192,293274,128,0,293450:0:0:0:0:
320,192,293362,128,0,293627:0:0:0:0:
64,192,293450,1,0,0:0:0:0:
448,192,293450,128,0,293539:0:0:0:0:
192,192,293539,128,0,293803:0:0:0:0:
64,192,293627,1,0,0:0:0:0:
448,192,293627,128,0,293715:0:0:0:0:
320,192,293715,128,0,293980:0:0:0:0:
448,192,293803,128,0,293891:0:0:0:0:
64,192,293803,1,0,0:0:0:0:
192,192,293891,128,0,293980:0:0:0:0:
64,192,293980,128,0,294068:0:0:0:0:
448,192,293980,128,0,294156:0:0:0:0:
320,192,294068,128,0,294156:0:0:0:0:
192,192,294068,1,0,0:0:0:0:
64,192,294156,128,0,294333:0:0:0:0:
192,192,294156,128,0,294244:0:0:0:0:
448,192,294244,1,0,0:0:0:0:
320,192,294244,128,0,294333:0:0:0:0:
448,192,294333,128,0,294509:0:0:0:0:
192,192,294333,128,0,294421:0:0:0:0:
320,192,294421,1,0,0:0:0:0:
64,192,294421,128,0,294509:0:0:0:0:
192,192,294509,128,0,294597:0:0:0:0:
320,192,294509,128,0,294597:0:0:0:0:
64,192,294597,128,0,294686:0:0:0:0:
448,192,294597,1,0,0:0:0:0:
192,192,294686,128,0,294774:0:0:0:0:
448,192,294686,128,0,294774:0:0:0:0:
320,192,294686,1,0,0:0:0:0:
64,192,294774,1,0,0:0:0:0:
448,192,294862,128,0,294950:0:0:0:0:
192,192,294862,128,0,295039:0:0:0:0:
320,192,294950,1,0,0:0:0:0:
64,192,295039,128,0,295127:0:0:0:0:
448,192,295039,128,0,295127:0:0:0:0:
192,192,295127,1,0,0:0:0:0:
448,192,295215,128,0,295391:0:0:0:0:
64,192,295215,128,0,295303:0:0:0:0:
320,192,295303,1,0,0:0:0:0:
64,192,295391,128,0,295480:0:0:0:0:
192,192,295391,128,0,295480:0:0:0:0:
448,192,295480,1,0,0:0:0:0:
192,192,295568,128,0,295744:0:0:0:0:
64,192,295568,128,0,295656:0:0:0:0:
320,192,295656,1,0,0:0:0:0:
448,192,295744,128,0,295833:0:0:0:0:
64,192,295744,128,0,295833:0:0:0:0:
192,192,295833,1,0,0:0:0:0:
64,192,295921,128,0,296009:0:0:0:0:
448,192,295921,128,0,296097:0:0:0:0:
320,192,296009,1,0,0:0:0:0:
64,192,296097,128,0,296186:0:0:0:0:
192,192,296097,128,0,296186:0:0:0:0:
448,192,296186,128,0,296362:0:0:0:0:
320,192,296186,128,0,296274:0:0:0:0:
64,192,296274,128,0,296450:0:0:0:0:
192,192,296274,128,0,296362:0:0:0:0:
320,192,296362,128,0,296450:0:0:0:0:
448,192,296450,128,0,296539:0:0:0:0:
192,192,296450,128,0,296539:0:0:0:0:
320,192,296539,128,0,296627:0:0:0:0:
64,192,296539,128,0,296627:0:0:0:0:
192,192,296627,128,0,296715:0:0:0:0:
448,192,296627,128,0,296715:0:0:0:0:
320,192,296715,128,0,296803:0:0:0:0:
64,192,296715,128,0,296891:0:0:0:0:
448,192,296803,128,0,296980:0:0:0:0:
192,192,296803,128,0,296891:0:0:0:0:
320,192,296891,128,0,297156:0:0:0:0:
192,192,296980,128,0,297068:0:0:0:0:
64,192,296980,1,0,0:0:0:0:
64,192,297068,128,0,297244:0:0:0:0:
448,192,297068,1,0,0:0:0:0:
448,192,297156,128,0,297333:0:0:0:0:
192,192,297156,1,0,0:0:0:0:
192,192,297244,128,0,297333:0:0:0:0:
320,192,297244,1,0,0:0:0:0:
320,192,297333,128,0,297421:0:0:0:0:
64,192,297333,128,0,297421:0:0:0:0:
192,192,297421,128,0,297509:0:0:0:0:
448,192,297421,1,0,0:0:0:0:
448,192,297509,128,0,297686:0:0:0:0:
64,192,297509,128,0,297597:0:0:0:0:
320,192,297509,1,0,0:0:0:0:
192,192,297597,128,0,297774:0:0:0:0:
320,192,297686,128,0,297774:0:0:0:0:
64,192,297686,1,0,0:0:0:0:
448,192,297774,128,0,297950:0:0:0:0:
64,192,297862,128,0,297950:0:0:0:0:
320,192,297862,1,0,0:0:0:0:
192,192,297950,128,0,298127:0:0:0:0:
320,192,298039,128,0,298127:0:0:0:0:
64,192,298039,1,0,0:0:0:0:
448,192,298127,128,0,298303:0:0:0:0:
192,192,298215,128,0,298391:0:0:0:0:
320,192,298215,1,0,0:0:0:0:
64,192,298303,128,0,298391:0:0:0:0:
448,192,298391,128,0,298568:0:0:0:0:
320,192,298391,128,0,298480:0:0:0:0:
64,192,298480,128,0,298568:0:0:0:0:
320,192,298568,128,0,298656:0:0:0:0:
192,192,298568,128,0,298744:0:0:0:0:
64,192,298656,128,0,298744:0:0:0:0:
320,192,298744,128,0,298833:0:0:0:0:
448,192,298744,128,0,298921:0:0:0:0:
192,192,298833,128,0,298921:0:0:0:0:
320,192,298921,1,0,0:0:0:0:
64,192,298921,128,0,299097:0:0:0:0:
320,192,299009,128,0,299186:0:0:0:0:
192,192,299097,128,0,299186:0:0:0:0:
448,192,299097,1,0,0:0:0:0:
64,192,299186,128,0,299362:0:0:0:0:
192,192,299274,1,0,0:0:0:0:
448,192,299274,128,0,299362:0:0:0:0:
320,192,299362,128,0,299539:0:0:0:0:
448,192,299450,1,0,0:0:0:0:
192,192,299450,128,0,299539:0:0:0:0:
64,192,299539,128,0,299715:0:0:0:0:
320,192,299627,128,0,299803:0:0:0:0:
192,192,299627,1,0,0:0:0:0:
448,192,299715,128,0,299803:0:0:0:0:
192,192,299803,128,0,299891:0:0:0:0:
64,192,299803,128,0,299980:0:0:0:0:
448,192,299891,128,0,299980:0:0:0:0:
320,192,299980,128,0,300156:0:0:0:0:
192,192,299980,128,0,300068:0:0:0:0:
448,192,300068,128,0,300156:0:0:0:0:
192,192,300156,128,0,300244:0:0:0:0:
64,192,300156,128,0,300333:0:0:0:0:
320,192,300244,128,0,300333:0:0:0:0:
192,192,300333,1,0,0:0:0:0:
448,192,300333,128,0,300509:0:0:0:0:
192,192,300421,128,0,300597:0:0:0:0:
320,192,300509,128,0,300597:0:0:0:0:
64,192,300509,1,0,0:0:0:0:
448,192,300597,128,0,300774:0:0:0:0:
320,192,300686,1,0,0:0:0:0:
64,192,300686,128,0,300774:0:0:0:0:
192,192,300774,128,0,300950:0:0:0:0:
320,192,300862,128,0,300950:0:0:0:0:
64,192,300862,1,0,0:0:0:0:
448,192,300950,128,0,301127:0:0:0:0:
320,192,301039,128,0,301127:0:0:0:0:
192,192,301039,128,0,301303:0:0:0:0:
64,192,301127,128,0,301215:0:0:0:0:
320,192,301215,128,0,301303:0:0:0:0:
448,192,301215,128,0,301391:0:0:0:0:
64,192,301303,128,0,301480:0:0:0:0:
192,192,301391,128,0,301568:0:0:0:0:
320,192,301391,128,0,301480:0:0:0:0:
448,192,301480,128,0,301568:0:0:0:0:
64,192,301568,128,0,301656:0:0:0:0:
320,192,301568,128,0,301656:0:0:0:0:
192,192,301656,128,0,301744:0:0:0:0:
64,192,301744,128,0,301833:0:0:0:0:
320,192,301744,128,0,301833:0:0:0:0:
448,192,301744,128,0,301921:0:0:0:0:
320,192,301921,128,0,302097:0:0:0:0:
64,192,301921,1,0,0:0:0:0:
192,192,301921,1,0,0:0:0:0:
64,192,302009,1,0,0:0:0:0:
192,192,302009,1,0,0:0:0:0:
192,192,302097,128,0,302186:0:0:0:0:
448,192,302097,1,0,0:0:0:0:
64,192,302097,128,0,302450:0:0:0:0:
448,192,302186,128,0,302274:0:0:0:0:
320,192,302186,1,0,0:0:0:0:
320,192,302274,128,0,302362:0:0:0:0:
192,192,302274,1,0,0:0:0:0:
192,192,302362,128,0,302450:0:0:0:0:
448,192,302362,1,0,0:0:0:0:
448,192,302450,128,0,302539:0:0:0:0:
320,192,302450,1,0,0:0:0:0:
64,192,302539,128,0,302627:0:0:0:0:
192,192,302539,1,0,0:0:0:0:
320,192,302627,128,0,302715:0:0:0:0:
448,192,302627,1,0,0:0:0:0:
192,192,302715,128,0,302803:0:0:0:0:
64,192,302715,1,0,0:0:0:0:
320,192,302803,128,0,302891:0:0:0:0:
448,192,302803,128,0,303156:0:0:0:0:
64,192,302803,1,0,0:0:0:0:
64,192,302891,128,0,302980:0:0:0:0:
192,192,302891,1,0,0:0:0:0:
192,192,302980,128,0,303068:0:0:0:0:
320,192,302980,1,0,0:0:0:0:
320,192,303068,128,0,303156:0:0:0:0:
64,192,303068,1,0,0:0:0:0:
192,192,303156,128,0,303244:0:0:0:0:
64,192,303156,1,0,0:0:0:0:
320,192,303244,128,0,303421:0:0:0:0:
448,192,303244,1,0,0:0:0:0:
64,192,303333,1,0,0:0:0:0:
192,192,303333,1,0,0:0:0:0:
192,192,303421,128,0,303509:0:0:0:0:
64,192,303421,1,0,0:0:0:0:
64,192,303509,128,0,303597:0:0:0:0:
320,192,303509,128,0,303862:0:0:0:0:
448,192,303509,1,0,0:0:0:0:
448,192,303597,128,0,303686:0:0:0:0:
192,192,303597,1,0,0:0:0:0:
192,192,303686,128,0,303774:0:0:0:0:
64,192,303686,1,0,0:0:0:0:
64,192,303774,128,0,303862:0:0:0:0:
448,192,303774,1,0,0:0:0:0:
448,192,303862,128,0,303950:0:0:0:0:
192,192,303862,1,0,0:0:0:0:
320,192,303950,128,0,304039:0:0:0:0:
64,192,303950,1,0,0:0:0:0:
192,192,304039,128,0,304127:0:0:0:0:
448,192,304039,1,0,0:0:0:0:
320,192,304127,128,0,304215:0:0:0:0:
64,192,304127,1,0,0:0:0:0:
64,192,304215,128,0,304303:0:0:0:0:
192,192,304215,128,0,304568:0:0:0:0:
448,192,304215,1,0,0:0:0:0:
448,192,304303,128,0,304391:0:0:0:0:
320,192,304303,1,0,0:0:0:0:
320,192,304391,128,0,304480:0:0:0:0:
64,192,304391,1,0,0:0:0:0:
64,192,304480,128,0,304568:0:0:0:0:
448,192,304480,1,0,0:0:0:0:
448,192,304568,128,0,304744:0:0:0:0:
320,192,304568,1,0,0:0:0:0:
64,192,304656,128,0,304744:0:0:0:0:
192,192,304744,1,0,0:0:0:0:
320,192,304744,1,0,0:0:0:0:
192,192,304833,128,0,305009:0:0:0:0:
320,192,304833,1,0,0:0:0:0:
64,192,304921,128,0,305009:0:0:0:0:
448,192,304921,128,0,305186:0:0:0:0:
320,192,304921,128,0,305009:0:0:0:0:
320,192,305097,128,0,305186:0:0:0:0:
192,192,305097,128,0,305186:0:0:0:0:
64,192,305097,128,0,305186:0:0:0:0:
192,192,305274,128,0,307391:0:0:0:0:
64,192,305274,128,0,307391:0:0:0:0:
448,192,305274,128,0,307391:0:0:0:0:
320,192,305274,128,0,307391:0:0:0:0:
192,192,320734,132,0,321317:0:0:0:0:
448,192,320734,128,0,321650:0:0:0:0:
64,192,321067,128,0,321317:0:0:0:0:
320,192,321067,128,0,321650:0:0:0:0:
192,192,321400,128,0,321984:0:0:0:0:
64,192,321400,128,0,322650:0:0:0:0:
320,192,321734,128,0,322317:0:0:0:0:
448,192,321734,128,0,321984:0:0:0:0:
192,192,322067,128,0,322317:0:0:0:0:
448,192,322067,128,0,322984:0:0:0:0:
192,192,322400,128,0,322984:0:0:0:0:
320,192,322400,128,0,322650:0:0:0:0:
64,192,322734,128,0,323317:0:0:0:0:
320,192,322734,128,0,323150:0:0:0:0:
192,192,323067,128,0,323317:0:0:0:0:
448,192,323067,128,0,323150:0:0:0:0:
448,192,323234,128,0,323984:0:0:0:0:
320,192,323234,128,0,323650:0:0:0:0:
192,192,323400,128,0,323650:0:0:0:0:
64,192,323400,128,0,323984:0:0:0:0:
192,192,323734,128,0,324317:0:0:0:0:
320,192,323734,128,0,324650:0:0:0:0:
64,192,324067,128,0,324984:0:0:0:0:
448,192,324067,128,0,324317:0:0:0:0:
192,192,324400,128,0,324984:0:0:0:0:
448,192,324400,128,0,324650:0:0:0:0:
448,192,324734,128,0,325734:0:0:0:0:
320,192,324734,128,0,325317:0:0:0:0:
192,192,325067,128,0,325317:0:0:0:0:
64,192,325067,128,0,325650:0:0:0:0:
192,192,325400,128,0,325650:0:0:0:0:
320,192,325400,128,0,325734:0:0:0:0:
192,192,325734,128,0,325984:0:0:0:0:
64,192,325734,128,0,325984:0:0:0:0:
192,192,326067,128,0,326650:0:0:0:0:
320,192,326067,128,0,326317:0:0:0:0:
448,192,326067,128,0,326650:0:0:0:0:
64,192,326067,128,0,326317:0:0:0:0:
320,192,326400,128,0,326984:0:0:0:0:
64,192,326400,128,0,326984:0:0:0:0:
192,192,326734,128,0,327317:0:0:0:0:
448,192,326734,128,0,327650:0:0:0:0:
64,192,327067,128,0,327650:0:0:0:0:
320,192,327067,128,0,327317:0:0:0:0:
192,192,327400,128,0,327984:0:0:0:0:
320,192,327400,128,0,328317:0:0:0:0:
64,192,327734,128,0,328317:0:0:0:0:
448,192,327734,128,0,327984:0:0:0:0:
448,192,328067,128,0,328650:0:0:0:0:
192,192,328067,128,0,328484:0:0:0:0:
64,192,328400,128,0,328484:0:0:0:0:
320,192,328400,128,0,328650:0:0:0:0:
64,192,328567,128,0,329317:0:0:0:0:
192,192,328567,128,0,328984:0:0:0:0:
448,192,328734,128,0,329317:0:0:0:0:
320,192,328734,128,0,328984:0:0:0:0:
192,192,329067,128,0,329650:0:0:0:0:
320,192,329067,128,0,329984:0:0:0:0:
64,192,329400,128,0,329984:0:0:0:0:
448,192,329400,128,0,329650:0:0:0:0:
448,192,329734,128,0,329984:0:0:0:0:
192,192,329734,128,0,330400:0:0:0:0:
64,192,330067,128,0,330150:0:0:0:0:
448,192,330067,128,0,330150:0:0:0:0:
320,192,330400,128,0,330817:0:0:0:0:
64,192,330400,128,0,330484:0:0:0:0:
448,192,330400,128,0,330484:0:0:0:0:
64,192,330734,128,0,331067:0:0:0:0:
192,192,330734,128,0,330817:0:0:0:0:
448,192,330734,128,0,330817:0:0:0:0:
192,192,331067,1,0,0:0:0:0:0
320,192,331067,1,0,0:0:0:0:0
448,192,331067,128,0,331150:0:0:0:0:
320,192,331150,128,0,331317:0:0:0:0:
192,192,331150,128,0,331317:0:0:0:0:
192,192,331400,128,0,331650:0:0:0:0:
320,192,331400,128,0,331984:0:0:0:0:
448,192,331400,128,0,331650:0:0:0:0:
64,192,331400,128,0,331984:0:0:0:0:
192,192,331734,128,0,332317:0:0:0:0:
448,192,331734,128,0,332650:0:0:0:0:
320,192,332067,128,0,332650:0:0:0:0:
64,192,332067,128,0,332317:0:0:0:0:
192,192,332400,128,0,332984:0:0:0:0:
64,192,332400,128,0,333317:0:0:0:0:
320,192,332734,128,0,332984:0:0:0:0:
448,192,332734,128,0,333650:0:0:0:0:
192,192,333067,128,0,333650:0:0:0:0:
320,192,333067,128,0,333317:0:0:0:0:
320,192,333400,128,0,333817:0:0:0:0:
64,192,333400,128,0,333817:0:0:0:0:
192,192,333734,128,0,333984:0:0:0:0:
448,192,333734,128,0,334650:0:0:0:0:
320,192,333900,128,0,334317:0:0:0:0:
64,192,333900,128,0,333984:0:0:0:0:
192,192,334067,128,0,334317:0:0:0:0:
64,192,334067,128,0,334650:0:0:0:0:
192,192,334400,128,0,335317:0:0:0:0:
320,192,334400,128,0,334984:0:0:0:0:
64,192,334734,128,0,334984:0:0:0:0:
448,192,334734,128,0,335317:0:0:0:0:
320,192,335067,128,0,335650:0:0:0:0:
64,192,335067,128,0,336317:0:0:0:0:
192,192,335400,128,0,335984:0:0:0:0:
448,192,335400,128,0,335650:0:0:0:0:
448,192,335734,128,0,336317:0:0:0:0:
320,192,335734,128,0,335984:0:0:0:0:
320,192,336067,128,0,336400:0:0:0:0:
192,192,336067,128,0,336400:0:0:0:0:
448,192,336400,128,0,336650:0:0:0:0:
64,192,336400,128,0,336650:0:0:0:0:
64,192,336734,128,0,336984:0:0:0:0:
448,192,336734,128,0,336817:0:0:0:0:
320,192,336734,128,0,336984:0:0:0:0:
192,192,336734,128,0,336817:0:0:0:0:
448,192,336900,128,0,337317:0:0:0:0:
192,192,336900,128,0,337150:0:0:0:0:
320,192,337067,128,0,337317:0:0:0:0:
64,192,337067,128,0,337150:0:0:0:0:
64,192,337234,128,0,337650:0:0:0:0:
192,192,337234,128,0,337484:0:0:0:0:
448,192,337400,128,0,337650:0:0:0:0:
320,192,337400,128,0,337484:0:0:0:0:
320,192,337567,128,0,337984:0:0:0:0:
192,192,337567,128,0,337817:0:0:0:0:
448,192,337734,128,0,337817:0:0:0:0:
64,192,337734,128,0,337984:0:0:0:0:
192,192,337900,128,0,338150:0:0:0:0:
448,192,337900,128,0,338484:0:0:0:0:
64,192,338067,128,0,338150:0:0:0:0:
320,192,338067,128,0,338317:0:0:0:0:
192,192,338234,128,0,338317:0:0:0:0:
64,192,338234,128,0,338484:0:0:0:0:
192,192,338400,128,0,338650:0:0:0:0:
320,192,338400,128,0,338817:0:0:0:0:
448,192,338567,128,0,338650:0:0:0:0:
64,192,338567,128,0,338817:0:0:0:0:
448,192,338734,128,0,339317:0:0:0:0:
192,192,338734,128,0,338984:0:0:0:0:
320,192,338900,128,0,339150:0:0:0:0:
64,192,338900,128,0,338984:0:0:0:0:
192,192,339067,128,0,339150:0:0:0:0:
64,192,339067,128,0,339484:0:0:0:0:
192,192,339234,128,0,339317:0:0:0:0:
320,192,339234,128,0,339400:0:0:0:0:
448,192,339400,128,0,339567:0:0:0:0:
192,192,339400,128,0,339484:0:0:0:0:
320,192,339484,128,0,339650:0:0:0:0:
192,192,339567,128,0,339734:0:0:0:0:
64,192,339567,128,0,339650:0:0:0:0:
448,192,339650,128,0,339817:0:0:0:0:
320,192,339734,128,0,339817:0:0:0:0:
64,192,339734,128,0,339900:0:0:0:0:
192,192,339817,128,0,339984:0:0:0:0:
448,192,339900,128,0,339984:0:0:0:0:
320,192,339900,128,0,340067:0:0:0:0:
64,192,339984,128,0,340150:0:0:0:0:
192,192,340067,128,0,340150:0:0:0:0:
448,192,340067,128,0,340234:0:0:0:0:
320,192,340150,128,0,340317:0:0:0:0:
192,192,340234,128,0,340400:0:0:0:0:
64,192,340234,128,0,340317:0:0:0:0:
448,192,340317,128,0,340484:0:0:0:0:
64,192,340400,128,0,340567:0:0:0:0:
320,192,340400,128,0,340484:0:0:0:0:
192,192,340484,128,0,340650:0:0:0:0:
448,192,340567,128,0,340650:0:0:0:0:
320,192,340567,128,0,341984:0:0:0:0:
64,192,340650,128,0,341984:0:0:0:0:
192,192,340734,128,0,342150:0:0:0:0:
448,192,340734,128,0,341984:0:0:0:0:
320,192,342067,128,0,342484:0:0:0:0:
64,192,342067,128,0,342317:0:0:0:0:
448,192,342067,128,0,342317:0:0:0:0:
192,192,342234,128,0,342317:0:0:0:0:
192,192,342400,128,0,342650:0:0:0:0:
64,192,342400,128,0,342817:0:0:0:0:
448,192,342400,128,0,342650:0:0:0:0:
320,192,342567,128,0,342650:0:0:0:0:
192,192,342734,128,0,342984:0:0:0:0:
320,192,342734,128,0,342984:0:0:0:0:
448,192,342734,128,0,343150:0:0:0:0:
64,192,342900,128,0,342984:0:0:0:0:
192,192,343067,128,0,343317:0:0:0:0:
64,192,343067,128,0,343484:0:0:0:0:
320,192,343067,128,0,343317:0:0:0:0:
448,192,343234,128,0,343317:0:0:0:0:
448,192,343400,128,0,343650:0:0:0:0:
192,192,343400,128,0,343650:0:0:0:0:
320,192,343400,128,0,343817:0:0:0:0:
64,192,343567,128,0,343650:0:0:0:0:
192,192,343734,128,0,343984:0:0:0:0:
64,192,343734,128,0,343984:0:0:0:0:
448,192,343734,128,0,344150:0:0:0:0:
320,192,343900,128,0,343984:0:0:0:0:
192,192,344067,128,0,344484:0:0:0:0:
64,192,344067,128,0,344317:0:0:0:0:
320,192,344067,128,0,344317:0:0:0:0:
448,192,344234,128,0,344317:0:0:0:0:
448,192,344400,128,0,344650:0:0:0:0:
64,192,344400,128,0,344650:0:0:0:0:
320,192,344400,128,0,344484:0:0:0:0:
192,192,344567,128,0,344650:0:0:0:0:
320,192,344567,128,0,344817:0:0:0:0:
448,192,344734,128,0,344984:0:0:0:0:
64,192,344734,128,0,344984:0:0:0:0:
192,192,344734,128,0,345150:0:0:0:0:
320,192,344900,128,0,344984:0:0:0:0:
448,192,345067,128,0,345484:0:0:0:0:
320,192,345067,128,0,345317:0:0:0:0:
64,192,345067,128,0,345317:0:0:0:0:
192,192,345234,128,0,345317:0:0:0:0:
320,192,345400,128,0,345650:0:0:0:0:
192,192,345400,128,0,345650:0:0:0:0:
64,192,345400,128,0,345817:0:0:0:0:
448,192,345567,128,0,345650:0:0:0:0:
448,192,345734,128,0,346150:0:0:0:0:
320,192,345734,128,0,345984:0:0:0:0:
192,192,345734,128,0,345984:0:0:0:0:
64,192,345900,128,0,345984:0:0:0:0:
192,192,346067,128,0,346484:0:0:0:0:
64,192,346067,128,0,346317:0:0:0:0:
320,192,346067,128,0,346317:0:0:0:0:
448,192,346234,128,0,346317:0:0:0:0:
64,192,346400,128,0,346817:0:0:0:0:
448,192,346400,128,0,346650:0:0:0:0:
320,192,346400,128,0,346650:0:0:0:0:
192,192,346567,128,0,346650:0:0:0:0:
192,192,346734,128,0,346817:0:0:0:0:
448,192,346734,128,0,346900:0:0:0:0:
320,192,346734,128,0,346900:0:0:0:0:
192,192,346900,128,0,347484:0:0:0:0:
64,192,346900,128,0,347317:0:0:0:0:
320,192,346984,128,0,347317:0:0:0:0:
448,192,346984,128,0,347317:0:0:0:0:
320,192,347400,128,0,347817:0:0:0:0:
64,192,347400,128,0,347650:0:0:0:0:
448,192,347400,128,0,347650:0:0:0:0:
192,192,347567,128,0,347650:0:0:0:0:
192,192,347734,128,0,347984:0:0:0:0:
64,192,347734,128,0,348150:0:0:0:0:
448,192,347734,128,0,347984:0:0:0:0:
320,192,347900,128,0,347984:0:0:0:0:
320,192,348067,128,0,348317:0:0:0:0:
192,192,348067,128,0,348317:0:0:0:0:
448,192,348067,128,0,348484:0:0:0:0:
64,192,348234,128,0,348317:0:0:0:0:
64,192,348400,128,0,348817:0:0:0:0:
192,192,348400,128,0,348650:0:0:0:0:
320,192,348400,128,0,348650:0:0:0:0:
448,192,348567,128,0,348650:0:0:0:0:
448,192,348734,128,0,348984:0:0:0:0:
192,192,348734,128,0,348984:0:0:0:0:
320,192,348734,128,0,349150:0:0:0:0:
64,192,348900,128,0,348984:0:0:0:0:
192,192,349067,128,0,349317:0:0:0:0:
64,192,349067,128,0,349317:0:0:0:0:
448,192,349067,128,0,349483:0:0:0:0:
320,192,349234,128,0,349317:0:0:0:0:
320,192,349400,128,0,349650:0:0:0:0:
64,192,349400,128,0,349650:0:0:0:0:
192,192,349400,128,0,349817:0:0:0:0:
448,192,349567,128,0,349650:0:0:0:0:
320,192,349733,128,0,349817:0:0:0:0:
64,192,349733,128,0,349983:0:0:0:0:
448,192,349733,128,0,349983:0:0:0:0:
320,192,349900,128,0,349983:0:0:0:0:
192,192,349900,128,0,350150:0:0:0:0:
320,192,350067,128,0,350317:0:0:0:0:
448,192,350067,128,0,350317:0:0:0:0:
64,192,350067,128,0,350317:0:0:0:0:
192,192,350233,128,0,350317:0:0:0:0:
320,192,350400,128,0,350483:0:0:0:0:
448,192,350400,128,0,350650:0:0:0:0:
64,192,350400,128,0,350733:0:0:0:0:
192,192,350400,128,0,350650:0:0:0:0:
320,192,350567,128,0,350733:0:0:0:0:
192,192,350733,128,0,350900:0:0:0:0:
448,192,350733,128,0,350983:0:0:0:0:
320,192,350817,128,0,350983:0:0:0:0:
64,192,350817,128,0,350900:0:0:0:0:
192,192,350983,128,0,351233:0:0:0:0:
64,192,350983,128,0,351150:0:0:0:0:
320,192,351067,128,0,351233:0:0:0:0:
448,192,351067,128,0,351150:0:0:0:0:
448,192,351233,128,0,351317:0:0:0:0:
64,192,351233,128,0,351317:0:0:0:0:
320,192,351317,128,0,351650:0:0:0:0:
192,192,351317,128,0,351483:0:0:0:0:
448,192,351400,128,0,351650:0:0:0:0:
64,192,351400,128,0,351650:0:0:0:0:
192,192,351567,128,0,351650:0:0:0:0:
320,192,351733,128,0,352150:0:0:0:0:
64,192,351733,128,0,351983:0:0:0:0:
448,192,351733,128,0,351983:0:0:0:0:
192,192,351733,128,0,352317:0:0:0:0:
64,192,352067,128,0,352317:0:0:0:0:
448,192,352067,128,0,352150:0:0:0:0:
320,192,352233,128,0,352483:0:0:0:0:
448,192,352233,128,0,352317:0:0:0:0:
192,192,352400,128,0,352483:0:0:0:0:
448,192,352400,128,0,352650:0:0:0:0:
64,192,352400,128,0,352650:0:0:0:0:
192,192,352567,128,0,352650:0:0:0:0:
320,192,352567,128,0,352650:0:0:0:0:
320,192,352733,128,0,352983:0:0:0:0:
64,192,352733,128,0,352983:0:0:0:0:
192,192,352733,128,0,352817:0:0:0:0:
448,192,352733,128,0,352983:0:0:0:0:
192,192,352900,128,0,352983:0:0:0:0:
64,192,353067,128,0,353317:0:0:0:0:
192,192,353067,128,0,353317:0:0:0:0:
320,192,353067,128,0,353150:0:0:0:0:
448,192,353067,128,0,353317:0:0:0:0:
320,192,353233,128,0,353317:0:0:0:0:
192,192,353400,128,0,353650:0:0:0:0:
448,192,353400,128,0,353650:0:0:0:0:
64,192,353400,128,0,353483:0:0:0:0:
320,192,353400,128,0,353650:0:0:0:0:
64,192,353567,128,0,353650:0:0:0:0:
192,192,353733,128,0,353983:0:0:0:0:
448,192,353733,128,0,353817:0:0:0:0:
64,192,353733,128,0,353983:0:0:0:0:
320,192,353733,128,0,353983:0:0:0:0:
448,192,353900,128,0,353983:0:0:0:0:
192,192,354067,128,0,354317:0:0:0:0:
64,192,354067,128,0,354150:0:0:0:0:
320,192,354067,128,0,354317:0:0:0:0:
448,192,354067,128,0,354317:0:0:0:0:
64,192,354233,128,0,354317:0:0:0:0:
448,192,354400,128,0,354650:0:0:0:0:
320,192,354400,128,0,354483:0:0:0:0:
64,192,354400,128,0,354650:0:0:0:0:
192,192,354400,128,0,354650:0:0:0:0:
320,192,354567,128,0,354650:0:0:0:0:
448,192,354733,128,0,354817:0:0:0:0:
64,192,354733,128,0,355067:0:0:0:0:
320,192,354733,128,0,355067:0:0:0:0:
192,192,354733,128,0,354983:0:0:0:0:
448,192,354900,128,0,354983:0:0:0:0:
192,192,355067,128,0,355317:0:0:0:0:
448,192,355067,128,0,355317:0:0:0:0:
64,192,355233,128,0,355317:0:0:0:0:
320,192,355233,128,0,355317:0:0:0:0:
64,192,355400,128,0,355650:0:0:0:0:
320,192,355400,128,0,355483:0:0:0:0:
192,192,355400,128,0,355650:0:0:0:0:
448,192,355400,128,0,355650:0:0:0:0:
320,192,355567,128,0,355650:0:0:0:0:
192,192,355733,128,0,355817:0:0:0:0:
448,192,355733,128,0,355983:0:0:0:0:
320,192,355733,128,0,355983:0:0:0:0:
64,192,355733,128,0,355983:0:0:0:0:
192,192,355900,128,0,355983:0:0:0:0:
192,192,356067,128,0,356317:0:0:0:0:
320,192,356067,128,0,356150:0:0:0:0:
448,192,356067,128,0,356150:0:0:0:0:
64,192,356067,128,0,356317:0:0:0:0:
320,192,356233,128,0,356317:0:0:0:0:
448,192,356233,128,0,356317:0:0:0:0:
192,192,356400,128,0,356650:0:0:0:0:
448,192,356400,128,0,356650:0:0:0:0:
320,192,356400,128,0,356650:0:0:0:0:
64,192,356400,128,0,356483:0:0:0:0:
64,192,356567,128,0,356650:0:0:0:0:
192,192,356733,128,0,356983:0:0:0:0:
320,192,356733,128,0,356983:0:0:0:0:
64,192,356733,128,0,356983:0:0:0:0:
448,192,356733,128,0,356817:0:0:0:0:
448,192,356900,128,0,356983:0:0:0:0:
192,192,357067,128,0,357150:0:0:0:0:
320,192,357067,128,0,357317:0:0:0:0:
64,192,357067,128,0,357317:0:0:0:0:
448,192,357067,128,0,357317:0:0:0:0:
192,192,357233,128,0,357317:0:0:0:0:
192,192,357400,128,0,357650:0:0:0:0:
448,192,357400,128,0,357650:0:0:0:0:
64,192,357400,128,0,357483:0:0:0:0:
320,192,357400,128,0,357650:0:0:0:0:
64,192,357567,128,0,357650:0:0:0:0:
448,192,357733,128,0,357983:0:0:0:0:
320,192,357733,128,0,357817:0:0:0:0:
64,192,357733,128,0,357983:0:0:0:0:
192,192,357733,128,0,357817:0:0:0:0:
192,192,357900,128,0,358150:0:0:0:0:
320,192,357900,128,0,357983:0:0:0:0:
320,192,358067,128,0,358317:0:0:0:0:
448,192,358067,128,0,358150:0:0:0:0:
64,192,358067,128,0,358150:0:0:0:0:
448,192,358233,128,0,358317:0:0:0:0:
64,192,358233,128,0,358483:0:0:0:0:
192,192,358233,128,0,358317:0:0:0:0:
320,192,358400,128,0,358483:0:0:0:0:
448,192,358400,128,0,358650:0:0:0:0:
192,192,358400,128,0,358483:0:0:0:0:
320,192,358567,128,0,358817:0:0:0:0:
64,192,358567,128,0,358650:0:0:0:0:
192,192,358567,128,0,358650:0:0:0:0:
448,192,358733,128,0,358817:0:0:0:0:
64,192,358733,128,0,358817:0:0:0:0:
192,192,358733,128,0,358983:0:0:0:0:
64,192,358900,128,0,358983:0:0:0:0:
320,192,358900,128,0,358983:0:0:0:0:
448,192,358900,128,0,359150:0:0:0:0:
64,192,359067,128,0,359317:0:0:0:0:
320,192,359067,128,0,359150:0:0:0:0:
192,192,359067,128,0,359150:0:0:0:0:
320,192,359233,128,0,359483:0:0:0:0:
192,192,359233,128,0,359317:0:0:0:0:
448,192,359233,128,0,359317:0:0:0:0:
64,192,359400,128,0,359483:0:0:0:0:
448,192,359400,128,0,359483:0:0:0:0:
192,192,359400,128,0,359650:0:0:0:0:
64,192,359567,128,0,359650:0:0:0:0:
448,192,359567,128,0,359817:0:0:0:0:
320,192,359567,128,0,359650:0:0:0:0:
64,192,359733,128,0,359983:0:0:0:0:
320,192,359733,128,0,359817:0:0:0:0:
192,192,359733,128,0,359817:0:0:0:0:
448,192,359900,128,0,359983:0:0:0:0:
320,192,359900,128,0,359983:0:0:0:0:
192,192,359900,128,0,360150:0:0:0:0:
64,192,360067,128,0,360150:0:0:0:0:
448,192,360067,128,0,360150:0:0:0:0:
320,192,360067,128,0,360317:0:0:0:0:
64,192,360233,128,0,360483:0:0:0:0:
448,192,360233,128,0,360317:0:0:0:0:
192,192,360233,128,0,360317:0:0:0:0:
448,192,360400,128,0,360650:0:0:0:0:
320,192,360400,128,0,360483:0:0:0:0:
192,192,360400,128,0,360483:0:0:0:0:
64,192,360567,128,0,360733:0:0:0:0:
320,192,360567,128,0,360733:0:0:0:0:
192,192,360567,128,0,360733:0:0:0:0:
448,192,360733,128,0,360817:0:0:0:0:
64,192,360817,128,0,360900:0:0:0:0:
192,192,360817,128,0,360900:0:0:0:0:
320,192,360817,1,0,0:0:0:0:0
320,192,360900,128,0,360983:0:0:0:0:
448,192,360900,128,0,361067:0:0:0:0:
64,192,360983,128,0,361067:0:0:0:0:
192,192,360983,128,0,361067:0:0:0:0:
320,192,361067,128,0,361150:0:0:0:0:
192,192,361150,128,0,361233:0:0:0:0:
64,192,361150,128,0,361233:0:0:0:0:
448,192,361150,1,0,0:0:0:0:0
448,192,361233,128,0,361317:0:0:0:0:
320,192,361233,128,0,361400:0:0:0:0:
64,192,361317,128,0,361400:0:0:0:0:
192,192,361317,128,0,361400:0:0:0:0:
448,192,361400,128,0,361483:0:0:0:0:
64,192,361483,128,0,361567:0:0:0:0:
320,192,361483,1,0,0:0:0:0:0
192,192,361483,128,0,361567:0:0:0:0:
448,192,361567,128,0,361733:0:0:0:0:
320,192,361567,128,0,361650:0:0:0:0:
64,192,361650,128,0,361733:0:0:0:0:
192,192,361650,128,0,361733:0:0:0:0:
320,192,361733,128,0,361817:0:0:0:0:
448,192,361817,1,0,0:0:0:0:0
192,192,361817,128,0,361900:0:0:0:0:
64,192,361817,128,0,361900:0:0:0:0:
448,192,361900,128,0,361983:0:0:0:0:
320,192,361900,128,0,361983:0:0:0:0:
64,192,361983,128,0,362067:0:0:0:0:
192,192,361983,128,0,364400:0:0:0:0:
448,192,362067,128,0,363400:0:0:0:0:
320,192,362067,128,0,363317:0:0:0:0:
64,192,363400,128,0,363650:0:0:0:0:
320,192,363400,128,0,363983:0:0:0:0:
64,192,363733,128,0,364150:0:0:0:0:
320,192,364067,128,0,364733:0:0:0:0:
64,192,364233,128,0,364817:0:0:0:0:
448,192,364400,128,0,365150:0:0:0:0:
192,192,364733,128,0,365317:0:0:0:0:
64,192,364900,128,0,365733:0:0:0:0:
448,192,365233,128,0,365483:0:0:0:0:
192,192,365400,128,0,366067:0:0:0:0:
448,192,365567,128,0,366150:0:0:0:0:
320,192,365733,128,0,366483:0:0:0:0:
64,192,366067,128,0,366650:0:0:0:0:
448,192,366233,128,0,367067:0:0:0:0:
320,192,366567,128,0,366817:0:0:0:0:
64,192,366733,128,0,366983:0:0:0:0:
320,192,366900,128,0,367150:0:0:0:0:
64,192,367067,128,0,367400:0:0:0:0:
192,192,367067,128,0,367317:0:0:0:0:
320,192,367233,128,0,368650:0:0:0:0:
448,192,367400,128,0,368733:0:0:0:0:
192,192,367400,128,0,369150:0:0:0:0:
64,192,368733,128,0,368983:0:0:0:0:
320,192,368733,128,0,369317:0:0:0:0:
64,192,369067,128,0,369817:0:0:0:0:
192,192,369233,128,0,370067:0:0:0:0:
320,192,369400,128,0,369650:0:0:0:0:
320,192,369733,128,0,370150:0:0:0:0:
64,192,369900,128,0,370817:0:0:0:0:
448,192,370067,128,0,370483:0:0:0:0:
320,192,370233,128,0,370650:0:0:0:0:
448,192,370567,128,0,371983:0:0:0:0:
320,192,370733,128,0,371400:0:0:0:0:
64,192,370900,128,0,371483:0:0:0:0:
192,192,371400,128,0,371817:0:0:0:0:
64,192,371567,128,0,372150:0:0:0:0:
192,192,371900,128,0,372317:0:0:0:0:
448,192,372067,128,0,372483:0:0:0:0:
64,192,372233,128,0,372733:0:0:0:0:
192,192,372400,128,0,374067:0:0:0:0:
448,192,372567,128,0,374067:0:0:0:0:
320,192,372733,128,0,375400:0:0:0:0:
64,192,374067,128,0,376733:0:0:0:0:
448,192,375317,128,0,375400:0:0:0:0:
192,192,375317,128,0,376733:0:0:0:0:
320,192,376733,128,0,378067:0:0:0:0:
448,192,376733,128,0,380733:0:0:0:0:
192,192,377983,128,0,379400:0:0:0:0:
64,192,377983,128,0,378067:0:0:0:0:
320,192,379317,128,0,379400:0:0:0:0:
64,192,379317,128,0,382067:0:0:0:0:
320,192,380650,128,0,383400:0:0:0:0:
192,192,380650,128,0,380733:0:0:0:0:
448,192,381983,128,0,382067:0:0:0:0:
192,192,381983,128,0,383400:0:0:0:0:
448,192,383400,128,0,384650:0:0:0:0:
64,192,383400,128,0,384650:0:0:0:0:
320,192,384650,1,0,0:0:0:0:0
192,192,384650,128,0,384817:0:0:0:0:
448,192,384733,128,0,385067:0:0:0:0:
320,192,384733,128,0,384900:0:0:0:0:
64,192,384733,128,0,384817:0:0:0:0:
64,192,384900,128,0,385067:0:0:0:0:
192,192,384900,128,0,384983:0:0:0:0:
320,192,384983,128,0,385483:0:0:0:0:
192,192,385067,128,0,385233:0:0:0:0:
64,192,385150,128,0,385483:0:0:0:0:
448,192,385150,128,0,385233:0:0:0:0:
448,192,385317,128,0,385733:0:0:0:0:
192,192,385317,128,0,385567:0:0:0:0:
64,192,385567,128,0,385900:0:0:0:0:
320,192,385567,128,0,385650:0:0:0:0:
192,192,385650,128,0,385733:0:0:0:0:
320,192,385733,128,0,385900:0:0:0:0:
192,192,385817,128,0,386150:0:0:0:0:
448,192,385817,128,0,386317:0:0:0:0:
64,192,385983,128,0,386150:0:0:0:0:
320,192,385983,128,0,386400:0:0:0:0:
192,192,386233,128,0,386400:0:0:0:0:
64,192,386233,128,0,386317:0:0:0:0:
448,192,386400,128,0,386567:0:0:0:0:
64,192,386400,128,0,386567:0:0:0:0:
192,192,386483,128,0,386817:0:0:0:0:
320,192,386483,128,0,386983:0:0:0:0:
448,192,386650,128,0,386817:0:0:0:0:
64,192,386650,128,0,386983:0:0:0:0:
192,192,386900,128,0,387150:0:0:0:0:
448,192,386900,128,0,387317:0:0:0:0:
320,192,387067,128,0,387317:0:0:0:0:
64,192,387067,128,0,387150:0:0:0:0:
192,192,387233,128,0,387483:0:0:0:0:
64,192,387233,128,0,387650:0:0:0:0:
448,192,387400,128,0,387650:0:0:0:0:
320,192,387400,128,0,387483:0:0:0:0:
192,192,387567,128,0,387733:0:0:0:0:
320,192,387567,128,0,387733:0:0:0:0:
448,192,387733,128,0,387900:0:0:0:0:
64,192,387733,128,0,388150:0:0:0:0:
192,192,387817,128,0,387900:0:0:0:0:
320,192,387817,128,0,388150:0:0:0:0:
192,192,387983,128,0,388317:0:0:0:0:
448,192,387983,128,0,388483:0:0:0:0:
64,192,388233,128,0,388317:0:0:0:0:
320,192,388233,128,0,388483:0:0:0:0:
64,192,388400,128,0,388817:0:0:0:0:
192,192,388400,128,0,388650:0:0:0:0:
320,192,388567,128,0,388650:0:0:0:0:
448,192,388567,128,0,388983:0:0:0:0:
192,192,388733,128,0,388983:0:0:0:0:
320,192,388733,128,0,388817:0:0:0:0:
320,192,388900,128,0,389067:0:0:0:0:
64,192,388900,128,0,389067:0:0:0:0:
192,192,389067,128,0,389233:0:0:0:0:
448,192,389067,128,0,389483:0:0:0:0:
320,192,389150,128,0,389650:0:0:0:0:
64,192,389150,128,0,389233:0:0:0:0:
64,192,389317,128,0,389817:0:0:0:0:
192,192,389317,128,0,389483:0:0:0:0:
448,192,389567,128,0,389650:0:0:0:0:
192,192,389567,128,0,389817:0:0:0:0:
448,192,389733,128,0,389983:0:0:0:0:
320,192,389733,128,0,390233:0:0:0:0:
64,192,389900,128,0,389983:0:0:0:0:
192,192,389900,128,0,390150:0:0:0:0:
448,192,390067,128,0,390150:0:0:0:0:
64,192,390067,128,0,390400:0:0:0:0:
192,192,390233,128,0,390317:0:0:0:0:
448,192,390233,128,0,390400:0:0:0:0:
320,192,390317,128,0,390567:0:0:0:0:
192,192,390400,128,0,390817:0:0:0:0:
448,192,390483,128,0,390567:0:0:0:0:
64,192,390483,128,0,390983:0:0:0:0:
448,192,390650,128,0,391067:0:0:0:0:
320,192,390650,128,0,390817:0:0:0:0:
192,192,390900,128,0,391067:0:0:0:0:
320,192,390900,128,0,390983:0:0:0:0:
320,192,391067,128,0,391233:0:0:0:0:
64,192,391067,128,0,391483:0:0:0:0:
192,192,391150,128,0,391483:0:0:0:0:
448,192,391150,128,0,391233:0:0:0:0:
320,192,391317,128,0,391733:0:0:0:0:
448,192,391317,128,0,391650:0:0:0:0:
64,192,391567,128,0,391650:0:0:0:0:
192,192,391567,128,0,391733:0:0:0:0:
64,192,391733,128,0,391900:0:0:0:0:
448,192,391733,128,0,392150:0:0:0:0:
320,192,391817,128,0,391900:0:0:0:0:
192,192,391817,128,0,392150:0:0:0:0:
64,192,391983,128,0,392400:0:0:0:0:
320,192,391983,128,0,392317:0:0:0:0:
448,192,392233,128,0,392483:0:0:0:0:
192,192,392233,128,0,392733:0:0:0:0:
320,192,392400,128,0,392567:0:0:0:0:
448,192,392567,128,0,392900:0:0:0:0:
64,192,392567,128,0,392650:0:0:0:0:
64,192,392733,128,0,392983:0:0:0:0:
320,192,392733,128,0,392817:0:0:0:0:
320,192,392900,128,0,392983:0:0:0:0:
192,192,392900,128,0,393067:0:0:0:0:
320,192,393067,128,0,393483:0:0:0:0:
448,192,393067,1,0,0:0:0:0:0
64,192,393067,128,0,393233:0:0:0:0:
448,192,393150,128,0,393233:0:0:0:0:
192,192,393150,128,0,393483:0:0:0:0:
448,192,393317,128,0,393733:0:0:0:0:
64,192,393317,128,0,393650:0:0:0:0:
320,192,393567,128,0,393733:0:0:0:0:
192,192,393567,128,0,393650:0:0:0:0:
64,192,393733,128,0,394150:0:0:0:0:
192,192,393733,128,0,393900:0:0:0:0:
320,192,393817,128,0,394400:0:0:0:0:
448,192,393817,128,0,393983:0:0:0:0:
192,192,393983,128,0,394233:0:0:0:0:
64,192,394233,128,0,394567:0:0:0:0:
448,192,394233,128,0,394317:0:0:0:0:
448,192,394400,128,0,394650:0:0:0:0:
192,192,394400,128,0,394483:0:0:0:0:
192,192,394567,128,0,394733:0:0:0:0:
320,192,394567,128,0,395150:0:0:0:0:
64,192,394733,128,0,395150:0:0:0:0:
448,192,394733,128,0,394983:0:0:0:0:
192,192,394900,128,0,394983:0:0:0:0:
192,192,395067,128,0,395317:0:0:0:0:
448,192,395067,128,0,395317:0:0:0:0:
320,192,395233,128,0,395483:0:0:0:0:
64,192,395233,128,0,395317:0:0:0:0:
64,192,395400,128,0,395733:0:0:0:0:
448,192,395400,128,0,395483:0:0:0:0:
192,192,395400,128,0,395567:0:0:0:0:
320,192,395567,128,0,395650:0:0:0:0:
448,192,395567,128,0,395733:0:0:0:0:
192,192,395650,128,0,396150:0:0:0:0:
320,192,395733,128,0,395900:0:0:0:0:
448,192,395817,128,0,396150:0:0:0:0:
64,192,395817,128,0,395900:0:0:0:0:
320,192,395983,128,0,396233:0:0:0:0:
64,192,395983,128,0,396400:0:0:0:0:
448,192,396233,128,0,396567:0:0:0:0:
192,192,396233,128,0,396317:0:0:0:0:
320,192,396317,128,0,396400:0:0:0:0:
192,192,396400,128,0,396567:0:0:0:0:
320,192,396483,128,0,396817:0:0:0:0:
64,192,396483,128,0,396983:0:0:0:0:
448,192,396650,128,0,396817:0:0:0:0:
192,192,396650,128,0,397067:0:0:0:0:
320,192,396900,128,0,397067:0:0:0:0:
448,192,396900,128,0,396983:0:0:0:0:
448,192,397067,128,0,397233:0:0:0:0:
64,192,397067,128,0,397233:0:0:0:0:
320,192,397150,128,0,397483:0:0:0:0:
192,192,397150,128,0,397650:0:0:0:0:
64,192,397317,128,0,397483:0:0:0:0:
448,192,397317,128,0,397650:0:0:0:0:
320,192,397567,128,0,397817:0:0:0:0:
64,192,397567,128,0,397983:0:0:0:0:
448,192,397733,128,0,397817:0:0:0:0:
192,192,397733,128,0,397983:0:0:0:0:
320,192,397900,128,0,398150:0:0:0:0:
448,192,397900,128,0,398317:0:0:0:0:
64,192,398067,128,0,398317:0:0:0:0:
192,192,398067,128,0,398150:0:0:0:0:
192,192,398233,128,0,398400:0:0:0:0:
320,192,398233,128,0,398400:0:0:0:0:
448,192,398400,128,0,398817:0:0:0:0:
64,192,398400,128,0,398567:0:0:0:0:
192,192,398483,128,0,398817:0:0:0:0:
320,192,398483,128,0,398567:0:0:0:0:
320,192,398650,128,0,398983:0:0:0:0:
64,192,398650,128,0,399150:0:0:0:0:
192,192,398900,128,0,399150:0:0:0:0:
448,192,398900,128,0,398983:0:0:0:0:
320,192,399067,128,0,399317:0:0:0:0:
448,192,399067,128,0,399483:0:0:0:0:
192,192,399233,128,0,399317:0:0:0:0:
64,192,399233,128,0,399650:0:0:0:0:
192,192,399400,128,0,399483:0:0:0:0:
320,192,399400,128,0,399650:0:0:0:0:
448,192,399567,128,0,399733:0:0:0:0:
192,192,399567,128,0,399733:0:0:0:0:
320,192,399733,128,0,399900:0:0:0:0:
64,192,399733,128,0,400150:0:0:0:0:
448,192,399817,128,0,399900:0:0:0:0:
192,192,399817,128,0,400317:0:0:0:0:
320,192,399983,128,0,400150:0:0:0:0:
448,192,399983,128,0,400483:0:0:0:0:
320,192,400233,128,0,400483:0:0:0:0:
64,192,400233,128,0,400317:0:0:0:0:
64,192,400400,128,0,400650:0:0:0:0:
192,192,400400,128,0,400900:0:0:0:0:
320,192,400567,128,0,400817:0:0:0:0:
448,192,400567,128,0,400650:0:0:0:0:
64,192,400733,128,0,400817:0:0:0:0:
448,192,400733,128,0,401067:0:0:0:0:
64,192,400900,128,0,401067:0:0:0:0:
320,192,400900,128,0,400983:0:0:0:0:
192,192,400983,128,0,401233:0:0:0:0:
320,192,401067,128,0,401483:0:0:0:0:
64,192,401150,128,0,401233:0:0:0:0:
448,192,401150,128,0,401650:0:0:0:0:
192,192,401317,128,0,401483:0:0:0:0:
64,192,401317,128,0,401733:0:0:0:0:
192,192,401567,128,0,401650:0:0:0:0:
320,192,401567,128,0,401733:0:0:0:0:
192,192,401733,128,0,401900:0:0:0:0:
448,192,401733,128,0,402150:0:0:0:0:
64,192,401817,128,0,401900:0:0:0:0:
320,192,401817,128,0,402150:0:0:0:0:
192,192,401983,128,0,402400:0:0:0:0:
64,192,401983,128,0,402317:0:0:0:0:
320,192,402233,128,0,402400:0:0:0:0:
448,192,402233,128,0,402317:0:0:0:0:
64,192,402400,128,0,402817:0:0:0:0:
448,192,402400,128,0,402567:0:0:0:0:
192,192,402483,128,0,402567:0:0:0:0:
320,192,402483,128,0,402817:0:0:0:0:
192,192,402650,128,0,402983:0:0:0:0:
448,192,402650,128,0,403067:0:0:0:0:
64,192,402900,128,0,403150:0:0:0:0:
320,192,402900,128,0,403400:0:0:0:0:
192,192,403067,128,0,403233:0:0:0:0:
64,192,403233,128,0,403567:0:0:0:0:
448,192,403233,128,0,403317:0:0:0:0:
192,192,403400,128,0,403483:0:0:0:0:
448,192,403400,128,0,403650:0:0:0:0:
192,192,403567,128,0,403650:0:0:0:0:
320,192,403567,128,0,403733:0:0:0:0:
192,192,403733,128,0,404150:0:0:0:0:
448,192,403733,128,0,403900:0:0:0:0:
64,192,403733,1,0,0:0:0:0:0
64,192,403817,128,0,403900:0:0:0:0:
320,192,403817,128,0,404150:0:0:0:0:
64,192,403983,128,0,404400:0:0:0:0:
448,192,403983,128,0,404317:0:0:0:0:
192,192,404233,128,0,404400:0:0:0:0:
320,192,404233,128,0,404317:0:0:0:0:
448,192,404400,128,0,404817:0:0:0:0:
320,192,404400,128,0,404567:0:0:0:0:
192,192,404483,128,0,405067:0:0:0:0:
64,192,404483,128,0,404650:0:0:0:0:
320,192,404650,128,0,404900:0:0:0:0:
64,192,404900,128,0,404983:0:0:0:0:
448,192,404900,128,0,405233:0:0:0:0:
64,192,405067,128,0,405317:0:0:0:0:
320,192,405067,128,0,405150:0:0:0:0:
192,192,405233,128,0,405817:0:0:0:0:
320,192,405233,128,0,405400:0:0:0:0:
64,192,405400,128,0,405650:0:0:0:0:
448,192,405400,128,0,405817:0:0:0:0:
320,192,405567,128,0,405650:0:0:0:0:
64,192,405733,128,0,405983:0:0:0:0:
320,192,405733,128,0,405983:0:0:0:0:
192,192,405900,128,0,406317:0:0:0:0:
448,192,405900,128,0,406067:0:0:0:0:
320,192,406067,128,0,406650:0:0:0:0:
64,192,406067,128,0,406317:0:0:0:0:
64,192,406400,128,0,406650:0:0:0:0:
192,192,406400,128,0,406983:0:0:0:0:
64,192,406733,128,0,407317:0:0:0:0:
320,192,406733,128,0,406983:0:0:0:0:
192,192,407067,128,0,407650:0:0:0:0:
320,192,407067,128,0,407317:0:0:0:0:
64,192,407400,128,0,407650:0:0:0:0:
320,192,407400,128,0,407983:0:0:0:0:
64,192,407733,128,0,407983:0:0:0:0:
192,192,407733,128,0,408317:0:0:0:0:
320,192,408067,128,0,408317:0:0:0:0:
64,192,408067,128,0,408650:0:0:0:0:
320,192,408400,128,0,408650:0:0:0:0:
192,192,408400,128,0,408983:0:0:0:0:
320,192,408733,128,0,409317:0:0:0:0:
64,192,408733,128,0,408983:0:0:0:0:
192,192,409067,128,0,409650:0:0:0:0:
64,192,409067,128,0,409317:0:0:0:0:
320,192,409400,128,0,409650:0:0:0:0:
64,192,409400,128,0,409983:0:0:0:0:
320,192,409733,128,0,409983:0:0:0:0:
192,192,409733,128,0,410317:0:0:0:0:
320,192,410067,128,0,410650:0:0:0:0:
64,192,410067,128,0,410317:0:0:0:0:
64,192,410400,128,0,410650:0:0:0:0:
192,192,410400,128,0,410983:0:0:0:0:
64,192,410733,128,0,411317:0:0:0:0:
320,192,410733,128,0,410983:0:0:0:0:
320,192,411067,128,0,411317:0:0:0:0:
192,192,411067,128,0,411483:0:0:0:0:
448,192,411400,128,0,411483:0:0:0:0:
320,192,411400,128,0,411817:0:0:0:0:
64,192,411400,128,0,411650:0:0:0:0:
448,192,411567,128,0,412483:0:0:0:0:
192,192,411567,128,0,411650:0:0:0:0:
64,192,411733,128,0,411983:0:0:0:0:
192,192,411733,128,0,411817:0:0:0:0:
320,192,411900,128,0,411983:0:0:0:0:
192,192,411900,128,0,412150:0:0:0:0:
320,192,412067,128,0,412317:0:0:0:0:
64,192,412067,128,0,412150:0:0:0:0:
192,192,412233,128,0,412317:0:0:0:0:
64,192,412233,128,0,412817:0:0:0:0:
192,192,412400,128,0,412483:0:0:0:0:
320,192,412400,128,0,412650:0:0:0:0:
448,192,412567,128,0,413483:0:0:0:0:
192,192,412567,128,0,412650:0:0:0:0:
192,192,412733,128,0,412817:0:0:0:0:
320,192,412733,128,0,412983:0:0:0:0:
64,192,412900,128,0,412983:0:0:0:0:
192,192,412900,128,0,413150:0:0:0:0:
64,192,413067,128,0,413317:0:0:0:0:
320,192,413067,128,0,413150:0:0:0:0:
320,192,413233,128,0,413650:0:0:0:0:
192,192,413233,128,0,413317:0:0:0:0:
64,192,413400,128,0,413650:0:0:0:0:
192,192,413400,128,0,413483:0:0:0:0:
448,192,413567,128,0,413983:0:0:0:0:
192,192,413567,128,0,413817:0:0:0:0:
64,192,413733,128,0,413817:0:0:0:0:
320,192,413733,128,0,413983:0:0:0:0:
64,192,413900,128,0,414067:0:0:0:0:
192,192,413900,128,0,414067:0:0:0:0:
320,192,414067,128,0,414150:0:0:0:0:
448,192,414067,128,0,414150:0:0:0:0:
64,192,414150,128,0,414233:0:0:0:0:
192,192,414150,128,0,414233:0:0:0:0:
448,192,414233,128,0,414317:0:0:0:0:
320,192,414233,128,0,414317:0:0:0:0:
192,192,414317,128,0,414400:0:0:0:0:
64,192,414317,128,0,414400:0:0:0:0:
448,192,414400,128,0,414483:0:0:0:0:
320,192,414400,128,0,414483:0:0:0:0:
192,192,414483,128,0,414567:0:0:0:0:
64,192,414483,128,0,414567:0:0:0:0:
320,192,414567,128,0,414650:0:0:0:0:
448,192,414567,128,0,414650:0:0:0:0:
64,192,414650,128,0,414733:0:0:0:0:
192,192,414650,128,0,414733:0:0:0:0:
448,192,414733,128,0,414817:0:0:0:0:
320,192,414733,128,0,414817:0:0:0:0:
64,192,414817,128,0,414900:0:0:0:0:
192,192,414817,128,0,414900:0:0:0:0:
320,192,414900,128,0,414983:0:0:0:0:
448,192,414900,128,0,414983:0:0:0:0:
64,192,414983,128,0,415067:0:0:0:0:
192,192,414983,128,0,415067:0:0:0:0:
320,192,415067,128,0,415150:0:0:0:0:
448,192,415067,128,0,415150:0:0:0:0:
192,192,415150,128,0,415233:0:0:0:0:
64,192,415150,128,0,415233:0:0:0:0:
320,192,415233,128,0,416650:0:0:0:0:
448,192,415233,128,0,416650:0:0:0:0:
64,192,415317,128,0,416650:0:0:0:0:
192,192,415317,128,0,416817:0:0:0:0:
64,192,416733,128,0,417067:0:0:0:0:
448,192,416733,128,0,416817:0:0:0:0:
320,192,416733,128,0,416900:0:0:0:0:
448,192,416900,128,0,417233:0:0:0:0:
192,192,416900,128,0,416983:0:0:0:0:
320,192,416983,128,0,417067:0:0:0:0:
192,192,417067,128,0,417233:0:0:0:0:
320,192,417150,128,0,417650:0:0:0:0:
64,192,417150,128,0,417233:0:0:0:0:
192,192,417317,128,0,417567:0:0:0:0:
448,192,417317,128,0,417483:0:0:0:0:
64,192,417317,128,0,417483:0:0:0:0:
448,192,417567,128,0,417733:0:0:0:0:
64,192,417567,128,0,417900:0:0:0:0:
192,192,417650,128,0,417733:0:0:0:0:
320,192,417733,128,0,417900:0:0:0:0:
448,192,417817,128,0,417900:0:0:0:0:
192,192,417817,128,0,418317:0:0:0:0:
448,192,417983,128,0,418150:0:0:0:0:
320,192,417983,128,0,418233:0:0:0:0:
64,192,417983,128,0,418150:0:0:0:0:
448,192,418233,128,0,418400:0:0:0:0:
64,192,418233,128,0,418567:0:0:0:0:
320,192,418317,128,0,418400:0:0:0:0:
192,192,418400,128,0,418567:0:0:0:0:
448,192,418483,128,0,418817:0:0:0:0:
320,192,418483,128,0,418567:0:0:0:0:
192,192,418650,128,0,418900:0:0:0:0:
320,192,418650,128,0,418983:0:0:0:0:
64,192,418650,128,0,418817:0:0:0:0:
448,192,418900,128,0,419067:0:0:0:0:
64,192,418900,128,0,419067:0:0:0:0:
192,192,418983,128,0,419150:0:0:0:0:
320,192,419067,128,0,419150:0:0:0:0:
64,192,419150,128,0,419317:0:0:0:0:
448,192,419150,128,0,419317:0:0:0:0:
192,192,419233,128,0,419317:0:0:0:0:
320,192,419233,128,0,419483:0:0:0:0:
64,192,419400,128,0,419483:0:0:0:0:
192,192,419400,128,0,419567:0:0:0:0:
448,192,419400,128,0,419733:0:0:0:0:
64,192,419567,128,0,419733:0:0:0:0:
320,192,419567,128,0,419650:0:0:0:0:
192,192,419650,128,0,419900:0:0:0:0:
320,192,419733,128,0,420150:0:0:0:0:
64,192,419817,128,0,419900:0:0:0:0:
448,192,419817,128,0,419900:0:0:0:0:
64,192,419983,128,0,420317:0:0:0:0:
192,192,419983,128,0,420150:0:0:0:0:
448,192,419983,128,0,420317:0:0:0:0:
192,192,420233,128,0,420400:0:0:0:0:
320,192,420233,128,0,420483:0:0:0:0:
64,192,420400,128,0,420983:0:0:0:0:
448,192,420400,128,0,420650:0:0:0:0:
192,192,420483,128,0,420567:0:0:0:0:
320,192,420567,128,0,420817:0:0:0:0:
192,192,420650,128,0,420900:0:0:0:0:
320,192,420900,128,0,421067:0:0:0:0:
448,192,420900,128,0,421067:0:0:0:0:
192,192,421067,128,0,421233:0:0:0:0:
64,192,421067,128,0,421233:0:0:0:0:
320,192,421150,128,0,421650:0:0:0:0:
448,192,421150,128,0,421483:0:0:0:0:
64,192,421317,128,0,421483:0:0:0:0:
192,192,421317,128,0,421567:0:0:0:0:
64,192,421567,128,0,421983:0:0:0:0:
448,192,421567,128,0,421650:0:0:0:0:
192,192,421650,128,0,421817:0:0:0:0:
320,192,421733,128,0,421900:0:0:0:0:
448,192,421733,128,0,421817:0:0:0:0:
448,192,421900,128,0,421983:0:0:0:0:
192,192,421900,128,0,421983:0:0:0:0:
320,192,421983,128,0,422150:0:0:0:0:
64,192,422067,128,0,422150:0:0:0:0:
448,192,422067,128,0,422400:0:0:0:0:
192,192,422067,128,0,422233:0:0:0:0:
64,192,422233,128,0,422567:0:0:0:0:
320,192,422233,128,0,422317:0:0:0:0:
192,192,422317,128,0,422400:0:0:0:0:
320,192,422400,128,0,422567:0:0:0:0:
448,192,422483,128,0,422567:0:0:0:0:
192,192,422483,128,0,422983:0:0:0:0:
64,192,422650,128,0,422817:0:0:0:0:
448,192,422650,128,0,422817:0:0:0:0:
320,192,422650,128,0,422900:0:0:0:0:
448,192,422900,128,0,423233:0:0:0:0:
64,192,422900,128,0,423067:0:0:0:0:
320,192,422983,128,0,423067:0:0:0:0:
192,192,423067,128,0,423233:0:0:0:0:
320,192,423150,128,0,423650:0:0:0:0:
64,192,423150,128,0,423233:0:0:0:0:
448,192,423317,128,0,423483:0:0:0:0:
192,192,423317,128,0,423567:0:0:0:0:
64,192,423317,128,0,423483:0:0:0:0:
448,192,423567,128,0,423900:0:0:0:0:
64,192,423567,128,0,423733:0:0:0:0:
192,192,423650,128,0,423733:0:0:0:0:
320,192,423733,128,0,423900:0:0:0:0:
192,192,423817,128,0,423900:0:0:0:0:
64,192,423817,128,0,424150:0:0:0:0:
448,192,423983,128,0,424150:0:0:0:0:
192,192,423983,128,0,424317:0:0:0:0:
320,192,423983,128,0,424233:0:0:0:0:
448,192,424233,128,0,424400:0:0:0:0:
64,192,424233,128,0,424400:0:0:0:0:
320,192,424317,128,0,424483:0:0:0:0:
192,192,424400,128,0,424483:0:0:0:0:
448,192,424483,128,0,424650:0:0:0:0:
64,192,424483,128,0,424650:0:0:0:0:
320,192,424567,128,0,424650:0:0:0:0:
192,192,424567,128,0,424817:0:0:0:0:
64,192,424733,128,0,425067:0:0:0:0:
320,192,424733,128,0,424900:0:0:0:0:
448,192,424733,128,0,424817:0:0:0:0:
192,192,424900,128,0,424983:0:0:0:0:
448,192,424900,128,0,425067:0:0:0:0:
320,192,424983,128,0,425233:0:0:0:0:
192,192,425067,128,0,425483:0:0:0:0:
64,192,425150,128,0,425233:0:0:0:0:
448,192,425150,128,0,425233:0:0:0:0:
448,192,425317,128,0,425650:0:0:0:0:
320,192,425317,128,0,425483:0:0:0:0:
64,192,425317,128,0,425650:0:0:0:0:
192,192,425567,128,0,425817:0:0:0:0:
320,192,425567,128,0,425733:0:0:0:0:
64,192,425733,128,0,425983:0:0:0:0:
448,192,425733,128,0,426150:0:0:0:0:
320,192,425817,128,0,425900:0:0:0:0:
192,192,425900,128,0,426150:0:0:0:0:
320,192,425983,128,0,426233:0:0:0:0:
192,192,426233,128,0,426317:0:0:0:0:
64,192,426233,1,0,0:0:0:0:0
448,192,426233,128,0,426317:0:0:0:0:
320,192,426317,128,0,426400:0:0:0:0:
64,192,426317,128,0,426400:0:0:0:0:
192,192,426400,128,0,426567:0:0:0:0:
448,192,426400,128,0,426567:0:0:0:0:
320,192,426483,128,0,426900:0:0:0:0:
64,192,426483,128,0,426567:0:0:0:0:
192,192,426650,128,0,426983:0:0:0:0:
448,192,426650,128,0,426817:0:0:0:0:
64,192,426650,128,0,426817:0:0:0:0:
448,192,426900,128,0,427317:0:0:0:0:
64,192,426900,128,0,427067:0:0:0:0:
320,192,426983,128,0,427150:0:0:0:0:
192,192,427067,128,0,427233:0:0:0:0:
64,192,427150,128,0,427317:0:0:0:0:
320,192,427233,128,0,427317:0:0:0:0:
192,192,427317,128,0,427483:0:0:0:0:
64,192,427400,128,0,427733:0:0:0:0:
320,192,427400,128,0,427567:0:0:0:0:
448,192,427400,128,0,427483:0:0:0:0:
448,192,427567,128,0,427900:0:0:0:0:
192,192,427567,128,0,427650:0:0:0:0:
320,192,427650,128,0,427733:0:0:0:0:
192,192,427733,128,0,427900:0:0:0:0:
64,192,427817,128,0,427900:0:0:0:0:
320,192,427817,128,0,428317:0:0:0:0:
64,192,427983,128,0,428150:0:0:0:0:
192,192,427983,128,0,428233:0:0:0:0:
448,192,427983,128,0,428150:0:0:0:0:
64,192,428233,128,0,428567:0:0:0:0:
448,192,428233,128,0,428400:0:0:0:0:
192,192,428317,128,0,428400:0:0:0:0:
320,192,428400,128,0,428567:0:0:0:0:
192,192,428483,128,0,428983:0:0:0:0:
448,192,428483,128,0,428567:0:0:0:0:
64,192,428650,128,0,428817:0:0:0:0:
320,192,428650,128,0,428900:0:0:0:0:
448,192,428650,128,0,428817:0:0:0:0:
64,192,428900,128,0,429233:0:0:0:0:
448,192,428900,128,0,429067:0:0:0:0:
320,192,428983,128,0,429067:0:0:0:0:
192,192,429067,128,0,429233:0:0:0:0:
320,192,429150,128,0,429233:0:0:0:0:
448,192,429150,128,0,429483:0:0:0:0:
192,192,429317,128,0,429567:0:0:0:0:
64,192,429317,128,0,429483:0:0:0:0:
320,192,429317,128,0,429650:0:0:0:0:
448,192,429567,128,0,429733:0:0:0:0:
64,192,429567,128,0,429733:0:0:0:0:
192,192,429650,128,0,429817:0:0:0:0:
320,192,429733,128,0,429817:0:0:0:0:
64,192,429817,128,0,429983:0:0:0:0:
448,192,429817,128,0,429983:0:0:0:0:
192,192,429900,128,0,429983:0:0:0:0:
320,192,429900,128,0,430150:0:0:0:0:
448,192,430067,128,0,430400:0:0:0:0:
64,192,430067,128,0,430150:0:0:0:0:
192,192,430067,128,0,430233:0:0:0:0:
64,192,430233,128,0,430400:0:0:0:0:
320,192,430233,128,0,430317:0:0:0:0:
192,192,430317,128,0,430567:0:0:0:0:
320,192,430400,128,0,430817:0:0:0:0:
448,192,430483,128,0,430567:0:0:0:0:
64,192,430483,128,0,430567:0:0:0:0:
448,192,430650,128,0,430983:0:0:0:0:
192,192,430650,128,0,430817:0:0:0:0:
64,192,430650,128,0,430983:0:0:0:0:
320,192,430900,128,0,431150:0:0:0:0:
192,192,430900,128,0,431067:0:0:0:0:
448,192,431067,128,0,431317:0:0:0:0:
64,192,431067,128,0,431650:0:0:0:0:
192,192,431150,128,0,431233:0:0:0:0:
320,192,431233,128,0,431483:0:0:0:0:
192,192,431317,128,0,431567:0:0:0:0:
448,192,431567,128,0,431733:0:0:0:0:
320,192,431567,128,0,431733:0:0:0:0:
64,192,431733,128,0,431900:0:0:0:0:
192,192,431733,128,0,431900:0:0:0:0:
448,192,431817,128,0,432150:0:0:0:0:
320,192,431817,128,0,432233:0:0:0:0:
64,192,431983,128,0,432150:0:0:0:0:
192,192,431983,128,0,432233:0:0:0:0:
448,192,432233,128,0,432317:0:0:0:0:
64,192,432233,128,0,432317:0:0:0:0:
320,192,432317,128,0,432567:0:0:0:0:
192,192,432317,128,0,432483:0:0:0:0:
448,192,432400,128,0,432483:0:0:0:0:
64,192,432400,128,0,432650:0:0:0:0:
448,192,432567,128,0,432650:0:0:0:0:
192,192,432567,128,0,432650:0:0:0:0:
320,192,432650,128,0,432817:0:0:0:0:
448,192,432733,128,0,433067:0:0:0:0:
192,192,432733,128,0,432900:0:0:0:0:
64,192,432733,128,0,432817:0:0:0:0:
320,192,432900,128,0,432983:0:0:0:0:
64,192,432900,128,0,433233:0:0:0:0:
192,192,432983,128,0,433067:0:0:0:0:
320,192,433067,128,0,433233:0:0:0:0:
448,192,433150,128,0,433233:0:0:0:0:
192,192,433150,128,0,433650:0:0:0:0:
448,192,433317,128,0,433483:0:0:0:0:
320,192,433317,128,0,433567:0:0:0:0:
64,192,433317,128,0,433483:0:0:0:0:
64,192,433567,128,0,433733:0:0:0:0:
448,192,433567,128,0,433900:0:0:0:0:
320,192,433650,128,0,433733:0:0:0:0:
192,192,433733,128,0,433900:0:0:0:0:
64,192,433817,128,0,433900:0:0:0:0:
320,192,433817,128,0,434317:0:0:0:0:
192,192,433983,128,0,434233:0:0:0:0:
64,192,433983,128,0,434150:0:0:0:0:
448,192,433983,128,0,434150:0:0:0:0:
448,192,434233,128,0,434567:0:0:0:0:
64,192,434233,128,0,434400:0:0:0:0:
192,192,434317,128,0,434400:0:0:0:0:
320,192,434400,128,0,434567:0:0:0:0:
64,192,434483,128,0,434817:0:0:0:0:
192,192,434483,128,0,434567:0:0:0:0:
448,192,434650,128,0,434817:0:0:0:0:
192,192,434650,128,0,434983:0:0:0:0:
320,192,434650,128,0,434900:0:0:0:0:
64,192,434900,128,0,435067:0:0:0:0:
448,192,434900,128,0,435067:0:0:0:0:
320,192,434983,128,0,435150:0:0:0:0:
192,192,435067,128,0,435150:0:0:0:0:
64,192,435150,128,0,435317:0:0:0:0:
448,192,435150,128,0,435317:0:0:0:0:
192,192,435233,128,0,435483:0:0:0:0:
320,192,435233,128,0,435317:0:0:0:0:
64,192,435400,128,0,435733:0:0:0:0:
448,192,435400,128,0,435483:0:0:0:0:
320,192,435400,128,0,435567:0:0:0:0:
192,192,435567,128,0,435650:0:0:0:0:
448,192,435567,128,0,435733:0:0:0:0:
320,192,435650,128,0,435900:0:0:0:0:
192,192,435733,128,0,436150:0:0:0:0:
448,192,435817,128,0,435900:0:0:0:0:
64,192,435817,128,0,435900:0:0:0:0:
448,192,435983,128,0,436317:0:0:0:0:
320,192,435983,128,0,436150:0:0:0:0:
64,192,435983,128,0,436317:0:0:0:0:
192,192,436233,128,0,436483:0:0:0:0:
320,192,436233,128,0,436400:0:0:0:0:
448,192,436400,128,0,436817:0:0:0:0:
64,192,436400,128,0,436650:0:0:0:0:
320,192,436483,128,0,436567:0:0:0:0:
192,192,436567,128,0,436817:0:0:0:0:
320,192,436650,128,0,436900:0:0:0:0:
64,192,436900,1,0,0:0:0:0:0
192,192,436900,128,0,436983:0:0:0:0:
448,192,436900,128,0,436983:0:0:0:0:
320,192,436983,128,0,437067:0:0:0:0:
64,192,436983,128,0,437067:0:0:0:0:
192,192,437067,128,0,437233:0:0:0:0:
448,192,437067,128,0,437233:0:0:0:0:
64,192,437150,128,0,437233:0:0:0:0:
320,192,437150,128,0,437567:0:0:0:0:
448,192,437317,128,0,437483:0:0:0:0:
64,192,437317,128,0,437483:0:0:0:0:
192,192,437317,128,0,437650:0:0:0:0:
64,192,437567,128,0,437733:0:0:0:0:
448,192,437567,128,0,437983:0:0:0:0:
320,192,437650,128,0,437817:0:0:0:0:
192,192,437733,128,0,437900:0:0:0:0:
64,192,437817,128,0,437983:0:0:0:0:
320,192,437900,128,0,438067:0:0:0:0:
192,192,437983,128,0,438233:0:0:0:0:
448,192,438067,128,0,438400:0:0:0:0:
64,192,438067,128,0,438150:0:0:0:0:
320,192,438150,128,0,438317:0:0:0:0:
64,192,438233,128,0,438317:0:0:0:0:
192,192,438317,128,0,438483:0:0:0:0:
320,192,438400,128,0,438567:0:0:0:0:
64,192,438400,128,0,438650:0:0:0:0:
448,192,438483,128,0,438650:0:0:0:0:
192,192,438567,128,0,438733:0:0:0:0:
320,192,438650,128,0,438817:0:0:0:0:
64,192,438733,128,0,438983:0:0:0:0:
448,192,438733,128,0,438983:0:0:0:0:
192,192,438817,128,0,438900:0:0:0:0:
320,192,438900,128,0,439150:0:0:0:0:
192,192,438983,128,0,439067:0:0:0:0:
64,192,439067,128,0,439317:0:0:0:0:
448,192,439067,128,0,439233:0:0:0:0:
192,192,439150,128,0,439317:0:0:0:0:
320,192,439233,128,0,439400:0:0:0:0:
448,192,439317,128,0,439483:0:0:0:0:
64,192,439400,128,0,439733:0:0:0:0:
192,192,439400,128,0,439650:0:0:0:0:
320,192,439483,128,0,439567:0:0:0:0:
448,192,439567,128,0,439650:0:0:0:0:
320,192,439650,128,0,439817:0:0:0:0:
192,192,439733,128,0,439900:0:0:0:0:
448,192,439733,128,0,439983:0:0:0:0:
64,192,439817,128,0,439983:0:0:0:0:
320,192,439900,128,0,440150:0:0:0:0:
192,192,439983,128,0,440067:0:0:0:0:
64,192,440067,128,0,440317:0:0:0:0:
448,192,440067,128,0,440233:0:0:0:0:
192,192,440150,128,0,440317:0:0:0:0:
320,192,440233,128,0,440400:0:0:0:0:
448,192,440317,128,0,440483:0:0:0:0:
192,192,440400,128,0,440650:0:0:0:0:
64,192,440400,128,0,440733:0:0:0:0:
320,192,440483,128,0,440567:0:0:0:0:
448,192,440567,128,0,440650:0:0:0:0:
320,192,440650,128,0,440900:0:0:0:0:
192,192,440733,128,0,440983:0:0:0:0:
448,192,440733,128,0,440817:0:0:0:0:
64,192,440817,128,0,440983:0:0:0:0:
448,192,440900,128,0,441150:0:0:0:0:
320,192,440983,128,0,441067:0:0:0:0:
64,192,441067,128,0,441483:0:0:0:0:
192,192,441067,128,0,441233:0:0:0:0:
320,192,441150,128,0,441317:0:0:0:0:
448,192,441233,128,0,441317:0:0:0:0:
192,192,441317,128,0,441400:0:0:0:0:
448,192,441400,128,0,441567:0:0:0:0:
320,192,441400,128,0,441650:0:0:0:0:
192,192,441483,128,0,441650:0:0:0:0:
64,192,441567,128,0,441733:0:0:0:0:
448,192,441650,128,0,441983:0:0:0:0:
320,192,441733,128,0,441900:0:0:0:0:
192,192,441733,128,0,441817:0:0:0:0:
64,192,441817,128,0,441983:0:0:0:0:
192,192,441900,128,0,442067:0:0:0:0:
320,192,441983,128,0,442150:0:0:0:0:
64,192,442067,128,0,442317:0:0:0:0:
448,192,442067,128,0,442233:0:0:0:0:
192,192,442150,128,0,442317:0:0:0:0:
320,192,442233,128,0,442400:0:0:0:0:
448,192,442317,128,0,442483:0:0:0:0:
192,192,442400,128,0,442650:0:0:0:0:
64,192,442400,128,0,442733:0:0:0:0:
320,192,442483,128,0,442567:0:0:0:0:
448,192,442567,128,0,442650:0:0:0:0:
320,192,442650,128,0,442817:0:0:0:0:
448,192,442733,128,0,442817:0:0:0:0:
192,192,442733,128,0,442900:0:0:0:0:
64,192,442817,128,0,442900:0:0:0:0:
448,192,442900,128,0,442983:0:0:0:0:
320,192,442900,128,0,442983:0:0:0:0:
192,192,442983,128,0,443067:0:0:0:0:
64,192,442983,128,0,443150:0:0:0:0:
320,192,443067,128,0,443233:0:0:0:0:
448,192,443067,128,0,443150:0:0:0:0:
192,192,443150,128,0,443233:0:0:0:0:
448,192,443233,128,0,443317:0:0:0:0:
64,192,443233,128,0,443317:0:0:0:0:
320,192,443317,128,0,443567:0:0:0:0:
192,192,443317,128,0,443400:0:0:0:0:
448,192,443400,128,0,443483:0:0:0:0:
64,192,443400,128,0,443733:0:0:0:0:
192,192,443483,128,0,443650:0:0:0:0:
448,192,443567,128,0,443650:0:0:0:0:
320,192,443650,128,0,443817:0:0:0:0:
192,192,443733,128,0,443900:0:0:0:0:
448,192,443733,128,0,443983:0:0:0:0:
64,192,443817,128,0,443983:0:0:0:0:
320,192,443900,128,0,444067:0:0:0:0:
192,192,443983,128,0,444150:0:0:0:0:
64,192,444067,128,0,444317:0:0:0:0:
448,192,444067,128,0,444317:0:0:0:0:
320,192,444150,128,0,444233:0:0:0:0:
192,192,444233,128,0,444483:0:0:0:0:
320,192,444317,128,0,444400:0:0:0:0:
64,192,444400,128,0,444567:0:0:0:0:
448,192,444400,128,0,444650:0:0:0:0:
320,192,444483,128,0,444650:0:0:0:0:
192,192,444567,128,0,444733:0:0:0:0:
64,192,444650,128,0,444817:0:0:0:0:
448,192,444733,128,0,445067:0:0:0:0:
320,192,444733,128,0,444983:0:0:0:0:
192,192,444817,128,0,444900:0:0:0:0:
64,192,444900,128,0,444983:0:0:0:0:
192,192,444983,128,0,445150:0:0:0:0:
64,192,445067,128,0,445317:0:0:0:0:
320,192,445067,128,0,445233:0:0:0:0:
448,192,445150,128,0,445317:0:0:0:0:
192,192,445233,128,0,445483:0:0:0:0:
320,192,445317,128,0,445400:0:0:0:0:
64,192,445400,128,0,445567:0:0:0:0:
448,192,445400,128,0,445650:0:0:0:0:
320,192,445483,128,0,445650:0:0:0:0:
192,192,445567,128,0,445733:0:0:0:0:
64,192,445650,128,0,445817:0:0:0:0:
448,192,445733,128,0,446067:0:0:0:0:
320,192,445733,128,0,445983:0:0:0:0:
192,192,445817,128,0,445900:0:0:0:0:
64,192,445900,128,0,445983:0:0:0:0:
192,192,445983,128,0,446233:0:0:0:0:
64,192,446067,128,0,446150:0:0:0:0:
320,192,446067,128,0,446317:0:0:0:0:
448,192,446150,128,0,446317:0:0:0:0:
64,192,446233,128,0,446483:0:0:0:0:
192,192,446317,128,0,446400:0:0:0:0:
448,192,446400,128,0,446817:0:0:0:0:
320,192,446400,128,0,446567:0:0:0:0:
192,192,446483,128,0,446650:0:0:0:0:
64,192,446567,128,0,446650:0:0:0:0:
320,192,446650,128,0,446733:0:0:0:0:
192,192,446733,128,0,446983:0:0:0:0:
64,192,446733,128,0,446900:0:0:0:0:
320,192,446817,128,0,446983:0:0:0:0:
448,192,446900,128,0,447067:0:0:0:0:
64,192,446983,128,0,447317:0:0:0:0:
320,192,447067,128,0,447150:0:0:0:0:
192,192,447067,128,0,447233:0:0:0:0:
448,192,447150,128,0,447317:0:0:0:0:
320,192,447233,128,0,447400:0:0:0:0:
192,192,447317,128,0,447483:0:0:0:0:
448,192,447400,128,0,447483:0:0:0:0:
64,192,447400,128,0,447567:0:0:0:0:
320,192,447483,128,0,447567:0:0:0:0:
448,192,447567,128,0,447650:0:0:0:0:
192,192,447567,128,0,447650:0:0:0:0:
320,192,447650,128,0,447733:0:0:0:0:
64,192,447650,128,0,447817:0:0:0:0:
192,192,447733,128,0,447900:0:0:0:0:
448,192,447733,128,0,447817:0:0:0:0:
320,192,447817,128,0,447900:0:0:0:0:
448,192,447900,128,0,447983:0:0:0:0:
64,192,447900,128,0,447983:0:0:0:0:
192,192,447983,128,0,448400:0:0:0:0:
320,192,447983,128,0,448733:0:0:0:0:
448,192,448067,128,0,448650:0:0:0:0:
64,192,448067,128,0,448650:0:0:0:0:
64,192,448733,128,0,448817:0:0:0:0:
448,192,448733,128,0,449067:0:0:0:0:
192,192,448733,128,0,448900:0:0:0:0:
320,192,448817,128,0,448983:0:0:0:0:
64,192,448900,128,0,448983:0:0:0:0:
192,192,448983,128,0,449150:0:0:0:0:
64,192,449067,128,0,449317:0:0:0:0:
320,192,449067,128,0,449233:0:0:0:0:
448,192,449150,128,0,449317:0:0:0:0:
192,192,449233,128,0,449400:0:0:0:0:
320,192,449317,128,0,449483:0:0:0:0:
64,192,449400,128,0,449650:0:0:0:0:
448,192,449400,128,0,449650:0:0:0:0:
192,192,449483,128,0,449567:0:0:0:0:
320,192,449567,128,0,449817:0:0:0:0:
192,192,449650,128,0,449733:0:0:0:0:
64,192,449733,128,0,449983:0:0:0:0:
448,192,449733,128,0,449900:0:0:0:0:
192,192,449817,128,0,449983:0:0:0:0:
320,192,449900,128,0,450067:0:0:0:0:
448,192,449983,128,0,450150:0:0:0:0:
64,192,450067,128,0,450400:0:0:0:0:
192,192,450067,128,0,450317:0:0:0:0:
320,192,450150,128,0,450233:0:0:0:0:
448,192,450233,128,0,450317:0:0:0:0:
320,192,450317,128,0,450483:0:0:0:0:
448,192,450400,128,0,450650:0:0:0:0:
192,192,450400,128,0,450567:0:0:0:0:
64,192,450483,128,0,450650:0:0:0:0:
320,192,450567,128,0,450817:0:0:0:0:
192,192,450650,128,0,450733:0:0:0:0:
64,192,450733,128,0,450983:0:0:0:0:
448,192,450733,128,0,450900:0:0:0:0:
192,192,450817,128,0,450983:0:0:0:0:
320,192,450900,128,0,451067:0:0:0:0:
448,192,450983,128,0,451150:0:0:0:0:
64,192,451067,128,0,451400:0:0:0:0:
192,192,451067,128,0,451317:0:0:0:0:
320,192,451150,128,0,451233:0:0:0:0:
448,192,451233,128,0,451317:0:0:0:0:
320,192,451317,128,0,451567:0:0:0:0:
192,192,451400,128,0,451650:0:0:0:0:
448,192,451400,128,0,451483:0:0:0:0:
64,192,451483,128,0,451650:0:0:0:0:
448,192,451567,128,0,451817:0:0:0:0:
320,192,451650,128,0,451733:0:0:0:0:
64,192,451733,128,0,452150:0:0:0:0:
192,192,451733,128,0,451900:0:0:0:0:
320,192,451817,128,0,451983:0:0:0:0:
448,192,451900,128,0,451983:0:0:0:0:
192,192,451983,128,0,452067:0:0:0:0:
320,192,452067,128,0,452317:0:0:0:0:
448,192,452067,128,0,452233:0:0:0:0:
192,192,452150,128,0,452317:0:0:0:0:
64,192,452233,128,0,452400:0:0:0:0:
448,192,452317,128,0,452650:0:0:0:0:
320,192,452400,128,0,452567:0:0:0:0:
192,192,452400,128,0,452483:0:0:0:0:
64,192,452483,128,0,452650:0:0:0:0:
192,192,452567,128,0,452733:0:0:0:0:
320,192,452650,128,0,452817:0:0:0:0:
64,192,452733,128,0,452983:0:0:0:0:
448,192,452733,128,0,452900:0:0:0:0:
192,192,452817,128,0,452983:0:0:0:0:
320,192,452900,128,0,453067:0:0:0:0:
448,192,452983,128,0,453150:0:0:0:0:
64,192,453067,128,0,453400:0:0:0:0:
192,192,453067,128,0,453317:0:0:0:0:
320,192,453150,128,0,453233:0:0:0:0:
448,192,453233,128,0,453317:0:0:0:0:
320,192,453317,128,0,453483:0:0:0:0:
448,192,453400,128,0,453483:0:0:0:0:
192,192,453400,128,0,453567:0:0:0:0:
64,192,453483,128,0,453567:0:0:0:0:
320,192,453567,128,0,453650:0:0:0:0:
448,192,453567,128,0,453650:0:0:0:0:
192,192,453650,128,0,453733:0:0:0:0:
64,192,453650,128,0,453817:0:0:0:0:
448,192,453733,128,0,453817:0:0:0:0:
320,192,453733,128,0,453900:0:0:0:0:
192,192,453817,128,0,453900:0:0:0:0:
448,192,453900,128,0,453983:0:0:0:0:
64,192,453900,128,0,453983:0:0:0:0:
320,192,453983,128,0,454233:0:0:0:0:
192,192,453983,128,0,454067:0:0:0:0:
64,192,454067,128,0,454400:0:0:0:0:
448,192,454067,128,0,454150:0:0:0:0:
192,192,454150,128,0,454317:0:0:0:0:
448,192,454233,128,0,454317:0:0:0:0:
320,192,454317,128,0,454483:0:0:0:0:
192,192,454400,128,0,454567:0:0:0:0:
448,192,454400,128,0,454650:0:0:0:0:
64,192,454483,128,0,454650:0:0:0:0:
320,192,454567,128,0,454733:0:0:0:0:
192,192,454650,128,0,454817:0:0:0:0:
64,192,454733,128,0,454983:0:0:0:0:
448,192,454733,128,0,454983:0:0:0:0:
320,192,454817,128,0,454900:0:0:0:0:
192,192,454900,128,0,455150:0:0:0:0:
320,192,454983,128,0,455067:0:0:0:0:
64,192,455067,128,0,455233:0:0:0:0:
448,192,455067,128,0,455317:0:0:0:0:
320,192,455150,128,0,455317:0:0:0:0:
192,192,455233,128,0,455400:0:0:0:0:
64,192,455317,128,0,455483:0:0:0:0:
320,192,455400,128,0,455650:0:0:0:0:
448,192,455400,128,0,455733:0:0:0:0:
192,192,455483,128,0,455567:0:0:0:0:
64,192,455567,128,0,455650:0:0:0:0:
192,192,455650,128,0,455817:0:0:0:0:
320,192,455733,128,0,455900:0:0:0:0:
64,192,455733,128,0,455983:0:0:0:0:
448,192,455817,128,0,455983:0:0:0:0:
192,192,455900,128,0,456150:0:0:0:0:
320,192,455983,128,0,456067:0:0:0:0:
64,192,456067,128,0,456233:0:0:0:0:
448,192,456067,128,0,456317:0:0:0:0:
320,192,456150,128,0,456317:0:0:0:0:
192,192,456233,128,0,456400:0:0:0:0:
64,192,456317,128,0,456483:0:0:0:0:
448,192,456400,128,0,456483:0:0:0:0:
320,192,456400,128,0,456567:0:0:0:0:
192,192,456483,128,0,456650:0:0:0:0:
448,192,456567,128,0,456733:0:0:0:0:
64,192,456567,128,0,456650:0:0:0:0:
320,192,456650,128,0,456817:0:0:0:0:
192,192,456733,128,0,456900:0:0:0:0:
64,192,456733,128,0,456817:0:0:0:0:
448,192,456817,128,0,456983:0:0:0:0:
320,192,456900,128,0,456983:0:0:0:0:
64,192,456900,128,0,457067:0:0:0:0:
192,192,456983,128,0,457150:0:0:0:0:
320,192,457067,128,0,457233:0:0:0:0:
448,192,457067,128,0,457150:0:0:0:0:
64,192,457150,128,0,457317:0:0:0:0:
192,192,457233,128,0,457400:0:0:0:0:
448,192,457233,128,0,457317:0:0:0:0:
320,192,457317,128,0,457483:0:0:0:0:
448,192,457400,128,0,457483:0:0:0:0:
64,192,457400,128,0,457567:0:0:0:0:
192,192,457483,128,0,457733:0:0:0:0:
320,192,457567,128,0,457692:0:0:0:0:
448,192,457567,128,0,457650:0:0:0:0:
64,192,457650,128,0,457775:0:0:0:0:
448,192,457733,128,0,457817:0:0:0:0:
320,192,457775,128,0,457858:0:0:0:0:
192,192,457817,128,0,457900:0:0:0:0:
64,192,457858,128,0,457942:0:0:0:0:
448,192,457900,128,0,458067:0:0:0:0:
320,192,457942,128,0,459150:0:0:0:0:
192,192,457983,128,0,458733:0:0:0:0:
64,192,458025,128,0,458983:0:0:0:0:
448,192,458733,128,0,458983:0:0:0:0:
192,192,459067,128,0,459150:0:0:0:0:
448,192,459067,128,0,459317:0:0:0:0:
64,192,459067,128,0,459317:0:0:0:0:
192,192,459233,128,0,459483:0:0:0:0:
320,192,459233,128,0,459317:0:0:0:0:
64,192,459400,128,0,459650:0:0:0:0:
448,192,459400,128,0,459650:0:0:0:0:
320,192,459400,128,0,459817:0:0:0:0:
192,192,459567,128,0,459650:0:0:0:0:
64,192,459733,128,0,460150:0:0:0:0:
192,192,459733,128,0,459983:0:0:0:0:
448,192,459733,128,0,459983:0:0:0:0:
320,192,459900,128,0,459983:0:0:0:0:
320,192,460067,128,0,460317:0:0:0:0:
448,192,460067,128,0,460483:0:0:0:0:
192,192,460067,128,0,460317:0:0:0:0:
64,192,460233,128,0,460317:0:0:0:0:
320,192,460400,128,0,460650:0:0:0:0:
192,192,460400,128,0,460650:0:0:0:0:
64,192,460400,128,0,460817:0:0:0:0:
448,192,460567,128,0,460650:0:0:0:0:
192,192,460733,128,0,460983:0:0:0:0:
448,192,460733,128,0,460983:0:0:0:0:
320,192,460733,128,0,461150:0:0:0:0:
64,192,460900,128,0,460983:0:0:0:0:
64,192,461067,128,0,461317:0:0:0:0:
192,192,461067,128,0,461317:0:0:0:0:
448,192,461067,128,0,461483:0:0:0:0:
320,192,461233,128,0,461317:0:0:0:0:
64,192,461400,128,0,461650:0:0:0:0:
192,192,461400,128,0,461817:0:0:0:0:
320,192,461400,128,0,461650:0:0:0:0:
448,192,461567,128,0,461650:0:0:0:0:
448,192,461733,128,0,461983:0:0:0:0:
64,192,461733,128,0,461983:0:0:0:0:
320,192,461733,128,0,461817:0:0:0:0:
192,192,461900,128,0,461983:0:0:0:0:
320,192,461900,128,0,462150:0:0:0:0:
448,192,462067,128,0,462317:0:0:0:0:
64,192,462067,128,0,462317:0:0:0:0:
192,192,462067,128,0,462483:0:0:0:0:
320,192,462233,128,0,462317:0:0:0:0:
64,192,462400,128,0,462650:0:0:0:0:
448,192,462400,128,0,462817:0:0:0:0:
320,192,462400,128,0,462650:0:0:0:0:
192,192,462567,128,0,462650:0:0:0:0:
192,192,462733,128,0,462983:0:0:0:0:
64,192,462733,128,0,463150:0:0:0:0:
320,192,462733,128,0,462983:0:0:0:0:
448,192,462900,128,0,462983:0:0:0:0:
192,192,463067,128,0,463317:0:0:0:0:
448,192,463067,128,0,463317:0:0:0:0:
320,192,463067,128,0,463400:0:0:0:0:
64,192,463233,128,0,463400:0:0:0:0:
192,192,463400,128,0,463650:0:0:0:0:
448,192,463400,128,0,463567:0:0:0:0:
320,192,463483,128,0,463650:0:0:0:0:
64,192,463483,128,0,463567:0:0:0:0:
448,192,463650,128,0,463733:0:0:0:0:
64,192,463650,128,0,463733:0:0:0:0:
192,192,463733,128,0,463900:0:0:0:0:
320,192,463733,128,0,463817:0:0:0:0:
448,192,463817,128,0,463983:0:0:0:0:
64,192,463817,128,0,463900:0:0:0:0:
320,192,463900,128,0,463983:0:0:0:0:
192,192,463983,128,0,464150:0:0:0:0:
64,192,463983,128,0,464150:0:0:0:0:
448,192,464067,128,0,464233:0:0:0:0:
320,192,464067,128,0,464233:0:0:0:0:
192,192,464233,128,0,464400:0:0:0:0:
64,192,464233,128,0,464650:0:0:0:0:
320,192,464317,128,0,464650:0:0:0:0:
448,192,464317,128,0,464650:0:0:0:0:
192,192,464733,128,0,464817:0:0:0:0:
448,192,464733,128,0,464983:0:0:0:0:
320,192,464733,128,0,465150:0:0:0:0:
64,192,464733,128,0,464983:0:0:0:0:
192,192,464900,128,0,464983:0:0:0:0:
448,192,465067,128,0,465317:0:0:0:0:
192,192,465067,128,0,465317:0:0:0:0:
64,192,465067,128,0,465483:0:0:0:0:
320,192,465233,128,0,465317:0:0:0:0:
448,192,465400,128,0,465817:0:0:0:0:
320,192,465400,128,0,465650:0:0:0:0:
192,192,465400,128,0,465650:0:0:0:0:
64,192,465567,128,0,465650:0:0:0:0:
320,192,465733,128,0,465983:0:0:0:0:
64,192,465733,128,0,466150:0:0:0:0:
192,192,465733,128,0,465983:0:0:0:0:
448,192,465900,128,0,465983:0:0:0:0:
320,192,466067,128,0,466483:0:0:0:0:
448,192,466067,128,0,466317:0:0:0:0:
192,192,466067,128,0,466317:0:0:0:0:
64,192,466233,128,0,466317:0:0:0:0:
64,192,466400,128,0,466650:0:0:0:0:
448,192,466400,128,0,466817:0:0:0:0:
192,192,466400,128,0,466650:0:0:0:0:
320,192,466567,128,0,466650:0:0:0:0:
192,192,466733,128,0,467150:0:0:0:0:
320,192,466733,128,0,466983:0:0:0:0:
64,192,466733,128,0,466983:0:0:0:0:
448,192,466900,128,0,466983:0:0:0:0:
64,192,467067,128,0,467317:0:0:0:0:
448,192,467067,128,0,467317:0:0:0:0:
320,192,467067,128,0,467150:0:0:0:0:
192,192,467233,128,0,467483:0:0:0:0:
320,192,467233,128,0,467317:0:0:0:0:
320,192,467400,128,0,467650:0:0:0:0:
448,192,467400,128,0,467650:0:0:0:0:
64,192,467400,128,0,467650:0:0:0:0:
192,192,467567,128,0,467650:0:0:0:0:
448,192,467733,128,0,467983:0:0:0:0:
320,192,467733,128,0,467817:0:0:0:0:
192,192,467733,128,0,467983:0:0:0:0:
64,192,467733,128,0,467983:0:0:0:0:
320,192,467900,128,0,468317:0:0:0:0:
448,192,468067,128,0,468150:0:0:0:0:
192,192,468067,128,0,468317:0:0:0:0:
64,192,468067,128,0,468317:0:0:0:0:
448,192,468233,128,0,468317:0:0:0:0:
448,192,468400,128,0,468650:0:0:0:0:
192,192,468400,128,0,468483:0:0:0:0:
64,192,468400,128,0,468650:0:0:0:0:
320,192,468400,128,0,468567:0:0:0:0:
192,192,468567,128,0,468900:0:0:0:0:
320,192,468650,128,0,468817:0:0:0:0:
448,192,468733,128,0,468983:0:0:0:0:
64,192,468733,128,0,468983:0:0:0:0:
320,192,468900,128,0,469150:0:0:0:0:
192,192,468983,128,0,469150:0:0:0:0:
448,192,469067,128,0,469317:0:0:0:0:
64,192,469067,128,0,469317:0:0:0:0:
320,192,469233,128,0,469317:0:0:0:0:
192,192,469233,128,0,469483:0:0:0:0:
320,192,469400,128,0,469650:0:0:0:0:
64,192,469400,128,0,469483:0:0:0:0:
448,192,469400,128,0,469483:0:0:0:0:
448,192,469567,128,0,469650:0:0:0:0:
64,192,469567,128,0,469817:0:0:0:0:
192,192,469567,128,0,469650:0:0:0:0:
448,192,469733,128,0,469983:0:0:0:0:
192,192,469733,128,0,469817:0:0:0:0:
320,192,469733,128,0,469817:0:0:0:0:
192,192,469900,128,0,469983:0:0:0:0:
320,192,469900,128,0,469983:0:0:0:0:
64,192,469900,128,0,469983:0:0:0:0:
320,192,470067,128,0,470317:0:0:0:0:
64,192,470067,128,0,470317:0:0:0:0:
448,192,470067,128,0,470317:0:0:0:0:
192,192,470067,128,0,470150:0:0:0:0:
192,192,470233,128,0,470317:0:0:0:0:
448,192,470400,128,0,470650:0:0:0:0:
64,192,470400,128,0,470650:0:0:0:0:
192,192,470400,128,0,470650:0:0:0:0:
320,192,470400,128,0,470483:0:0:0:0:
320,192,470567,128,0,470650:0:0:0:0:
192,192,470733,128,0,470983:0:0:0:0:
448,192,470733,128,0,470983:0:0:0:0:
64,192,470733,128,0,470817:0:0:0:0:
320,192,470733,128,0,470983:0:0:0:0:
64,192,470900,128,0,470983:0:0:0:0:
448,192,471067,128,0,471150:0:0:0:0:
64,192,471067,128,0,471317:0:0:0:0:
320,192,471067,128,0,471317:0:0:0:0:
192,192,471067,128,0,471317:0:0:0:0:
448,192,471233,128,0,471317:0:0:0:0:
448,192,471400,128,0,471650:0:0:0:0:
64,192,471400,128,0,471483:0:0:0:0:
320,192,471400,128,0,471650:0:0:0:0:
192,192,471400,128,0,471650:0:0:0:0:
64,192,471567,128,0,471650:0:0:0:0:
448,192,471733,128,0,471942:0:0:0:0:
192,192,471733,128,0,471858:0:0:0:0:
320,192,471733,128,0,471900:0:0:0:0:
64,192,471733,128,0,471817:0:0:0:0:
64,192,471900,128,0,471983:0:0:0:0:
192,192,471942,1,0,0:0:0:0:0
320,192,471983,1,0,0:0:0:0:0
448,192,472025,128,0,472150:0:0:0:0:
320,192,472067,128,0,472400:0:0:0:0:
64,192,472067,128,0,472400:0:0:0:0:
192,192,472067,128,0,472317:0:0:0:0:
448,192,472233,128,0,472317:0:0:0:0:
192,192,472400,128,0,472650:0:0:0:0:
448,192,472400,128,0,472650:0:0:0:0:
64,192,472567,128,0,472650:0:0:0:0:
320,192,472567,128,0,472650:0:0:0:0:
320,192,472733,128,0,472817:0:0:0:0:
192,192,472733,128,0,472983:0:0:0:0:
64,192,472733,128,0,472983:0:0:0:0:
448,192,472733,128,0,472983:0:0:0:0:
320,192,472900,128,0,472983:0:0:0:0:
320,192,473067,128,0,473317:0:0:0:0:
192,192,473067,128,0,473150:0:0:0:0:
448,192,473067,128,0,473317:0:0:0:0:
64,192,473067,128,0,473317:0:0:0:0:
192,192,473233,128,0,473317:0:0:0:0:
192,192,473400,128,0,473650:0:0:0:0:
64,192,473400,128,0,473650:0:0:0:0:
320,192,473400,128,0,473567:0:0:0:0:
448,192,473400,128,0,473650:0:0:0:0:
320,192,473733,128,0,473983:0:0:0:0:
64,192,473733,128,0,473817:0:0:0:0:
192,192,473733,128,0,473983:0:0:0:0:
448,192,473733,128,0,473983:0:0:0:0:
64,192,473900,128,0,473983:0:0:0:0:
192,192,474067,128,0,474317:0:0:0:0:
448,192,474067,128,0,474150:0:0:0:0:
320,192,474067,128,0,474317:0:0:0:0:
64,192,474067,128,0,474317:0:0:0:0:
448,192,474233,128,0,474317:0:0:0:0:
192,192,474400,128,0,474483:0:0:0:0:
320,192,474400,128,0,474650:0:0:0:0:
448,192,474400,128,0,474650:0:0:0:0:
64,192,474400,128,0,474650:0:0:0:0:
192,192,474567,128,0,474650:0:0:0:0:
192,192,474733,128,0,474983:0:0:0:0:
64,192,474733,128,0,474817:0:0:0:0:
448,192,474733,128,0,474983:0:0:0:0:
320,192,474733,128,0,474983:0:0:0:0:
64,192,474900,128,0,474983:0:0:0:0:
192,192,475067,128,0,475150:0:0:0:0:
320,192,475067,128,0,475150:0:0:0:0:
448,192,475067,128,0,475317:0:0:0:0:
64,192,475067,128,0,475317:0:0:0:0:
192,192,475233,128,0,475483:0:0:0:0:
320,192,475233,128,0,475317:0:0:0:0:
448,192,475400,128,0,475483:0:0:0:0:
320,192,475400,128,0,475650:0:0:0:0:
64,192,475400,128,0,475483:0:0:0:0:
448,192,475567,128,0,475650:0:0:0:0:
64,192,475567,128,0,475817:0:0:0:0:
192,192,475567,128,0,475650:0:0:0:0:
320,192,475733,128,0,475817:0:0:0:0:
448,192,475733,128,0,475983:0:0:0:0:
192,192,475733,128,0,475817:0:0:0:0:
320,192,475900,128,0,476150:0:0:0:0:
64,192,475900,128,0,475983:0:0:0:0:
192,192,475900,128,0,475983:0:0:0:0:
192,192,476067,128,0,476317:0:0:0:0:
64,192,476067,128,0,476150:0:0:0:0:
448,192,476067,128,0,476150:0:0:0:0:
64,192,476233,128,0,476317:0:0:0:0:
320,192,476233,128,0,476317:0:0:0:0:
448,192,476233,128,0,476483:0:0:0:0:
192,192,476400,128,0,476483:0:0:0:0:
64,192,476400,128,0,476650:0:0:0:0:
320,192,476400,128,0,476483:0:0:0:0:
320,192,476567,128,0,476817:0:0:0:0:
192,192,476567,128,0,476650:0:0:0:0:
448,192,476567,128,0,476650:0:0:0:0:
192,192,476733,128,0,476983:0:0:0:0:
64,192,476733,128,0,476817:0:0:0:0:
448,192,476733,128,0,476817:0:0:0:0:
320,192,476900,128,0,476983:0:0:0:0:
448,192,476900,128,0,477150:0:0:0:0:
64,192,476900,128,0,476983:0:0:0:0:
320,192,477067,128,0,477150:0:0:0:0:
64,192,477067,128,0,477317:0:0:0:0:
192,192,477067,128,0,477150:0:0:0:0:
192,192,477233,128,0,477483:0:0:0:0:
320,192,477233,128,0,477317:0:0:0:0:
448,192,477233,128,0,477317:0:0:0:0:
320,192,477400,128,0,477650:0:0:0:0:
448,192,477400,128,0,477483:0:0:0:0:
64,192,477400,128,0,477483:0:0:0:0:
192,192,477567,128,0,477650:0:0:0:0:
448,192,477567,128,0,477650:0:0:0:0:
64,192,477567,128,0,477817:0:0:0:0:
192,192,477733,128,0,477817:0:0:0:0:
320,192,477733,128,0,477817:0:0:0:0:
448,192,477733,128,0,477983:0:0:0:0:
320,192,477900,128,0,478067:0:0:0:0:
64,192,477900,128,0,478067:0:0:0:0:
192,192,477900,128,0,478067:0:0:0:0:
448,192,478067,128,0,478150:0:0:0:0:
64,192,478150,128,0,478233:0:0:0:0:
320,192,478150,1,0,0:0:0:0:0
192,192,478150,128,0,478233:0:0:0:0:
320,192,478233,128,0,478317:0:0:0:0:
448,192,478233,128,0,478400:0:0:0:0:
192,192,478317,128,0,478400:0:0:0:0:
64,192,478317,128,0,478400:0:0:0:0:
320,192,478400,128,0,478483:0:0:0:0:
192,192,478483,128,0,478567:0:0:0:0:
64,192,478483,128,0,478567:0:0:0:0:
448,192,478483,1,0,0:0:0:0:0
448,192,478567,128,0,478650:0:0:0:0:
320,192,478567,128,0,478733:0:0:0:0:
192,192,478650,128,0,478733:0:0:0:0:
64,192,478650,128,0,478733:0:0:0:0:
448,192,478733,128,0,478817:0:0:0:0:
320,192,478817,1,0,0:0:0:0:0
64,192,478817,128,0,478900:0:0:0:0:
192,192,478817,128,0,478900:0:0:0:0:
320,192,478900,128,0,478983:0:0:0:0:
448,192,478900,128,0,479067:0:0:0:0:
192,192,478983,128,0,479067:0:0:0:0:
64,192,478983,128,0,479067:0:0:0:0:
320,192,479067,128,0,479150:0:0:0:0:
192,192,479150,128,0,479233:0:0:0:0:
448,192,479150,1,0,0:0:0:0:0
64,192,479150,128,0,479233:0:0:0:0:
320,192,479233,128,0,479317:0:0:0:0:
448,192,479233,128,0,479317:0:0:0:0:
192,192,479317,128,0,480650:0:0:0:0:
64,192,479317,128,0,479400:0:0:0:0:
448,192,479400,128,0,480650:0:0:0:0:
320,192,479400,128,0,480650:0:0:0:0:
64,192,480733,128,0,480817:0:0:0:0:
320,192,480733,128,0,480900:0:0:0:0:
192,192,480733,128,0,480817:0:0:0:0:
448,192,480733,128,0,481067:0:0:0:0:
192,192,480900,128,0,480983:0:0:0:0:
64,192,480900,128,0,481067:0:0:0:0:
320,192,480983,128,0,481483:0:0:0:0:
192,192,481067,128,0,481233:0:0:0:0:
448,192,481150,128,0,481233:0:0:0:0:
64,192,481150,128,0,481483:0:0:0:0:
448,192,481317,128,0,481733:0:0:0:0:
192,192,481317,128,0,481567:0:0:0:0:
64,192,481567,128,0,481900:0:0:0:0:
320,192,481567,128,0,481650:0:0:0:0:
192,192,481650,128,0,481733:0:0:0:0:
320,192,481733,128,0,481900:0:0:0:0:
448,192,481817,128,0,482317:0:0:0:0:
192,192,481817,128,0,482150:0:0:0:0:
64,192,481983,128,0,482150:0:0:0:0:
320,192,481983,128,0,482400:0:0:0:0:
64,192,482233,128,0,482317:0:0:0:0:
192,192,482233,128,0,482400:0:0:0:0:
448,192,482400,128,0,482567:0:0:0:0:
64,192,482400,128,0,482567:0:0:0:0:
320,192,482483,128,0,482983:0:0:0:0:
192,192,482483,128,0,482817:0:0:0:0:
448,192,482650,128,0,482817:0:0:0:0:
64,192,482650,128,0,482983:0:0:0:0:
448,192,482900,128,0,483317:0:0:0:0:
192,192,482900,128,0,483150:0:0:0:0:
320,192,483067,128,0,483317:0:0:0:0:
64,192,483067,128,0,483150:0:0:0:0:
192,192,483233,128,0,483483:0:0:0:0:
64,192,483233,128,0,483650:0:0:0:0:
448,192,483400,128,0,483650:0:0:0:0:
320,192,483400,128,0,483483:0:0:0:0:
192,192,483567,128,0,483733:0:0:0:0:
320,192,483567,128,0,483733:0:0:0:0:
64,192,483733,128,0,484150:0:0:0:0:
448,192,483733,128,0,483900:0:0:0:0:
192,192,483817,128,0,483900:0:0:0:0:
320,192,483817,128,0,484150:0:0:0:0:
192,192,483983,128,0,484317:0:0:0:0:
448,192,483983,128,0,484483:0:0:0:0:
64,192,484233,128,0,484317:0:0:0:0:
320,192,484233,128,0,484483:0:0:0:0:
64,192,484400,128,0,484817:0:0:0:0:
192,192,484400,128,0,484650:0:0:0:0:
448,192,484567,128,0,484983:0:0:0:0:
320,192,484567,128,0,484650:0:0:0:0:
320,192,484733,128,0,484817:0:0:0:0:
192,192,484733,128,0,484983:0:0:0:0:
64,192,484900,128,0,485067:0:0:0:0:
320,192,484900,128,0,485067:0:0:0:0:
192,192,485067,128,0,485233:0:0:0:0:
448,192,485067,128,0,485483:0:0:0:0:
320,192,485150,128,0,485650:0:0:0:0:
64,192,485150,128,0,485233:0:0:0:0:
192,192,485317,128,0,485483:0:0:0:0:
64,192,485317,128,0,485817:0:0:0:0:
448,192,485567,128,0,485650:0:0:0:0:
192,192,485567,128,0,485817:0:0:0:0:
320,192,485733,128,0,486233:0:0:0:0:
448,192,485733,128,0,485983:0:0:0:0:
64,192,485900,128,0,485983:0:0:0:0:
192,192,485900,128,0,486150:0:0:0:0:
448,192,486067,128,0,486150:0:0:0:0:
64,192,486067,128,0,486400:0:0:0:0:
192,192,486233,128,0,486317:0:0:0:0:
448,192,486233,128,0,486400:0:0:0:0:
320,192,486317,128,0,486567:0:0:0:0:
192,192,486400,128,0,486817:0:0:0:0:
448,192,486483,128,0,486567:0:0:0:0:
64,192,486483,128,0,486983:0:0:0:0:
448,192,486650,128,0,487067:0:0:0:0:
320,192,486650,128,0,486817:0:0:0:0:
192,192,486900,128,0,487067:0:0:0:0:
320,192,486900,128,0,486983:0:0:0:0:
320,192,487067,128,0,487233:0:0:0:0:
64,192,487067,128,0,487483:0:0:0:0:
448,192,487150,128,0,487233:0:0:0:0:
192,192,487150,128,0,487483:0:0:0:0:
448,192,487317,128,0,487650:0:0:0:0:
320,192,487317,128,0,487733:0:0:0:0:
64,192,487567,128,0,487650:0:0:0:0:
192,192,487567,128,0,487733:0:0:0:0:
448,192,487733,128,0,488150:0:0:0:0:
64,192,487733,128,0,487900:0:0:0:0:
320,192,487817,128,0,487900:0:0:0:0:
192,192,487817,128,0,488150:0:0:0:0:
64,192,487983,128,0,488400:0:0:0:0:
320,192,487983,128,0,488317:0:0:0:0:
448,192,488233,128,0,488483:0:0:0:0:
192,192,488233,128,0,488733:0:0:0:0:
320,192,488400,128,0,488567:0:0:0:0:
448,192,488567,128,0,488900:0:0:0:0:
64,192,488567,128,0,488650:0:0:0:0:
64,192,488733,128,0,488983:0:0:0:0:
320,192,488733,128,0,488817:0:0:0:0:
320,192,488900,128,0,488983:0:0:0:0:
192,192,488900,128,0,489067:0:0:0:0:
64,192,489067,128,0,489233:0:0:0:0:
320,192,489067,128,0,489483:0:0:0:0:
448,192,489067,1,0,0:0:0:0:0
192,192,489150,128,0,489483:0:0:0:0:
448,192,489150,128,0,489233:0:0:0:0:
448,192,489317,128,0,489733:0:0:0:0:
64,192,489317,128,0,489650:0:0:0:0:
320,192,489567,128,0,489733:0:0:0:0:
192,192,489567,128,0,489650:0:0:0:0:
64,192,489733,128,0,490150:0:0:0:0:
192,192,489733,128,0,489900:0:0:0:0:
320,192,489817,128,0,490400:0:0:0:0:
448,192,489817,128,0,489983:0:0:0:0:
192,192,489983,128,0,490233:0:0:0:0:
448,192,490233,128,0,490317:0:0:0:0:
64,192,490233,128,0,490567:0:0:0:0:
192,192,490400,128,0,490483:0:0:0:0:
448,192,490400,128,0,490650:0:0:0:0:
320,192,490567,128,0,490733:0:0:0:0:
192,192,490567,128,0,490983:0:0:0:0:
64,192,490733,128,0,491150:0:0:0:0:
448,192,490733,128,0,490983:0:0:0:0:
320,192,490900,128,0,491150:0:0:0:0:
192,192,491067,128,0,491317:0:0:0:0:
448,192,491067,128,0,491317:0:0:0:0:
320,192,491233,128,0,491483:0:0:0:0:
64,192,491233,128,0,491317:0:0:0:0:
448,192,491400,128,0,491483:0:0:0:0:
192,192,491400,128,0,491567:0:0:0:0:
64,192,491400,128,0,491733:0:0:0:0:
320,192,491567,128,0,491650:0:0:0:0:
448,192,491567,128,0,491733:0:0:0:0:
192,192,491650,128,0,492150:0:0:0:0:
320,192,491733,128,0,491900:0:0:0:0:
448,192,491817,128,0,492150:0:0:0:0:
64,192,491817,128,0,491900:0:0:0:0:
64,192,491983,128,0,492400:0:0:0:0:
320,192,491983,128,0,492233:0:0:0:0:
192,192,492233,128,0,492317:0:0:0:0:
448,192,492233,128,0,492567:0:0:0:0:
320,192,492317,128,0,492400:0:0:0:0:
192,192,492400,128,0,492567:0:0:0:0:
320,192,492483,128,0,492817:0:0:0:0:
64,192,492483,128,0,492983:0:0:0:0:
192,192,492650,128,0,493067:0:0:0:0:
448,192,492650,128,0,492817:0:0:0:0:
448,192,492900,128,0,492983:0:0:0:0:
320,192,492900,128,0,493067:0:0:0:0:
64,192,493067,128,0,493233:0:0:0:0:
448,192,493067,128,0,493233:0:0:0:0:
320,192,493150,128,0,493483:0:0:0:0:
192,192,493150,128,0,493650:0:0:0:0:
64,192,493317,128,0,493483:0:0:0:0:
448,192,493317,128,0,493650:0:0:0:0:
320,192,493567,128,0,493817:0:0:0:0:
64,192,493567,128,0,493983:0:0:0:0:
192,192,493733,128,0,493983:0:0:0:0:
448,192,493733,128,0,493817:0:0:0:0:
448,192,493900,128,0,494317:0:0:0:0:
320,192,493900,128,0,494150:0:0:0:0:
192,192,494067,128,0,494150:0:0:0:0:
64,192,494067,128,0,494317:0:0:0:0:
192,192,494233,128,0,494400:0:0:0:0:
320,192,494233,128,0,494400:0:0:0:0:
448,192,494400,128,0,494817:0:0:0:0:
64,192,494400,128,0,494567:0:0:0:0:
192,192,494483,128,0,494817:0:0:0:0:
320,192,494483,128,0,494567:0:0:0:0:
64,192,494650,128,0,495150:0:0:0:0:
320,192,494650,128,0,494983:0:0:0:0:
448,192,494900,128,0,494983:0:0:0:0:
192,192,494900,128,0,495150:0:0:0:0:
320,192,495067,128,0,495317:0:0:0:0:
448,192,495067,128,0,495483:0:0:0:0:
192,192,495233,128,0,495317:0:0:0:0:
64,192,495233,128,0,495650:0:0:0:0:
320,192,495400,128,0,495650:0:0:0:0:
192,192,495400,128,0,495483:0:0:0:0:
192,192,495567,128,0,495733:0:0:0:0:
448,192,495567,128,0,495733:0:0:0:0:
64,192,495733,128,0,496150:0:0:0:0:
320,192,495733,128,0,495900:0:0:0:0:
448,192,495817,128,0,495900:0:0:0:0:
192,192,495817,128,0,496317:0:0:0:0:
320,192,495983,128,0,496150:0:0:0:0:
448,192,495983,128,0,496483:0:0:0:0:
320,192,496233,128,0,496483:0:0:0:0:
64,192,496233,128,0,496317:0:0:0:0:
192,192,496400,128,0,496650:0:0:0:0:
64,192,496400,128,0,496817:0:0:0:0:
320,192,496567,128,0,496817:0:0:0:0:
448,192,496567,128,0,496650:0:0:0:0:
192,192,496733,128,0,496983:0:0:0:0:
448,192,496733,128,0,497150:0:0:0:0:
320,192,496900,128,0,497150:0:0:0:0:
64,192,496900,128,0,496983:0:0:0:0:
192,192,497067,128,0,497317:0:0:0:0:
64,192,497067,128,0,497650:0:0:0:0:
320,192,497233,128,0,497317:0:0:0:0:
448,192,497233,128,0,497483:0:0:0:0:
192,192,497400,128,0,497483:0:0:0:0:
320,192,497400,128,0,497650:0:0:0:0:
448,192,497567,128,0,498150:0:0:0:0:
192,192,497567,128,0,497817:0:0:0:0:
64,192,497733,128,0,497817:0:0:0:0:
320,192,497733,128,0,497983:0:0:0:0:
192,192,497900,128,0,497983:0:0:0:0:
64,192,497900,128,0,498150:0:0:0:0:
192,192,498067,128,0,498317:0:0:0:0:
320,192,498067,128,0,498317:0:0:0:0:
448,192,498233,128,0,498983:0:0:0:0:
64,192,498233,128,0,498483:0:0:0:0:
320,192,498400,128,0,498483:0:0:0:0:
192,192,498400,128,0,498650:0:0:0:0:
64,192,498567,128,0,498650:0:0:0:0:
320,192,498567,128,0,498817:0:0:0:0:
192,192,498733,128,0,498817:0:0:0:0:
64,192,498733,128,0,499150:0:0:0:0:
320,192,498900,128,0,499150:0:0:0:0:
192,192,498900,128,0,498983:0:0:0:0:
448,192,499067,128,0,499400:0:0:0:0:
192,192,499067,128,0,499317:0:0:0:0:
320,192,499233,128,0,499400:0:0:0:0:
64,192,499233,128,0,499317:0:0:0:0:
192,192,499400,128,0,499483:0:0:0:0:
64,192,499400,128,0,499483:0:0:0:0:
320,192,499483,128,0,499567:0:0:0:0:
448,192,499483,128,0,499567:0:0:0:0:
192,192,499567,128,0,499650:0:0:0:0:
64,192,499567,128,0,499650:0:0:0:0:
448,192,499650,128,0,499733:0:0:0:0:
320,192,499650,128,0,499733:0:0:0:0:
192,192,499733,128,0,499817:0:0:0:0:
64,192,499733,128,0,499817:0:0:0:0:
320,192,499817,128,0,499900:0:0:0:0:
448,192,499817,128,0,499900:0:0:0:0:
192,192,499900,128,0,499983:0:0:0:0:
64,192,499900,128,0,499983:0:0:0:0:
320,192,499983,128,0,500067:0:0:0:0:
448,192,499983,128,0,500067:0:0:0:0:
192,192,500067,128,0,500150:0:0:0:0:
64,192,500067,128,0,500150:0:0:0:0:
320,192,500150,128,0,500233:0:0:0:0:
448,192,500150,128,0,500233:0:0:0:0:
64,192,500233,128,0,500317:0:0:0:0:
192,192,500233,128,0,500317:0:0:0:0:
320,192,500317,128,0,500400:0:0:0:0:
448,192,500317,128,0,500400:0:0:0:0:
192,192,500400,128,0,500483:0:0:0:0:
64,192,500400,128,0,500483:0:0:0:0:
320,192,500483,128,0,500567:0:0:0:0:
448,192,500483,128,0,500567:0:0:0:0:
192,192,500567,128,0,502150:0:0:0:0:
64,192,500567,128,0,501983:0:0:0:0:
320,192,500650,128,0,501983:0:0:0:0:
448,192,500650,128,0,501983:0:0:0:0:
64,192,502067,128,0,502400:0:0:0:0:
448,192,502067,128,0,502150:0:0:0:0:
320,192,502067,128,0,502233:0:0:0:0:
448,192,502233,128,0,502567:0:0:0:0:
192,192,502233,128,0,502317:0:0:0:0:
320,192,502317,128,0,502400:0:0:0:0:
192,192,502400,128,0,502567:0:0:0:0:
320,192,502483,128,0,502983:0:0:0:0:
64,192,502483,128,0,502567:0:0:0:0:
64,192,502650,128,0,502817:0:0:0:0:
192,192,502650,128,0,502900:0:0:0:0:
448,192,502650,128,0,502817:0:0:0:0:
448,192,502900,128,0,503067:0:0:0:0:
64,192,502900,128,0,503233:0:0:0:0:
192,192,502983,128,0,503067:0:0:0:0:
320,192,503067,128,0,503233:0:0:0:0:
192,192,503150,128,0,503650:0:0:0:0:
448,192,503150,128,0,503233:0:0:0:0:
64,192,503317,128,0,503483:0:0:0:0:
320,192,503317,128,0,503567:0:0:0:0:
448,192,503317,128,0,503483:0:0:0:0:
448,192,503567,128,0,503733:0:0:0:0:
64,192,503567,128,0,503900:0:0:0:0:
320,192,503650,128,0,503733:0:0:0:0:
192,192,503733,128,0,503900:0:0:0:0:
320,192,503817,128,0,503900:0:0:0:0:
448,192,503817,128,0,504150:0:0:0:0:
320,192,503983,128,0,504317:0:0:0:0:
192,192,503983,128,0,504233:0:0:0:0:
64,192,503983,128,0,504150:0:0:0:0:
448,192,504233,128,0,504400:0:0:0:0:
64,192,504233,128,0,504400:0:0:0:0:
192,192,504317,128,0,504483:0:0:0:0:
320,192,504400,128,0,504483:0:0:0:0:
448,192,504483,128,0,504650:0:0:0:0:
64,192,504483,128,0,504650:0:0:0:0:
320,192,504567,128,0,504817:0:0:0:0:
192,192,504567,128,0,504650:0:0:0:0:
448,192,504733,128,0,505067:0:0:0:0:
192,192,504733,128,0,504900:0:0:0:0:
64,192,504733,128,0,504817:0:0:0:0:
320,192,504900,128,0,504983:0:0:0:0:
64,192,504900,128,0,505067:0:0:0:0:
192,192,504983,128,0,505233:0:0:0:0:
320,192,505067,128,0,505483:0:0:0:0:
448,192,505150,128,0,505233:0:0:0:0:
64,192,505150,128,0,505233:0:0:0:0:
192,192,505317,128,0,505483:0:0:0:0:
448,192,505317,128,0,505650:0:0:0:0:
64,192,505317,128,0,505650:0:0:0:0:
320,192,505567,128,0,505817:0:0:0:0:
192,192,505567,128,0,505733:0:0:0:0:
64,192,505733,128,0,506317:0:0:0:0:
448,192,505733,128,0,505983:0:0:0:0:
192,192,505817,128,0,505900:0:0:0:0:
320,192,505900,128,0,506150:0:0:0:0:
192,192,505983,128,0,506233:0:0:0:0:
448,192,506233,128,0,506400:0:0:0:0:
320,192,506233,128,0,506400:0:0:0:0:
192,192,506400,128,0,506567:0:0:0:0:
64,192,506400,128,0,506567:0:0:0:0:
320,192,506483,128,0,506983:0:0:0:0:
448,192,506483,128,0,506817:0:0:0:0:
64,192,506650,128,0,506817:0:0:0:0:
192,192,506650,128,0,506900:0:0:0:0:
448,192,506900,128,0,506983:0:0:0:0:
64,192,506900,128,0,507317:0:0:0:0:
192,192,506983,128,0,507150:0:0:0:0:
320,192,507067,128,0,507233:0:0:0:0:
448,192,507067,128,0,507150:0:0:0:0:
192,192,507233,128,0,507317:0:0:0:0:
448,192,507233,128,0,507317:0:0:0:0:
320,192,507317,128,0,507483:0:0:0:0:
192,192,507400,128,0,507567:0:0:0:0:
64,192,507400,128,0,507483:0:0:0:0:
448,192,507400,128,0,507733:0:0:0:0:
64,192,507567,128,0,507900:0:0:0:0:
320,192,507567,128,0,507650:0:0:0:0:
192,192,507650,128,0,507733:0:0:0:0:
320,192,507733,128,0,507900:0:0:0:0:
192,192,507817,128,0,508317:0:0:0:0:
448,192,507817,128,0,507900:0:0:0:0:
64,192,507983,128,0,508150:0:0:0:0:
320,192,507983,128,0,508233:0:0:0:0:
448,192,507983,128,0,508150:0:0:0:0:
64,192,508233,128,0,508400:0:0:0:0:
448,192,508233,128,0,508567:0:0:0:0:
320,192,508317,128,0,508400:0:0:0:0:
192,192,508400,128,0,508567:0:0:0:0:
64,192,508483,128,0,508567:0:0:0:0:
320,192,508483,128,0,508983:0:0:0:0:
64,192,508650,128,0,508817:0:0:0:0:
192,192,508650,128,0,508900:0:0:0:0:
448,192,508650,128,0,508817:0:0:0:0:
64,192,508900,128,0,509067:0:0:0:0:
448,192,508900,128,0,509233:0:0:0:0:
192,192,508983,128,0,509067:0:0:0:0:
320,192,509067,128,0,509233:0:0:0:0:
64,192,509150,128,0,509483:0:0:0:0:
192,192,509150,128,0,509233:0:0:0:0:
192,192,509317,128,0,509650:0:0:0:0:
448,192,509317,128,0,509483:0:0:0:0:
320,192,509317,128,0,509567:0:0:0:0:
448,192,509567,128,0,509733:0:0:0:0:
64,192,509567,128,0,509733:0:0:0:0:
320,192,509650,128,0,509817:0:0:0:0:
192,192,509733,128,0,509817:0:0:0:0:
64,192,509817,128,0,509983:0:0:0:0:
448,192,509817,128,0,509983:0:0:0:0:
320,192,509900,128,0,509983:0:0:0:0:
192,192,509900,128,0,510150:0:0:0:0:
320,192,510067,128,0,510233:0:0:0:0:
64,192,510067,128,0,510400:0:0:0:0:
448,192,510067,128,0,510150:0:0:0:0:
448,192,510233,128,0,510400:0:0:0:0:
192,192,510233,128,0,510317:0:0:0:0:
320,192,510317,128,0,510567:0:0:0:0:
192,192,510400,128,0,510817:0:0:0:0:
64,192,510483,128,0,510567:0:0:0:0:
448,192,510483,128,0,510567:0:0:0:0:
320,192,510650,128,0,510817:0:0:0:0:
448,192,510650,128,0,510983:0:0:0:0:
64,192,510650,128,0,510983:0:0:0:0:
320,192,510900,128,0,511150:0:0:0:0:
192,192,510900,128,0,511067:0:0:0:0:
64,192,511067,128,0,511483:0:0:0:0:
448,192,511067,128,0,511317:0:0:0:0:
192,192,511150,128,0,511233:0:0:0:0:
320,192,511233,128,0,511567:0:0:0:0:
192,192,511317,128,0,511483:0:0:0:0:
448,192,511567,1,0,0:0:0:0:0
192,192,511567,128,0,511650:0:0:0:0:
64,192,511567,128,0,511650:0:0:0:0:
320,192,511650,128,0,511733:0:0:0:0:
448,192,511650,128,0,511733:0:0:0:0:
192,192,511733,128,0,511900:0:0:0:0:
64,192,511733,128,0,511900:0:0:0:0:
448,192,511817,128,0,511900:0:0:0:0:
320,192,511817,128,0,512233:0:0:0:0:
448,192,511983,128,0,512150:0:0:0:0:
192,192,511983,128,0,512317:0:0:0:0:
64,192,511983,128,0,512150:0:0:0:0:
64,192,512233,128,0,512400:0:0:0:0:
448,192,512233,128,0,512650:0:0:0:0:
320,192,512317,128,0,512483:0:0:0:0:
192,192,512400,128,0,512567:0:0:0:0:
64,192,512483,128,0,512650:0:0:0:0:
320,192,512567,128,0,512650:0:0:0:0:
192,192,512650,128,0,512817:0:0:0:0:
64,192,512733,128,0,513067:0:0:0:0:
448,192,512733,128,0,512817:0:0:0:0:
320,192,512733,128,0,512900:0:0:0:0:
192,192,512900,128,0,512983:0:0:0:0:
448,192,512900,128,0,513233:0:0:0:0:
320,192,512983,128,0,513067:0:0:0:0:
192,192,513067,128,0,513233:0:0:0:0:
320,192,513150,128,0,513650:0:0:0:0:
64,192,513150,128,0,513233:0:0:0:0:
192,192,513317,128,0,513567:0:0:0:0:
448,192,513317,128,0,513483:0:0:0:0:
64,192,513317,128,0,513483:0:0:0:0:
64,192,513567,128,0,513900:0:0:0:0:
448,192,513567,128,0,513733:0:0:0:0:
192,192,513650,128,0,513733:0:0:0:0:
320,192,513733,128,0,513900:0:0:0:0:
192,192,513817,128,0,514317:0:0:0:0:
448,192,513817,128,0,513900:0:0:0:0:
448,192,513983,128,0,514150:0:0:0:0:
320,192,513983,128,0,514233:0:0:0:0:
64,192,513983,128,0,514150:0:0:0:0:
448,192,514233,128,0,514400:0:0:0:0:
64,192,514233,128,0,514567:0:0:0:0:
320,192,514317,128,0,514400:0:0:0:0:
192,192,514400,128,0,514567:0:0:0:0:
320,192,514483,128,0,514567:0:0:0:0:
448,192,514483,128,0,514817:0:0:0:0:
192,192,514650,128,0,514900:0:0:0:0:
320,192,514650,128,0,514983:0:0:0:0:
64,192,514650,128,0,514817:0:0:0:0:
448,192,514900,128,0,515067:0:0:0:0:
64,192,514900,128,0,515067:0:0:0:0:
192,192,514983,128,0,515150:0:0:0:0:
320,192,515067,128,0,515150:0:0:0:0:
448,192,515150,128,0,515317:0:0:0:0:
64,192,515150,128,0,515317:0:0:0:0:
192,192,515233,128,0,515317:0:0:0:0:
320,192,515233,128,0,515483:0:0:0:0:
448,192,515400,128,0,515733:0:0:0:0:
192,192,515400,128,0,515567:0:0:0:0:
64,192,515400,128,0,515483:0:0:0:0:
320,192,515567,128,0,515650:0:0:0:0:
64,192,515567,128,0,515733:0:0:0:0:
192,192,515650,128,0,515900:0:0:0:0:
320,192,515733,128,0,516150:0:0:0:0:
64,192,515817,128,0,515900:0:0:0:0:
448,192,515817,128,0,515900:0:0:0:0:
64,192,515983,128,0,516317:0:0:0:0:
192,192,515983,128,0,516150:0:0:0:0:
448,192,515983,128,0,516317:0:0:0:0:
192,192,516233,128,0,516400:0:0:0:0:
320,192,516233,128,0,516483:0:0:0:0:
64,192,516400,128,0,516983:0:0:0:0:
448,192,516400,128,0,516650:0:0:0:0:
192,192,516483,128,0,516567:0:0:0:0:
320,192,516567,128,0,516817:0:0:0:0:
192,192,516650,128,0,516900:0:0:0:0:
448,192,516900,128,0,517067:0:0:0:0:
320,192,516900,128,0,517067:0:0:0:0:
64,192,517067,128,0,517233:0:0:0:0:
192,192,517067,128,0,517233:0:0:0:0:
448,192,517150,128,0,517483:0:0:0:0:
320,192,517150,128,0,517567:0:0:0:0:
64,192,517317,128,0,517483:0:0:0:0:
192,192,517317,128,0,517567:0:0:0:0:
64,192,517567,128,0,517650:0:0:0:0:
448,192,517567,128,0,517650:0:0:0:0:
192,192,517650,128,0,517817:0:0:0:0:
320,192,517650,128,0,517900:0:0:0:0:
448,192,517733,128,0,517817:0:0:0:0:
64,192,517733,128,0,517983:0:0:0:0:
448,192,517900,128,0,517983:0:0:0:0:
192,192,517900,128,0,517983:0:0:0:0:
320,192,517983,128,0,518150:0:0:0:0:
64,192,518067,128,0,518150:0:0:0:0:
448,192,518067,128,0,518400:0:0:0:0:
192,192,518067,128,0,518233:0:0:0:0:
64,192,518233,128,0,518567:0:0:0:0:
320,192,518233,128,0,518317:0:0:0:0:
192,192,518317,128,0,518400:0:0:0:0:
320,192,518400,128,0,518567:0:0:0:0:
192,192,518483,128,0,518983:0:0:0:0:
448,192,518483,128,0,518567:0:0:0:0:
64,192,518650,128,0,518817:0:0:0:0:
320,192,518650,128,0,518900:0:0:0:0:
448,192,518650,128,0,518817:0:0:0:0:
448,192,518900,128,0,519233:0:0:0:0:
64,192,518900,128,0,519067:0:0:0:0:
320,192,518983,128,0,519067:0:0:0:0:
192,192,519067,128,0,519233:0:0:0:0:
64,192,519150,128,0,519233:0:0:0:0:
320,192,519150,128,0,519650:0:0:0:0:
448,192,519317,128,0,519483:0:0:0:0:
192,192,519317,128,0,519567:0:0:0:0:
64,192,519317,128,0,519483:0:0:0:0:
448,192,519567,128,0,519900:0:0:0:0:
64,192,519567,128,0,519733:0:0:0:0:
192,192,519650,128,0,519733:0:0:0:0:
320,192,519733,128,0,519900:0:0:0:0:
192,192,519817,128,0,519900:0:0:0:0:
64,192,519817,128,0,520150:0:0:0:0:
320,192,519983,128,0,520233:0:0:0:0:
192,192,519983,128,0,520317:0:0:0:0:
448,192,519983,128,0,520150:0:0:0:0:
448,192,520233,128,0,520400:0:0:0:0:
64,192,520233,128,0,520400:0:0:0:0:
320,192,520317,128,0,520483:0:0:0:0:
192,192,520400,128,0,520483:0:0:0:0:
448,192,520483,128,0,520650:0:0:0:0:
64,192,520483,128,0,520650:0:0:0:0:
320,192,520567,128,0,520650:0:0:0:0:
192,192,520567,128,0,520817:0:0:0:0:
320,192,520733,128,0,520900:0:0:0:0:
448,192,520733,128,0,520817:0:0:0:0:
64,192,520733,128,0,521067:0:0:0:0:
192,192,520900,128,0,520983:0:0:0:0:
448,192,520900,128,0,521067:0:0:0:0:
320,192,520983,128,0,521233:0:0:0:0:
192,192,521067,128,0,521483:0:0:0:0:
448,192,521150,128,0,521233:0:0:0:0:
64,192,521150,128,0,521233:0:0:0:0:
320,192,521317,128,0,521483:0:0:0:0:
64,192,521317,128,0,521650:0:0:0:0:
448,192,521317,128,0,521650:0:0:0:0:
320,192,521567,128,0,521733:0:0:0:0:
192,192,521567,128,0,521817:0:0:0:0:
64,192,521733,128,0,521983:0:0:0:0:
448,192,521733,128,0,522150:0:0:0:0:
320,192,521817,128,0,521900:0:0:0:0:
192,192,521900,128,0,522150:0:0:0:0:
320,192,521983,128,0,522233:0:0:0:0:
64,192,522233,1,0,0:0:0:0:0
448,192,522233,128,0,522317:0:0:0:0:
192,192,522233,128,0,522317:0:0:0:0:
320,192,522317,128,0,522400:0:0:0:0:
64,192,522317,128,0,522400:0:0:0:0:
192,192,522400,128,0,522567:0:0:0:0:
448,192,522400,128,0,522567:0:0:0:0:
64,192,522483,128,0,522567:0:0:0:0:
320,192,522483,128,0,522900:0:0:0:0:
192,192,522650,128,0,522983:0:0:0:0:
448,192,522650,128,0,522817:0:0:0:0:
64,192,522650,128,0,522817:0:0:0:0:
64,192,522900,128,0,523067:0:0:0:0:
448,192,522900,128,0,523317:0:0:0:0:
320,192,522983,128,0,523150:0:0:0:0:
192,192,523067,128,0,523233:0:0:0:0:
64,192,523150,128,0,523317:0:0:0:0:
320,192,523233,128,0,523400:0:0:0:0:
192,192,523317,128,0,523483:0:0:0:0:
448,192,523400,128,0,523567:0:0:0:0:
64,192,523400,128,0,523483:0:0:0:0:
320,192,523483,128,0,523650:0:0:0:0:
192,192,523567,128,0,523733:0:0:0:0:
64,192,523567,128,0,523650:0:0:0:0:
448,192,523650,128,0,523817:0:0:0:0:
64,192,523733,128,0,523900:0:0:0:0:
320,192,523733,128,0,523817:0:0:0:0:
192,192,523817,128,0,523983:0:0:0:0:
448,192,523900,128,0,523983:0:0:0:0:
320,192,523900,128,0,524067:0:0:0:0:
64,192,523983,128,0,524150:0:0:0:0:
192,192,524067,128,0,524233:0:0:0:0:
448,192,524067,128,0,524150:0:0:0:0:
320,192,524150,128,0,524317:0:0:0:0:
448,192,524233,128,0,524317:0:0:0:0:
64,192,524233,128,0,524400:0:0:0:0:
192,192,524317,128,0,524483:0:0:0:0:
320,192,524400,128,0,524567:0:0:0:0:
448,192,524400,128,0,524483:0:0:0:0:
64,192,524483,128,0,524650:0:0:0:0:
192,192,524567,128,0,524650:0:0:0:0:
448,192,524567,128,0,524733:0:0:0:0:
320,192,524650,128,0,524817:0:0:0:0:
64,192,524733,128,0,524817:0:0:0:0:
192,192,524733,128,0,524900:0:0:0:0:
448,192,524817,128,0,524983:0:0:0:0:
320,192,524900,128,0,525067:0:0:0:0:
64,192,524900,128,0,524983:0:0:0:0:
192,192,524983,128,0,525150:0:0:0:0:
448,192,525067,128,0,525233:0:0:0:0:
64,192,525067,128,0,525150:0:0:0:0:
320,192,525150,128,0,525317:0:0:0:0:
64,192,525233,128,0,525317:0:0:0:0:
192,192,525233,128,0,525400:0:0:0:0:
448,192,525317,128,0,525483:0:0:0:0:
320,192,525400,128,0,525483:0:0:0:0:
64,192,525400,128,0,525567:0:0:0:0:
192,192,525483,128,0,525650:0:0:0:0:
448,192,525567,128,0,525650:0:0:0:0:
320,192,525567,128,0,525733:0:0:0:0:
64,192,525650,128,0,525817:0:0:0:0:
192,192,525733,128,0,525817:0:0:0:0:
448,192,525733,128,0,525900:0:0:0:0:
320,192,525817,128,0,525983:0:0:0:0:
192,192,525900,128,0,526067:0:0:0:0:
64,192,525900,128,0,525983:0:0:0:0:
448,192,525983,128,0,526150:0:0:0:0:
64,192,526067,128,0,526150:0:0:0:0:
320,192,526067,128,0,526233:0:0:0:0:
192,192,526150,128,0,526317:0:0:0:0:
64,192,526233,128,0,526317:0:0:0:0:
448,192,526233,128,0,526400:0:0:0:0:
320,192,526317,128,0,526483:0:0:0:0:
64,192,526400,128,0,526483:0:0:0:0:
192,192,526400,128,0,526567:0:0:0:0:
448,192,526483,128,0,526650:0:0:0:0:
64,192,526567,128,0,526733:0:0:0:0:
320,192,526567,128,0,526650:0:0:0:0:
192,192,526650,128,0,526817:0:0:0:0:
448,192,526733,128,0,526817:0:0:0:0:
320,192,526733,128,0,526900:0:0:0:0:
64,192,526817,128,0,526983:0:0:0:0:
192,192,526900,128,0,527067:0:0:0:0:
448,192,526900,128,0,526983:0:0:0:0:
320,192,526983,128,0,527150:0:0:0:0:
64,192,527067,128,0,527233:0:0:0:0:
448,192,527067,128,0,527150:0:0:0:0:
192,192,527150,128,0,527317:0:0:0:0:
320,192,527233,128,0,527400:0:0:0:0:
448,192,527233,128,0,527317:0:0:0:0:
64,192,527317,128,0,527483:0:0:0:0:
192,192,527400,128,0,527483:0:0:0:0:
448,192,527400,128,0,527567:0:0:0:0:
320,192,527483,128,0,527650:0:0:0:0:
192,192,527567,128,0,527733:0:0:0:0:
64,192,527567,128,0,527650:0:0:0:0:
448,192,527650,128,0,527817:0:0:0:0:
64,192,527733,128,0,527900:0:0:0:0:
320,192,527733,128,0,527817:0:0:0:0:
192,192,527817,128,0,527983:0:0:0:0:
448,192,527900,128,0,527983:0:0:0:0:
320,192,527900,128,0,528067:0:0:0:0:
64,192,527983,128,0,528150:0:0:0:0:
192,192,528067,128,0,528233:0:0:0:0:
448,192,528067,128,0,528150:0:0:0:0:
320,192,528150,128,0,528233:0:0:0:0:
64,192,528233,128,0,528317:0:0:0:0:
448,192,528233,128,0,528317:0:0:0:0:
320,192,528317,128,0,528567:0:0:0:0:
192,192,528317,128,0,528400:0:0:0:0:
64,192,528400,128,0,528483:0:0:0:0:
448,192,528400,128,0,528483:0:0:0:0:
192,192,528483,128,0,528733:0:0:0:0:
64,192,528567,128,0,528650:0:0:0:0:
448,192,528567,128,0,528650:0:0:0:0:
320,192,528650,128,0,528817:0:0:0:0:
64,192,528733,128,0,528900:0:0:0:0:
448,192,528733,128,0,528817:0:0:0:0:
192,192,528817,128,0,528983:0:0:0:0:
448,192,528900,128,0,528983:0:0:0:0:
320,192,528900,128,0,529067:0:0:0:0:
64,192,528983,128,0,529150:0:0:0:0:
192,192,529067,128,0,529150:0:0:0:0:
448,192,529067,128,0,529233:0:0:0:0:
320,192,529150,128,0,529317:0:0:0:0:
64,192,529233,128,0,529317:0:0:0:0:
192,192,529233,128,0,529400:0:0:0:0:
448,192,529317,128,0,529483:0:0:0:0:
64,192,529400,128,0,529483:0:0:0:0:
320,192,529400,128,0,529567:0:0:0:0:
192,192,529483,128,0,529650:0:0:0:0:
64,192,529567,128,0,529650:0:0:0:0:
448,192,529567,128,0,529733:0:0:0:0:
320,192,529650,128,0,529817:0:0:0:0:
64,192,529733,128,0,529817:0:0:0:0:
192,192,529733,128,0,529900:0:0:0:0:
448,192,529817,128,0,529983:0:0:0:0:
320,192,529900,128,0,529983:0:0:0:0:
64,192,529900,128,0,530067:0:0:0:0:
192,192,529983,128,0,530150:0:0:0:0:
320,192,530067,128,0,530233:0:0:0:0:
448,192,530067,128,0,530150:0:0:0:0:
64,192,530150,128,0,530317:0:0:0:0:
192,192,530233,128,0,530400:0:0:0:0:
448,192,530233,128,0,530317:0:0:0:0:
320,192,530317,128,0,530483:0:0:0:0:
64,192,530400,128,0,530567:0:0:0:0:
448,192,530400,128,0,530483:0:0:0:0:
192,192,530483,128,0,530650:0:0:0:0:
320,192,530567,128,0,530733:0:0:0:0:
448,192,530567,128,0,530650:0:0:0:0:
64,192,530650,128,0,530817:0:0:0:0:
448,192,530733,128,0,530900:0:0:0:0:
192,192,530733,128,0,530817:0:0:0:0:
320,192,530817,128,0,530983:0:0:0:0:
64,192,530900,128,0,530983:0:0:0:0:
192,192,530900,128,0,531067:0:0:0:0:
448,192,530983,128,0,531150:0:0:0:0:
64,192,531067,128,0,531233:0:0:0:0:
320,192,531067,128,0,531150:0:0:0:0:
192,192,531150,128,0,531317:0:0:0:0:
320,192,531233,128,0,531400:0:0:0:0:
448,192,531233,128,0,531317:0:0:0:0:
64,192,531317,128,0,531483:0:0:0:0:
192,192,531400,128,0,531567:0:0:0:0:
448,192,531400,128,0,531483:0:0:0:0:
320,192,531483,128,0,531650:0:0:0:0:
64,192,531567,128,0,531733:0:0:0:0:
448,192,531567,128,0,531650:0:0:0:0:
192,192,531650,128,0,531817:0:0:0:0:
448,192,531733,128,0,531817:0:0:0:0:
320,192,531733,128,0,531900:0:0:0:0:
64,192,531817,128,0,531983:0:0:0:0:
192,192,531900,128,0,531983:0:0:0:0:
448,192,531900,128,0,532067:0:0:0:0:
320,192,531983,128,0,532150:0:0:0:0:
192,192,532067,128,0,532233:0:0:0:0:
64,192,532067,128,0,532150:0:0:0:0:
448,192,532150,128,0,532317:0:0:0:0:
64,192,532233,128,0,532317:0:0:0:0:
320,192,532233,128,0,532400:0:0:0:0:
192,192,532317,128,0,532483:0:0:0:0:
448,192,532400,128,0,532567:0:0:0:0:
64,192,532400,128,0,532483:0:0:0:0:
320,192,532483,128,0,532650:0:0:0:0:
192,192,532567,128,0,532733:0:0:0:0:
64,192,532567,128,0,532650:0:0:0:0:
448,192,532650,128,0,532817:0:0:0:0:
320,192,532733,128,0,532817:0:0:0:0:
64,192,532733,128,0,532900:0:0:0:0:
192,192,532817,128,0,532900:0:0:0:0:
320,192,532900,128,0,532983:0:0:0:0:
448,192,532900,128,0,532983:0:0:0:0:
64,192,532983,128,0,533150:0:0:0:0:
192,192,532983,128,0,533067:0:0:0:0:
448,192,533067,128,0,533150:0:0:0:0:
320,192,533067,128,0,533233:0:0:0:0:
192,192,533150,128,0,533233:0:0:0:0:
448,192,533233,128,0,533317:0:0:0:0:
64,192,533233,128,0,533317:0:0:0:0:
320,192,533317,128,0,534067:0:0:0:0:
192,192,533317,128,0,533733:0:0:0:0:
64,192,533400,128,0,533983:0:0:0:0:
448,192,533400,128,0,533983:0:0:0:0:
64,192,534067,128,0,534150:0:0:0:0:
192,192,534067,128,0,534150:0:0:0:0:
448,192,534067,128,0,534233:0:0:0:0:
320,192,534150,128,0,534317:0:0:0:0:
64,192,534233,128,0,534317:0:0:0:0:
192,192,534233,128,0,534400:0:0:0:0:
448,192,534317,128,0,534483:0:0:0:0:
64,192,534400,128,0,534567:0:0:0:0:
320,192,534400,128,0,534483:0:0:0:0:
192,192,534483,128,0,534650:0:0:0:0:
320,192,534567,128,0,534733:0:0:0:0:
448,192,534567,128,0,534650:0:0:0:0:
64,192,534650,128,0,534817:0:0:0:0:
448,192,534733,128,0,534817:0:0:0:0:
192,192,534733,128,0,534900:0:0:0:0:
320,192,534817,128,0,534983:0:0:0:0:
448,192,534900,128,0,534983:0:0:0:0:
64,192,534900,128,0,535067:0:0:0:0:
192,192,534983,128,0,535150:0:0:0:0:
448,192,535067,128,0,535150:0:0:0:0:
320,192,535067,128,0,535233:0:0:0:0:
64,192,535150,128,0,535317:0:0:0:0:
448,192,535233,128,0,535400:0:0:0:0:
192,192,535233,128,0,535317:0:0:0:0:
320,192,535317,128,0,535483:0:0:0:0:
64,192,535400,128,0,535483:0:0:0:0:
192,192,535400,128,0,535567:0:0:0:0:
448,192,535483,128,0,535650:0:0:0:0:
64,192,535567,128,0,535650:0:0:0:0:
320,192,535567,128,0,535733:0:0:0:0:
192,192,535650,128,0,535817:0:0:0:0:
448,192,535733,128,0,535900:0:0:0:0:
64,192,535733,128,0,535817:0:0:0:0:
320,192,535817,128,0,535983:0:0:0:0:
192,192,535900,128,0,536067:0:0:0:0:
64,192,535900,128,0,535983:0:0:0:0:
448,192,535983,128,0,536150:0:0:0:0:
320,192,536067,128,0,536150:0:0:0:0:
64,192,536067,128,0,536233:0:0:0:0:
192,192,536150,128,0,536317:0:0:0:0:
320,192,536233,128,0,536400:0:0:0:0:
448,192,536233,128,0,536317:0:0:0:0:
64,192,536317,128,0,536483:0:0:0:0:
448,192,536400,128,0,536567:0:0:0:0:
192,192,536400,128,0,536483:0:0:0:0:
320,192,536483,128,0,536650:0:0:0:0:
64,192,536567,128,0,536650:0:0:0:0:
192,192,536567,128,0,536733:0:0:0:0:
448,192,536650,128,0,536817:0:0:0:0:
320,192,536733,128,0,536900:0:0:0:0:
64,192,536733,128,0,536817:0:0:0:0:
192,192,536817,128,0,536983:0:0:0:0:
448,192,536900,128,0,537067:0:0:0:0:
64,192,536900,128,0,536983:0:0:0:0:
320,192,536983,128,0,537150:0:0:0:0:
192,192,537067,128,0,537233:0:0:0:0:
64,192,537067,128,0,537150:0:0:0:0:
448,192,537150,128,0,537317:0:0:0:0:
320,192,537233,128,0,537317:0:0:0:0:
64,192,537233,128,0,537400:0:0:0:0:
192,192,537317,128,0,537483:0:0:0:0:
320,192,537400,128,0,537567:0:0:0:0:
448,192,537400,128,0,537483:0:0:0:0:
64,192,537483,128,0,537650:0:0:0:0:
192,192,537567,128,0,537733:0:0:0:0:
448,192,537567,128,0,537650:0:0:0:0:
320,192,537650,128,0,537817:0:0:0:0:
64,192,537733,128,0,537900:0:0:0:0:
448,192,537733,128,0,537817:0:0:0:0:
192,192,537817,128,0,537983:0:0:0:0:
320,192,537900,128,0,538067:0:0:0:0:
448,192,537900,128,0,537983:0:0:0:0:
64,192,537983,128,0,538150:0:0:0:0:
192,192,538067,128,0,538150:0:0:0:0:
448,192,538067,128,0,538233:0:0:0:0:
320,192,538150,128,0,538317:0:0:0:0:
64,192,538233,128,0,538317:0:0:0:0:
192,192,538233,128,0,538400:0:0:0:0:
448,192,538317,128,0,538483:0:0:0:0:
320,192,538400,128,0,538483:0:0:0:0:
64,192,538400,128,0,538567:0:0:0:0:
192,192,538483,128,0,538650:0:0:0:0:
320,192,538567,128,0,538733:0:0:0:0:
448,192,538567,128,0,538650:0:0:0:0:
64,192,538650,128,0,538817:0:0:0:0:
192,192,538733,128,0,538900:0:0:0:0:
448,192,538733,128,0,538817:0:0:0:0:
320,192,538817,128,0,538900:0:0:0:0:
448,192,538900,128,0,538983:0:0:0:0:
64,192,538900,128,0,538983:0:0:0:0:
320,192,538983,128,0,539233:0:0:0:0:
192,192,538983,128,0,539067:0:0:0:0:
448,192,539067,128,0,539150:0:0:0:0:
64,192,539067,128,0,539150:0:0:0:0:
192,192,539150,128,0,539400:0:0:0:0:
448,192,539233,128,0,539317:0:0:0:0:
64,192,539233,128,0,539317:0:0:0:0:
320,192,539317,128,0,539483:0:0:0:0:
448,192,539400,128,0,539483:0:0:0:0:
64,192,539400,128,0,539567:0:0:0:0:
192,192,539483,128,0,539650:0:0:0:0:
320,192,539567,128,0,539733:0:0:0:0:
448,192,539567,128,0,539650:0:0:0:0:
64,192,539650,128,0,539817:0:0:0:0:
192,192,539733,128,0,539817:0:0:0:0:
448,192,539733,128,0,539900:0:0:0:0:
320,192,539817,128,0,539983:0:0:0:0:
192,192,539900,128,0,540067:0:0:0:0:
64,192,539900,128,0,539983:0:0:0:0:
448,192,539983,128,0,540150:0:0:0:0:
320,192,540067,128,0,540233:0:0:0:0:
64,192,540067,128,0,540150:0:0:0:0:
192,192,540150,128,0,540317:0:0:0:0:
448,192,540233,128,0,540400:0:0:0:0:
64,192,540233,128,0,540317:0:0:0:0:
320,192,540317,128,0,540483:0:0:0:0:
64,192,540400,128,0,540483:0:0:0:0:
192,192,540400,128,0,540567:0:0:0:0:
448,192,540483,128,0,540650:0:0:0:0:
320,192,540567,128,0,540650:0:0:0:0:
64,192,540567,128,0,540733:0:0:0:0:
192,192,540650,128,0,540817:0:0:0:0:
448,192,540733,128,0,540817:0:0:0:0:
320,192,540733,128,0,540900:0:0:0:0:
64,192,540817,128,0,540983:0:0:0:0:
448,192,540900,128,0,540983:0:0:0:0:
192,192,540900,128,0,541067:0:0:0:0:
320,192,540983,128,0,541150:0:0:0:0:
448,192,541067,128,0,541150:0:0:0:0:
64,192,541067,128,0,541233:0:0:0:0:
192,192,541150,128,0,541317:0:0:0:0:
448,192,541233,128,0,541317:0:0:0:0:
320,192,541233,128,0,541400:0:0:0:0:
64,192,541317,128,0,541483:0:0:0:0:
448,192,541400,128,0,541567:0:0:0:0:
192,192,541400,128,0,541483:0:0:0:0:
320,192,541483,128,0,541650:0:0:0:0:
64,192,541567,128,0,541650:0:0:0:0:
192,192,541567,128,0,541733:0:0:0:0:
448,192,541650,128,0,541817:0:0:0:0:
64,192,541733,128,0,541900:0:0:0:0:
320,192,541733,128,0,541817:0:0:0:0:
192,192,541817,128,0,542067:0:0:0:0:
448,192,541900,128,0,541983:0:0:0:0:
320,192,541900,128,0,541983:0:0:0:0:
64,192,541983,128,0,542067:0:0:0:0:
320,192,542067,128,0,542150:0:0:0:0:
448,192,542067,128,0,542150:0:0:0:0:
192,192,542150,128,0,542233:0:0:0:0:
64,192,542150,128,0,542233:0:0:0:0:
448,192,542233,128,0,542317:0:0:0:0:
320,192,542233,128,0,542317:0:0:0:0:
64,192,542317,128,0,542400:0:0:0:0:
192,192,542317,128,0,542400:0:0:0:0:
320,192,542400,128,0,542483:0:0:0:0:
448,192,542400,128,0,542483:0:0:0:0:
64,192,542483,128,0,542567:0:0:0:0:
192,192,542483,128,0,542567:0:0:0:0:
320,192,542567,128,0,542650:0:0:0:0:
448,192,542567,128,0,542650:0:0:0:0:
192,192,542650,128,0,542733:0:0:0:0:
64,192,542650,128,0,542733:0:0:0:0:
320,192,542733,128,0,542817:0:0:0:0:
448,192,542733,128,0,542817:0:0:0:0:
192,192,542817,128,0,542900:0:0:0:0:
64,192,542817,128,0,542900:0:0:0:0:
320,192,542900,128,0,543025:0:0:0:0:
448,192,542900,128,0,542983:0:0:0:0:
192,192,542983,128,0,543067:0:0:0:0:
64,192,542983,128,0,543108:0:0:0:0:
448,192,543067,128,0,543150:0:0:0:0:
320,192,543108,128,0,543192:0:0:0:0:
192,192,543150,128,0,543233:0:0:0:0:
64,192,543192,128,0,543275:0:0:0:0:
448,192,543233,128,0,544650:0:0:0:0:
320,192,543275,128,0,544817:0:0:0:0:
192,192,543317,128,0,544650:0:0:0:0:
64,192,543358,128,0,544650:0:0:0:0:
448,192,544733,128,0,544983:0:0:0:0:
64,192,544733,128,0,545150:0:0:0:0:
192,192,544733,128,0,544983:0:0:0:0:
320,192,544900,128,0,544983:0:0:0:0:
320,192,545067,128,0,545317:0:0:0:0:
448,192,545067,128,0,545483:0:0:0:0:
192,192,545067,128,0,545317:0:0:0:0:
64,192,545233,128,0,545317:0:0:0:0:
320,192,545400,128,0,545650:0:0:0:0:
192,192,545400,128,0,545650:0:0:0:0:
64,192,545400,128,0,545817:0:0:0:0:
448,192,545567,128,0,545650:0:0:0:0:
320,192,545733,128,0,546150:0:0:0:0:
192,192,545733,128,0,545983:0:0:0:0:
448,192,545733,128,0,545983:0:0:0:0:
64,192,545900,128,0,545983:0:0:0:0:
448,192,546067,128,0,546483:0:0:0:0:
64,192,546067,128,0,546317:0:0:0:0:
192,192,546067,128,0,546317:0:0:0:0:
320,192,546233,128,0,546317:0:0:0:0:
320,192,546400,128,0,546650:0:0:0:0:
64,192,546400,128,0,546650:0:0:0:0:
192,192,546400,128,0,546817:0:0:0:0:
448,192,546567,128,0,546650:0:0:0:0:
320,192,546733,128,0,547150:0:0:0:0:
64,192,546733,128,0,546983:0:0:0:0:
448,192,546733,128,0,546983:0:0:0:0:
192,192,546900,128,0,546983:0:0:0:0:
192,192,547067,128,0,547317:0:0:0:0:
64,192,547067,128,0,547317:0:0:0:0:
448,192,547067,128,0,547150:0:0:0:0:
320,192,547233,128,0,547650:0:0:0:0:
448,192,547233,128,0,547317:0:0:0:0:
448,192,547400,128,0,547650:0:0:0:0:
64,192,547400,128,0,547650:0:0:0:0:
192,192,547400,128,0,547483:0:0:0:0:
192,192,547567,128,0,547983:0:0:0:0:
320,192,547733,128,0,547817:0:0:0:0:
64,192,547733,128,0,547983:0:0:0:0:
448,192,547733,128,0,547983:0:0:0:0:
320,192,547900,128,0,548317:0:0:0:0:
64,192,548067,128,0,548150:0:0:0:0:
192,192,548067,128,0,548317:0:0:0:0:
448,192,548067,128,0,548317:0:0:0:0:
64,192,548233,128,0,548650:0:0:0:0:
320,192,548400,128,0,548650:0:0:0:0:
192,192,548400,128,0,548650:0:0:0:0:
448,192,548400,128,0,548483:0:0:0:0:
448,192,548567,128,0,548983:0:0:0:0:
320,192,548733,128,0,548983:0:0:0:0:
64,192,548733,128,0,548983:0:0:0:0:
192,192,548733,128,0,548817:0:0:0:0:
192,192,548900,128,0,549317:0:0:0:0:
320,192,549067,128,0,549317:0:0:0:0:
64,192,549067,128,0,549150:0:0:0:0:
448,192,549067,128,0,549317:0:0:0:0:
64,192,549233,128,0,549650:0:0:0:0:
192,192,549400,128,0,549567:0:0:0:0:
448,192,549400,128,0,549650:0:0:0:0:
320,192,549400,128,0,549483:0:0:0:0:
320,192,549567,128,0,549650:0:0:0:0:
192,192,549650,128,0,549817:0:0:0:0:
448,192,549733,128,0,549983:0:0:0:0:
64,192,549733,128,0,549983:0:0:0:0:
320,192,549733,128,0,549983:0:0:0:0:
192,192,549900,128,0,550317:0:0:0:0:
320,192,550067,128,0,550150:0:0:0:0:
64,192,550067,128,0,550317:0:0:0:0:
448,192,550067,128,0,550317:0:0:0:0:
320,192,550233,128,0,550650:0:0:0:0:
192,192,550400,128,0,550650:0:0:0:0:
64,192,550400,128,0,550483:0:0:0:0:
448,192,550400,128,0,550650:0:0:0:0:
64,192,550567,128,0,550983:0:0:0:0:
192,192,550733,128,0,550983:0:0:0:0:
448,192,550733,128,0,550817:0:0:0:0:
320,192,550733,128,0,550983:0:0:0:0:
448,192,550900,128,0,551317:0:0:0:0:
320,192,551067,128,0,551317:0:0:0:0:
192,192,551067,128,0,551317:0:0:0:0:
64,192,551067,128,0,551150:0:0:0:0:
64,192,551233,128,0,551650:0:0:0:0:
320,192,551400,128,0,551483:0:0:0:0:
448,192,551400,128,0,551650:0:0:0:0:
192,192,551400,128,0,551650:0:0:0:0:
320,192,551567,128,0,551983:0:0:0:0:
448,192,551733,128,0,551817:0:0:0:0:
64,192,551733,128,0,551983:0:0:0:0:
192,192,551733,128,0,551983:0:0:0:0:
448,192,551900,128,0,552317:0:0:0:0:
320,192,552067,128,0,552317:0:0:0:0:
192,192,552067,128,0,552150:0:0:0:0:
64,192,552067,128,0,552317:0:0:0:0:
192,192,552233,128,0,552650:0:0:0:0:
320,192,552400,128,0,552483:0:0:0:0:
448,192,552400,128,0,552483:0:0:0:0:
64,192,552400,128,0,552650:0:0:0:0:
320,192,552567,128,0,552983:0:0:0:0:
448,192,552567,128,0,552650:0:0:0:0:
448,192,552733,128,0,552983:0:0:0:0:
64,192,552733,128,0,552983:0:0:0:0:
192,192,552733,128,0,552817:0:0:0:0:
192,192,552900,128,0,552983:0:0:0:0:
320,192,553067,128,0,553150:0:0:0:0:
192,192,553067,128,0,553317:0:0:0:0:
448,192,553067,128,0,553317:0:0:0:0:
64,192,553067,128,0,553317:0:0:0:0:
320,192,553233,128,0,553650:0:0:0:0:
448,192,553400,128,0,553650:0:0:0:0:
192,192,553400,128,0,553650:0:0:0:0:
64,192,553400,128,0,553483:0:0:0:0:
64,192,553567,128,0,553650:0:0:0:0:
320,192,553733,128,0,553983:0:0:0:0:
192,192,553733,128,0,553983:0:0:0:0:
448,192,553733,128,0,553817:0:0:0:0:
64,192,553733,128,0,553983:0:0:0:0:
448,192,553900,128,0,554317:0:0:0:0:
320,192,554067,128,0,554317:0:0:0:0:
192,192,554067,128,0,554150:0:0:0:0:
64,192,554067,128,0,554317:0:0:0:0:
192,192,554233,128,0,554650:0:0:0:0:
320,192,554400,128,0,554650:0:0:0:0:
448,192,554400,128,0,554650:0:0:0:0:
64,192,554400,128,0,554483:0:0:0:0:
64,192,554567,128,0,554983:0:0:0:0:
320,192,554733,128,0,554817:0:0:0:0:
448,192,554733,128,0,554983:0:0:0:0:
192,192,554733,128,0,554817:0:0:0:0:
192,192,554900,128,0,555150:0:0:0:0:
320,192,554900,128,0,554983:0:0:0:0:
64,192,555067,128,0,555317:0:0:0:0:
448,192,555067,128,0,555150:0:0:0:0:
320,192,555067,128,0,555317:0:0:0:0:
192,192,555233,128,0,555317:0:0:0:0:
448,192,555233,128,0,555317:0:0:0:0:
320,192,555400,128,0,555483:0:0:0:0:
448,192,555400,128,0,555650:0:0:0:0:
64,192,555400,128,0,555650:0:0:0:0:
192,192,555400,128,0,555650:0:0:0:0:
320,192,555567,128,0,555650:0:0:0:0:
448,192,555733,128,0,555983:0:0:0:0:
64,192,555733,128,0,555817:0:0:0:0:
192,192,555733,128,0,555983:0:0:0:0:
320,192,555733,128,0,555983:0:0:0:0:
64,192,555900,128,0,555983:0:0:0:0:
448,192,556067,128,0,556150:0:0:0:0:
64,192,556067,128,0,556317:0:0:0:0:
320,192,556067,128,0,556317:0:0:0:0:
192,192,556067,128,0,556317:0:0:0:0:
448,192,556233,128,0,556317:0:0:0:0:
64,192,556400,128,0,556483:0:0:0:0:
192,192,556400,128,0,556650:0:0:0:0:
320,192,556400,128,0,556650:0:0:0:0:
448,192,556400,128,0,556650:0:0:0:0:
64,192,556567,128,0,556650:0:0:0:0:
64,192,556733,128,0,556983:0:0:0:0:
448,192,556733,128,0,556983:0:0:0:0:
192,192,556733,128,0,556983:0:0:0:0:
320,192,556733,128,0,556817:0:0:0:0:
320,192,556900,128,0,556983:0:0:0:0:
192,192,557067,128,0,557317:0:0:0:0:
64,192,557067,128,0,557317:0:0:0:0:
320,192,557067,128,0,557317:0:0:0:0:
448,192,557067,128,0,557150:0:0:0:0:
448,192,557233,128,0,557317:0:0:0:0:
64,192,557400,128,0,557650:0:0:0:0:
320,192,557400,128,0,557650:0:0:0:0:
192,192,557400,128,0,557483:0:0:0:0:
448,192,557400,128,0,557650:0:0:0:0:
192,192,557567,128,0,557650:0:0:0:0:
192,192,557733,128,0,557983:0:0:0:0:
64,192,557733,128,0,557983:0:0:0:0:
320,192,557733,128,0,557817:0:0:0:0:
448,192,557733,128,0,557817:0:0:0:0:
448,192,557900,128,0,557983:0:0:0:0:
320,192,557900,128,0,557983:0:0:0:0:
320,192,558067,128,0,558317:0:0:0:0:
448,192,558067,128,0,558317:0:0:0:0:
64,192,558067,128,0,558317:0:0:0:0:
192,192,558067,128,0,558150:0:0:0:0:
192,192,558233,128,0,558317:0:0:0:0:
448,192,558400,128,0,558650:0:0:0:0:
192,192,558400,128,0,558650:0:0:0:0:
320,192,558400,128,0,558483:0:0:0:0:
64,192,558400,128,0,558650:0:0:0:0:
320,192,558567,128,0,558650:0:0:0:0:
192,192,558733,128,0,558817:0:0:0:0:
64,192,558733,128,0,558817:0:0:0:0:
448,192,558733,128,0,558983:0:0:0:0:
320,192,558733,128,0,558983:0:0:0:0:
192,192,558900,128,0,558983:0:0:0:0:
64,192,558900,128,0,558983:0:0:0:0:
192,192,559067,128,0,559317:0:0:0:0:
64,192,559067,128,0,559317:0:0:0:0:
448,192,559067,128,0,559150:0:0:0:0:
320,192,559067,128,0,559317:0:0:0:0:
448,192,559233,128,0,559317:0:0:0:0:
192,192,559400,128,0,559483:0:0:0:0:
64,192,559400,128,0,559650:0:0:0:0:
448,192,559400,128,0,559650:0:0:0:0:
320,192,559400,128,0,559650:0:0:0:0:
192,192,559567,128,0,559650:0:0:0:0:
448,192,559733,128,0,559983:0:0:0:0:
320,192,559733,128,0,559983:0:0:0:0:
64,192,559733,128,0,559817:0:0:0:0:
192,192,559733,128,0,559983:0:0:0:0:
64,192,559900,128,0,559983:0:0:0:0:
448,192,560067,128,0,560317:0:0:0:0:
320,192,560067,128,0,560150:0:0:0:0:
64,192,560067,128,0,560317:0:0:0:0:
192,192,560067,128,0,560317:0:0:0:0:
320,192,560233,128,0,560317:0:0:0:0:
448,192,560400,128,0,560650:0:0:0:0:
64,192,560400,128,0,560650:0:0:0:0:
320,192,560400,128,0,560817:0:0:0:0:
192,192,560400,128,0,560483:0:0:0:0:
192,192,560567,128,0,560817:0:0:0:0:
448,192,560733,128,0,560983:0:0:0:0:
64,192,560733,128,0,561150:0:0:0:0:
320,192,560900,128,0,561150:0:0:0:0:
192,192,560900,128,0,560983:0:0:0:0:
448,192,561067,128,0,561483:0:0:0:0:
192,192,561067,128,0,561317:0:0:0:0:
64,192,561233,128,0,561317:0:0:0:0:
320,192,561233,128,0,561483:0:0:0:0:
64,192,561400,128,0,561650:0:0:0:0:
192,192,561400,128,0,561817:0:0:0:0:
448,192,561567,128,0,561650:0:0:0:0:
320,192,561567,128,0,561817:0:0:0:0:
448,192,561733,128,0,562317:0:0:0:0:
64,192,561733,128,0,561983:0:0:0:0:
320,192,561900,128,0,561983:0:0:0:0:
192,192,561900,128,0,562150:0:0:0:0:
64,192,562067,128,0,562150:0:0:0:0:
320,192,562067,128,0,562317:0:0:0:0:
64,192,562233,128,0,562817:0:0:0:0:
192,192,562233,128,0,562483:0:0:0:0:
448,192,562400,128,0,562650:0:0:0:0:
320,192,562400,128,0,562483:0:0:0:0:
192,192,562567,128,0,562650:0:0:0:0:
320,192,562567,128,0,562817:0:0:0:0:
192,192,562733,128,0,562983:0:0:0:0:
448,192,562733,128,0,563317:0:0:0:0:
64,192,562900,128,0,562983:0:0:0:0:
320,192,562900,128,0,563150:0:0:0:0:
64,192,563067,128,0,563400:0:0:0:0:
192,192,563067,128,0,563150:0:0:0:0:
192,192,563233,128,0,563400:0:0:0:0:
320,192,563233,128,0,563317:0:0:0:0:
448,192,563400,128,0,563483:0:0:0:0:
320,192,563400,128,0,563483:0:0:0:0:
192,192,563483,128,0,563567:0:0:0:0:
64,192,563483,128,0,563567:0:0:0:0:
320,192,563567,128,0,563650:0:0:0:0:
448,192,563567,128,0,563650:0:0:0:0:
192,192,563650,128,0,563733:0:0:0:0:
64,192,563650,128,0,563733:0:0:0:0:
320,192,563733,128,0,563817:0:0:0:0:
448,192,563733,128,0,563817:0:0:0:0:
192,192,563817,128,0,563900:0:0:0:0:
64,192,563817,128,0,563900:0:0:0:0:
320,192,563900,128,0,563983:0:0:0:0:
448,192,563900,128,0,563983:0:0:0:0:
192,192,563983,128,0,564067:0:0:0:0:
64,192,563983,128,0,564067:0:0:0:0:
320,192,564067,128,0,564150:0:0:0:0:
448,192,564067,128,0,564150:0:0:0:0:
192,192,564150,128,0,564233:0:0:0:0:
64,192,564150,128,0,564233:0:0:0:0:
320,192,564233,128,0,564317:0:0:0:0:
448,192,564233,128,0,564317:0:0:0:0:
192,192,564317,128,0,564400:0:0:0:0:
64,192,564317,128,0,564400:0:0:0:0:
320,192,564400,128,0,564483:0:0:0:0:
448,192,564400,128,0,564483:0:0:0:0:
192,192,564483,128,0,564567:0:0:0:0:
64,192,564483,128,0,564567:0:0:0:0:
320,192,564567,128,0,564650:0:0:0:0:
448,192,564567,128,0,564650:0:0:0:0:
192,192,564650,1,0,0:0:0:0:0
64,192,564650,1,0,0:0:0:0:0
320,192,564733,128,0,567650:0:0:0:0:
448,192,564733,128,0,567650:0:0:0:0:
64,192,564733,128,0,567650:0:0:0:0:
192,192,564733,128,0,567650:0:0:0:0:
320,192,580133,132,0,581136:0:0:0:0:
64,192,581136,128,0,581417:0:0:0:0:
192,192,581229,128,0,581511:0:0:0:0:
448,192,581323,128,0,581604:0:0:0:0:
320,192,581417,128,0,581698:0:0:0:0:
64,192,581511,128,0,581792:0:0:0:0:
192,192,581604,128,0,581886:0:0:0:0:
448,192,581698,128,0,581979:0:0:0:0:
320,192,581792,128,0,582073:0:0:0:0:
64,192,581886,128,0,582167:0:0:0:0:
192,192,581979,128,0,582261:0:0:0:0:
448,192,582073,128,0,582354:0:0:0:0:
320,192,582167,128,0,582448:0:0:0:0:
64,192,582261,128,0,582542:0:0:0:0:
192,192,582354,128,0,582636:0:0:0:0:
448,192,582448,128,0,582823:0:0:0:0:
320,192,582542,128,0,582729:0:0:0:0:
64,192,582636,128,0,582917:0:0:0:0:
192,192,582729,128,0,583011:0:0:0:0:
320,192,582823,128,0,583104:0:0:0:0:
448,192,582917,128,0,583198:0:0:0:0:
64,192,583011,128,0,583292:0:0:0:0:
192,192,583104,128,0,583386:0:0:0:0:
320,192,583198,128,0,583479:0:0:0:0:
448,192,583292,128,0,583573:0:0:0:0:
64,192,583386,128,0,583667:0:0:0:0:
192,192,583479,128,0,583761:0:0:0:0:
320,192,583573,128,0,583854:0:0:0:0:
448,192,583667,128,0,583948:0:0:0:0:
64,192,583761,128,0,584042:0:0:0:0:
192,192,583854,128,0,584136:0:0:0:0:
320,192,583948,128,0,584323:0:0:0:0:
448,192,584042,128,0,584229:0:0:0:0:
64,192,584136,128,0,584417:0:0:0:0:
192,192,584229,128,0,584511:0:0:0:0:
448,192,584323,128,0,584604:0:0:0:0:
320,192,584417,128,0,584698:0:0:0:0:
64,192,584511,128,0,584792:0:0:0:0:
192,192,584604,128,0,584886:0:0:0:0:
448,192,584698,128,0,584979:0:0:0:0:
320,192,584792,128,0,585073:0:0:0:0:
64,192,584886,128,0,585167:0:0:0:0:
192,192,584979,128,0,585261:0:0:0:0:
448,192,585073,128,0,585354:0:0:0:0:
320,192,585167,128,0,585448:0:0:0:0:
64,192,585261,128,0,585542:0:0:0:0:
192,192,585354,128,0,585636:0:0:0:0:
448,192,585448,128,0,585823:0:0:0:0:
320,192,585542,128,0,585729:0:0:0:0:
64,192,585636,128,0,585917:0:0:0:0:
192,192,585729,128,0,586011:0:0:0:0:
320,192,585823,128,0,586104:0:0:0:0:
448,192,585917,128,0,586198:0:0:0:0:
64,192,586011,128,0,586292:0:0:0:0:
192,192,586104,128,0,586386:0:0:0:0:
320,192,586198,128,0,586479:0:0:0:0:
448,192,586292,128,0,586573:0:0:0:0:
64,192,586386,128,0,586667:0:0:0:0:
192,192,586479,128,0,586761:0:0:0:0:
320,192,586573,128,0,586854:0:0:0:0:
448,192,586667,128,0,586948:0:0:0:0:
64,192,586761,128,0,587042:0:0:0:0:
192,192,586854,128,0,587136:0:0:0:0:
320,192,586948,128,0,587323:0:0:0:0:
448,192,587042,128,0,587229:0:0:0:0:
64,192,587136,128,0,587417:0:0:0:0:
192,192,587229,128,0,587511:0:0:0:0:
448,192,587323,128,0,587604:0:0:0:0:
320,192,587417,128,0,587698:0:0:0:0:
64,192,587511,128,0,587792:0:0:0:0:
192,192,587604,128,0,587886:0:0:0:0:
448,192,587698,128,0,587979:0:0:0:0:
320,192,587792,128,0,588073:0:0:0:0:
64,192,587886,128,0,588167:0:0:0:0:
192,192,587979,128,0,588261:0:0:0:0:
448,192,588073,128,0,588354:0:0:0:0:
320,192,588167,128,0,588448:0:0:0:0:
64,192,588261,128,0,588542:0:0:0:0:
192,192,588354,128,0,588636:0:0:0:0:
448,192,588448,128,0,588823:0:0:0:0:
320,192,588542,128,0,588729:0:0:0:0:
64,192,588636,128,0,588917:0:0:0:0:
192,192,588729,128,0,589011:0:0:0:0:
320,192,588823,128,0,589104:0:0:0:0:
448,192,588917,128,0,589198:0:0:0:0:
64,192,589011,128,0,589292:0:0:0:0:
192,192,589104,128,0,589386:0:0:0:0:
320,192,589198,128,0,589479:0:0:0:0:
448,192,589292,128,0,589573:0:0:0:0:
64,192,589386,128,0,589667:0:0:0:0:
192,192,589479,128,0,589761:0:0:0:0:
320,192,589573,128,0,589854:0:0:0:0:
448,192,589667,128,0,589948:0:0:0:0:
64,192,589761,128,0,590042:0:0:0:0:
192,192,589854,128,0,590136:0:0:0:0:
320,192,589948,128,0,590323:0:0:0:0:
448,192,590042,128,0,590229:0:0:0:0:
64,192,590136,128,0,590417:0:0:0:0:
192,192,590229,128,0,590511:0:0:0:0:
448,192,590323,128,0,590604:0:0:0:0:
320,192,590417,128,0,590698:0:0:0:0:
64,192,590511,128,0,590792:0:0:0:0:
192,192,590604,128,0,590886:0:0:0:0:
448,192,590698,128,0,590979:0:0:0:0:
320,192,590792,128,0,591073:0:0:0:0:
64,192,590886,128,0,591167:0:0:0:0:
192,192,590979,128,0,591261:0:0:0:0:
448,192,591073,128,0,591354:0:0:0:0:
320,192,591167,128,0,591448:0:0:0:0:
64,192,591261,128,0,591542:0:0:0:0:
192,192,591354,128,0,591636:0:0:0:0:
448,192,591448,128,0,591823:0:0:0:0:
320,192,591542,128,0,591729:0:0:0:0:
64,192,591636,128,0,591917:0:0:0:0:
192,192,591729,128,0,592011:0:0:0:0:
320,192,591823,128,0,592104:0:0:0:0:
448,192,591917,128,0,592198:0:0:0:0:
64,192,592011,128,0,592292:0:0:0:0:
192,192,592104,128,0,592386:0:0:0:0:
320,192,592198,128,0,592479:0:0:0:0:
448,192,592292,128,0,592573:0:0:0:0:
64,192,592386,128,0,592667:0:0:0:0:
192,192,592479,128,0,592761:0:0:0:0:
320,192,592573,128,0,592854:0:0:0:0:
448,192,592667,128,0,592948:0:0:0:0:
64,192,592761,128,0,593042:0:0:0:0:
192,192,592854,128,0,593042:0:0:0:0:
320,192,592948,128,0,593136:0:0:0:0:
448,192,593042,128,0,593229:0:0:0:0:
192,192,593136,128,0,593323:0:0:0:0:
64,192,593136,128,0,593417:0:0:0:0:
320,192,593229,128,0,593417:0:0:0:0:
448,192,593323,128,0,593417:0:0:0:0:
192,192,593417,128,0,593511:0:0:0:0:
448,192,593511,128,0,593604:0:0:0:0:
320,192,593511,128,0,593698:0:0:0:0:
64,192,593511,128,0,593792:0:0:0:0:
192,192,593604,128,0,593886:0:0:0:0:
448,192,593698,128,0,593792:0:0:0:0:
320,192,593792,128,0,594073:0:0:0:0:
64,192,593886,128,0,594167:0:0:0:0:
448,192,593886,128,0,593979:0:0:0:0:
192,192,593979,128,0,594167:0:0:0:0:
448,192,594073,128,0,594167:0:0:0:0:
320,192,594167,128,0,594261:0:0:0:0:
192,192,594261,128,0,594448:0:0:0:0:
64,192,594261,128,0,594542:0:0:0:0:
448,192,594261,128,0,594354:0:0:0:0:
320,192,594354,128,0,594636:0:0:0:0:
448,192,594448,128,0,594542:0:0:0:0:
192,192,594542,128,0,594823:0:0:0:0:
448,192,594636,128,0,594917:0:0:0:0:
64,192,594636,128,0,594729:0:0:0:0:
320,192,594729,128,0,594917:0:0:0:0:
64,192,594823,128,0,594917:0:0:0:0:
192,192,594917,128,0,595011:0:0:0:0:
448,192,595011,128,0,595386:0:0:0:0:
320,192,595011,128,0,595292:0:0:0:0:
64,192,595011,128,0,595104:0:0:0:0:
192,192,595104,128,0,595573:0:0:0:0:
64,192,595198,128,0,595292:0:0:0:0:
64,192,595386,128,0,595479:0:0:0:0:
320,192,595386,128,0,595667:0:0:0:0:
448,192,595479,128,0,595667:0:0:0:0:
64,192,595573,128,0,595667:0:0:0:0:
192,192,595667,128,0,595761:0:0:0:0:
448,192,595761,128,0,595948:0:0:0:0:
320,192,595761,128,0,596042:0:0:0:0:
64,192,595761,128,0,595854:0:0:0:0:
192,192,595854,128,0,596136:0:0:0:0:
64,192,595948,128,0,596042:0:0:0:0:
448,192,596042,128,0,596323:0:0:0:0:
64,192,596136,128,0,596417:0:0:0:0:
320,192,596136,128,0,596229:0:0:0:0:
192,192,596229,128,0,596417:0:0:0:0:
320,192,596323,128,0,596417:0:0:0:0:
448,192,596417,128,0,596511:0:0:0:0:
192,192,596511,128,0,596792:0:0:0:0:
64,192,596511,128,0,596698:0:0:0:0:
320,192,596511,128,0,596604:0:0:0:0:
448,192,596604,128,0,597167:0:0:0:0:
320,192,596698,128,0,596792:0:0:0:0:
64,192,596792,128,0,596886:0:0:0:0:
192,192,596886,128,0,597073:0:0:0:0:
320,192,596886,128,0,596979:0:0:0:0:
64,192,596979,128,0,597167:0:0:0:0:
320,192,597073,128,0,597167:0:0:0:0:
192,192,597167,128,0,597261:0:0:0:0:
448,192,597261,128,0,597448:0:0:0:0:
64,192,597261,128,0,597542:0:0:0:0:
320,192,597261,128,0,597354:0:0:0:0:
192,192,597354,128,0,597542:0:0:0:0:
320,192,597448,128,0,597636:0:0:0:0:
448,192,597542,128,0,597729:0:0:0:0:
64,192,597636,128,0,597823:0:0:0:0:
192,192,597636,128,0,597729:0:0:0:0:
320,192,597729,128,0,597917:0:0:0:0:
448,192,597823,128,0,597917:0:0:0:0:
192,192,597823,128,0,597917:0:0:0:0:
64,192,597917,128,0,598011:0:0:0:0:
448,192,598011,128,0,598386:0:0:0:0:
320,192,598011,128,0,598198:0:0:0:0:
192,192,598011,128,0,598104:0:0:0:0:
64,192,598104,128,0,598292:0:0:0:0:
192,192,598198,128,0,598292:0:0:0:0:
320,192,598292,128,0,598573:0:0:0:0:
64,192,598386,128,0,598667:0:0:0:0:
192,192,598386,128,0,598479:0:0:0:0:
448,192,598479,128,0,598667:0:0:0:0:
192,192,598573,128,0,598667:0:0:0:0:
320,192,598667,128,0,598761:0:0:0:0:
448,192,598761,128,0,599136:0:0:0:0:
64,192,598761,128,0,598948:0:0:0:0:
192,192,598761,128,0,598854:0:0:0:0:
320,192,598854,128,0,599042:0:0:0:0:
192,192,598948,128,0,599042:0:0:0:0:
64,192,599042,128,0,599229:0:0:0:0:
192,192,599136,128,0,599417:0:0:0:0:
320,192,599136,128,0,599323:0:0:0:0:
448,192,599229,128,0,599417:0:0:0:0:
64,192,599323,128,0,599417:0:0:0:0:
320,192,599417,128,0,599511:0:0:0:0:
64,192,599511,128,0,599604:0:0:0:0:
192,192,599511,128,0,599698:0:0:0:0:
448,192,599511,128,0,599792:0:0:0:0:
320,192,599604,128,0,599886:0:0:0:0:
64,192,599698,128,0,599792:0:0:0:0:
192,192,599792,128,0,600073:0:0:0:0:
448,192,599886,128,0,600167:0:0:0:0:
64,192,599886,128,0,599979:0:0:0:0:
320,192,599979,128,0,600167:0:0:0:0:
64,192,600073,128,0,600167:0:0:0:0:
192,192,600167,128,0,600261:0:0:0:0:
320,192,600261,128,0,600448:0:0:0:0:
448,192,600261,128,0,600542:0:0:0:0:
64,192,600261,128,0,600354:0:0:0:0:
192,192,600354,128,0,600636:0:0:0:0:
64,192,600448,128,0,600542:0:0:0:0:
320,192,600542,128,0,600823:0:0:0:0:
64,192,600636,128,0,600917:0:0:0:0:
448,192,600636,128,0,600729:0:0:0:0:
192,192,600729,128,0,600917:0:0:0:0:
448,192,600823,128,0,600917:0:0:0:0:
320,192,600917,128,0,601011:0:0:0:0:
64,192,601011,128,0,601386:0:0:0:0:
192,192,601011,128,0,601292:0:0:0:0:
448,192,601011,128,0,601104:0:0:0:0:
320,192,601104,128,0,601573:0:0:0:0:
448,192,601198,128,0,601292:0:0:0:0:
448,192,601386,128,0,601479:0:0:0:0:
192,192,601386,128,0,601667:0:0:0:0:
64,192,601479,128,0,601667:0:0:0:0:
448,192,601573,128,0,601667:0:0:0:0:
320,192,601667,128,0,601761:0:0:0:0:
64,192,601761,128,0,601948:0:0:0:0:
192,192,601761,128,0,602042:0:0:0:0:
448,192,601761,128,0,601854:0:0:0:0:
320,192,601854,128,0,602136:0:0:0:0:
448,192,601948,128,0,602042:0:0:0:0:
64,192,602042,128,0,602323:0:0:0:0:
448,192,602136,128,0,602417:0:0:0:0:
192,192,602136,128,0,602229:0:0:0:0:
320,192,602229,128,0,602417:0:0:0:0:
192,192,602323,128,0,602417:0:0:0:0:
64,192,602417,128,0,602511:0:0:0:0:
320,192,602511,128,0,602792:0:0:0:0:
448,192,602511,128,0,602698:0:0:0:0:
192,192,602511,128,0,602604:0:0:0:0:
64,192,602604,128,0,603167:0:0:0:0:
192,192,602698,128,0,602792:0:0:0:0:
448,192,602792,128,0,602886:0:0:0:0:
320,192,602886,128,0,603073:0:0:0:0:
192,192,602886,128,0,602979:0:0:0:0:
448,192,602979,128,0,603167:0:0:0:0:
192,192,603073,128,0,603167:0:0:0:0:
320,192,603167,128,0,603261:0:0:0:0:
64,192,603261,128,0,603448:0:0:0:0:
448,192,603261,128,0,603542:0:0:0:0:
192,192,603261,128,0,603354:0:0:0:0:
320,192,603354,128,0,603542:0:0:0:0:
192,192,603448,128,0,603636:0:0:0:0:
64,192,603542,128,0,603636:0:0:0:0:
448,192,603636,128,0,603729:0:0:0:0:
320,192,603729,128,0,603823:0:0:0:0:
192,192,603823,128,0,603917:0:0:0:0:
64,192,603917,128,0,604011:0:0:0:0:
448,192,604011,128,0,604104:0:0:0:0:
320,192,604104,128,0,604198:0:0:0:0:
192,192,604198,128,0,604292:0:0:0:0:
64,192,604292,128,0,604386:0:0:0:0:
192,192,604386,128,0,604432:0:0:0:0:
320,192,604386,128,0,604432:0:0:0:0:
448,192,604386,128,0,604479:0:0:0:0:
320,192,604479,128,0,604573:0:0:0:0:
448,192,604573,128,0,604620:0:0:0:0:
64,192,604573,128,0,604620:0:0:0:0:
192,192,604573,128,0,604667:0:0:0:0:
64,192,604667,128,0,604761:0:0:0:0:
192,192,604761,128,0,604807:0:0:0:0:
320,192,604761,128,0,604807:0:0:0:0:
448,192,604761,128,0,604854:0:0:0:0:
320,192,604854,128,0,604948:0:0:0:0:
64,192,604948,128,0,604995:0:0:0:0:
448,192,604948,128,0,604995:0:0:0:0:
192,192,604948,128,0,605042:0:0:0:0:
64,192,605042,128,0,605136:0:0:0:0:
448,192,605136,128,0,605229:0:0:0:0:
320,192,605136,128,0,605182:0:0:0:0:
192,192,605136,128,0,605182:0:0:0:0:
64,192,605229,128,0,605323:0:0:0:0:
448,192,605323,128,0,605417:0:0:0:0:
320,192,605417,128,0,605464:0:0:0:0:
64,192,605511,128,0,605557:0:0:0:0:
448,192,605511,128,0,605557:0:0:0:0:
320,192,605511,128,0,605604:0:0:0:0:
192,192,605604,128,0,605698:0:0:0:0:
320,192,605698,128,0,605792:0:0:0:0:
64,192,605792,128,0,605886:0:0:0:0:
448,192,605886,128,0,605932:0:0:0:0:
320,192,605886,128,0,605979:0:0:0:0:
192,192,605979,128,0,606073:0:0:0:0:
448,192,606073,128,0,606167:0:0:0:0:
320,192,606167,128,0,606214:0:0:0:0:
64,192,606261,128,0,606307:0:0:0:0:
192,192,606261,128,0,606307:0:0:0:0:
320,192,606261,128,0,606354:0:0:0:0:
448,192,606354,128,0,606448:0:0:0:0:
192,192,606448,128,0,606542:0:0:0:0:
320,192,606542,128,0,606636:0:0:0:0:
448,192,606636,128,0,606682:0:0:0:0:
192,192,606636,128,0,606729:0:0:0:0:
64,192,606729,128,0,606823:0:0:0:0:
448,192,606823,128,0,606917:0:0:0:0:
64,192,606917,128,0,606964:0:0:0:0:
448,192,607011,128,0,607057:0:0:0:0:
192,192,607011,128,0,607057:0:0:0:0:
64,192,607011,128,0,607104:0:0:0:0:
320,192,607104,128,0,607198:0:0:0:0:
192,192,607198,128,0,607292:0:0:0:0:
64,192,607292,128,0,607339:0:0:0:0:
448,192,607386,128,0,607432:0:0:0:0:
64,192,607386,128,0,607479:0:0:0:0:
320,192,607479,128,0,607573:0:0:0:0:
192,192,607573,128,0,607667:0:0:0:0:
448,192,607667,128,0,607714:0:0:0:0:
192,192,607761,128,0,607807:0:0:0:0:
320,192,607761,128,0,607807:0:0:0:0:
448,192,607761,128,0,607854:0:0:0:0:
64,192,607854,128,0,607948:0:0:0:0:
320,192,607948,128,0,608042:0:0:0:0:
192,192,608042,128,0,608136:0:0:0:0:
448,192,608136,128,0,608229:0:0:0:0:
64,192,608136,128,0,608182:0:0:0:0:
320,192,608229,128,0,608323:0:0:0:0:
192,192,608323,128,0,608417:0:0:0:0:
448,192,608417,128,0,608464:0:0:0:0:
192,192,608511,128,0,608557:0:0:0:0:
320,192,608511,128,0,608557:0:0:0:0:
448,192,608511,128,0,608604:0:0:0:0:
64,192,608604,128,0,608698:0:0:0:0:
320,192,608698,128,0,608792:0:0:0:0:
192,192,608792,128,0,608886:0:0:0:0:
448,192,608886,128,0,608932:0:0:0:0:
64,192,608886,128,0,608979:0:0:0:0:
192,192,608979,128,0,609073:0:0:0:0:
448,192,609073,128,0,609167:0:0:0:0:
320,192,609167,128,0,609214:0:0:0:0:
320,192,609261,128,0,609354:0:0:0:0:
192,192,609261,128,0,609307:0:0:0:0:
64,192,609261,128,0,609307:0:0:0:0:
448,192,609354,128,0,609448:0:0:0:0:
192,192,609448,128,0,609542:0:0:0:0:
320,192,609542,128,0,609636:0:0:0:0:
64,192,609636,128,0,609682:0:0:0:0:
192,192,609636,128,0,609729:0:0:0:0:
320,192,609729,128,0,609823:0:0:0:0:
192,192,609823,128,0,609917:0:0:0:0:
448,192,609917,128,0,609964:0:0:0:0:
192,192,610011,128,0,610057:0:0:0:0:
320,192,610011,128,0,610057:0:0:0:0:
448,192,610011,128,0,610104:0:0:0:0:
64,192,610104,128,0,610198:0:0:0:0:
320,192,610198,128,0,610292:0:0:0:0:
192,192,610292,128,0,610339:0:0:0:0:
64,192,610386,128,0,610432:0:0:0:0:
192,192,610386,128,0,610479:0:0:0:0:
448,192,610479,128,0,610573:0:0:0:0:
64,192,610573,128,0,610667:0:0:0:0:
192,192,610667,128,0,610714:0:0:0:0:
448,192,610761,128,0,610807:0:0:0:0:
64,192,610761,128,0,610807:0:0:0:0:
192,192,610761,128,0,610854:0:0:0:0:
320,192,610854,128,0,610948:0:0:0:0:
192,192,610948,128,0,611042:0:0:0:0:
448,192,611042,128,0,611136:0:0:0:0:
64,192,611136,128,0,611182:0:0:0:0:
192,192,611136,128,0,611229:0:0:0:0:
320,192,611229,128,0,611323:0:0:0:0:
64,192,611323,128,0,611417:0:0:0:0:
192,192,611417,128,0,611464:0:0:0:0:
448,192,611511,128,0,611557:0:0:0:0:
320,192,611511,128,0,611557:0:0:0:0:
192,192,611511,128,0,611604:0:0:0:0:
64,192,611604,128,0,611698:0:0:0:0:
320,192,611698,128,0,611792:0:0:0:0:
192,192,611792,128,0,611886:0:0:0:0:
64,192,611886,128,0,611932:0:0:0:0:
320,192,611886,128,0,611979:0:0:0:0:
448,192,611979,128,0,612073:0:0:0:0:
64,192,612073,128,0,612167:0:0:0:0:
448,192,612167,128,0,612214:0:0:0:0:
64,192,612261,128,0,612307:0:0:0:0:
320,192,612261,128,0,612307:0:0:0:0:
448,192,612261,128,0,612354:0:0:0:0:
192,192,612354,128,0,612448:0:0:0:0:
320,192,612448,128,0,612542:0:0:0:0:
448,192,612542,128,0,612589:0:0:0:0:
64,192,612636,128,0,612682:0:0:0:0:
448,192,612636,128,0,612729:0:0:0:0:
192,192,612729,128,0,612823:0:0:0:0:
320,192,612823,128,0,612917:0:0:0:0:
64,192,612917,128,0,612964:0:0:0:0:
320,192,613011,128,0,613057:0:0:0:0:
192,192,613011,128,0,613057:0:0:0:0:
64,192,613011,128,0,613104:0:0:0:0:
448,192,613104,128,0,613198:0:0:0:0:
192,192,613198,128,0,613292:0:0:0:0:
320,192,613292,128,0,613386:0:0:0:0:
64,192,613386,128,0,613479:0:0:0:0:
448,192,613386,128,0,613432:0:0:0:0:
192,192,613479,128,0,613573:0:0:0:0:
320,192,613573,128,0,613667:0:0:0:0:
64,192,613667,128,0,613714:0:0:0:0:
320,192,613761,128,0,613807:0:0:0:0:
192,192,613761,128,0,613807:0:0:0:0:
64,192,613761,128,0,613854:0:0:0:0:
448,192,613854,128,0,613948:0:0:0:0:
192,192,613948,128,0,614042:0:0:0:0:
320,192,614042,128,0,614136:0:0:0:0:
64,192,614136,128,0,614182:0:0:0:0:
448,192,614136,128,0,614229:0:0:0:0:
320,192,614229,128,0,614323:0:0:0:0:
64,192,614323,128,0,614417:0:0:0:0:
192,192,614417,128,0,614464:0:0:0:0:
192,192,614511,128,0,614604:0:0:0:0:
320,192,614511,128,0,614557:0:0:0:0:
448,192,614511,128,0,614557:0:0:0:0:
64,192,614604,128,0,614698:0:0:0:0:
320,192,614698,128,0,614792:0:0:0:0:
192,192,614792,128,0,614886:0:0:0:0:
448,192,614886,128,0,614932:0:0:0:0:
64,192,614886,128,0,614979:0:0:0:0:
192,192,614979,128,0,615073:0:0:0:0:
320,192,615073,128,0,615167:0:0:0:0:
448,192,615167,128,0,615214:0:0:0:0:
320,192,615261,128,0,615307:0:0:0:0:
192,192,615261,128,0,615307:0:0:0:0:
448,192,615261,128,0,615354:0:0:0:0:
64,192,615354,128,0,615448:0:0:0:0:
320,192,615448,128,0,615542:0:0:0:0:
192,192,615542,128,0,615636:0:0:0:0:
320,192,615636,128,0,615682:0:0:0:0:
448,192,615636,128,0,615729:0:0:0:0:
64,192,615729,128,0,615823:0:0:0:0:
320,192,615823,128,0,615917:0:0:0:0:
192,192,615917,128,0,615964:0:0:0:0:
448,192,616011,128,0,616104:0:0:0:0:
192,192,616011,128,0,616104:0:0:0:0:
320,192,616104,128,0,616198:0:0:0:0:
64,192,616198,128,0,616292:0:0:0:0:
192,192,616292,128,0,616339:0:0:0:0:
64,192,616386,128,0,616432:0:0:0:0:
448,192,616386,128,0,616432:0:0:0:0:
192,192,616386,128,0,616479:0:0:0:0:
448,192,616573,128,0,616620:0:0:0:0:
320,192,616573,128,0,616667:0:0:0:0:
192,192,616573,128,0,616620:0:0:0:0:
192,192,616761,128,0,616807:0:0:0:0:
320,192,616761,128,0,616807:0:0:0:0:
64,192,616761,128,0,616854:0:0:0:0:
64,192,616948,128,0,616995:0:0:0:0:
320,192,616948,128,0,616995:0:0:0:0:
448,192,616948,128,0,617042:0:0:0:0:
448,192,617136,128,0,617182:0:0:0:0:
64,192,617136,128,0,617229:0:0:0:0:
192,192,617136,128,0,617182:0:0:0:0:
320,192,617136,128,0,617182:0:0:0:0:
192,192,617229,128,0,617323:0:0:0:0:
64,192,617323,128,0,617417:0:0:0:0:
448,192,617323,128,0,617417:0:0:0:0:
320,192,617417,128,0,617511:0:0:0:0:
192,192,617511,128,0,617604:0:0:0:0:
64,192,617511,128,0,617604:0:0:0:0:
448,192,617511,128,0,617604:0:0:0:0:
320,192,617604,128,0,617698:0:0:0:0:
448,192,617698,128,0,617792:0:0:0:0:
192,192,617698,128,0,617792:0:0:0:0:
64,192,617792,128,0,617886:0:0:0:0:
448,192,617886,128,0,617979:0:0:0:0:
192,192,617886,128,0,617979:0:0:0:0:
320,192,617979,128,0,618073:0:0:0:0:
192,192,618073,128,0,618167:0:0:0:0:
64,192,618073,128,0,618167:0:0:0:0:
320,192,618167,128,0,618261:0:0:0:0:
64,192,618261,128,0,618354:0:0:0:0:
192,192,618261,128,0,618354:0:0:0:0:
448,192,618261,128,0,618354:0:0:0:0:
320,192,618354,128,0,618448:0:0:0:0:
64,192,618448,128,0,618542:0:0:0:0:
448,192,618448,128,0,618542:0:0:0:0:
320,192,618542,128,0,618636:0:0:0:0:
448,192,618636,128,0,618729:0:0:0:0:
192,192,618636,128,0,618729:0:0:0:0:
64,192,618729,128,0,618823:0:0:0:0:
192,192,618823,128,0,618917:0:0:0:0:
320,192,618823,128,0,618917:0:0:0:0:
448,192,618917,128,0,619011:0:0:0:0:
64,192,619011,128,0,619104:0:0:0:0:
192,192,619011,128,0,619104:0:0:0:0:
320,192,619011,128,0,619104:0:0:0:0:
448,192,619104,128,0,619198:0:0:0:0:
320,192,619198,128,0,619292:0:0:0:0:
64,192,619198,128,0,619292:0:0:0:0:
192,192,619292,128,0,619386:0:0:0:0:
448,192,619386,128,0,619479:0:0:0:0:
64,192,619386,128,0,619479:0:0:0:0:
320,192,619479,128,0,619573:0:0:0:0:
448,192,619573,128,0,619667:0:0:0:0:
192,192,619573,128,0,619667:0:0:0:0:
64,192,619667,128,0,619761:0:0:0:0:
448,192,619761,128,0,619854:0:0:0:0:
192,192,619761,128,0,619854:0:0:0:0:
320,192,619761,128,0,619854:0:0:0:0:
64,192,619854,128,0,619948:0:0:0:0:
192,192,619948,128,0,620042:0:0:0:0:
320,192,619948,128,0,620042:0:0:0:0:
448,192,620042,128,0,620136:0:0:0:0:
192,192,620136,128,0,620229:0:0:0:0:
64,192,620136,128,0,620229:0:0:0:0:
320,192,620229,128,0,620323:0:0:0:0:
64,192,620323,128,0,620417:0:0:0:0:
448,192,620323,128,0,620417:0:0:0:0:
192,192,620417,128,0,620511:0:0:0:0:
448,192,620511,128,0,620604:0:0:0:0:
64,192,620511,128,0,620604:0:0:0:0:
320,192,620511,128,0,620604:0:0:0:0:
192,192,620604,128,0,620698:0:0:0:0:
64,192,620698,128,0,620792:0:0:0:0:
320,192,620698,128,0,620792:0:0:0:0:
448,192,620792,128,0,620886:0:0:0:0:
192,192,620886,128,0,620979:0:0:0:0:
320,192,620886,128,0,620979:0:0:0:0:
64,192,620979,128,0,621073:0:0:0:0:
320,192,621073,128,0,621167:0:0:0:0:
448,192,621073,128,0,621167:0:0:0:0:
192,192,621167,128,0,621261:0:0:0:0:
448,192,621261,128,0,621354:0:0:0:0:
320,192,621261,128,0,621354:0:0:0:0:
64,192,621261,128,0,621354:0:0:0:0:
192,192,621354,128,0,621448:0:0:0:0:
448,192,621448,128,0,621542:0:0:0:0:
64,192,621448,128,0,621542:0:0:0:0:
320,192,621542,128,0,621636:0:0:0:0:
64,192,621636,128,0,621729:0:0:0:0:
192,192,621636,128,0,621729:0:0:0:0:
448,192,621729,128,0,621823:0:0:0:0:
64,192,621823,128,0,621917:0:0:0:0:
320,192,621823,128,0,621917:0:0:0:0:
192,192,621917,128,0,622011:0:0:0:0:
64,192,622011,128,0,622104:0:0:0:0:
320,192,622011,128,0,622104:0:0:0:0:
448,192,622011,128,0,622104:0:0:0:0:
192,192,622104,128,0,622198:0:0:0:0:
320,192,622198,128,0,622292:0:0:0:0:
448,192,622198,128,0,622292:0:0:0:0:
64,192,622292,128,0,622386:0:0:0:0:
448,192,622386,128,0,622479:0:0:0:0:
192,192,622386,128,0,622479:0:0:0:0:
320,192,622479,128,0,622573:0:0:0:0:
448,192,622573,128,0,622667:0:0:0:0:
64,192,622573,128,0,622667:0:0:0:0:
192,192,622667,128,0,622761:0:0:0:0:
448,192,622761,128,0,622854:0:0:0:0:
64,192,622761,128,0,622854:0:0:0:0:
320,192,622761,128,0,622854:0:0:0:0:
192,192,622854,128,0,622948:0:0:0:0:
448,192,622948,128,0,623042:0:0:0:0:
64,192,622948,128,0,623042:0:0:0:0:
320,192,623042,128,0,623136:0:0:0:0:
64,192,623136,128,0,623229:0:0:0:0:
192,192,623136,128,0,623229:0:0:0:0:
448,192,623229,128,0,623323:0:0:0:0:
192,192,623323,128,0,623417:0:0:0:0:
320,192,623323,128,0,623417:0:0:0:0:
448,192,623417,128,0,623511:0:0:0:0:
320,192,623511,128,0,623604:0:0:0:0:
192,192,623511,128,0,623604:0:0:0:0:
64,192,623511,128,0,623604:0:0:0:0:
448,192,623604,128,0,623698:0:0:0:0:
320,192,623698,128,0,623792:0:0:0:0:
64,192,623698,128,0,623792:0:0:0:0:
192,192,623792,128,0,623886:0:0:0:0:
64,192,623886,128,0,623979:0:0:0:0:
448,192,623886,128,0,623979:0:0:0:0:
320,192,623979,128,0,624073:0:0:0:0:
64,192,624073,128,0,624167:0:0:0:0:
192,192,624073,128,0,624167:0:0:0:0:
448,192,624167,128,0,624261:0:0:0:0:
64,192,624261,128,0,624354:0:0:0:0:
192,192,624261,128,0,624354:0:0:0:0:
320,192,624261,128,0,624354:0:0:0:0:
448,192,624354,128,0,624448:0:0:0:0:
320,192,624448,128,0,624542:0:0:0:0:
192,192,624448,128,0,624542:0:0:0:0:
64,192,624542,128,0,624636:0:0:0:0:
320,192,624636,128,0,624729:0:0:0:0:
448,192,624636,128,0,624729:0:0:0:0:
64,192,624729,128,0,624823:0:0:0:0:
320,192,624823,128,0,624917:0:0:0:0:
192,192,624823,128,0,624917:0:0:0:0:
448,192,624917,128,0,625011:0:0:0:0:
192,192,625011,128,0,625104:0:0:0:0:
64,192,625011,128,0,625104:0:0:0:0:
320,192,625011,128,0,625104:0:0:0:0:
448,192,625104,128,0,625198:0:0:0:0:
192,192,625198,128,0,625292:0:0:0:0:
64,192,625198,128,0,625292:0:0:0:0:
320,192,625292,128,0,625386:0:0:0:0:
448,192,625386,128,0,625479:0:0:0:0:
192,192,625386,128,0,625479:0:0:0:0:
64,192,625479,128,0,625573:0:0:0:0:
448,192,625573,128,0,625667:0:0:0:0:
320,192,625573,128,0,625667:0:0:0:0:
192,192,625667,128,0,625761:0:0:0:0:
448,192,625761,128,0,625854:0:0:0:0:
320,192,625761,128,0,625854:0:0:0:0:
64,192,625761,128,0,625854:0:0:0:0:
192,192,625854,128,0,625948:0:0:0:0:
64,192,625948,128,0,626042:0:0:0:0:
448,192,625948,128,0,626042:0:0:0:0:
320,192,626042,128,0,626136:0:0:0:0:
64,192,626136,128,0,626229:0:0:0:0:
192,192,626136,128,0,626229:0:0:0:0:
320,192,626229,128,0,626323:0:0:0:0:
192,192,626323,128,0,626417:0:0:0:0:
448,192,626323,128,0,626417:0:0:0:0:
320,192,626417,128,0,626511:0:0:0:0:
192,192,626511,128,0,626604:0:0:0:0:
64,192,626511,128,0,626604:0:0:0:0:
448,192,626511,128,0,626604:0:0:0:0:
320,192,626604,128,0,626698:0:0:0:0:
448,192,626698,128,0,626792:0:0:0:0:
64,192,626698,128,0,626792:0:0:0:0:
192,192,626792,128,0,626886:0:0:0:0:
64,192,626886,128,0,626979:0:0:0:0:
448,192,626886,128,0,626979:0:0:0:0:
320,192,626979,128,0,627073:0:0:0:0:
448,192,627073,128,0,627167:0:0:0:0:
192,192,627073,128,0,627167:0:0:0:0:
64,192,627167,128,0,627261:0:0:0:0:
448,192,627261,128,0,627354:0:0:0:0:
320,192,627261,128,0,627354:0:0:0:0:
192,192,627261,128,0,627354:0:0:0:0:
64,192,627354,128,0,627448:0:0:0:0:
192,192,627448,128,0,627542:0:0:0:0:
320,192,627448,128,0,627542:0:0:0:0:
448,192,627542,128,0,627636:0:0:0:0:
320,192,627636,128,0,627729:0:0:0:0:
64,192,627636,128,0,627729:0:0:0:0:
448,192,628386,128,0,628573:0:0:0:0:
320,192,628432,128,0,628620:0:0:0:0:
192,192,628479,128,0,628667:0:0:0:0:
64,192,628526,128,0,628714:0:0:0:0:
448,192,628620,128,0,628807:0:0:0:0:
320,192,628667,128,0,628854:0:0:0:0:
192,192,628714,128,0,628901:0:0:0:0:
64,192,628761,128,0,628948:0:0:0:0:
448,192,628854,128,0,629089:0:0:0:0:
320,192,628901,128,0,629089:0:0:0:0:
192,192,628948,128,0,629089:0:0:0:0:
64,192,628995,128,0,629089:0:0:0:0:
320,192,629136,128,0,629198:0:0:0:0:
448,192,629136,128,0,629448:0:0:0:0:
64,192,629136,128,0,629198:0:0:0:0:
192,192,629136,128,0,629198:0:0:0:0:
192,192,629261,128,0,629323:0:0:0:0:
64,192,629261,128,0,629323:0:0:0:0:
192,192,629386,128,0,629448:0:0:0:0:
64,192,629386,128,0,629448:0:0:0:0:
192,192,629511,128,0,629573:0:0:0:0:
448,192,629511,128,0,629573:0:0:0:0:
320,192,629511,128,0,629573:0:0:0:0:
320,192,629636,128,0,629698:0:0:0:0:
448,192,629636,128,0,629698:0:0:0:0:
320,192,629761,128,0,629823:0:0:0:0:
448,192,629761,128,0,629823:0:0:0:0:
64,192,629886,128,0,630198:0:0:0:0:
448,192,629886,128,0,629948:0:0:0:0:
320,192,629886,128,0,629948:0:0:0:0:
192,192,629886,128,0,629948:0:0:0:0:
320,192,630011,128,0,630073:0:0:0:0:
192,192,630011,128,0,630073:0:0:0:0:
320,192,630136,128,0,630198:0:0:0:0:
192,192,630136,128,0,630198:0:0:0:0:
64,192,630261,128,0,630323:0:0:0:0:
448,192,630261,128,0,630323:0:0:0:0:
320,192,630261,128,0,630323:0:0:0:0:
448,192,630386,128,0,630448:0:0:0:0:
64,192,630386,128,0,630448:0:0:0:0:
448,192,630511,128,0,630573:0:0:0:0:
64,192,630511,128,0,630573:0:0:0:0:
320,192,630636,128,0,630948:0:0:0:0:
64,192,630636,128,0,630698:0:0:0:0:
448,192,630636,128,0,630698:0:0:0:0:
192,192,630636,128,0,630698:0:0:0:0:
192,192,630761,128,0,630823:0:0:0:0:
64,192,630761,128,0,630823:0:0:0:0:
192,192,630886,128,0,630948:0:0:0:0:
64,192,630886,128,0,630948:0:0:0:0:
320,192,631011,128,0,631073:0:0:0:0:
448,192,631011,128,0,631073:0:0:0:0:
192,192,631011,128,0,631073:0:0:0:0:
448,192,631136,128,0,631198:0:0:0:0:
192,192,631136,128,0,631198:0:0:0:0:
192,192,631261,128,0,631323:0:0:0:0:
448,192,631261,128,0,631323:0:0:0:0:
448,192,631386,128,0,631448:0:0:0:0:
64,192,631386,128,0,631698:0:0:0:0:
192,192,631386,128,0,631448:0:0:0:0:
320,192,631386,128,0,631448:0:0:0:0:
320,192,631511,128,0,631573:0:0:0:0:
448,192,631511,128,0,631573:0:0:0:0:
448,192,631636,128,0,631698:0:0:0:0:
320,192,631636,128,0,631698:0:0:0:0:
192,192,631761,128,0,631823:0:0:0:0:
320,192,631761,128,0,631823:0:0:0:0:
192,192,631886,128,0,631948:0:0:0:0:
320,192,631886,128,0,631948:0:0:0:0:
320,192,632011,128,0,632073:0:0:0:0:
192,192,632011,128,0,632073:0:0:0:0:
448,192,632136,128,0,632417:0:0:0:0:
64,192,632136,128,0,632604:0:0:0:0:
320,192,632323,128,0,632792:0:0:0:0:
448,192,632511,128,0,632792:0:0:0:0:
192,192,632511,128,0,632979:0:0:0:0:
64,192,632698,128,0,633167:0:0:0:0:
448,192,632886,128,0,633167:0:0:0:0:
320,192,632886,128,0,633354:0:0:0:0:
192,192,633073,128,0,633542:0:0:0:0:
448,192,633261,128,0,633542:0:0:0:0:
64,192,633261,128,0,633636:0:0:0:0:
320,192,633448,128,0,633636:0:0:0:0:
192,192,633636,128,0,633729:0:0:0:0:
448,192,633636,128,0,633729:0:0:0:0:
64,192,633729,128,0,633823:0:0:0:0:
448,192,633823,128,0,633917:0:0:0:0:
320,192,633823,128,0,633917:0:0:0:0:
192,192,633917,128,0,634011:0:0:0:0:
320,192,634011,128,0,634104:0:0:0:0:
64,192,634011,128,0,634104:0:0:0:0:
448,192,634104,128,0,634198:0:0:0:0:
320,192,634198,128,0,634292:0:0:0:0:
192,192,634198,128,0,634292:0:0:0:0:
64,192,634292,128,0,634386:0:0:0:0:
448,192,634386,128,0,634479:0:0:0:0:
192,192,634386,128,0,634479:0:0:0:0:
320,192,634479,128,0,634573:0:0:0:0:
64,192,634573,128,0,634667:0:0:0:0:
192,192,634573,128,0,634667:0:0:0:0:
448,192,634667,128,0,634761:0:0:0:0:
64,192,634761,128,0,634854:0:0:0:0:
320,192,634761,128,0,634854:0:0:0:0:
192,192,634854,128,0,634948:0:0:0:0:
448,192,634948,128,0,635042:0:0:0:0:
320,192,634948,128,0,635042:0:0:0:0:
64,192,635042,128,0,635089:0:0:0:0:
320,192,635136,128,0,635448:0:0:0:0:
448,192,635136,128,0,635198:0:0:0:0:
64,192,635136,128,0,635198:0:0:0:0:
192,192,635136,128,0,635198:0:0:0:0:
192,192,635261,128,0,635323:0:0:0:0:
64,192,635261,128,0,635323:0:0:0:0:
192,192,635386,128,0,635448:0:0:0:0:
64,192,635386,128,0,635448:0:0:0:0:
448,192,635511,128,0,635573:0:0:0:0:
320,192,635511,128,0,635573:0:0:0:0:
64,192,635511,128,0,635573:0:0:0:0:
448,192,635636,128,0,635698:0:0:0:0:
320,192,635636,128,0,635698:0:0:0:0:
448,192,635761,128,0,635823:0:0:0:0:
320,192,635761,128,0,635823:0:0:0:0:
320,192,635886,128,0,635948:0:0:0:0:
64,192,635886,128,0,636198:0:0:0:0:
448,192,635886,128,0,635948:0:0:0:0:
192,192,635886,128,0,635948:0:0:0:0:
448,192,636011,128,0,636073:0:0:0:0:
192,192,636011,128,0,636073:0:0:0:0:
192,192,636136,128,0,636198:0:0:0:0:
448,192,636136,128,0,636198:0:0:0:0:
320,192,636261,128,0,636323:0:0:0:0:
192,192,636261,128,0,636323:0:0:0:0:
448,192,636261,128,0,636323:0:0:0:0:
192,192,636386,128,0,636448:0:0:0:0:
320,192,636386,128,0,636448:0:0:0:0:
192,192,636511,128,0,636573:0:0:0:0:
320,192,636511,128,0,636573:0:0:0:0:
448,192,636636,128,0,636948:0:0:0:0:
192,192,636636,128,0,636698:0:0:0:0:
64,192,636636,128,0,636698:0:0:0:0:
320,192,636636,128,0,636698:0:0:0:0:
320,192,636761,128,0,636823:0:0:0:0:
64,192,636761,128,0,636823:0:0:0:0:
320,192,636886,128,0,636948:0:0:0:0:
64,192,636886,128,0,636948:0:0:0:0:
192,192,637011,128,0,637073:0:0:0:0:
448,192,637011,128,0,637073:0:0:0:0:
64,192,637011,128,0,637073:0:0:0:0:
448,192,637136,128,0,637198:0:0:0:0:
192,192,637136,128,0,637198:0:0:0:0:
448,192,637261,128,0,637323:0:0:0:0:
192,192,637261,128,0,637323:0:0:0:0:
320,192,637386,128,0,637448:0:0:0:0:
448,192,637386,128,0,637448:0:0:0:0:
192,192,637386,128,0,637698:0:0:0:0:
64,192,637386,128,0,637448:0:0:0:0:
64,192,637511,128,0,637573:0:0:0:0:
448,192,637511,128,0,637573:0:0:0:0:
64,192,637636,128,0,637698:0:0:0:0:
448,192,637636,128,0,637698:0:0:0:0:
192,192,637761,128,0,637823:0:0:0:0:
64,192,637761,128,0,637823:0:0:0:0:
448,192,637761,128,0,637823:0:0:0:0:
192,192,637886,128,0,637948:0:0:0:0:
64,192,637886,128,0,637948:0:0:0:0:
192,192,638011,128,0,638073:0:0:0:0:
64,192,638011,128,0,638073:0:0:0:0:
448,192,638136,128,0,638229:0:0:0:0:
64,192,638136,128,0,638229:0:0:0:0:
192,192,638229,128,0,638323:0:0:0:0:
320,192,638323,128,0,638417:0:0:0:0:
64,192,638417,128,0,638511:0:0:0:0:
320,192,638511,128,0,638604:0:0:0:0:
192,192,638511,128,0,638604:0:0:0:0:
448,192,638604,128,0,638698:0:0:0:0:
320,192,638698,128,0,638792:0:0:0:0:
64,192,638792,128,0,638886:0:0:0:0:
448,192,638886,128,0,638979:0:0:0:0:
192,192,638886,128,0,638979:0:0:0:0:
320,192,638979,128,0,639073:0:0:0:0:
448,192,639073,128,0,639167:0:0:0:0:
64,192,639167,128,0,639261:0:0:0:0:
320,192,639261,128,0,639354:0:0:0:0:
448,192,639261,128,0,639354:0:0:0:0:
192,192,639354,128,0,639448:0:0:0:0:
320,192,639448,128,0,639542:0:0:0:0:
448,192,639542,128,0,639589:0:0:0:0:
64,192,639636,128,0,639682:0:0:0:0:
448,192,639636,128,0,639682:0:0:0:0:
320,192,640386,128,0,640432:0:0:0:0:
192,192,640386,128,0,640432:0:0:0:0:
448,192,640761,128,0,640854:0:0:0:0:
64,192,640761,128,0,640854:0:0:0:0:
320,192,640948,128,0,640995:0:0:0:0:
448,192,640948,128,0,641042:0:0:0:0:
64,192,640948,128,0,641042:0:0:0:0:
192,192,641042,128,0,641136:0:0:0:0:
320,192,641136,128,0,641182:0:0:0:0:
448,192,641136,128,0,641229:0:0:0:0:
64,192,641136,128,0,641229:0:0:0:0:
192,192,641511,128,0,641698:0:0:0:0:
192,192,641886,128,0,642073:0:0:0:0:
192,192,642261,128,0,642448:0:0:0:0:
320,192,642636,128,0,642823:0:0:0:0:
320,192,643011,128,0,643198:0:0:0:0:
320,192,643386,128,0,643573:0:0:0:0:
320,192,643761,128,0,643948:0:0:0:0:
448,192,644136,128,0,644323:0:0:0:0:
448,192,644511,128,0,644698:0:0:0:0:
448,192,644886,128,0,645073:0:0:0:0:
448,192,645261,128,0,645448:0:0:0:0:
192,192,645636,128,0,645823:0:0:0:0:
192,192,646011,128,0,646198:0:0:0:0:
192,192,646386,128,0,646573:0:0:0:0:
192,192,646761,128,0,646948:0:0:0:0:
64,192,647136,128,0,647323:0:0:0:0:
64,192,647511,128,0,647698:0:0:0:0:
64,192,647886,128,0,648073:0:0:0:0:
64,192,648261,128,0,648448:0:0:0:0:
320,192,648636,128,0,648823:0:0:0:0:
320,192,649011,128,0,649198:0:0:0:0:
320,192,649386,128,0,649573:0:0:0:0:
320,192,649761,128,0,649948:0:0:0:0:
448,192,650136,128,0,650323:0:0:0:0:
448,192,650511,128,0,650698:0:0:0:0:
448,192,650886,128,0,651073:0:0:0:0:
448,192,651261,128,0,651448:0:0:0:0:
320,192,651636,128,0,651823:0:0:0:0:
448,192,651636,128,0,652011:0:0:0:0:
64,192,651823,128,0,652386:0:0:0:0:
320,192,652386,128,0,653042:0:0:0:0:
192,192,652386,128,0,652761:0:0:0:0:
64,192,653136,128,0,653198:0:0:0:0:0
192,192,653136,128,0,653198:0:0:0:0:0
320,192,653136,128,0,653261:0:0:0:0:
448,192,653136,128,0,653386:0:0:0:0:
192,192,653261,128,0,653323:0:0:0:0:0
64,192,653261,128,0,653386:0:0:0:0:
320,192,653386,128,0,653448:0:0:0:0:0
192,192,653386,128,0,653511:0:0:0:0:
448,192,653511,128,0,653573:0:0:0:0:0
320,192,653511,128,0,653636:0:0:0:0:
64,192,653511,128,0,653761:0:0:0:0:
192,192,653636,128,0,653698:0:0:0:0:0
448,192,653636,128,0,653761:0:0:0:0:
192,192,653761,128,0,653823:0:0:0:0:0
320,192,653761,128,0,653886:0:0:0:0:
192,192,653886,128,0,653948:0:0:0:0:0
448,192,653886,128,0,654011:0:0:0:0:
64,192,653886,128,0,654136:0:0:0:0:
192,192,654011,128,0,654073:0:0:0:0:0
320,192,654011,128,0,654136:0:0:0:0:
448,192,654136,128,0,654198:0:0:0:0:0
192,192,654136,128,0,654261:0:0:0:0:
448,192,654261,128,0,654323:0:0:0:0:0
320,192,654261,128,0,654386:0:0:0:0:
64,192,654261,128,0,654511:0:0:0:0:
192,192,654386,128,0,654448:0:0:0:0:0
448,192,654386,128,0,654511:0:0:0:0:
192,192,654511,128,0,654573:0:0:0:0:0
320,192,654511,128,0,654886:0:0:0:0:
64,192,654636,128,0,654698:0:0:0:0:0
192,192,654636,128,0,654698:0:0:0:0:0
448,192,654636,128,0,654761:0:0:0:0:
64,192,654761,128,0,654823:0:0:0:0:0
192,192,654761,128,0,654886:0:0:0:0:
448,192,654886,128,0,654948:0:0:0:0:0
64,192,654886,128,0,655011:0:0:0:0:
448,192,655011,128,0,655073:0:0:0:0:0
320,192,655011,128,0,655261:0:0:0:0:
192,192,655011,128,0,655136:0:0:0:0:
64,192,655136,128,0,655198:0:0:0:0:0
448,192,655136,128,0,655261:0:0:0:0:
192,192,655261,128,0,655323:0:0:0:0:0
64,192,655261,128,0,655636:0:0:0:0:
448,192,655386,128,0,655448:0:0:0:0:0
320,192,655386,128,0,655448:0:0:0:0:0
192,192,655386,128,0,655511:0:0:0:0:
448,192,655511,128,0,655573:0:0:0:0:0
320,192,655511,128,0,655636:0:0:0:0:
192,192,655636,128,0,655698:0:0:0:0:0
448,192,655636,128,0,656011:0:0:0:0:
320,192,655761,128,0,655823:0:0:0:0:0
192,192,655761,128,0,655823:0:0:0:0:0
64,192,655761,128,0,655886:0:0:0:0:
320,192,655886,128,0,655948:0:0:0:0:0
192,192,655886,128,0,656011:0:0:0:0:
64,192,656011,128,0,656073:0:0:0:0:0
320,192,656011,128,0,656136:0:0:0:0:
192,192,656136,128,0,656198:0:0:0:0:0
64,192,656136,128,0,656386:0:0:0:0:
448,192,656136,128,0,656261:0:0:0:0:
192,192,656261,128,0,656323:0:0:0:0:0
320,192,656261,128,0,656386:0:0:0:0:
448,192,656386,128,0,656448:0:0:0:0:0
192,192,656386,128,0,656511:0:0:0:0:
448,192,656511,128,0,656573:0:0:0:0:0
64,192,656511,128,0,656761:0:0:0:0:
320,192,656511,128,0,656636:0:0:0:0:
192,192,656636,128,0,656698:0:0:0:0:0
448,192,656636,128,0,656761:0:0:0:0:
192,192,656761,128,0,656823:0:0:0:0:0
320,192,656761,128,0,656886:0:0:0:0:
64,192,656886,128,0,656948:0:0:0:0:0
448,192,656886,128,0,657011:0:0:0:0:
192,192,656886,128,0,657011:0:0:0:0:
320,192,657011,128,0,657136:0:0:0:0:
64,192,657011,128,0,657136:0:0:0:0:
448,192,657136,128,0,657198:0:0:0:0:0
192,192,657136,128,0,657261:0:0:0:0:
448,192,657261,128,0,657323:0:0:0:0:0
64,192,657261,128,0,657386:0:0:0:0:
320,192,657261,128,0,657386:0:0:0:0:
192,192,657386,128,0,657511:0:0:0:0:
448,192,657386,128,0,657511:0:0:0:0:
64,192,657511,128,0,657573:0:0:0:0:0
320,192,657511,128,0,657761:0:0:0:0:
448,192,657636,128,0,657698:0:0:0:0:0
64,192,657636,128,0,657698:0:0:0:0:0
192,192,657636,128,0,657761:0:0:0:0:
64,192,657761,128,0,657886:0:0:0:0:
448,192,657761,128,0,657886:0:0:0:0:
192,192,657886,128,0,657948:0:0:0:0:0
320,192,657886,128,0,658073:0:0:0:0:
192,192,658011,128,0,658073:0:0:0:0:0
448,192,658011,128,0,658136:0:0:0:0:
64,192,658011,128,0,658136:0:0:0:0:
320,192,658136,128,0,658386:0:0:0:0:
192,192,658136,128,0,658261:0:0:0:0:
448,192,658261,128,0,658323:0:0:0:0:0
64,192,658261,128,0,658323:0:0:0:0:0
192,192,658386,128,0,658448:0:0:0:0:0
448,192,658386,128,0,658511:0:0:0:0:
64,192,658386,128,0,658761:0:0:0:0:
320,192,658511,128,0,658573:0:0:0:0:0
192,192,658511,128,0,658636:0:0:0:0:
448,192,658636,128,0,658698:0:0:0:0:0
320,192,658636,128,0,658698:0:0:0:0:0
448,192,658761,128,0,658823:0:0:0:0:0
320,192,658761,128,0,658886:0:0:0:0:
192,192,658761,128,0,659011:0:0:0:0:
64,192,658886,128,0,658948:0:0:0:0:0
448,192,658886,128,0,659011:0:0:0:0:
64,192,659011,128,0,659073:0:0:0:0:0
320,192,659011,128,0,659136:0:0:0:0:
64,192,659136,128,0,659198:0:0:0:0:0
448,192,659136,128,0,659386:0:0:0:0:
192,192,659136,128,0,659261:0:0:0:0:
320,192,659261,128,0,659323:0:0:0:0:0
64,192,659261,128,0,659386:0:0:0:0:
192,192,659386,128,0,659448:0:0:0:0:0
320,192,659386,128,0,659511:0:0:0:0:
192,192,659511,128,0,659573:0:0:0:0:0
448,192,659511,128,0,659761:0:0:0:0:
64,192,659511,128,0,659636:0:0:0:0:
320,192,659636,128,0,659698:0:0:0:0:0
192,192,659636,128,0,659761:0:0:0:0:
64,192,659761,128,0,659823:0:0:0:0:0
320,192,659761,128,0,659886:0:0:0:0:
64,192,659886,128,0,659948:0:0:0:0:0
448,192,659886,128,0,660011:0:0:0:0:
192,192,659886,128,0,660011:0:0:0:0:
320,192,660011,128,0,660136:0:0:0:0:
64,192,660011,128,0,660136:0:0:0:0:
448,192,660136,128,0,660198:0:0:0:0:0
192,192,660136,128,0,660261:0:0:0:0:
448,192,660261,128,0,660323:0:0:0:0:0
320,192,660261,128,0,660386:0:0:0:0:
64,192,660261,128,0,660386:0:0:0:0:
448,192,660386,128,0,660636:0:0:0:0:
192,192,660386,128,0,660511:0:0:0:0:
64,192,660511,128,0,660573:0:0:0:0:0
320,192,660511,128,0,660573:0:0:0:0:0
192,192,660636,128,0,660698:0:0:0:0:0
64,192,660636,128,0,660886:0:0:0:0:
320,192,660636,128,0,660761:0:0:0:0:
192,192,660761,128,0,660823:0:0:0:0:0
448,192,660761,128,0,660886:0:0:0:0:
320,192,660886,128,0,660948:0:0:0:0:0
192,192,660886,128,0,661011:0:0:0:0:
448,192,661011,128,0,661073:0:0:0:0:0
320,192,661011,128,0,661136:0:0:0:0:
64,192,661011,128,0,661261:0:0:0:0:
192,192,661136,128,0,661198:0:0:0:0:0
448,192,661136,128,0,661261:0:0:0:0:
192,192,661261,128,0,661323:0:0:0:0:0
320,192,661261,128,0,661386:0:0:0:0:
448,192,661386,128,0,661448:0:0:0:0:0
64,192,661386,128,0,661636:0:0:0:0:
192,192,661386,128,0,661511:0:0:0:0:
448,192,661511,128,0,661573:0:0:0:0:0
320,192,661511,128,0,661761:0:0:0:0:
192,192,661636,128,0,661698:0:0:0:0:0
448,192,661636,128,0,661698:0:0:0:0:0
192,192,661761,128,0,661823:0:0:0:0:0
64,192,661761,128,0,661886:0:0:0:0:
448,192,661761,128,0,662011:0:0:0:0:
320,192,661886,128,0,661948:0:0:0:0:0
192,192,661886,128,0,662011:0:0:0:0:
64,192,662011,128,0,662073:0:0:0:0:0
320,192,662011,128,0,662136:0:0:0:0:
448,192,662136,128,0,662198:0:0:0:0:0
64,192,662136,128,0,662386:0:0:0:0:
192,192,662136,128,0,662261:0:0:0:0:
448,192,662261,128,0,662323:0:0:0:0:0
320,192,662261,128,0,662386:0:0:0:0:
192,192,662386,128,0,662448:0:0:0:0:0
448,192,662386,128,0,662511:0:0:0:0:
192,192,662511,128,0,662573:0:0:0:0:0
320,192,662511,128,0,662636:0:0:0:0:
64,192,662511,128,0,662636:0:0:0:0:
448,192,662636,128,0,662761:0:0:0:0:
192,192,662636,128,0,662761:0:0:0:0:
64,192,662761,128,0,662823:0:0:0:0:0
320,192,662761,128,0,662886:0:0:0:0:
448,192,662886,128,0,662948:0:0:0:0:0
64,192,662886,128,0,663136:0:0:0:0:
192,192,662886,128,0,663011:0:0:0:0:
448,192,663011,128,0,663073:0:0:0:0:0
320,192,663011,128,0,663136:0:0:0:0:
192,192,663136,128,0,663198:0:0:0:0:0
448,192,663136,128,0,663261:0:0:0:0:
192,192,663261,128,0,663323:0:0:0:0:0
320,192,663261,128,0,663386:0:0:0:0:
64,192,663261,128,0,663386:0:0:0:0:
448,192,663386,128,0,663511:0:0:0:0:
192,192,663386,128,0,663761:0:0:0:0:
320,192,663511,128,0,663573:0:0:0:0:0
64,192,663511,128,0,663573:0:0:0:0:0
448,192,663636,128,0,663698:0:0:0:0:0
320,192,663636,128,0,663698:0:0:0:0:0
64,192,663636,128,0,663886:0:0:0:0:
320,192,663761,128,0,663823:0:0:0:0:0
448,192,663761,128,0,663886:0:0:0:0:
192,192,663886,128,0,663948:0:0:0:0:0
320,192,663886,128,0,664136:0:0:0:0:
448,192,664011,128,0,664073:0:0:0:0:0
192,192,664011,128,0,664073:0:0:0:0:0
64,192,664011,128,0,664136:0:0:0:0:
192,192,664136,128,0,664261:0:0:0:0:
448,192,664136,128,0,664261:0:0:0:0:
64,192,664261,128,0,664323:0:0:0:0:0
320,192,664261,128,0,664386:0:0:0:0:
192,192,664386,128,0,664448:0:0:0:0:0
64,192,664386,128,0,664448:0:0:0:0:0
448,192,664386,128,0,664511:0:0:0:0:
192,192,664511,128,0,664573:0:0:0:0:0
64,192,664511,128,0,664573:0:0:0:0:
320,192,664573,128,0,664761:0:0:0:0:
64,192,664636,128,0,664698:0:0:0:0:
448,192,664636,128,0,664698:0:0:0:0:0
192,192,664636,128,0,664698:0:0:0:0:0
192,192,664761,128,0,664823:0:0:0:0:0
448,192,664761,128,0,664823:0:0:0:0:0
64,192,664761,128,0,664886:0:0:0:0:
192,192,664886,128,0,664948:0:0:0:0:
448,192,664886,128,0,664948:0:0:0:0:0
320,192,664886,128,0,665073:0:0:0:0:
64,192,664948,128,0,665073:0:0:0:0:
192,192,665011,128,0,665073:0:0:0:0:0
448,192,665011,128,0,665073:0:0:0:0:0
64,192,665136,128,0,665198:0:0:0:0:0
192,192,665136,128,0,665198:0:0:0:0:0
320,192,665136,128,0,665261:0:0:0:0:
448,192,665136,128,0,665261:0:0:0:0:
192,192,665261,128,0,665386:0:0:0:0:
64,192,665261,128,0,665386:0:0:0:0:
448,192,665386,128,0,665448:0:0:0:0:0
320,192,665386,128,0,665511:0:0:0:0:
448,192,665511,128,0,665573:0:0:0:0:0
64,192,665511,128,0,665636:0:0:0:0:
192,192,665511,128,0,665636:0:0:0:0:
448,192,665636,128,0,665761:0:0:0:0:
320,192,665636,128,0,665886:0:0:0:0:
192,192,665761,128,0,665823:0:0:0:0:0
64,192,665761,128,0,665823:0:0:0:0:0
192,192,665886,128,0,665948:0:0:0:0:0
448,192,665886,128,0,666011:0:0:0:0:
64,192,665886,128,0,666136:0:0:0:0:
320,192,666011,128,0,666073:0:0:0:0:0
192,192,666011,128,0,666136:0:0:0:0:
448,192,666136,128,0,666198:0:0:0:0:0
320,192,666136,128,0,666261:0:0:0:0:
448,192,666261,128,0,666323:0:0:0:0:0
64,192,666261,128,0,666511:0:0:0:0:
192,192,666261,128,0,666386:0:0:0:0:
320,192,666386,128,0,666448:0:0:0:0:0
448,192,666386,128,0,666636:0:0:0:0:
192,192,666511,128,0,666573:0:0:0:0:0
320,192,666511,128,0,666573:0:0:0:0:0
64,192,666636,128,0,666698:0:0:0:0:0
192,192,666636,128,0,666761:0:0:0:0:
320,192,666636,128,0,666761:0:0:0:0:
64,192,666761,128,0,666886:0:0:0:0:
448,192,666761,128,0,666886:0:0:0:0:
192,192,666886,128,0,666948:0:0:0:0:0
320,192,666886,128,0,667011:0:0:0:0:
192,192,667011,128,0,667073:0:0:0:0:0
448,192,667011,128,0,667136:0:0:0:0:
64,192,667011,128,0,667136:0:0:0:0:
320,192,667136,128,0,667261:0:0:0:0:
192,192,667136,128,0,667261:0:0:0:0:
64,192,667261,128,0,667323:0:0:0:0:0
448,192,667261,128,0,667386:0:0:0:0:
192,192,667386,128,0,667448:0:0:0:0:0
320,192,667386,128,0,667511:0:0:0:0:
64,192,667386,128,0,667636:0:0:0:0:
448,192,667511,128,0,667573:0:0:0:0:0
192,192,667511,128,0,667636:0:0:0:0:
448,192,667636,128,0,667698:0:0:0:0:0
320,192,667636,128,0,667886:0:0:0:0:
192,192,667761,128,0,667823:0:0:0:0:0
448,192,667761,128,0,667823:0:0:0:0:0
64,192,667761,128,0,667886:0:0:0:0:
448,192,667886,128,0,668136:0:0:0:0:
192,192,667886,128,0,668011:0:0:0:0:
320,192,668011,128,0,668073:0:0:0:0:0
64,192,668011,128,0,668073:0:0:0:0:0
192,192,668136,128,0,668198:0:0:0:0:0
320,192,668136,128,0,668261:0:0:0:0:
64,192,668136,128,0,668386:0:0:0:0:
448,192,668261,128,0,668323:0:0:0:0:0
192,192,668261,128,0,668511:0:0:0:0:
448,192,668386,128,0,668448:0:0:0:0:0
320,192,668386,128,0,668448:0:0:0:0:0
448,192,668511,128,0,668573:0:0:0:0:0
320,192,668511,128,0,668636:0:0:0:0:
64,192,668511,128,0,668636:0:0:0:0:
192,192,668636,128,0,668761:0:0:0:0:
448,192,668636,128,0,668886:0:0:0:0:
64,192,668761,128,0,668823:0:0:0:0:0
320,192,668761,128,0,668823:0:0:0:0:0
192,192,668886,128,0,668948:0:0:0:0:0
320,192,668886,128,0,669011:0:0:0:0:
64,192,668886,128,0,669136:0:0:0:0:
448,192,669011,128,0,669073:0:0:0:0:0
192,192,669011,128,0,669261:0:0:0:0:
448,192,669136,128,0,669198:0:0:0:0:0
320,192,669136,128,0,669198:0:0:0:0:0
320,192,669261,128,0,669323:0:0:0:0:0
64,192,669261,128,0,669386:0:0:0:0:
448,192,669261,128,0,669511:0:0:0:0:
192,192,669386,128,0,669448:0:0:0:0:0
320,192,669386,128,0,669511:0:0:0:0:
192,192,669511,128,0,669573:0:0:0:0:0
64,192,669511,128,0,669636:0:0:0:0:
448,192,669636,128,0,669698:0:0:0:0:0
320,192,669636,128,0,669761:0:0:0:0:
192,192,669636,128,0,669886:0:0:0:0:
64,192,669761,128,0,669823:0:0:0:0:0
448,192,669761,128,0,669886:0:0:0:0:
320,192,669886,128,0,669948:0:0:0:0:0
64,192,669886,128,0,670136:0:0:0:0:
320,192,670011,128,0,670073:0:0:0:0:0
192,192,670011,128,0,670073:0:0:0:0:0
448,192,670011,128,0,670136:0:0:0:0:
320,192,670136,128,0,670261:0:0:0:0:
192,192,670136,128,0,670386:0:0:0:0:
64,192,670261,128,0,670323:0:0:0:0:0
448,192,670261,128,0,670323:0:0:0:0:0
64,192,670386,128,0,670448:0:0:0:0:0
320,192,670386,128,0,670511:0:0:0:0:
448,192,670386,128,0,670511:0:0:0:0:
64,192,670511,128,0,670886:0:0:0:0:
192,192,670511,128,0,670636:0:0:0:0:
448,192,670636,128,0,670698:0:0:0:0:0
320,192,670636,128,0,670698:0:0:0:0:0
192,192,670761,128,0,670823:0:0:0:0:0
448,192,670761,128,0,670823:0:0:0:0:0
320,192,670761,128,0,670886:0:0:0:0:
448,192,670886,128,0,671011:0:0:0:0:
192,192,670886,128,0,671011:0:0:0:0:
64,192,671011,128,0,671073:0:0:0:0:0
320,192,671011,128,0,671136:0:0:0:0:
64,192,671136,128,0,671198:0:0:0:0:0
448,192,671136,128,0,671386:0:0:0:0:
192,192,671136,128,0,671261:0:0:0:0:
320,192,671261,128,0,671323:0:0:0:0:0
64,192,671261,128,0,671386:0:0:0:0:
320,192,671386,128,0,671448:0:0:0:0:0
192,192,671386,128,0,671511:0:0:0:0:
448,192,671511,128,0,671573:0:0:0:0:0
320,192,671511,128,0,671636:0:0:0:0:
64,192,671511,128,0,671636:0:0:0:0:
448,192,671636,128,0,671886:0:0:0:0:
192,192,671636,128,0,671761:0:0:0:0:
320,192,671761,128,0,671823:0:0:0:0:0
64,192,671761,128,0,671823:0:0:0:0:0
192,192,671886,128,0,671948:0:0:0:0:0
64,192,671886,128,0,672011:0:0:0:0:
320,192,671886,128,0,672011:0:0:0:0:
448,192,672011,128,0,672136:0:0:0:0:
192,192,672011,128,0,672136:0:0:0:0:
64,192,672136,128,0,672198:0:0:0:0:0
320,192,672136,128,0,672261:0:0:0:0:
64,192,672261,128,0,672323:0:0:0:0:0
448,192,672261,128,0,672386:0:0:0:0:
192,192,672261,128,0,672386:0:0:0:0:
64,192,672386,128,0,672511:0:0:0:0:
320,192,672386,128,0,672511:0:0:0:0:
448,192,672511,128,0,672573:0:0:0:0:0
192,192,672511,128,0,672636:0:0:0:0:
64,192,672636,128,0,672698:0:0:0:0:0
320,192,672636,128,0,672761:0:0:0:0:
448,192,672636,128,0,672761:0:0:0:0:
64,192,672761,128,0,672886:0:0:0:0:
192,192,672761,128,0,672886:0:0:0:0:
448,192,672886,128,0,672948:0:0:0:0:0
320,192,672886,128,0,673011:0:0:0:0:
448,192,673011,128,0,673073:0:0:0:0:0
192,192,673011,128,0,673136:0:0:0:0:
64,192,673011,128,0,673136:0:0:0:0:
320,192,673136,128,0,673261:0:0:0:0:
448,192,673136,128,0,673261:0:0:0:0:
192,192,673261,128,0,673323:0:0:0:0:0
64,192,673261,128,0,673386:0:0:0:0:
448,192,673386,128,0,673448:0:0:0:0:0
192,192,673386,128,0,673511:0:0:0:0:
320,192,673386,128,0,673636:0:0:0:0:
448,192,673511,128,0,673573:0:0:0:0:0
64,192,673511,128,0,673636:0:0:0:0:
448,192,673636,128,0,673698:0:0:0:0:0
192,192,673636,128,0,673761:0:0:0:0:
448,192,673761,128,0,673823:0:0:0:0:0
320,192,673761,128,0,673886:0:0:0:0:
64,192,673761,128,0,673886:0:0:0:0:
448,192,673886,128,0,674136:0:0:0:0:
192,192,673886,128,0,674011:0:0:0:0:
320,192,674011,128,0,674073:0:0:0:0:0
64,192,674011,128,0,674073:0:0:0:0:0
320,192,674136,128,0,674198:0:0:0:0:0
192,192,674136,128,0,674261:0:0:0:0:
64,192,674136,128,0,674386:0:0:0:0:
448,192,674261,128,0,674323:0:0:0:0:0
320,192,674261,128,0,674386:0:0:0:0:
192,192,674386,128,0,674448:0:0:0:0:0
448,192,674386,128,0,674511:0:0:0:0:
192,192,674511,128,0,674573:0:0:0:0:0
64,192,674511,128,0,674636:0:0:0:0:
320,192,674511,128,0,674636:0:0:0:0:
448,192,674636,128,0,674761:0:0:0:0:
192,192,674636,128,0,674761:0:0:0:0:
64,192,674761,128,0,674823:0:0:0:0:0
320,192,674761,128,0,674886:0:0:0:0:
448,192,674886,128,0,674948:0:0:0:0:0
64,192,674886,128,0,675136:0:0:0:0:
192,192,674886,128,0,675011:0:0:0:0:
448,192,675011,128,0,675073:0:0:0:0:0
320,192,675011,128,0,675136:0:0:0:0:
192,192,675136,128,0,675198:0:0:0:0:0
448,192,675136,128,0,675261:0:0:0:0:
320,192,675261,128,0,675323:0:0:0:0:0
192,192,675261,128,0,675386:0:0:0:0:
64,192,675261,128,0,675511:0:0:0:0:
320,192,675386,128,0,675448:0:0:0:0:0
448,192,675386,128,0,675511:0:0:0:0:
192,192,675511,128,0,675573:0:0:0:0:0
320,192,675511,128,0,675636:0:0:0:0:
448,192,675636,128,0,675698:0:0:0:0:0
192,192,675636,128,0,675761:0:0:0:0:
64,192,675636,128,0,675886:0:0:0:0:
448,192,675761,128,0,675823:0:0:0:0:0
320,192,675761,128,0,675886:0:0:0:0:
448,192,675886,128,0,676011:0:0:0:0:
192,192,675886,128,0,676136:0:0:0:0:
320,192,676011,128,0,676073:0:0:0:0:0
64,192,676011,128,0,676261:0:0:0:0:
320,192,676136,128,0,676198:0:0:0:0:0
448,192,676136,128,0,676261:0:0:0:0:
192,192,676261,128,0,676323:0:0:0:0:0
320,192,676261,128,0,676386:0:0:0:0:
64,192,676386,128,0,676448:0:0:0:0:0
192,192,676386,128,0,676511:0:0:0:0:0
448,192,676386,128,0,676511:0:0:0:0:
320,192,676511,128,0,676573:0:0:0:0:0
64,192,676511,128,0,676636:0:0:0:0:
192,192,676573,128,0,676636:0:0:0:0:
448,192,676636,128,0,676698:0:0:0:0:0
320,192,676636,128,0,676886:0:0:0:0:
192,192,676761,128,0,676823:0:0:0:0:0
448,192,676761,128,0,676823:0:0:0:0:0
64,192,676761,128,0,676948:0:0:0:0:
448,192,676886,128,0,676948:0:0:0:0:0
192,192,676886,128,0,676948:0:0:0:0:0
320,192,676948,128,0,677011:0:0:0:0:0
64,192,677011,128,0,677073:0:0:0:0:0
448,192,677011,128,0,677073:0:0:0:0:0
192,192,677136,128,0,677198:0:0:0:0:
64,192,677136,128,0,677448:0:0:0:0:
448,192,677136,128,0,677198:0:0:0:0:
320,192,677136,128,0,677198:0:0:0:0:
320,192,677261,128,0,677323:0:0:0:0:
448,192,677261,128,0,677323:0:0:0:0:
320,192,677386,128,0,677448:0:0:0:0:
448,192,677386,128,0,677448:0:0:0:0:
320,192,677511,128,0,677573:0:0:0:0:
64,192,677511,128,0,677573:0:0:0:0:
192,192,677511,128,0,677573:0:0:0:0:
192,192,677636,128,0,677698:0:0:0:0:
64,192,677636,128,0,677698:0:0:0:0:
192,192,677761,128,0,677823:0:0:0:0:
64,192,677761,128,0,677823:0:0:0:0:
448,192,677886,128,0,678198:0:0:0:0:
64,192,677886,128,0,677948:0:0:0:0:
192,192,677886,128,0,677948:0:0:0:0:
320,192,677886,128,0,677948:0:0:0:0:
192,192,678011,128,0,678073:0:0:0:0:
320,192,678011,128,0,678073:0:0:0:0:
192,192,678136,128,0,678198:0:0:0:0:
320,192,678136,128,0,678198:0:0:0:0:
448,192,678261,128,0,678323:0:0:0:0:
64,192,678261,128,0,678323:0:0:0:0:
192,192,678261,128,0,678323:0:0:0:0:
64,192,678386,128,0,678448:0:0:0:0:
448,192,678386,128,0,678448:0:0:0:0:
64,192,678511,128,0,678573:0:0:0:0:
448,192,678511,128,0,678573:0:0:0:0:
192,192,678636,128,0,678948:0:0:0:0:
448,192,678636,128,0,678698:0:0:0:0:
64,192,678636,128,0,678698:0:0:0:0:
320,192,678636,128,0,678698:0:0:0:0:
320,192,678761,128,0,678823:0:0:0:0:
448,192,678761,128,0,678823:0:0:0:0:
320,192,678886,128,0,678948:0:0:0:0:
448,192,678886,128,0,678948:0:0:0:0:
192,192,679011,128,0,679073:0:0:0:0:
64,192,679011,128,0,679073:0:0:0:0:
320,192,679011,128,0,679073:0:0:0:0:
64,192,679136,128,0,679198:0:0:0:0:
320,192,679136,128,0,679198:0:0:0:0:
320,192,679261,128,0,679323:0:0:0:0:
64,192,679261,128,0,679323:0:0:0:0:
64,192,679386,128,0,679448:0:0:0:0:
448,192,679386,128,0,679698:0:0:0:0:
320,192,679386,128,0,679448:0:0:0:0:
192,192,679386,128,0,679448:0:0:0:0:
192,192,679511,128,0,679573:0:0:0:0:
64,192,679511,128,0,679573:0:0:0:0:
64,192,679636,128,0,679698:0:0:0:0:
192,192,679636,128,0,679698:0:0:0:0:
320,192,679761,128,0,679823:0:0:0:0:
192,192,679761,128,0,679823:0:0:0:0:
320,192,679886,128,0,679948:0:0:0:0:
192,192,679886,128,0,679948:0:0:0:0:
192,192,680011,128,0,680073:0:0:0:0:
320,192,680011,128,0,680073:0:0:0:0:
64,192,680136,128,0,680417:0:0:0:0:
448,192,680136,128,0,680604:0:0:0:0:
192,192,680323,128,0,680792:0:0:0:0:
64,192,680511,128,0,680792:0:0:0:0:
320,192,680511,128,0,680979:0:0:0:0:
448,192,680698,128,0,681167:0:0:0:0:
64,192,680886,128,0,681167:0:0:0:0:
192,192,680886,128,0,681354:0:0:0:0:
320,192,681073,128,0,681542:0:0:0:0:
64,192,681261,128,0,681542:0:0:0:0:
448,192,681261,128,0,681636:0:0:0:0:
192,192,681448,128,0,681636:0:0:0:0:
320,192,681636,128,0,681729:0:0:0:0:
64,192,681636,128,0,681729:0:0:0:0:
448,192,681729,128,0,681823:0:0:0:0:
64,192,681823,128,0,681917:0:0:0:0:
192,192,681823,128,0,681917:0:0:0:0:
320,192,681917,128,0,682011:0:0:0:0:
192,192,682011,128,0,682104:0:0:0:0:
448,192,682011,128,0,682104:0:0:0:0:
64,192,682104,128,0,682198:0:0:0:0:
192,192,682198,128,0,682292:0:0:0:0:
320,192,682198,128,0,682292:0:0:0:0:
448,192,682292,128,0,682386:0:0:0:0:
64,192,682386,128,0,682479:0:0:0:0:
320,192,682386,128,0,682479:0:0:0:0:
192,192,682479,128,0,682573:0:0:0:0:
448,192,682573,128,0,682667:0:0:0:0:
320,192,682573,128,0,682667:0:0:0:0:
64,192,682667,128,0,682761:0:0:0:0:
448,192,682761,128,0,682854:0:0:0:0:
192,192,682761,128,0,682854:0:0:0:0:
320,192,682854,128,0,682948:0:0:0:0:
64,192,682948,128,0,683042:0:0:0:0:
192,192,682948,128,0,683042:0:0:0:0:
448,192,683042,128,0,683089:0:0:0:0:
192,192,683136,128,0,683448:0:0:0:0:
64,192,683136,128,0,683198:0:0:0:0:
448,192,683136,128,0,683198:0:0:0:0:
320,192,683136,128,0,683198:0:0:0:0:
320,192,683261,128,0,683323:0:0:0:0:
448,192,683261,128,0,683323:0:0:0:0:
320,192,683386,128,0,683448:0:0:0:0:
448,192,683386,128,0,683448:0:0:0:0:
64,192,683511,128,0,683573:0:0:0:0:
192,192,683511,128,0,683573:0:0:0:0:
448,192,683511,128,0,683573:0:0:0:0:
64,192,683636,128,0,683698:0:0:0:0:
192,192,683636,128,0,683698:0:0:0:0:
64,192,683761,128,0,683823:0:0:0:0:
192,192,683761,128,0,683823:0:0:0:0:
192,192,683886,128,0,683948:0:0:0:0:
448,192,683886,128,0,684198:0:0:0:0:
64,192,683886,128,0,683948:0:0:0:0:
320,192,683886,128,0,683948:0:0:0:0:
64,192,684011,128,0,684073:0:0:0:0:
320,192,684011,128,0,684073:0:0:0:0:
320,192,684136,128,0,684198:0:0:0:0:
64,192,684136,128,0,684198:0:0:0:0:
192,192,684261,128,0,684323:0:0:0:0:
320,192,684261,128,0,684323:0:0:0:0:
64,192,684261,128,0,684323:0:0:0:0:
320,192,684386,128,0,684448:0:0:0:0:
192,192,684386,128,0,684448:0:0:0:0:
320,192,684511,128,0,684573:0:0:0:0:
192,192,684511,128,0,684573:0:0:0:0:
64,192,684636,128,0,684948:0:0:0:0:
320,192,684636,128,0,684698:0:0:0:0:
448,192,684636,128,0,684698:0:0:0:0:
192,192,684636,128,0,684698:0:0:0:0:
192,192,684761,128,0,684823:0:0:0:0:
448,192,684761,128,0,684823:0:0:0:0:
192,192,684886,128,0,684948:0:0:0:0:
448,192,684886,128,0,684948:0:0:0:0:
320,192,685011,128,0,685073:0:0:0:0:
64,192,685011,128,0,685073:0:0:0:0:
448,192,685011,128,0,685073:0:0:0:0:
64,192,685136,128,0,685198:0:0:0:0:
320,192,685136,128,0,685198:0:0:0:0:
64,192,685261,128,0,685323:0:0:0:0:
320,192,685261,128,0,685323:0:0:0:0:
192,192,685386,128,0,685448:0:0:0:0:
64,192,685386,128,0,685448:0:0:0:0:
320,192,685386,128,0,685698:0:0:0:0:
448,192,685386,128,0,685448:0:0:0:0:
448,192,685511,128,0,685573:0:0:0:0:
64,192,685511,128,0,685573:0:0:0:0:
448,192,685636,128,0,685698:0:0:0:0:
64,192,685636,128,0,685698:0:0:0:0:
320,192,685761,128,0,685823:0:0:0:0:
448,192,685761,128,0,685823:0:0:0:0:
64,192,685761,128,0,685823:0:0:0:0:
320,192,685886,128,0,685948:0:0:0:0:
448,192,685886,128,0,685948:0:0:0:0:
320,192,686011,128,0,686073:0:0:0:0:
448,192,686011,128,0,686073:0:0:0:0:
64,192,686136,128,0,686229:0:0:0:0:
448,192,686136,128,0,686229:0:0:0:0:
192,192,686229,128,0,686323:0:0:0:0:
448,192,686323,128,0,686417:0:0:0:0:
320,192,686417,128,0,686511:0:0:0:0:
64,192,686511,128,0,686604:0:0:0:0:
192,192,686511,128,0,686604:0:0:0:0:
320,192,686604,128,0,686698:0:0:0:0:
448,192,686698,128,0,686792:0:0:0:0:
64,192,686792,128,0,686886:0:0:0:0:
448,192,686886,128,0,686979:0:0:0:0:
192,192,686886,128,0,686979:0:0:0:0:
320,192,686979,128,0,687073:0:0:0:0:
64,192,687073,128,0,687167:0:0:0:0:
192,192,687167,128,0,687261:0:0:0:0:
320,192,687261,128,0,687354:0:0:0:0:
448,192,687261,128,0,687354:0:0:0:0:
64,192,687354,128,0,687448:0:0:0:0:
320,192,687448,128,0,687542:0:0:0:0:
192,192,687542,128,0,687636:0:0:0:0:
448,192,687636,128,0,689042:0:0:0:0:
64,192,687636,128,0,687682:0:0:0:0:
64,192,688386,128,0,689042:0:0:0:0:
320,192,688386,128,0,688432:0:0:0:0:
448,192,689136,128,0,689198:0:0:0:0:0
320,192,689136,128,0,689198:0:0:0:0:0
192,192,689136,128,0,689261:0:0:0:0:
64,192,689136,128,0,689386:0:0:0:0:
320,192,689261,128,0,689323:0:0:0:0:0
448,192,689261,128,0,689386:0:0:0:0:
192,192,689386,128,0,689448:0:0:0:0:0
320,192,689386,128,0,689511:0:0:0:0:
64,192,689511,128,0,689573:0:0:0:0:0
192,192,689511,128,0,689636:0:0:0:0:
448,192,689511,128,0,689761:0:0:0:0:
320,192,689636,128,0,689698:0:0:0:0:0
64,192,689636,128,0,689761:0:0:0:0:
320,192,689761,128,0,689823:0:0:0:0:0
192,192,689761,128,0,689886:0:0:0:0:
320,192,689886,128,0,689948:0:0:0:0:0
64,192,689886,128,0,690011:0:0:0:0:
448,192,689886,128,0,690136:0:0:0:0:
320,192,690011,128,0,690073:0:0:0:0:0
192,192,690011,128,0,690136:0:0:0:0:
64,192,690136,128,0,690198:0:0:0:0:0
320,192,690136,128,0,690261:0:0:0:0:
64,192,690261,128,0,690323:0:0:0:0:0
192,192,690261,128,0,690386:0:0:0:0:
448,192,690261,128,0,690511:0:0:0:0:
320,192,690386,128,0,690448:0:0:0:0:0
64,192,690386,128,0,690511:0:0:0:0:
320,192,690511,128,0,690573:0:0:0:0:0
192,192,690511,128,0,690886:0:0:0:0:
448,192,690636,128,0,690698:0:0:0:0:0
320,192,690636,128,0,690698:0:0:0:0:0
64,192,690636,128,0,690761:0:0:0:0:
448,192,690761,128,0,690823:0:0:0:0:0
320,192,690761,128,0,690886:0:0:0:0:
64,192,690886,128,0,690948:0:0:0:0:0
448,192,690886,128,0,691011:0:0:0:0:
64,192,691011,128,0,691073:0:0:0:0:0
192,192,691011,128,0,691261:0:0:0:0:
320,192,691011,128,0,691136:0:0:0:0:
448,192,691136,128,0,691198:0:0:0:0:0
64,192,691136,128,0,691261:0:0:0:0:
320,192,691261,128,0,691323:0:0:0:0:0
448,192,691261,128,0,691636:0:0:0:0:
64,192,691386,128,0,691448:0:0:0:0:0
192,192,691386,128,0,691448:0:0:0:0:0
320,192,691386,128,0,691511:0:0:0:0:
64,192,691511,128,0,691573:0:0:0:0:0
192,192,691511,128,0,691636:0:0:0:0:
320,192,691636,128,0,691698:0:0:0:0:0
64,192,691636,128,0,692011:0:0:0:0:
192,192,691761,128,0,691823:0:0:0:0:0
320,192,691761,128,0,691823:0:0:0:0:0
448,192,691761,128,0,691886:0:0:0:0:
192,192,691886,128,0,691948:0:0:0:0:0
320,192,691886,128,0,692011:0:0:0:0:
448,192,692011,128,0,692073:0:0:0:0:0
192,192,692011,128,0,692136:0:0:0:0:
320,192,692136,128,0,692198:0:0:0:0:0
448,192,692136,128,0,692386:0:0:0:0:
64,192,692136,128,0,692261:0:0:0:0:
320,192,692261,128,0,692323:0:0:0:0:0
192,192,692261,128,0,692386:0:0:0:0:
64,192,692386,128,0,692448:0:0:0:0:0
320,192,692386,128,0,692511:0:0:0:0:
64,192,692511,128,0,692573:0:0:0:0:0
448,192,692511,128,0,692761:0:0:0:0:
192,192,692511,128,0,692636:0:0:0:0:
320,192,692636,128,0,692698:0:0:0:0:0
64,192,692636,128,0,692761:0:0:0:0:
320,192,692761,128,0,692823:0:0:0:0:0
192,192,692761,128,0,692886:0:0:0:0:
448,192,692886,128,0,692948:0:0:0:0:0
64,192,692886,128,0,693011:0:0:0:0:
320,192,692886,128,0,693011:0:0:0:0:
192,192,693011,128,0,693136:0:0:0:0:
448,192,693011,128,0,693136:0:0:0:0:
64,192,693136,128,0,693198:0:0:0:0:0
320,192,693136,128,0,693261:0:0:0:0:
64,192,693261,128,0,693323:0:0:0:0:0
448,192,693261,128,0,693386:0:0:0:0:
192,192,693261,128,0,693386:0:0:0:0:
320,192,693386,128,0,693511:0:0:0:0:
64,192,693386,128,0,693511:0:0:0:0:
448,192,693511,128,0,693573:0:0:0:0:0
192,192,693511,128,0,693761:0:0:0:0:
64,192,693636,128,0,693698:0:0:0:0:0
448,192,693636,128,0,693698:0:0:0:0:0
320,192,693636,128,0,693761:0:0:0:0:
448,192,693761,128,0,693886:0:0:0:0:
64,192,693761,128,0,693886:0:0:0:0:
320,192,693886,128,0,693948:0:0:0:0:0
192,192,693886,128,0,694073:0:0:0:0:
320,192,694011,128,0,694073:0:0:0:0:0
64,192,694011,128,0,694136:0:0:0:0:
448,192,694011,128,0,694136:0:0:0:0:
192,192,694136,128,0,694386:0:0:0:0:
320,192,694136,128,0,694261:0:0:0:0:
64,192,694261,128,0,694323:0:0:0:0:0
448,192,694261,128,0,694323:0:0:0:0:0
320,192,694386,128,0,694448:0:0:0:0:0
64,192,694386,128,0,694511:0:0:0:0:
448,192,694386,128,0,694761:0:0:0:0:
192,192,694511,128,0,694573:0:0:0:0:0
320,192,694511,128,0,694636:0:0:0:0:
64,192,694636,128,0,694698:0:0:0:0:0
192,192,694636,128,0,694698:0:0:0:0:0
64,192,694761,128,0,694823:0:0:0:0:0
192,192,694761,128,0,694886:0:0:0:0:
320,192,694761,128,0,695011:0:0:0:0:
448,192,694886,128,0,694948:0:0:0:0:0
64,192,694886,128,0,695011:0:0:0:0:
448,192,695011,128,0,695073:0:0:0:0:0
192,192,695011,128,0,695136:0:0:0:0:
448,192,695136,128,0,695198:0:0:0:0:0
64,192,695136,128,0,695386:0:0:0:0:
320,192,695136,128,0,695261:0:0:0:0:
192,192,695261,128,0,695323:0:0:0:0:0
448,192,695261,128,0,695386:0:0:0:0:
320,192,695386,128,0,695448:0:0:0:0:0
192,192,695386,128,0,695511:0:0:0:0:
320,192,695511,128,0,695573:0:0:0:0:0
64,192,695511,128,0,695761:0:0:0:0:
448,192,695511,128,0,695636:0:0:0:0:
192,192,695636,128,0,695698:0:0:0:0:0
320,192,695636,128,0,695761:0:0:0:0:
448,192,695761,128,0,695823:0:0:0:0:0
192,192,695761,128,0,695886:0:0:0:0:
448,192,695886,128,0,695948:0:0:0:0:0
64,192,695886,128,0,696011:0:0:0:0:
320,192,695886,128,0,696011:0:0:0:0:
192,192,696011,128,0,696136:0:0:0:0:
448,192,696011,128,0,696136:0:0:0:0:
64,192,696136,128,0,696198:0:0:0:0:0
320,192,696136,128,0,696261:0:0:0:0:
64,192,696261,128,0,696323:0:0:0:0:0
192,192,696261,128,0,696386:0:0:0:0:
448,192,696261,128,0,696386:0:0:0:0:
64,192,696386,128,0,696636:0:0:0:0:
320,192,696386,128,0,696511:0:0:0:0:
448,192,696511,128,0,696573:0:0:0:0:0
192,192,696511,128,0,696573:0:0:0:0:0
320,192,696636,128,0,696698:0:0:0:0:0
448,192,696636,128,0,696886:0:0:0:0:
192,192,696636,128,0,696761:0:0:0:0:
320,192,696761,128,0,696823:0:0:0:0:0
64,192,696761,128,0,696886:0:0:0:0:
192,192,696886,128,0,696948:0:0:0:0:0
320,192,696886,128,0,697011:0:0:0:0:
64,192,697011,128,0,697073:0:0:0:0:0
192,192,697011,128,0,697136:0:0:0:0:
448,192,697011,128,0,697261:0:0:0:0:
320,192,697136,128,0,697198:0:0:0:0:0
64,192,697136,128,0,697261:0:0:0:0:
320,192,697261,128,0,697323:0:0:0:0:0
192,192,697261,128,0,697386:0:0:0:0:
64,192,697386,128,0,697448:0:0:0:0:0
448,192,697386,128,0,697636:0:0:0:0:
320,192,697386,128,0,697511:0:0:0:0:
64,192,697511,128,0,697573:0:0:0:0:0
192,192,697511,128,0,697761:0:0:0:0:
320,192,697636,128,0,697698:0:0:0:0:0
64,192,697636,128,0,697698:0:0:0:0:0
320,192,697761,128,0,697823:0:0:0:0:0
448,192,697761,128,0,697886:0:0:0:0:
64,192,697761,128,0,698011:0:0:0:0:
192,192,697886,128,0,697948:0:0:0:0:0
320,192,697886,128,0,698011:0:0:0:0:
448,192,698011,128,0,698073:0:0:0:0:0
192,192,698011,128,0,698136:0:0:0:0:
64,192,698136,128,0,698198:0:0:0:0:0
448,192,698136,128,0,698386:0:0:0:0:
320,192,698136,128,0,698261:0:0:0:0:
64,192,698261,128,0,698323:0:0:0:0:0
192,192,698261,128,0,698386:0:0:0:0:
320,192,698386,128,0,698448:0:0:0:0:0
64,192,698386,128,0,698511:0:0:0:0:
320,192,698511,128,0,698573:0:0:0:0:0
192,192,698511,128,0,698636:0:0:0:0:
448,192,698511,128,0,698636:0:0:0:0:
64,192,698636,128,0,698761:0:0:0:0:
320,192,698636,128,0,698761:0:0:0:0:
448,192,698761,128,0,698823:0:0:0:0:0
192,192,698761,128,0,698886:0:0:0:0:
64,192,698886,128,0,698948:0:0:0:0:0
448,192,698886,128,0,699136:0:0:0:0:
320,192,698886,128,0,699011:0:0:0:0:
64,192,699011,128,0,699073:0:0:0:0:0
192,192,699011,128,0,699136:0:0:0:0:
320,192,699136,128,0,699198:0:0:0:0:0
64,192,699136,128,0,699261:0:0:0:0:
320,192,699261,128,0,699323:0:0:0:0:0
192,192,699261,128,0,699386:0:0:0:0:
448,192,699261,128,0,699386:0:0:0:0:
64,192,699386,128,0,699511:0:0:0:0:
320,192,699386,128,0,699761:0:0:0:0:
192,192,699511,128,0,699573:0:0:0:0:0
448,192,699511,128,0,699573:0:0:0:0:0
64,192,699636,128,0,699698:0:0:0:0:0
192,192,699636,128,0,699698:0:0:0:0:0
448,192,699636,128,0,699886:0:0:0:0:
192,192,699761,128,0,699823:0:0:0:0:0
64,192,699761,128,0,699886:0:0:0:0:
320,192,699886,128,0,699948:0:0:0:0:0
192,192,699886,128,0,700136:0:0:0:0:
64,192,700011,128,0,700073:0:0:0:0:0
320,192,700011,128,0,700073:0:0:0:0:0
448,192,700011,128,0,700136:0:0:0:0:
320,192,700136,128,0,700261:0:0:0:0:
64,192,700136,128,0,700261:0:0:0:0:
448,192,700261,128,0,700323:0:0:0:0:0
192,192,700261,128,0,700386:0:0:0:0:
320,192,700386,128,0,700448:0:0:0:0:0
448,192,700386,128,0,700448:0:0:0:0:0
64,192,700386,128,0,700511:0:0:0:0:
320,192,700511,128,0,700573:0:0:0:0:0
448,192,700511,128,0,700573:0:0:0:0:
192,192,700573,128,0,700761:0:0:0:0:
448,192,700636,128,0,700698:0:0:0:0:
64,192,700636,128,0,700698:0:0:0:0:0
320,192,700636,128,0,700698:0:0:0:0:0
320,192,700761,128,0,700823:0:0:0:0:0
64,192,700761,128,0,700823:0:0:0:0:0
448,192,700761,128,0,700886:0:0:0:0:
320,192,700886,128,0,700948:0:0:0:0:
64,192,700886,128,0,700948:0:0:0:0:0
192,192,700886,128,0,701073:0:0:0:0:
448,192,700948,128,0,701073:0:0:0:0:
320,192,701011,128,0,701073:0:0:0:0:0
64,192,701011,128,0,701073:0:0:0:0:0
448,192,701136,128,0,701198:0:0:0:0:0
320,192,701136,128,0,701198:0:0:0:0:0
192,192,701136,128,0,701261:0:0:0:0:
64,192,701136,128,0,701261:0:0:0:0:
320,192,701261,128,0,701386:0:0:0:0:
448,192,701261,128,0,701386:0:0:0:0:
64,192,701386,128,0,701448:0:0:0:0:0
192,192,701386,128,0,701511:0:0:0:0:
64,192,701511,128,0,701573:0:0:0:0:0
448,192,701511,128,0,701636:0:0:0:0:
320,192,701511,128,0,701636:0:0:0:0:
64,192,701636,128,0,701761:0:0:0:0:
192,192,701636,128,0,701886:0:0:0:0:
320,192,701761,128,0,701823:0:0:0:0:0
448,192,701761,128,0,701823:0:0:0:0:0
320,192,701886,128,0,701948:0:0:0:0:0
64,192,701886,128,0,702011:0:0:0:0:
448,192,701886,128,0,702136:0:0:0:0:
192,192,702011,128,0,702073:0:0:0:0:0
320,192,702011,128,0,702136:0:0:0:0:
64,192,702136,128,0,702198:0:0:0:0:0
192,192,702136,128,0,702261:0:0:0:0:
64,192,702261,128,0,702323:0:0:0:0:0
448,192,702261,128,0,702511:0:0:0:0:
320,192,702261,128,0,702386:0:0:0:0:
192,192,702386,128,0,702448:0:0:0:0:0
64,192,702386,128,0,702636:0:0:0:0:
320,192,702511,128,0,702573:0:0:0:0:0
192,192,702511,128,0,702573:0:0:0:0:0
448,192,702636,128,0,702698:0:0:0:0:0
320,192,702636,128,0,702761:0:0:0:0:
192,192,702636,128,0,702761:0:0:0:0:
448,192,702761,128,0,702886:0:0:0:0:
64,192,702761,128,0,702886:0:0:0:0:
320,192,702886,128,0,702948:0:0:0:0:0
192,192,702886,128,0,703011:0:0:0:0:
320,192,703011,128,0,703073:0:0:0:0:0
64,192,703011,128,0,703136:0:0:0:0:
448,192,703011,128,0,703136:0:0:0:0:
192,192,703136,128,0,703261:0:0:0:0:
320,192,703136,128,0,703261:0:0:0:0:
448,192,703261,128,0,703323:0:0:0:0:0
64,192,703261,128,0,703386:0:0:0:0:
320,192,703386,128,0,703448:0:0:0:0:0
192,192,703386,128,0,703511:0:0:0:0:
448,192,703386,128,0,703636:0:0:0:0:
64,192,703511,128,0,703573:0:0:0:0:0
320,192,703511,128,0,703636:0:0:0:0:
64,192,703636,128,0,703698:0:0:0:0:0
192,192,703636,128,0,703886:0:0:0:0:
320,192,703761,128,0,703823:0:0:0:0:0
64,192,703761,128,0,703823:0:0:0:0:0
448,192,703761,128,0,703886:0:0:0:0:
64,192,703886,128,0,704136:0:0:0:0:
320,192,703886,128,0,704011:0:0:0:0:
192,192,704011,128,0,704073:0:0:0:0:0
448,192,704011,128,0,704073:0:0:0:0:0
320,192,704136,128,0,704198:0:0:0:0:0
192,192,704136,128,0,704261:0:0:0:0:
448,192,704136,128,0,704386:0:0:0:0:
64,192,704261,128,0,704323:0:0:0:0:0
320,192,704261,128,0,704511:0:0:0:0:
64,192,704386,128,0,704448:0:0:0:0:0
192,192,704386,128,0,704448:0:0:0:0:0
64,192,704511,128,0,704573:0:0:0:0:0
192,192,704511,128,0,704636:0:0:0:0:
448,192,704511,128,0,704636:0:0:0:0:
320,192,704636,128,0,704761:0:0:0:0:
64,192,704636,128,0,704886:0:0:0:0:
448,192,704761,128,0,704823:0:0:0:0:0
192,192,704761,128,0,704823:0:0:0:0:0
320,192,704886,128,0,704948:0:0:0:0:0
192,192,704886,128,0,705011:0:0:0:0:
448,192,704886,128,0,705136:0:0:0:0:
64,192,705011,128,0,705073:0:0:0:0:0
320,192,705011,128,0,705261:0:0:0:0:
64,192,705136,128,0,705198:0:0:0:0:0
192,192,705136,128,0,705198:0:0:0:0:0
192,192,705261,128,0,705323:0:0:0:0:0
448,192,705261,128,0,705386:0:0:0:0:
64,192,705261,128,0,705511:0:0:0:0:
320,192,705386,128,0,705448:0:0:0:0:0
192,192,705386,128,0,705511:0:0:0:0:
320,192,705511,128,0,705573:0:0:0:0:0
448,192,705511,128,0,705636:0:0:0:0:
64,192,705636,128,0,705698:0:0:0:0:0
192,192,705636,128,0,705761:0:0:0:0:
320,192,705636,128,0,705886:0:0:0:0:
448,192,705761,128,0,705823:0:0:0:0:0
64,192,705761,128,0,705886:0:0:0:0:
192,192,705886,128,0,705948:0:0:0:0:0
448,192,705886,128,0,706136:0:0:0:0:
192,192,706011,128,0,706073:0:0:0:0:0
320,192,706011,128,0,706073:0:0:0:0:0
64,192,706011,128,0,706136:0:0:0:0:
192,192,706136,128,0,706261:0:0:0:0:
320,192,706136,128,0,706386:0:0:0:0:
448,192,706261,128,0,706323:0:0:0:0:0
64,192,706261,128,0,706323:0:0:0:0:0
448,192,706386,128,0,706448:0:0:0:0:0
192,192,706386,128,0,706511:0:0:0:0:
64,192,706386,128,0,706511:0:0:0:0:
448,192,706511,128,0,706886:0:0:0:0:
320,192,706511,128,0,706636:0:0:0:0:
64,192,706636,128,0,706698:0:0:0:0:0
192,192,706636,128,0,706698:0:0:0:0:0
320,192,706761,128,0,706823:0:0:0:0:0
64,192,706761,128,0,706823:0:0:0:0:0
192,192,706761,128,0,706886:0:0:0:0:
64,192,706886,128,0,707011:0:0:0:0:
320,192,706886,128,0,707011:0:0:0:0:
448,192,707011,128,0,707073:0:0:0:0:0
192,192,707011,128,0,707136:0:0:0:0:
448,192,707136,128,0,707198:0:0:0:0:0
64,192,707136,128,0,707386:0:0:0:0:
320,192,707136,128,0,707261:0:0:0:0:
192,192,707261,128,0,707323:0:0:0:0:0
448,192,707261,128,0,707386:0:0:0:0:
192,192,707386,128,0,707448:0:0:0:0:0
320,192,707386,128,0,707511:0:0:0:0:
64,192,707511,128,0,707573:0:0:0:0:0
192,192,707511,128,0,707636:0:0:0:0:
448,192,707511,128,0,707636:0:0:0:0:
64,192,707636,128,0,707886:0:0:0:0:
320,192,707636,128,0,707761:0:0:0:0:
192,192,707761,128,0,707823:0:0:0:0:0
448,192,707761,128,0,707823:0:0:0:0:0
320,192,707886,128,0,707948:0:0:0:0:0
448,192,707886,128,0,708011:0:0:0:0:
192,192,707886,128,0,708011:0:0:0:0:
64,192,708011,128,0,708136:0:0:0:0:
320,192,708011,128,0,708136:0:0:0:0:
448,192,708136,128,0,708198:0:0:0:0:0
192,192,708136,128,0,708261:0:0:0:0:
448,192,708261,128,0,708323:0:0:0:0:0
64,192,708261,128,0,708386:0:0:0:0:
320,192,708261,128,0,708386:0:0:0:0:
448,192,708386,128,0,708511:0:0:0:0:
192,192,708386,128,0,708511:0:0:0:0:
64,192,708511,128,0,708573:0:0:0:0:0
320,192,708511,128,0,708636:0:0:0:0:
448,192,708636,128,0,708698:0:0:0:0:0
192,192,708636,128,0,708761:0:0:0:0:
64,192,708636,128,0,708761:0:0:0:0:
448,192,708761,128,0,708886:0:0:0:0:
320,192,708761,128,0,708886:0:0:0:0:
64,192,708886,128,0,708948:0:0:0:0:0
192,192,708886,128,0,709011:0:0:0:0:
64,192,709011,128,0,709073:0:0:0:0:0
320,192,709011,128,0,709136:0:0:0:0:
448,192,709011,128,0,709136:0:0:0:0:
192,192,709136,128,0,709261:0:0:0:0:
64,192,709136,128,0,709261:0:0:0:0:
320,192,709261,128,0,709323:0:0:0:0:0
448,192,709261,128,0,709386:0:0:0:0:
64,192,709386,128,0,709448:0:0:0:0:0
320,192,709386,128,0,709511:0:0:0:0:
192,192,709386,128,0,709636:0:0:0:0:
64,192,709511,128,0,709573:0:0:0:0:0
448,192,709511,128,0,709636:0:0:0:0:
64,192,709636,128,0,709698:0:0:0:0:0
320,192,709636,128,0,709761:0:0:0:0:
64,192,709761,128,0,709823:0:0:0:0:0
192,192,709761,128,0,709886:0:0:0:0:
448,192,709761,128,0,709886:0:0:0:0:
64,192,709886,128,0,710136:0:0:0:0:
320,192,709886,128,0,710011:0:0:0:0:
192,192,710011,128,0,710073:0:0:0:0:0
448,192,710011,128,0,710073:0:0:0:0:0
192,192,710136,128,0,710198:0:0:0:0:0
320,192,710136,128,0,710261:0:0:0:0:
448,192,710136,128,0,710386:0:0:0:0:
64,192,710261,128,0,710323:0:0:0:0:0
192,192,710261,128,0,710386:0:0:0:0:
320,192,710386,128,0,710448:0:0:0:0:0
64,192,710386,128,0,710511:0:0:0:0:
320,192,710511,128,0,710573:0:0:0:0:0
448,192,710511,128,0,710636:0:0:0:0:
192,192,710511,128,0,710636:0:0:0:0:
64,192,710636,128,0,710761:0:0:0:0:
320,192,710636,128,0,710761:0:0:0:0:
448,192,710761,128,0,710823:0:0:0:0:0
192,192,710761,128,0,710886:0:0:0:0:
64,192,710886,128,0,710948:0:0:0:0:0
448,192,710886,128,0,711136:0:0:0:0:
320,192,710886,128,0,711011:0:0:0:0:
64,192,711011,128,0,711073:0:0:0:0:0
192,192,711011,128,0,711136:0:0:0:0:
320,192,711136,128,0,711198:0:0:0:0:0
64,192,711136,128,0,711261:0:0:0:0:
192,192,711261,128,0,711323:0:0:0:0:0
320,192,711261,128,0,711386:0:0:0:0:
448,192,711261,128,0,711511:0:0:0:0:
192,192,711386,128,0,711448:0:0:0:0:0
64,192,711386,128,0,711511:0:0:0:0:
320,192,711511,128,0,711573:0:0:0:0:0
192,192,711511,128,0,711636:0:0:0:0:
64,192,711636,128,0,711698:0:0:0:0:0
320,192,711636,128,0,711761:0:0:0:0:
448,192,711636,128,0,711886:0:0:0:0:
64,192,711761,128,0,711823:0:0:0:0:0
192,192,711761,128,0,711886:0:0:0:0:
64,192,711886,128,0,712011:0:0:0:0:
320,192,711886,128,0,712136:0:0:0:0:
192,192,712011,128,0,712073:0:0:0:0:0
448,192,712011,128,0,712261:0:0:0:0:
192,192,712136,128,0,712198:0:0:0:0:0
64,192,712136,128,0,712261:0:0:0:0:
320,192,712261,128,0,712323:0:0:0:0:0
192,192,712261,128,0,712386:0:0:0:0:
448,192,712386,128,0,712448:0:0:0:0:0
320,192,712386,128,0,712511:0:0:0:0:0
64,192,712386,128,0,712511:0:0:0:0:
192,192,712511,128,0,712573:0:0:0:0:0
448,192,712511,128,0,712636:0:0:0:0:
320,192,712573,128,0,712636:0:0:0:0:
64,192,712636,128,0,712698:0:0:0:0:0
192,192,712636,128,0,712886:0:0:0:0:
320,192,712761,128,0,712823:0:0:0:0:0
64,192,712761,128,0,712823:0:0:0:0:0
448,192,712761,128,0,712948:0:0:0:0:
64,192,712886,128,0,712948:0:0:0:0:0
320,192,712886,128,0,712948:0:0:0:0:0
192,192,712948,128,0,713011:0:0:0:0:0
448,192,713011,128,0,713073:0:0:0:0:0
64,192,713011,128,0,713073:0:0:0:0:0
192,192,713136,128,0,713182:0:0:0:0:
64,192,713136,128,0,713182:0:0:0:0:
320,192,713136,128,0,713323:0:0:0:0:
448,192,713136,128,0,713417:0:0:0:0:
192,192,713229,128,0,713417:0:0:0:0:
64,192,713323,128,0,713417:0:0:0:0:
320,192,713417,128,0,713511:0:0:0:0:
448,192,713511,128,0,713792:0:0:0:0:
64,192,713511,128,0,713604:0:0:0:0:
192,192,713511,128,0,713698:0:0:0:0:
320,192,713604,128,0,713886:0:0:0:0:
64,192,713698,128,0,713792:0:0:0:0:
192,192,713792,128,0,714073:0:0:0:0:
64,192,713886,128,0,713979:0:0:0:0:
448,192,713886,128,0,714167:0:0:0:0:
320,192,713979,128,0,714167:0:0:0:0:
64,192,714073,128,0,714167:0:0:0:0:
192,192,714167,128,0,714261:0:0:0:0:
64,192,714261,128,0,714354:0:0:0:0:
320,192,714261,128,0,714448:0:0:0:0:
448,192,714261,128,0,714542:0:0:0:0:
192,192,714354,128,0,714636:0:0:0:0:
64,192,714448,128,0,714542:0:0:0:0:
320,192,714542,128,0,714823:0:0:0:0:
448,192,714636,128,0,714729:0:0:0:0:
64,192,714636,128,0,714917:0:0:0:0:
192,192,714729,128,0,714917:0:0:0:0:
448,192,714823,128,0,714917:0:0:0:0:
320,192,714917,128,0,715011:0:0:0:0:
448,192,715011,128,0,715104:0:0:0:0:
192,192,715011,128,0,715292:0:0:0:0:
64,192,715011,128,0,715386:0:0:0:0:
320,192,715104,128,0,715573:0:0:0:0:
448,192,715198,128,0,715292:0:0:0:0:
192,192,715386,128,0,715667:0:0:0:0:
448,192,715386,128,0,715479:0:0:0:0:
64,192,715479,128,0,715667:0:0:0:0:
448,192,715573,128,0,715667:0:0:0:0:
320,192,715667,128,0,715761:0:0:0:0:
192,192,715761,128,0,716042:0:0:0:0:
448,192,715761,128,0,715854:0:0:0:0:
64,192,715761,128,0,715948:0:0:0:0:
320,192,715854,128,0,716136:0:0:0:0:
448,192,715948,128,0,716042:0:0:0:0:
64,192,716042,128,0,716323:0:0:0:0:
192,192,716136,128,0,716229:0:0:0:0:
448,192,716136,128,0,716417:0:0:0:0:
320,192,716229,128,0,716417:0:0:0:0:
192,192,716323,128,0,716417:0:0:0:0:
64,192,716417,128,0,716511:0:0:0:0:
448,192,716511,128,0,716698:0:0:0:0:
320,192,716511,128,0,716792:0:0:0:0:
192,192,716511,128,0,716604:0:0:0:0:
64,192,716604,128,0,717167:0:0:0:0:
192,192,716698,128,0,716792:0:0:0:0:
448,192,716792,128,0,716886:0:0:0:0:
192,192,716886,128,0,716979:0:0:0:0:
320,192,716886,128,0,717073:0:0:0:0:
448,192,716979,128,0,717167:0:0:0:0:
192,192,717073,128,0,717167:0:0:0:0:
320,192,717167,128,0,717261:0:0:0:0:
192,192,717261,128,0,717354:0:0:0:0:
448,192,717261,128,0,717448:0:0:0:0:
64,192,717261,128,0,717542:0:0:0:0:
320,192,717354,128,0,717542:0:0:0:0:
192,192,717448,128,0,717823:0:0:0:0:
448,192,717542,128,0,717636:0:0:0:0:
64,192,717636,128,0,717917:0:0:0:0:
320,192,717636,128,0,717729:0:0:0:0:
448,192,717729,128,0,717917:0:0:0:0:
320,192,717823,128,0,717917:0:0:0:0:
192,192,717917,128,0,718011:0:0:0:0:
448,192,718011,128,0,718198:0:0:0:0:
64,192,718011,128,0,718386:0:0:0:0:
320,192,718011,128,0,718104:0:0:0:0:
192,192,718104,128,0,718292:0:0:0:0:
320,192,718198,128,0,718292:0:0:0:0:
448,192,718292,128,0,718573:0:0:0:0:
320,192,718386,128,0,718479:0:0:0:0:
192,192,718386,128,0,718667:0:0:0:0:
64,192,718479,128,0,718667:0:0:0:0:
320,192,718573,128,0,718667:0:0:0:0:
448,192,718667,128,0,718761:0:0:0:0:
320,192,718761,128,0,719042:0:0:0:0:
192,192,718761,128,0,718948:0:0:0:0:
64,192,718761,128,0,718854:0:0:0:0:
448,192,718854,128,0,719042:0:0:0:0:
64,192,718948,128,0,719136:0:0:0:0:
192,192,719042,128,0,719229:0:0:0:0:
320,192,719136,128,0,719417:0:0:0:0:
448,192,719136,128,0,719417:0:0:0:0:
64,192,719229,128,0,719511:0:0:0:0:
192,192,719323,128,0,719417:0:0:0:0:
448,192,719511,128,0,719604:0:0:0:0:
320,192,719511,128,0,719792:0:0:0:0:
192,192,719511,128,0,719698:0:0:0:0:
64,192,719604,128,0,719792:0:0:0:0:
448,192,719698,128,0,719886:0:0:0:0:
192,192,719792,128,0,719979:0:0:0:0:
64,192,719886,128,0,720167:0:0:0:0:
320,192,719886,128,0,720073:0:0:0:0:
448,192,719979,128,0,720167:0:0:0:0:
192,192,720073,128,0,720167:0:0:0:0:
320,192,720167,128,0,720354:0:0:0:0:
448,192,720261,128,0,720448:0:0:0:0:
192,192,720261,128,0,720542:0:0:0:0:
64,192,720261,128,0,720542:0:0:0:0:
320,192,720448,128,0,720636:0:0:0:0:
448,192,720542,128,0,720917:0:0:0:0:
64,192,720636,128,0,720823:0:0:0:0:
192,192,720636,128,0,720729:0:0:0:0:
320,192,720729,128,0,720917:0:0:0:0:
192,192,720823,128,0,720917:0:0:0:0:
64,192,720917,128,0,721011:0:0:0:0:
448,192,721011,128,0,721104:0:0:0:0:
320,192,721011,128,0,721198:0:0:0:0:
192,192,721011,128,0,721292:0:0:0:0:
64,192,721104,128,0,721292:0:0:0:0:
448,192,721198,128,0,721386:0:0:0:0:
320,192,721292,128,0,721479:0:0:0:0:
64,192,721386,128,0,721667:0:0:0:0:
192,192,721386,128,0,721667:0:0:0:0:
448,192,721479,128,0,721573:0:0:0:0:
320,192,721573,128,0,721667:0:0:0:0:
448,192,721667,128,0,721761:0:0:0:0:
64,192,721761,128,0,722042:0:0:0:0:
192,192,721761,128,0,721948:0:0:0:0:
320,192,721761,128,0,721854:0:0:0:0:
448,192,721854,128,0,722042:0:0:0:0:
320,192,721948,128,0,722136:0:0:0:0:
192,192,722042,128,0,722229:0:0:0:0:
64,192,722136,128,0,722417:0:0:0:0:
448,192,722136,128,0,722417:0:0:0:0:
320,192,722229,128,0,722417:0:0:0:0:
192,192,722323,128,0,722511:0:0:0:0:
320,192,722511,128,0,722792:0:0:0:0:
448,192,722511,128,0,722604:0:0:0:0:
64,192,722511,128,0,722698:0:0:0:0:
192,192,722604,128,0,722886:0:0:0:0:
448,192,722698,128,0,722792:0:0:0:0:
64,192,722792,128,0,722979:0:0:0:0:
320,192,722886,128,0,723073:0:0:0:0:
448,192,722886,128,0,723167:0:0:0:0:
192,192,722979,128,0,723167:0:0:0:0:
64,192,723073,128,0,723167:0:0:0:0:
320,192,723167,128,0,723354:0:0:0:0:
448,192,723261,128,0,723448:0:0:0:0:
192,192,723261,128,0,723542:0:0:0:0:
64,192,723261,128,0,723542:0:0:0:0:
320,192,723448,128,0,723636:0:0:0:0:
448,192,723542,128,0,723636:0:0:0:0:
192,192,723636,128,0,723682:0:0:0:0:
64,192,723636,128,0,723682:0:0:0:0:
320,192,724386,128,0,724432:0:0:0:0:
448,192,724386,128,0,724432:0:0:0:0:
64,192,724386,128,0,724432:0:0:0:0:
320,192,724573,128,0,724620:0:0:0:0:
192,192,724573,128,0,724620:0:0:0:0:
64,192,724573,128,0,724620:0:0:0:0:
448,192,724761,128,0,724807:0:0:0:0:
192,192,724761,128,0,724807:0:0:0:0:
64,192,724761,128,0,724807:0:0:0:0:
448,192,724948,128,0,724995:0:0:0:0:
320,192,724948,128,0,724995:0:0:0:0:
192,192,724948,128,0,724995:0:0:0:0:
64,192,725136,128,0,725417:0:0:0:0:
320,192,725229,128,0,725511:0:0:0:0:
192,192,725323,128,0,725604:0:0:0:0:
448,192,725417,128,0,725698:0:0:0:0:
64,192,725511,128,0,725698:0:0:0:0:
320,192,725604,128,0,725792:0:0:0:0:
192,192,725698,128,0,725886:0:0:0:0:
64,192,725792,128,0,725979:0:0:0:0:
448,192,725886,128,0,726073:0:0:0:0:
192,192,725979,128,0,726167:0:0:0:0:
320,192,726073,128,0,726261:0:0:0:0:
64,192,726261,128,0,726448:0:0:0:0:
192,192,726354,128,0,726542:0:0:0:0:
448,192,726448,128,0,726636:0:0:0:0:
320,192,726542,128,0,726729:0:0:0:0:
64,192,726636,128,0,726776:0:0:0:0:
448,192,726729,128,0,726870:0:0:0:0:
192,192,726823,128,0,726964:0:0:0:0:
320,192,726917,128,0,727057:0:0:0:0:
448,192,727011,128,0,727151:0:0:0:0:
192,192,727104,128,0,727245:0:0:0:0:
64,192,727198,128,0,727339:0:0:0:0:
448,192,727292,128,0,727386:0:0:0:0:
64,192,727386,128,0,727432:0:0:0:0:
320,192,727386,128,0,727432:0:0:0:0:
320,192,727479,128,0,727526:0:0:0:0:
192,192,727479,128,0,727526:0:0:0:0:
192,192,727573,128,0,727620:0:0:0:0:
448,192,727573,128,0,727620:0:0:0:0:
448,192,727667,128,0,727714:0:0:0:0:
64,192,727667,128,0,727714:0:0:0:0:
320,192,727761,128,0,727807:0:0:0:0:
64,192,727761,128,0,727807:0:0:0:0:
320,192,727854,128,0,727901:0:0:0:0:
192,192,727854,128,0,727901:0:0:0:0:
448,192,727948,128,0,727995:0:0:0:0:
192,192,727948,128,0,727995:0:0:0:0:
448,192,728042,128,0,728089:0:0:0:0:
320,192,728042,128,0,728089:0:0:0:0:
320,192,728136,128,0,728167:0:0:0:0:
448,192,728136,128,0,728167:0:0:0:0:
64,192,728136,128,0,728167:0:0:0:0:
