osu file format v14

[General]
AudioFilename: Tier IX.mp3
AudioLeadIn: 0
PreviewTime: 527476
Countdown: 0
SampleSet: Soft
StackLeniency: 0.7
Mode: 3
LetterboxInBreaks: 0
SpecialStyle: 0
WidescreenStoryboard: 0

[Editor]
DistanceSpacing: 1.1
BeatDivisor: 4
GridSize: 4
TimelineZoom: 2.7

[Metadata]
Title:4K LN 5TH PHASE
TitleUnicode:4K LN 5TH PHASE
Artist:Osu! Mania 4-Key Long Note Tiers
ArtistUnicode:Osu! Mania 4-Key Long Note Tiers
Creator:arcwinolivirus
Version:Tier IX
Source:
Tags:four key master training
BeatmapID:1135865
BeatmapSetID:536309

[Difficulty]
HPDrainRate:7
CircleSize:4
OverallDifficulty:7
ApproachRate:5
SliderMultiplier:1.4
SliderTickRate:1

[Events]
//Background and Video events
0,0,"Tier IX WIDE.jpg",0,0
//Break Periods
2,132473,146605
2,248745,261713
2,450414,463647
//Storyboard Layer 0 (Background)
//Storyboard Layer 1 (Fail)
//Storyboard Layer 2 (Pass)
//Storyboard Layer 3 (Foreground)
//Storyboard Sound Samples

[TimingPoints]
13201,309.278350515464,4,2,1,20,1,0
13201,-102.145045965271,4,2,1,20,0,0
147805.6236,370.37,4,2,1,20,1,0
147806,-85.3242320819113,4,2,1,20,0,0
183361,370.37,3,2,1,20,1,0
183361,-85.4700854700855,3,2,1,20,0,0
201138,370.37,4,2,1,20,1,0
201138,-85.4700854700855,4,2,1,20,0,0
262913,317.460317460317,4,2,1,20,1,0
263013,-99.502487562189,4,2,1,20,0,0
464847,315.789473684211,4,2,1,20,1,0

[HitObjects]
64,192,13201,128,0,13432:0:0:0:0:
192,192,13278,128,0,13432:0:0:0:0:
320,192,13355,128,0,13432:0:0:0:0:
448,192,13432,128,0,14051:0:0:0:0:
320,192,13510,128,0,14283:0:0:0:0:
192,192,13510,128,0,14051:0:0:0:0:
64,192,13510,128,0,14051:0:0:0:0:
192,192,14128,1,0,0:0:0:0:
64,192,14128,1,0,0:0:0:0:
448,192,14128,1,0,0:0:0:0:
192,192,14283,128,0,14360:0:0:0:0:
64,192,14360,128,0,14438:0:0:0:0:
320,192,14438,128,0,14515:0:0:0:0:
448,192,14438,1,0,0:0:0:0:
192,192,14515,128,0,14592:0:0:0:0:
64,192,14592,128,0,14670:0:0:0:0:
320,192,14670,128,0,14747:0:0:0:0:
448,192,14747,128,0,14850:0:0:0:0:
192,192,14824,128,0,14902:0:0:0:0:
64,192,14902,128,0,14979:0:0:0:0:
448,192,14979,128,0,15056:0:0:0:0:
192,192,15056,128,0,15133:0:0:0:0:
320,192,15056,128,0,15597:0:0:0:0:
64,192,15133,128,0,15211:0:0:0:0:
448,192,15211,128,0,15288:0:0:0:0:
192,192,15288,128,0,15365:0:0:0:0:
64,192,15365,128,0,15443:0:0:0:0:
448,192,15443,128,0,15520:0:0:0:0:
64,192,15520,128,0,15597:0:0:0:0:
192,192,15597,128,0,15675:0:0:0:0:
320,192,15675,128,0,15829:0:0:0:0:
448,192,15752,128,0,15829:0:0:0:0:
64,192,15829,1,0,0:0:0:0:
192,192,15868,1,0,0:0:0:0:
320,192,15907,1,0,0:0:0:0:
448,192,15945,1,0,0:0:0:0:
192,192,15984,128,0,16603:0:0:0:0:
64,192,15984,128,0,16525:0:0:0:0:
448,192,16448,128,0,16525:0:0:0:0:
320,192,16525,128,0,16603:0:0:0:0:
448,192,16603,1,0,0:0:0:0:
64,192,16603,128,0,16680:0:0:0:0:
192,192,16680,128,0,16757:0:0:0:0:
320,192,16757,128,0,16835:0:0:0:0:
448,192,16835,128,0,16912:0:0:0:0:
320,192,16912,128,0,17221:0:0:0:0:
64,192,16912,128,0,16989:0:0:0:0:
192,192,16989,128,0,17066:0:0:0:0:
448,192,17066,128,0,17144:0:0:0:0:
64,192,17144,128,0,17221:0:0:0:0:
448,192,17221,128,0,17298:0:0:0:0:
192,192,17298,128,0,17376:0:0:0:0:
64,192,17376,128,0,17453:0:0:0:0:
320,192,17453,128,0,17530:0:0:0:0:
192,192,17530,128,0,17608:0:0:0:0:
448,192,17530,128,0,18072:0:0:0:0:
64,192,17608,128,0,17685:0:0:0:0:
320,192,17685,128,0,17762:0:0:0:0:
192,192,17762,128,0,17840:0:0:0:0:
320,192,17840,128,0,17917:0:0:0:0:
64,192,17840,1,0,0:0:0:0:
192,192,17917,128,0,17994:0:0:0:0:
320,192,17994,128,0,18072:0:0:0:0:
64,192,18072,128,0,18149:0:0:0:0:
448,192,18149,128,0,18226:0:0:0:0:
192,192,18149,1,0,0:0:0:0:
320,192,18226,128,0,18304:0:0:0:0:
192,192,18304,128,0,18381:0:0:0:0:
64,192,18304,1,0,0:0:0:0:
448,192,18381,128,0,18458:0:0:0:0:
64,192,18458,1,0,0:0:0:0:
192,192,18458,1,0,0:0:0:0:
320,192,18458,128,0,18536:0:0:0:0:
448,192,18536,128,0,18613:0:0:0:0:
192,192,18613,128,0,18690:0:0:0:0:
64,192,18690,128,0,18768:0:0:0:0:
448,192,18768,1,0,0:0:0:0:
192,192,18768,1,0,0:0:0:0:
320,192,18768,128,0,18845:0:0:0:0:
64,192,18845,128,0,18922:0:0:0:0:
192,192,18922,128,0,18999:0:0:0:0:
448,192,18999,128,0,19077:0:0:0:0:
320,192,19077,1,0,0:0:0:0:
192,192,19077,1,0,0:0:0:0:
64,192,19077,128,0,19154:0:0:0:0:
448,192,19154,128,0,19231:0:0:0:0:
192,192,19231,128,0,19309:0:0:0:0:
320,192,19309,128,0,19386:0:0:0:0:
192,192,19386,1,0,0:0:0:0:
64,192,19386,1,0,0:0:0:0:
448,192,19386,128,0,19463:0:0:0:0:
320,192,19463,128,0,19541:0:0:0:0:
192,192,19541,128,0,19618:0:0:0:0:
320,192,19618,128,0,19695:0:0:0:0:
448,192,19695,1,0,0:0:0:0:
64,192,19695,1,0,0:0:0:0:
192,192,19695,128,0,19773:0:0:0:0:
320,192,19773,128,0,19850:0:0:0:0:
448,192,19850,128,0,19927:0:0:0:0:
64,192,19927,128,0,20005:0:0:0:0:
448,192,20005,1,0,0:0:0:0:
192,192,20005,1,0,0:0:0:0:
320,192,20005,128,0,20082:0:0:0:0:
64,192,20082,128,0,20159:0:0:0:0:
192,192,20159,128,0,20237:0:0:0:0:
320,192,20237,128,0,20314:0:0:0:0:
64,192,20314,1,0,0:0:0:0:
448,192,20314,1,0,0:0:0:0:
192,192,20314,128,0,20391:0:0:0:0:
320,192,20391,128,0,20469:0:0:0:0:
448,192,20469,128,0,20546:0:0:0:0:
64,192,20546,128,0,20623:0:0:0:0:
192,192,20623,1,0,0:0:0:0:
320,192,20623,1,0,0:0:0:0:
448,192,20623,128,0,20701:0:0:0:0:
64,192,20701,128,0,20778:0:0:0:0:
192,192,20778,128,0,20855:0:0:0:0:
448,192,20855,128,0,20932:0:0:0:0:
320,192,20932,128,0,21010:0:0:0:0:
64,192,20932,128,0,21087:0:0:0:0:
192,192,21010,128,0,21087:0:0:0:0:
320,192,21087,128,0,21164:0:0:0:0:
448,192,21087,128,0,21164:0:0:0:0:
192,192,21164,128,0,21242:0:0:0:0:
320,192,21242,128,0,21319:0:0:0:0:
448,192,21242,128,0,21396:0:0:0:0:
64,192,21319,128,0,21396:0:0:0:0:
192,192,21396,128,0,21474:0:0:0:0:
320,192,21396,128,0,21474:0:0:0:0:
448,192,21474,128,0,21551:0:0:0:0:
192,192,21551,128,0,21628:0:0:0:0:
320,192,21551,128,0,21706:0:0:0:0:
64,192,21628,128,0,21706:0:0:0:0:
192,192,21706,128,0,21783:0:0:0:0:
448,192,21706,128,0,21783:0:0:0:0:
320,192,21783,128,0,21860:0:0:0:0:
192,192,21860,128,0,22015:0:0:0:0:
64,192,21860,128,0,21938:0:0:0:0:
448,192,21938,128,0,22015:0:0:0:0:
320,192,22015,128,0,22092:0:0:0:0:
64,192,22015,128,0,22092:0:0:0:0:
192,192,22092,128,0,22170:0:0:0:0:
448,192,22170,128,0,22402:0:0:0:0:
320,192,22247,128,0,22479:0:0:0:0:
192,192,22324,128,0,22556:0:0:0:0:
64,192,22402,128,0,22633:0:0:0:0:
448,192,22479,128,0,22711:0:0:0:0:
320,192,22556,128,0,22788:0:0:0:0:
192,192,22633,128,0,22865:0:0:0:0:
64,192,22711,128,0,22943:0:0:0:0:
448,192,22788,128,0,23020:0:0:0:0:
320,192,22865,128,0,23020:0:0:0:0:
192,192,22943,128,0,23097:0:0:0:0:
64,192,23020,128,0,23097:0:0:0:0:
448,192,23097,1,0,0:0:0:0:
320,192,23136,1,0,0:0:0:0:
192,192,23175,1,0,0:0:0:0:
64,192,23213,1,0,0:0:0:0:
448,192,23252,1,0,0:0:0:0:
320,192,23291,1,0,0:0:0:0:
192,192,23329,1,0,0:0:0:0:
64,192,23368,1,0,0:0:0:0:
448,192,23407,128,0,23484:0:0:0:0:
320,192,23407,128,0,23484:0:0:0:0:
192,192,23484,1,0,0:0:0:0:
320,192,23561,1,0,0:0:0:0:
448,192,23561,1,0,0:0:0:0:
192,192,23639,1,0,0:0:0:0:
64,192,23716,1,0,0:0:0:0:
320,192,23716,1,0,0:0:0:0:
448,192,23793,1,0,0:0:0:0:
64,192,23871,1,0,0:0:0:0:
192,192,23871,128,0,23948:0:0:0:0:
320,192,23948,1,0,0:0:0:0:
448,192,23948,1,0,0:0:0:0:
64,192,24025,1,0,0:0:0:0:
192,192,24025,128,0,24103:0:0:0:0:
448,192,24103,1,0,0:0:0:0:
64,192,24180,1,0,0:0:0:0:
320,192,24180,128,0,24257:0:0:0:0:
192,192,24257,1,0,0:0:0:0:
64,192,24335,1,0,0:0:0:0:
320,192,24335,128,0,24412:0:0:0:0:
448,192,24412,1,0,0:0:0:0:
192,192,24489,1,0,0:0:0:0:
64,192,24489,128,0,24566:0:0:0:0:
320,192,24566,1,0,0:0:0:0:
192,192,24644,1,0,0:0:0:0:
64,192,24644,1,0,0:0:0:0:
320,192,24721,1,0,0:0:0:0:
448,192,24721,1,0,0:0:0:0:
64,192,24798,1,0,0:0:0:0:
192,192,24798,128,0,24876:0:0:0:0:
448,192,24876,1,0,0:0:0:0:
64,192,24953,1,0,0:0:0:0:
320,192,24953,128,0,25030:0:0:0:0:
192,192,25030,1,0,0:0:0:0:
448,192,25108,1,0,0:0:0:0:
320,192,25108,1,0,0:0:0:0:
192,192,25185,1,0,0:0:0:0:
320,192,25262,1,0,0:0:0:0:
448,192,25262,128,0,25340:0:0:0:0:
192,192,25340,1,0,0:0:0:0:
64,192,25417,1,0,0:0:0:0:
448,192,25417,128,0,25494:0:0:0:0:
320,192,25494,1,0,0:0:0:0:
192,192,25572,1,0,0:0:0:0:
64,192,25572,128,0,25649:0:0:0:0:
320,192,25649,1,0,0:0:0:0:
448,192,25726,1,0,0:0:0:0:
64,192,25726,128,0,25804:0:0:0:0:
192,192,25804,1,0,0:0:0:0:
448,192,25881,1,0,0:0:0:0:
64,192,25881,1,0,0:0:0:0:
320,192,25881,128,0,25958:0:0:0:0:
192,192,25958,1,0,0:0:0:0:
64,192,26036,1,0,0:0:0:0:
448,192,26036,1,0,0:0:0:0:
320,192,26113,1,0,0:0:0:0:
192,192,26190,1,0,0:0:0:0:
448,192,26190,1,0,0:0:0:0:
64,192,26268,1,0,0:0:0:0:
320,192,26345,1,0,0:0:0:0:
192,192,26345,128,0,26422:0:0:0:0:
64,192,26422,1,0,0:0:0:0:
448,192,26422,1,0,0:0:0:0:
192,192,26499,1,0,0:0:0:0:
320,192,26499,128,0,26577:0:0:0:0:
448,192,26577,1,0,0:0:0:0:
64,192,26654,1,0,0:0:0:0:
320,192,26654,128,0,26731:0:0:0:0:
192,192,26731,1,0,0:0:0:0:
64,192,26809,1,0,0:0:0:0:
448,192,26809,128,0,26886:0:0:0:0:
320,192,26886,1,0,0:0:0:0:
192,192,26963,1,0,0:0:0:0:
448,192,26963,128,0,27041:0:0:0:0:
64,192,27041,1,0,0:0:0:0:
320,192,27118,1,0,0:0:0:0:
192,192,27118,128,0,27195:0:0:0:0:
448,192,27195,1,0,0:0:0:0:
320,192,27273,1,0,0:0:0:0:
64,192,27273,128,0,27350:0:0:0:0:
192,192,27350,1,0,0:0:0:0:
448,192,27350,1,0,0:0:0:0:
320,192,27427,1,0,0:0:0:0:
64,192,27427,128,0,27505:0:0:0:0:
192,192,27505,1,0,0:0:0:0:
448,192,27582,1,0,0:0:0:0:
320,192,27582,128,0,27659:0:0:0:0:
64,192,27659,1,0,0:0:0:0:
192,192,27737,1,0,0:0:0:0:
320,192,27737,128,0,27814:0:0:0:0:
448,192,27814,1,0,0:0:0:0:
64,192,27891,1,0,0:0:0:0:
192,192,27891,128,0,27969:0:0:0:0:
320,192,27969,1,0,0:0:0:0:
448,192,28046,1,0,0:0:0:0:
192,192,28046,128,0,28123:0:0:0:0:
320,192,28123,1,0,0:0:0:0:
192,192,28201,1,0,0:0:0:0:
64,192,28201,128,0,28278:0:0:0:0:
320,192,28278,1,0,0:0:0:0:
192,192,28355,1,0,0:0:0:0:
64,192,28355,1,0,0:0:0:0:
448,192,28355,128,0,28432:0:0:0:0:
320,192,28432,1,0,0:0:0:0:
64,192,28510,1,0,0:0:0:0:
192,192,28510,1,0,0:0:0:0:
320,192,28587,1,0,0:0:0:0:
448,192,28664,1,0,0:0:0:0:
192,192,28664,1,0,0:0:0:0:
320,192,28742,1,0,0:0:0:0:
64,192,28742,1,0,0:0:0:0:
448,192,28819,1,0,0:0:0:0:
192,192,28819,128,0,28896:0:0:0:0:
320,192,28896,1,0,0:0:0:0:
448,192,28974,1,0,0:0:0:0:
64,192,28974,128,0,29051:0:0:0:0:
192,192,29051,1,0,0:0:0:0:
320,192,29128,1,0,0:0:0:0:
448,192,29128,128,0,29206:0:0:0:0:
192,192,29206,1,0,0:0:0:0:
448,192,29283,1,0,0:0:0:0:
320,192,29283,128,0,29360:0:0:0:0:
64,192,29360,1,0,0:0:0:0:
320,192,29438,1,0,0:0:0:0:
192,192,29438,128,0,29515:0:0:0:0:
448,192,29515,1,0,0:0:0:0:
64,192,29592,1,0,0:0:0:0:
320,192,29592,128,0,29670:0:0:0:0:
192,192,29670,1,0,0:0:0:0:
448,192,29747,1,0,0:0:0:0:
64,192,29747,128,0,29824:0:0:0:0:
192,192,29824,1,0,0:0:0:0:
320,192,29824,1,0,0:0:0:0:
64,192,29902,1,0,0:0:0:0:
448,192,29902,128,0,29979:0:0:0:0:
192,192,29979,1,0,0:0:0:0:
448,192,30056,1,0,0:0:0:0:
320,192,30056,128,0,30133:0:0:0:0:
64,192,30133,1,0,0:0:0:0:
448,192,30211,1,0,0:0:0:0:
192,192,30211,128,0,30288:0:0:0:0:
320,192,30288,1,0,0:0:0:0:
64,192,30365,1,0,0:0:0:0:
192,192,30365,128,0,30443:0:0:0:0:
448,192,30443,1,0,0:0:0:0:
320,192,30520,1,0,0:0:0:0:
64,192,30520,128,0,30597:0:0:0:0:
192,192,30597,1,0,0:0:0:0:
448,192,30675,1,0,0:0:0:0:
64,192,30675,128,0,30752:0:0:0:0:
320,192,30752,1,0,0:0:0:0:
448,192,30829,1,0,0:0:0:0:
192,192,30829,128,0,30907:0:0:0:0:
320,192,30907,1,0,0:0:0:0:
448,192,30984,1,0,0:0:0:0:
64,192,30984,1,0,0:0:0:0:
192,192,31061,1,0,0:0:0:0:
64,192,31139,1,0,0:0:0:0:
320,192,31139,1,0,0:0:0:0:
192,192,31216,1,0,0:0:0:0:
448,192,31293,1,0,0:0:0:0:
320,192,31293,1,0,0:0:0:0:
192,192,31371,1,0,0:0:0:0:
64,192,31371,1,0,0:0:0:0:
320,192,31448,1,0,0:0:0:0:
448,192,31448,128,0,31525:0:0:0:0:
192,192,31525,1,0,0:0:0:0:
320,192,31603,1,0,0:0:0:0:
64,192,31603,128,0,31680:0:0:0:0:
448,192,31680,1,0,0:0:0:0:
320,192,31757,1,0,0:0:0:0:
192,192,31757,128,0,31835:0:0:0:0:
64,192,31835,1,0,0:0:0:0:
320,192,31912,1,0,0:0:0:0:
448,192,31912,128,0,31989:0:0:0:0:
192,192,31989,1,0,0:0:0:0:
448,192,32066,1,0,0:0:0:0:
320,192,32066,1,0,0:0:0:0:
64,192,32066,128,0,32144:0:0:0:0:
192,192,32144,5,0,0:0:0:0:
64,192,32221,5,0,0:0:0:0:
320,192,32221,1,0,0:0:0:0:
448,192,32221,128,0,32298:0:0:0:0:
192,192,32298,1,0,0:0:0:0:
448,192,32376,1,0,0:0:0:0:
64,192,32376,128,0,32453:0:0:0:0:
320,192,32453,1,0,0:0:0:0:
64,192,32530,1,0,0:0:0:0:
192,192,32530,128,0,32608:0:0:0:0:
448,192,32608,1,0,0:0:0:0:
64,192,32685,1,0,0:0:0:0:
192,192,32685,1,0,0:0:0:0:
320,192,32685,128,0,32762:0:0:0:0:
448,192,32762,1,0,0:0:0:0:
320,192,32840,128,0,32917:0:0:0:0:
192,192,32917,128,0,33304:0:0:0:0:
64,192,32917,128,0,33149:0:0:0:0:
448,192,32917,128,0,33072:0:0:0:0:
448,192,33149,1,0,0:0:0:0:
320,192,33149,1,0,0:0:0:0:
448,192,33226,1,0,0:0:0:0:
320,192,33226,1,0,0:0:0:0:
320,192,33304,128,0,34541:0:0:0:0:
448,192,33304,128,0,33381:0:0:0:0:
64,192,33381,1,0,0:0:0:0:
192,192,33458,1,0,0:0:0:0:
448,192,33536,1,0,0:0:0:0:
192,192,33613,1,0,0:0:0:0:
64,192,33613,1,0,0:0:0:0:
448,192,33690,1,0,0:0:0:0:
192,192,33768,128,0,33845:0:0:0:0:
64,192,33845,128,0,33922:0:0:0:0:
192,192,33922,1,0,0:0:0:0:
448,192,33922,1,0,0:0:0:0:
64,192,33999,128,0,34077:0:0:0:0:
192,192,34077,128,0,34154:0:0:0:0:
448,192,34154,1,0,0:0:0:0:
192,192,34231,1,0,0:0:0:0:
64,192,34231,128,0,34309:0:0:0:0:
448,192,34309,1,0,0:0:0:0:
192,192,34386,128,0,34463:0:0:0:0:
64,192,34463,1,0,0:0:0:0:
192,192,34541,128,0,35778:0:0:0:0:
448,192,34541,1,0,0:0:0:0:
64,192,34618,1,0,0:0:0:0:
320,192,34695,128,0,34773:0:0:0:0:
448,192,34773,128,0,34850:0:0:0:0:
320,192,34850,1,0,0:0:0:0:
64,192,34850,1,0,0:0:0:0:
448,192,34927,128,0,35005:0:0:0:0:
320,192,35005,128,0,35082:0:0:0:0:
64,192,35082,1,0,0:0:0:0:
320,192,35159,1,0,0:0:0:0:
448,192,35159,128,0,35237:0:0:0:0:
64,192,35237,1,0,0:0:0:0:
320,192,35314,128,0,35391:0:0:0:0:
448,192,35391,1,0,0:0:0:0:
64,192,35469,1,0,0:0:0:0:
320,192,35469,128,0,35546:0:0:0:0:
448,192,35546,1,0,0:0:0:0:
64,192,35623,128,0,35701:0:0:0:0:
320,192,35701,1,0,0:0:0:0:
64,192,35778,128,0,37015:0:0:0:0:
448,192,35778,128,0,35855:0:0:0:0:
320,192,35855,1,0,0:0:0:0:
192,192,35932,1,0,0:0:0:0:
448,192,36010,1,0,0:0:0:0:
320,192,36087,1,0,0:0:0:0:
192,192,36087,1,0,0:0:0:0:
448,192,36164,1,0,0:0:0:0:
192,192,36242,128,0,36319:0:0:0:0:
320,192,36319,128,0,36396:0:0:0:0:
448,192,36396,1,0,0:0:0:0:
192,192,36396,1,0,0:0:0:0:
320,192,36474,128,0,36551:0:0:0:0:
448,192,36551,128,0,36628:0:0:0:0:
192,192,36628,1,0,0:0:0:0:
448,192,36706,1,0,0:0:0:0:
320,192,36706,128,0,36783:0:0:0:0:
192,192,36783,1,0,0:0:0:0:
448,192,36860,128,0,36938:0:0:0:0:
320,192,36938,1,0,0:0:0:0:
448,192,37015,128,0,38252:0:0:0:0:
192,192,37015,1,0,0:0:0:0:
320,192,37092,1,0,0:0:0:0:
192,192,37170,128,0,37247:0:0:0:0:
64,192,37247,128,0,37324:0:0:0:0:
192,192,37324,1,0,0:0:0:0:
320,192,37324,1,0,0:0:0:0:
64,192,37402,128,0,37479:0:0:0:0:
192,192,37479,128,0,37556:0:0:0:0:
320,192,37556,1,0,0:0:0:0:
64,192,37633,1,0,0:0:0:0:
192,192,37633,128,0,37711:0:0:0:0:
320,192,37711,1,0,0:0:0:0:
64,192,37788,128,0,37865:0:0:0:0:
192,192,37865,1,0,0:0:0:0:
64,192,37943,1,0,0:0:0:0:
320,192,37943,128,0,38020:0:0:0:0:
192,192,38020,1,0,0:0:0:0:
320,192,38097,128,0,38175:0:0:0:0:
192,192,38175,1,0,0:0:0:0:
320,192,38252,128,0,39489:0:0:0:0:
64,192,38252,128,0,38329:0:0:0:0:
192,192,38329,1,0,0:0:0:0:
64,192,38407,1,0,0:0:0:0:
448,192,38484,1,0,0:0:0:0:
192,192,38561,1,0,0:0:0:0:
64,192,38561,1,0,0:0:0:0:
448,192,38639,1,0,0:0:0:0:
192,192,38716,128,0,38793:0:0:0:0:
64,192,38793,128,0,38871:0:0:0:0:
192,192,38871,1,0,0:0:0:0:
448,192,38871,1,0,0:0:0:0:
64,192,38948,128,0,39025:0:0:0:0:
448,192,39025,128,0,39103:0:0:0:0:
192,192,39103,1,0,0:0:0:0:
64,192,39180,1,0,0:0:0:0:
448,192,39180,128,0,39257:0:0:0:0:
192,192,39257,1,0,0:0:0:0:
64,192,39335,128,0,39412:0:0:0:0:
192,192,39412,1,0,0:0:0:0:
64,192,39489,1,0,0:0:0:0:
448,192,39489,128,0,39566:0:0:0:0:
192,192,39566,1,0,0:0:0:0:
320,192,39644,128,0,39721:0:0:0:0:
64,192,39721,1,0,0:0:0:0:
448,192,39798,1,0,0:0:0:0:
192,192,39798,128,0,39876:0:0:0:0:
320,192,39876,1,0,0:0:0:0:
64,192,39953,128,0,40030:0:0:0:0:
448,192,40030,1,0,0:0:0:0:
320,192,40108,128,0,40649:0:0:0:0:
192,192,40108,1,0,0:0:0:0:
64,192,40108,128,0,40185:0:0:0:0:
448,192,40185,1,0,0:0:0:0:
192,192,40262,128,0,40340:0:0:0:0:
64,192,40340,1,0,0:0:0:0:
192,192,40417,1,0,0:0:0:0:
448,192,40417,128,0,40494:0:0:0:0:
64,192,40494,128,0,40572:0:0:0:0:
192,192,40572,1,0,0:0:0:0:
448,192,40649,128,0,40726:0:0:0:0:
320,192,40726,128,0,41963:0:0:0:0:
192,192,40726,128,0,40804:0:0:0:0:
64,192,40804,1,0,0:0:0:0:
192,192,40881,128,0,40958:0:0:0:0:
448,192,40958,1,0,0:0:0:0:
192,192,41036,1,0,0:0:0:0:
64,192,41036,128,0,41113:0:0:0:0:
448,192,41113,1,0,0:0:0:0:
192,192,41190,128,0,41268:0:0:0:0:
64,192,41268,1,0,0:0:0:0:
192,192,41345,1,0,0:0:0:0:
448,192,41345,128,0,41422:0:0:0:0:
64,192,41422,1,0,0:0:0:0:
448,192,41499,128,0,41577:0:0:0:0:
192,192,41577,128,0,41654:0:0:0:0:
64,192,41654,1,0,0:0:0:0:
448,192,41654,1,0,0:0:0:0:
192,192,41731,128,0,41809:0:0:0:0:
448,192,41809,128,0,41886:0:0:0:0:
64,192,41886,1,0,0:0:0:0:
448,192,41963,128,0,42891:0:0:0:0:
192,192,41963,1,0,0:0:0:0:
64,192,42041,1,0,0:0:0:0:
192,192,42118,128,0,42195:0:0:0:0:
320,192,42195,128,0,42273:0:0:0:0:
192,192,42273,1,0,0:0:0:0:
64,192,42273,128,0,42350:0:0:0:0:
320,192,42350,128,0,42427:0:0:0:0:
64,192,42427,1,0,0:0:0:0:
192,192,42427,128,0,42505:0:0:0:0:
320,192,42505,128,0,42582:0:0:0:0:
192,192,42582,1,0,0:0:0:0:
64,192,42582,128,0,42659:0:0:0:0:
320,192,42659,128,0,42737:0:0:0:0:
64,192,42737,1,0,0:0:0:0:
192,192,42737,128,0,42814:0:0:0:0:
320,192,42814,128,0,42891:0:0:0:0:
64,192,42891,1,0,0:0:0:0:
192,192,42891,1,0,0:0:0:0:
320,192,42943,1,0,0:0:0:0:
448,192,42943,1,0,0:0:0:0:
192,192,42994,1,0,0:0:0:0:
64,192,42994,1,0,0:0:0:0:
320,192,43046,1,0,0:0:0:0:
448,192,43046,1,0,0:0:0:0:
192,192,43097,1,0,0:0:0:0:
64,192,43097,1,0,0:0:0:0:
320,192,43149,1,0,0:0:0:0:
448,192,43149,1,0,0:0:0:0:
64,192,43201,128,0,44128:0:0:0:0:
192,192,43201,128,0,43974:0:0:0:0:
320,192,43974,128,0,44206:0:0:0:0:
192,192,44051,128,0,44128:0:0:0:0:
448,192,44128,128,0,44360:0:0:0:0:
192,192,44206,128,0,44360:0:0:0:0:
320,192,44283,128,0,44360:0:0:0:0:
64,192,44360,128,0,44438:0:0:0:0:
192,192,44438,128,0,44670:0:0:0:0:
320,192,44438,128,0,44592:0:0:0:0:
448,192,44438,128,0,44592:0:0:0:0:
64,192,44515,128,0,44592:0:0:0:0:
320,192,44670,128,0,44824:0:0:0:0:
64,192,44670,128,0,44824:0:0:0:0:
448,192,44670,128,0,44902:0:0:0:0:
192,192,44747,128,0,44824:0:0:0:0:
320,192,44902,128,0,44979:0:0:0:0:
192,192,44902,128,0,45211:0:0:0:0:
64,192,44902,128,0,45249:0:0:0:0:
448,192,44979,128,0,45133:0:0:0:0:
320,192,45056,128,0,45172:0:0:0:0:
448,192,45211,128,0,45249:0:0:0:0:
320,192,45249,128,0,45288:0:0:0:0:
192,192,45288,128,0,45327:0:0:0:0:
64,192,45327,128,0,45365:0:0:0:0:
320,192,45365,128,0,45443:0:0:0:0:
448,192,45365,1,0,0:0:0:0:
192,192,45443,128,0,45520:0:0:0:0:
64,192,45443,1,0,0:0:0:0:
320,192,45520,128,0,45675:0:0:0:0:
448,192,45520,1,0,0:0:0:0:
192,192,45675,128,0,46139:0:0:0:0:
64,192,45675,128,0,46139:0:0:0:0:
448,192,45675,128,0,46139:0:0:0:0:
320,192,46139,128,0,46216:0:0:0:0:
448,192,46216,128,0,46293:0:0:0:0:
192,192,46293,128,0,46448:0:0:0:0:
320,192,46293,128,0,46448:0:0:0:0:
64,192,46293,128,0,46525:0:0:0:0:
448,192,46371,128,0,46448:0:0:0:0:
320,192,46525,128,0,46680:0:0:0:0:
448,192,46525,128,0,46680:0:0:0:0:
192,192,46525,128,0,46757:0:0:0:0:
64,192,46603,128,0,46680:0:0:0:0:
64,192,46757,128,0,46989:0:0:0:0:
448,192,46757,128,0,46912:0:0:0:0:
320,192,46757,128,0,46835:0:0:0:0:
192,192,46835,128,0,46989:0:0:0:0:
320,192,46912,128,0,46989:0:0:0:0:
448,192,46989,128,0,47066:0:0:0:0:
192,192,47066,128,0,47144:0:0:0:0:
320,192,47066,128,0,47144:0:0:0:0:
64,192,47066,128,0,47298:0:0:0:0:
448,192,47144,128,0,47221:0:0:0:0:
320,192,47221,128,0,47376:0:0:0:0:
192,192,47221,128,0,47298:0:0:0:0:
448,192,47298,128,0,47376:0:0:0:0:
64,192,47376,128,0,47453:0:0:0:0:
192,192,47376,128,0,47453:0:0:0:0:
448,192,47453,128,0,47530:0:0:0:0:
320,192,47453,128,0,47530:0:0:0:0:
64,192,47530,128,0,47762:0:0:0:0:
192,192,47569,128,0,47762:0:0:0:0:
320,192,47608,128,0,47762:0:0:0:0:
448,192,47646,128,0,47762:0:0:0:0:
64,192,47840,128,0,47917:0:0:0:0:
448,192,47840,128,0,47917:0:0:0:0:
320,192,47917,128,0,47994:0:0:0:0:
192,192,47917,128,0,47994:0:0:0:0:
64,192,47994,128,0,48072:0:0:0:0:
448,192,47994,128,0,48072:0:0:0:0:
320,192,48149,128,0,48226:0:0:0:0:
448,192,48149,128,0,48304:0:0:0:0:
64,192,48149,128,0,48690:0:0:0:0:
192,192,48226,128,0,48381:0:0:0:0:
320,192,48304,128,0,48536:0:0:0:0:
448,192,48381,128,0,48458:0:0:0:0:
192,192,48458,128,0,48613:0:0:0:0:
448,192,48536,128,0,48690:0:0:0:0:
320,192,48613,128,0,48690:0:0:0:0:
192,192,48690,128,0,48768:0:0:0:0:
320,192,48768,128,0,48922:0:0:0:0:
448,192,48768,128,0,48922:0:0:0:0:
64,192,48768,128,0,48845:0:0:0:0:
192,192,48845,128,0,48922:0:0:0:0:
64,192,48922,128,0,48999:0:0:0:0:
320,192,48999,128,0,49154:0:0:0:0:
192,192,48999,128,0,49154:0:0:0:0:
448,192,48999,128,0,49154:0:0:0:0:
64,192,49077,128,0,49154:0:0:0:0:
448,192,49231,128,0,49309:0:0:0:0:
320,192,49231,128,0,49309:0:0:0:0:
64,192,49231,128,0,49309:0:0:0:0:
192,192,49386,128,0,49541:0:0:0:0:
320,192,49386,128,0,49463:0:0:0:0:
448,192,49386,128,0,49927:0:0:0:0:
64,192,49463,128,0,49618:0:0:0:0:
320,192,49541,128,0,49695:0:0:0:0:
192,192,49618,128,0,49773:0:0:0:0:
64,192,49695,128,0,49927:0:0:0:0:
320,192,49773,128,0,49850:0:0:0:0:
192,192,49850,128,0,49927:0:0:0:0:
320,192,49927,128,0,50005:0:0:0:0:
64,192,50005,128,0,50082:0:0:0:0:
192,192,50005,128,0,50082:0:0:0:0:
448,192,50005,128,0,50159:0:0:0:0:
320,192,50082,128,0,50159:0:0:0:0:
192,192,50159,128,0,50237:0:0:0:0:
64,192,50159,128,0,50237:0:0:0:0:
448,192,50237,128,0,50314:0:0:0:0:
320,192,50314,128,0,50391:0:0:0:0:
192,192,50314,128,0,50391:0:0:0:0:
64,192,50314,128,0,50391:0:0:0:0:
64,192,50469,128,0,50546:0:0:0:0:
192,192,50469,128,0,50546:0:0:0:0:
448,192,50469,128,0,50546:0:0:0:0:
192,192,50623,128,0,50778:0:0:0:0:
320,192,50623,128,0,50778:0:0:0:0:
64,192,50623,128,0,51010:0:0:0:0:
192,192,50855,128,0,51010:0:0:0:0:
448,192,50855,128,0,51010:0:0:0:0:
320,192,50855,128,0,51242:0:0:0:0:
64,192,51087,128,0,51242:0:0:0:0:
192,192,51087,128,0,51242:0:0:0:0:
448,192,51087,128,0,51474:0:0:0:0:
320,192,51319,128,0,51474:0:0:0:0:
192,192,51319,128,0,51474:0:0:0:0:
64,192,51319,128,0,51706:0:0:0:0:
192,192,51551,128,0,51706:0:0:0:0:
448,192,51551,128,0,51706:0:0:0:0:
320,192,51551,128,0,51783:0:0:0:0:
64,192,51783,128,0,51938:0:0:0:0:
448,192,51783,128,0,51860:0:0:0:0:
192,192,51783,128,0,51938:0:0:0:0:
320,192,51860,128,0,51938:0:0:0:0:
448,192,51938,128,0,52015:0:0:0:0:
320,192,52015,1,0,0:0:0:0:
64,192,52015,128,0,52092:0:0:0:0:
192,192,52092,128,0,52170:0:0:0:0:
448,192,52170,1,0,0:0:0:0:
320,192,52170,128,0,52247:0:0:0:0:
192,192,52247,1,0,0:0:0:0:
64,192,52247,128,0,52324:0:0:0:0:
320,192,52324,1,0,0:0:0:0:
448,192,52324,128,0,52402:0:0:0:0:
64,192,52402,1,0,0:0:0:0:
192,192,52402,128,0,52479:0:0:0:0:
448,192,52479,1,0,0:0:0:0:
320,192,52479,128,0,52556:0:0:0:0:
192,192,52556,1,0,0:0:0:0:
64,192,52556,128,0,52633:0:0:0:0:
320,192,52633,1,0,0:0:0:0:
448,192,52633,128,0,52711:0:0:0:0:
64,192,52711,1,0,0:0:0:0:
192,192,52711,128,0,52788:0:0:0:0:
448,192,52788,1,0,0:0:0:0:
320,192,52788,128,0,52865:0:0:0:0:
192,192,52865,1,0,0:0:0:0:
64,192,52865,128,0,52943:0:0:0:0:
320,192,52943,1,0,0:0:0:0:
448,192,52943,128,0,53020:0:0:0:0:
192,192,53020,1,0,0:0:0:0:
64,192,53020,128,0,53097:0:0:0:0:
192,192,53097,128,0,53407:0:0:0:0:
320,192,53097,128,0,53329:0:0:0:0:
448,192,53097,128,0,53329:0:0:0:0:
320,192,53407,128,0,53484:0:0:0:0:
448,192,53407,128,0,53484:0:0:0:0:
192,192,53484,128,0,53561:0:0:0:0:
64,192,53484,128,0,53561:0:0:0:0:
320,192,53561,128,0,53639:0:0:0:0:
448,192,53561,128,0,53639:0:0:0:0:
192,192,53639,128,0,53716:0:0:0:0:
64,192,53639,128,0,53716:0:0:0:0:
320,192,53716,128,0,53793:0:0:0:0:
448,192,53716,128,0,53793:0:0:0:0:
192,192,53793,128,0,53871:0:0:0:0:
64,192,53793,128,0,53871:0:0:0:0:
320,192,53871,128,0,54025:0:0:0:0:
448,192,53871,128,0,53948:0:0:0:0:
192,192,53948,128,0,54103:0:0:0:0:
64,192,53948,128,0,54180:0:0:0:0:
448,192,54025,128,0,54257:0:0:0:0:
320,192,54103,128,0,54257:0:0:0:0:
192,192,54180,128,0,54257:0:0:0:0:
64,192,54257,128,0,54335:0:0:0:0:
192,192,54335,128,0,54489:0:0:0:0:
320,192,54335,128,0,54412:0:0:0:0:
448,192,54335,128,0,54798:0:0:0:0:
64,192,54412,128,0,54566:0:0:0:0:
320,192,54489,128,0,54721:0:0:0:0:
192,192,54566,128,0,54644:0:0:0:0:
64,192,54644,128,0,54876:0:0:0:0:
192,192,54721,128,0,54876:0:0:0:0:
320,192,54798,128,0,54876:0:0:0:0:
448,192,54876,128,0,54953:0:0:0:0:
64,192,54953,128,0,55456:0:0:0:0:
192,192,54953,128,0,55030:0:0:0:0:
320,192,54953,128,0,55108:0:0:0:0:
448,192,55030,128,0,55185:0:0:0:0:
192,192,55108,128,0,55262:0:0:0:0:
320,192,55185,128,0,55340:0:0:0:0:
448,192,55262,128,0,55340:0:0:0:0:
192,192,55340,128,0,55417:0:0:0:0:
448,192,55417,128,0,55494:0:0:0:0:
320,192,55456,128,0,55494:0:0:0:0:
192,192,55494,128,0,55804:0:0:0:0:
64,192,55533,128,0,55804:0:0:0:0:
320,192,55572,128,0,56113:0:0:0:0:
448,192,55572,128,0,55804:0:0:0:0:
448,192,55881,128,0,56190:0:0:0:0:
192,192,55881,128,0,56036:0:0:0:0:
64,192,56036,128,0,56345:0:0:0:0:
192,192,56113,128,0,56268:0:0:0:0:
320,192,56190,128,0,56268:0:0:0:0:
448,192,56268,128,0,56499:0:0:0:0:
320,192,56345,128,0,56809:0:0:0:0:
192,192,56345,128,0,56422:0:0:0:0:
64,192,56422,128,0,56654:0:0:0:0:
192,192,56499,128,0,56577:0:0:0:0:
448,192,56577,128,0,56731:0:0:0:0:
192,192,56654,128,0,56731:0:0:0:0:
64,192,56731,128,0,56886:0:0:0:0:
448,192,56809,128,0,57195:0:0:0:0:
192,192,56809,128,0,56963:0:0:0:0:
320,192,56886,128,0,57041:0:0:0:0:
64,192,56963,128,0,57118:0:0:0:0:
192,192,57041,128,0,57118:0:0:0:0:
320,192,57118,128,0,57195:0:0:0:0:
64,192,57195,128,0,57273:0:0:0:0:
192,192,57195,128,0,57273:0:0:0:0:
320,192,57273,128,0,57350:0:0:0:0:
448,192,57273,128,0,57350:0:0:0:0:
64,192,57350,128,0,57427:0:0:0:0:
192,192,57350,128,0,57427:0:0:0:0:
320,192,57427,128,0,57814:0:0:0:0:
448,192,57427,128,0,57582:0:0:0:0:
192,192,57505,128,0,57659:0:0:0:0:
64,192,57582,128,0,57659:0:0:0:0:
448,192,57659,128,0,57737:0:0:0:0:
64,192,57737,128,0,57814:0:0:0:0:
192,192,57737,128,0,57969:0:0:0:0:
448,192,57814,128,0,57891:0:0:0:0:
320,192,57891,128,0,57969:0:0:0:0:
64,192,57969,128,0,58046:0:0:0:0:
320,192,58046,128,0,58123:0:0:0:0:
448,192,58046,128,0,58123:0:0:0:0:
192,192,58046,128,0,59206:0:0:0:0:
320,192,58201,128,0,58278:0:0:0:0:
64,192,58201,128,0,58278:0:0:0:0:
448,192,58201,128,0,58432:0:0:0:0:
320,192,58355,128,0,58432:0:0:0:0:
64,192,58355,128,0,58432:0:0:0:0:
320,192,58510,128,0,58587:0:0:0:0:
448,192,58510,128,0,58587:0:0:0:0:
64,192,58510,128,0,58742:0:0:0:0:
320,192,58664,128,0,58742:0:0:0:0:
448,192,58664,128,0,58742:0:0:0:0:
64,192,58819,128,0,58896:0:0:0:0:
448,192,58819,128,0,58896:0:0:0:0:
320,192,58819,128,0,59051:0:0:0:0:
448,192,58974,128,0,59051:0:0:0:0:
64,192,58974,128,0,59051:0:0:0:0:
64,192,59128,128,0,59206:0:0:0:0:
320,192,59128,128,0,59206:0:0:0:0:
448,192,59128,128,0,59360:0:0:0:0:
320,192,59283,128,0,60443:0:0:0:0:
192,192,59283,128,0,59360:0:0:0:0:
64,192,59283,128,0,59360:0:0:0:0:
64,192,59438,128,0,59670:0:0:0:0:
192,192,59438,128,0,59515:0:0:0:0:
448,192,59438,128,0,59515:0:0:0:0:
448,192,59592,128,0,59670:0:0:0:0:
192,192,59592,128,0,59670:0:0:0:0:
192,192,59747,128,0,59824:0:0:0:0:
64,192,59747,128,0,59824:0:0:0:0:
448,192,59747,128,0,59979:0:0:0:0:
192,192,59902,128,0,59979:0:0:0:0:
64,192,59902,128,0,59979:0:0:0:0:
192,192,60056,128,0,60288:0:0:0:0:
448,192,60056,128,0,60133:0:0:0:0:
64,192,60056,128,0,60133:0:0:0:0:
64,192,60211,128,0,60288:0:0:0:0:
448,192,60211,128,0,60288:0:0:0:0:
64,192,60365,128,0,60443:0:0:0:0:
192,192,60365,128,0,60443:0:0:0:0:
448,192,60365,128,0,60443:0:0:0:0:
64,192,60520,128,0,60597:0:0:0:0:
448,192,60520,1,0,0:0:0:0:
320,192,60520,128,0,60829:0:0:0:0:
192,192,60597,128,0,60675:0:0:0:0:
448,192,60675,128,0,60752:0:0:0:0:
192,192,60752,128,0,60829:0:0:0:0:
64,192,60829,128,0,61061:0:0:0:0:
192,192,60907,128,0,61061:0:0:0:0:
320,192,60984,128,0,61139:0:0:0:0:
448,192,61061,128,0,61139:0:0:0:0:
192,192,61139,1,0,0:0:0:0:
64,192,61139,1,0,0:0:0:0:
320,192,61216,1,0,0:0:0:0:
448,192,61216,1,0,0:0:0:0:
192,192,61293,1,0,0:0:0:0:
64,192,61293,1,0,0:0:0:0:
320,192,61371,1,0,0:0:0:0:
448,192,61371,1,0,0:0:0:0:
192,192,61448,1,0,0:0:0:0:
64,192,61448,1,0,0:0:0:0:
320,192,61525,1,0,0:0:0:0:
448,192,61525,1,0,0:0:0:0:
192,192,61603,1,0,0:0:0:0:
64,192,61603,1,0,0:0:0:0:
320,192,61680,1,0,0:0:0:0:
448,192,61757,128,0,61912:0:0:0:0:
192,192,61757,1,0,0:0:0:0:
64,192,61757,1,0,0:0:0:0:
320,192,61835,128,0,61989:0:0:0:0:
192,192,61912,128,0,62066:0:0:0:0:
64,192,61989,128,0,62144:0:0:0:0:
448,192,61989,128,0,62144:0:0:0:0:
320,192,62066,128,0,62221:0:0:0:0:
192,192,62144,128,0,62298:0:0:0:0:
64,192,62221,128,0,62376:0:0:0:0:
448,192,62221,128,0,62376:0:0:0:0:
320,192,62298,128,0,62453:0:0:0:0:
192,192,62376,128,0,62530:0:0:0:0:
64,192,62453,128,0,62608:0:0:0:0:
448,192,62453,128,0,62840:0:0:0:0:
320,192,62530,128,0,62762:0:0:0:0:
192,192,62608,128,0,62685:0:0:0:0:
64,192,62685,128,0,62917:0:0:0:0:
192,192,62762,128,0,62917:0:0:0:0:
320,192,62840,128,0,62994:0:0:0:0:
448,192,62917,128,0,62994:0:0:0:0:
64,192,62994,128,0,63072:0:0:0:0:
192,192,62994,1,0,0:0:0:0:
320,192,63072,1,0,0:0:0:0:
448,192,63149,1,0,0:0:0:0:
192,192,63149,1,0,0:0:0:0:
320,192,63226,1,0,0:0:0:0:
192,192,63304,1,0,0:0:0:0:
64,192,63304,1,0,0:0:0:0:
320,192,63381,1,0,0:0:0:0:
192,192,63458,1,0,0:0:0:0:
64,192,63458,128,0,63536:0:0:0:0:
448,192,63536,1,0,0:0:0:0:
320,192,63613,1,0,0:0:0:0:
192,192,63613,128,0,63690:0:0:0:0:
64,192,63690,1,0,0:0:0:0:
192,192,63768,1,0,0:0:0:0:
320,192,63768,128,0,63845:0:0:0:0:
448,192,63845,1,0,0:0:0:0:
320,192,63922,1,0,0:0:0:0:
64,192,63922,128,0,63999:0:0:0:0:
192,192,63999,1,0,0:0:0:0:
64,192,64077,1,0,0:0:0:0:
448,192,64077,128,0,64154:0:0:0:0:
320,192,64154,1,0,0:0:0:0:
448,192,64231,1,0,0:0:0:0:
64,192,64231,128,0,64309:0:0:0:0:
192,192,64231,128,0,64309:0:0:0:0:
320,192,64309,1,0,0:0:0:0:
192,192,64386,128,0,64463:0:0:0:0:
448,192,64463,1,0,0:0:0:0:
320,192,64541,1,0,0:0:0:0:
192,192,64541,1,0,0:0:0:0:
64,192,64541,128,0,64618:0:0:0:0:
448,192,64618,1,0,0:0:0:0:
320,192,64695,128,0,64773:0:0:0:0:
192,192,64773,1,0,0:0:0:0:
320,192,64850,1,0,0:0:0:0:
64,192,64850,1,0,0:0:0:0:
448,192,64850,128,0,64927:0:0:0:0:
192,192,64927,1,0,0:0:0:0:
448,192,65005,128,0,65082:0:0:0:0:
320,192,65082,1,0,0:0:0:0:
192,192,65159,1,0,0:0:0:0:
448,192,65159,1,0,0:0:0:0:
64,192,65159,128,0,65237:0:0:0:0:
320,192,65237,1,0,0:0:0:0:
192,192,65314,128,0,65391:0:0:0:0:
64,192,65391,1,0,0:0:0:0:
192,192,65469,1,0,0:0:0:0:
448,192,65469,128,0,65546:0:0:0:0:
320,192,65469,128,0,65546:0:0:0:0:
64,192,65546,1,0,0:0:0:0:
192,192,65623,1,0,0:0:0:0:
320,192,65623,1,0,0:0:0:0:
448,192,65701,1,0,0:0:0:0:
192,192,65778,1,0,0:0:0:0:
64,192,65778,128,0,65855:0:0:0:0:
320,192,65855,128,0,65932:0:0:0:0:
448,192,65932,1,0,0:0:0:0:
192,192,65932,128,0,66010:0:0:0:0:
320,192,66010,128,0,66087:0:0:0:0:
192,192,66087,1,0,0:0:0:0:
448,192,66087,128,0,66164:0:0:0:0:
64,192,66164,1,0,0:0:0:0:
448,192,66242,1,0,0:0:0:0:
320,192,66242,128,0,66319:0:0:0:0:
192,192,66319,1,0,0:0:0:0:
448,192,66396,1,0,0:0:0:0:
64,192,66396,128,0,66474:0:0:0:0:
320,192,66474,1,0,0:0:0:0:
192,192,66551,1,0,0:0:0:0:
64,192,66551,128,0,66628:0:0:0:0:
320,192,66628,1,0,0:0:0:0:
448,192,66706,128,0,66783:0:0:0:0:
192,192,66706,1,0,0:0:0:0:
64,192,66783,1,0,0:0:0:0:
192,192,66860,1,0,0:0:0:0:
320,192,66860,1,0,0:0:0:0:
448,192,66938,1,0,0:0:0:0:
64,192,67015,1,0,0:0:0:0:
320,192,67015,128,0,67092:0:0:0:0:
448,192,67092,1,0,0:0:0:0:
192,192,67092,128,0,67170:0:0:0:0:
64,192,67170,1,0,0:0:0:0:
320,192,67170,128,0,67247:0:0:0:0:
192,192,67247,128,0,67324:0:0:0:0:
320,192,67324,128,0,67402:0:0:0:0:
448,192,67324,1,0,0:0:0:0:
192,192,67402,1,0,0:0:0:0:
64,192,67479,1,0,0:0:0:0:
320,192,67479,128,0,67556:0:0:0:0:
448,192,67556,1,0,0:0:0:0:
64,192,67633,1,0,0:0:0:0:
192,192,67633,128,0,67711:0:0:0:0:
448,192,67711,1,0,0:0:0:0:
320,192,67788,1,0,0:0:0:0:
64,192,67788,128,0,67865:0:0:0:0:
192,192,67865,1,0,0:0:0:0:
64,192,67943,1,0,0:0:0:0:
320,192,67943,128,0,68020:0:0:0:0:
448,192,67943,128,0,68020:0:0:0:0:
192,192,68020,1,0,0:0:0:0:
448,192,68097,1,0,0:0:0:0:
320,192,68097,128,0,68175:0:0:0:0:
192,192,68175,1,0,0:0:0:0:
448,192,68252,1,0,0:0:0:0:
64,192,68252,128,0,68329:0:0:0:0:
192,192,68329,1,0,0:0:0:0:
320,192,68329,128,0,68407:0:0:0:0:
64,192,68407,1,0,0:0:0:0:
448,192,68407,128,0,68484:0:0:0:0:
192,192,68484,128,0,68561:0:0:0:0:
320,192,68561,1,0,0:0:0:0:
64,192,68561,128,0,68639:0:0:0:0:
448,192,68639,1,0,0:0:0:0:
64,192,68716,1,0,0:0:0:0:
320,192,68716,128,0,68793:0:0:0:0:
448,192,68793,1,0,0:0:0:0:
192,192,68793,128,0,68871:0:0:0:0:
320,192,68871,1,0,0:0:0:0:
64,192,68871,128,0,68948:0:0:0:0:
448,192,68948,1,0,0:0:0:0:
192,192,69025,1,0,0:0:0:0:
320,192,69025,128,0,69103:0:0:0:0:
64,192,69103,1,0,0:0:0:0:
192,192,69180,128,0,69257:0:0:0:0:
320,192,69180,128,0,69257:0:0:0:0:
448,192,69180,1,0,0:0:0:0:
64,192,69257,1,0,0:0:0:0:
192,192,69335,1,0,0:0:0:0:
448,192,69335,1,0,0:0:0:0:
320,192,69412,1,0,0:0:0:0:
64,192,69489,1,0,0:0:0:0:
448,192,69489,128,0,69566:0:0:0:0:
320,192,69566,128,0,69644:0:0:0:0:
64,192,69644,1,0,0:0:0:0:
192,192,69644,128,0,69721:0:0:0:0:
448,192,69721,1,0,0:0:0:0:
64,192,69798,1,0,0:0:0:0:
320,192,69798,128,0,69876:0:0:0:0:
192,192,69876,128,0,69953:0:0:0:0:
320,192,69953,1,0,0:0:0:0:
448,192,69953,128,0,70030:0:0:0:0:
64,192,70030,1,0,0:0:0:0:
320,192,70108,1,0,0:0:0:0:
192,192,70108,128,0,70185:0:0:0:0:
448,192,70185,1,0,0:0:0:0:
192,192,70262,1,0,0:0:0:0:
64,192,70262,128,0,70340:0:0:0:0:
320,192,70340,1,0,0:0:0:0:
448,192,70417,1,0,0:0:0:0:
192,192,70417,128,0,70494:0:0:0:0:
64,192,70417,128,0,70494:0:0:0:0:
320,192,70494,1,0,0:0:0:0:
64,192,70572,1,0,0:0:0:0:
192,192,70572,128,0,70649:0:0:0:0:
448,192,70649,128,0,70726:0:0:0:0:
320,192,70726,1,0,0:0:0:0:
64,192,70726,128,0,70804:0:0:0:0:
192,192,70804,128,0,70881:0:0:0:0:
448,192,70881,1,0,0:0:0:0:
320,192,70881,128,0,70958:0:0:0:0:
64,192,70958,128,0,71036:0:0:0:0:
192,192,71036,1,0,0:0:0:0:
448,192,71036,128,0,71113:0:0:0:0:
320,192,71113,1,0,0:0:0:0:
192,192,71190,1,0,0:0:0:0:
64,192,71190,128,0,71268:0:0:0:0:
320,192,71268,1,0,0:0:0:0:
448,192,71345,1,0,0:0:0:0:
192,192,71345,128,0,71422:0:0:0:0:
320,192,71422,1,0,0:0:0:0:
448,192,71499,1,0,0:0:0:0:
64,192,71499,128,0,71577:0:0:0:0:
192,192,71577,1,0,0:0:0:0:
448,192,71654,128,0,71809:0:0:0:0:
320,192,71654,1,0,0:0:0:0:
192,192,71731,128,0,71886:0:0:0:0:
320,192,71809,128,0,71963:0:0:0:0:
64,192,71886,128,0,72041:0:0:0:0:
448,192,71886,128,0,72041:0:0:0:0:
192,192,71963,128,0,72118:0:0:0:0:
320,192,72041,128,0,72195:0:0:0:0:
64,192,72118,128,0,72273:0:0:0:0:
448,192,72118,128,0,72273:0:0:0:0:
192,192,72195,128,0,72505:0:0:0:0:
320,192,72273,128,0,72505:0:0:0:0:
448,192,72350,128,0,72505:0:0:0:0:
64,192,72350,128,0,72505:0:0:0:0:
448,192,72582,1,0,0:0:0:0:
320,192,72582,128,0,72659:0:0:0:0:
64,192,72582,1,0,0:0:0:0:
192,192,72582,128,0,72659:0:0:0:0:
192,192,72737,128,0,72891:0:0:0:0:
320,192,72737,128,0,72891:0:0:0:0:
448,192,72891,1,0,0:0:0:0:
64,192,72891,128,0,72969:0:0:0:0:
320,192,72969,1,0,0:0:0:0:
192,192,73046,1,0,0:0:0:0:
448,192,73046,1,0,0:0:0:0:
64,192,73123,1,0,0:0:0:0:
320,192,73201,1,0,0:0:0:0:
448,192,73201,1,0,0:0:0:0:
192,192,73278,1,0,0:0:0:0:
320,192,73355,1,0,0:0:0:0:
64,192,73355,128,0,73432:0:0:0:0:
192,192,73432,1,0,0:0:0:0:
448,192,73432,128,0,73510:0:0:0:0:
320,192,73510,1,0,0:0:0:0:
64,192,73510,128,0,73587:0:0:0:0:
192,192,73587,1,0,0:0:0:0:
64,192,73664,1,0,0:0:0:0:
448,192,73664,128,0,73742:0:0:0:0:
320,192,73742,1,0,0:0:0:0:
192,192,73819,1,0,0:0:0:0:
448,192,73819,1,0,0:0:0:0:
64,192,73896,1,0,0:0:0:0:
448,192,73974,1,0,0:0:0:0:
192,192,73974,128,0,74051:0:0:0:0:
320,192,74051,128,0,74128:0:0:0:0:
64,192,74128,1,0,0:0:0:0:
448,192,74128,1,0,0:0:0:0:
192,192,74128,128,0,74206:0:0:0:0:
320,192,74206,1,0,0:0:0:0:
448,192,74283,1,0,0:0:0:0:
64,192,74283,128,0,74360:0:0:0:0:
192,192,74360,1,0,0:0:0:0:
320,192,74438,1,0,0:0:0:0:
448,192,74438,128,0,74515:0:0:0:0:
192,192,74515,1,0,0:0:0:0:
64,192,74592,1,0,0:0:0:0:
320,192,74592,128,0,74670:0:0:0:0:
448,192,74670,1,0,0:0:0:0:
320,192,74747,1,0,0:0:0:0:
192,192,74747,128,0,74824:0:0:0:0:
64,192,74824,1,0,0:0:0:0:
192,192,74902,1,0,0:0:0:0:
448,192,74902,128,0,74979:0:0:0:0:
320,192,74979,1,0,0:0:0:0:
448,192,75056,1,0,0:0:0:0:
64,192,75056,128,0,75133:0:0:0:0:
192,192,75133,1,0,0:0:0:0:
448,192,75211,1,0,0:0:0:0:
320,192,75211,128,0,75288:0:0:0:0:
192,192,75288,1,0,0:0:0:0:
448,192,75365,1,0,0:0:0:0:
320,192,75365,1,0,0:0:0:0:
64,192,75365,128,0,75443:0:0:0:0:
192,192,75443,1,0,0:0:0:0:
320,192,75520,1,0,0:0:0:0:
448,192,75520,1,0,0:0:0:0:
64,192,75597,1,0,0:0:0:0:
448,192,75675,1,0,0:0:0:0:
192,192,75675,128,0,75752:0:0:0:0:
320,192,75752,128,0,75829:0:0:0:0:
448,192,75829,1,0,0:0:0:0:
192,192,75829,128,0,75907:0:0:0:0:
320,192,75907,128,0,75984:0:0:0:0:
64,192,75984,1,0,0:0:0:0:
192,192,75984,128,0,76061:0:0:0:0:
320,192,76061,128,0,76139:0:0:0:0:
192,192,76139,1,0,0:0:0:0:
64,192,76139,128,0,76216:0:0:0:0:
448,192,76216,1,0,0:0:0:0:
320,192,76293,1,0,0:0:0:0:
192,192,76293,128,0,76371:0:0:0:0:
64,192,76371,1,0,0:0:0:0:
192,192,76448,1,0,0:0:0:0:
320,192,76448,128,0,76525:0:0:0:0:
448,192,76525,1,0,0:0:0:0:
320,192,76603,1,0,0:0:0:0:
192,192,76603,1,0,0:0:0:0:
64,192,76603,128,0,76680:0:0:0:0:
448,192,76680,1,0,0:0:0:0:
64,192,76757,1,0,0:0:0:0:
192,192,76757,128,0,76835:0:0:0:0:
320,192,76835,1,0,0:0:0:0:
192,192,76912,1,0,0:0:0:0:
448,192,76912,128,0,76989:0:0:0:0:
320,192,76989,1,0,0:0:0:0:
64,192,77066,1,0,0:0:0:0:
448,192,77066,128,0,77144:0:0:0:0:
192,192,77144,1,0,0:0:0:0:
448,192,77221,1,0,0:0:0:0:
320,192,77221,128,0,77298:0:0:0:0:
192,192,77298,128,0,77376:0:0:0:0:
448,192,77376,1,0,0:0:0:0:
64,192,77376,128,0,77453:0:0:0:0:
320,192,77453,1,0,0:0:0:0:
64,192,77530,1,0,0:0:0:0:
192,192,77530,128,0,77608:0:0:0:0:
448,192,77608,1,0,0:0:0:0:
320,192,77685,128,0,77762:0:0:0:0:
192,192,77762,1,0,0:0:0:0:
64,192,77840,1,0,0:0:0:0:
448,192,77840,1,0,0:0:0:0:
320,192,77840,128,0,77917:0:0:0:0:
192,192,77917,1,0,0:0:0:0:
64,192,77994,1,0,0:0:0:0:
448,192,77994,1,0,0:0:0:0:
320,192,78072,1,0,0:0:0:0:
64,192,78149,128,0,78226:0:0:0:0:
448,192,78149,128,0,78226:0:0:0:0:
192,192,78149,1,0,0:0:0:0:
320,192,78226,1,0,0:0:0:0:
192,192,78304,1,0,0:0:0:0:
448,192,78304,1,0,0:0:0:0:
320,192,78381,1,0,0:0:0:0:
64,192,78458,1,0,0:0:0:0:
192,192,78458,128,0,78536:0:0:0:0:
320,192,78536,1,0,0:0:0:0:
448,192,78613,1,0,0:0:0:0:
64,192,78613,1,0,0:0:0:0:
320,192,78690,1,0,0:0:0:0:
448,192,78768,128,0,78845:0:0:0:0:
64,192,78768,128,0,78845:0:0:0:0:
192,192,78768,1,0,0:0:0:0:
320,192,78845,1,0,0:0:0:0:
192,192,78922,1,0,0:0:0:0:
64,192,78922,1,0,0:0:0:0:
320,192,78999,1,0,0:0:0:0:
192,192,79077,1,0,0:0:0:0:
448,192,79077,128,0,79154:0:0:0:0:
64,192,79154,1,0,0:0:0:0:
192,192,79231,1,0,0:0:0:0:
448,192,79231,1,0,0:0:0:0:
320,192,79309,1,0,0:0:0:0:
448,192,79386,128,0,79463:0:0:0:0:
64,192,79386,128,0,79463:0:0:0:0:
192,192,79386,1,0,0:0:0:0:
320,192,79463,1,0,0:0:0:0:
192,192,79541,1,0,0:0:0:0:
64,192,79541,1,0,0:0:0:0:
320,192,79618,1,0,0:0:0:0:
64,192,79695,1,0,0:0:0:0:
448,192,79695,1,0,0:0:0:0:
192,192,79773,1,0,0:0:0:0:
320,192,79850,1,0,0:0:0:0:
64,192,79927,128,0,80005:0:0:0:0:
448,192,79927,128,0,80005:0:0:0:0:
192,192,79927,1,0,0:0:0:0:
320,192,80005,128,0,80082:0:0:0:0:
192,192,80082,128,0,80159:0:0:0:0:
448,192,80159,128,0,80237:0:0:0:0:
64,192,80159,128,0,80237:0:0:0:0:
320,192,80237,128,0,80314:0:0:0:0:
448,192,80314,128,0,80391:0:0:0:0:
192,192,80314,128,0,80391:0:0:0:0:
64,192,80314,128,0,80391:0:0:0:0:
64,192,80469,1,0,0:0:0:0:
320,192,80469,1,0,0:0:0:0:
448,192,80469,128,0,80546:0:0:0:0:
192,192,80623,1,0,0:0:0:0:
64,192,80623,1,0,0:0:0:0:
320,192,80623,128,0,80701:0:0:0:0:
192,192,80778,1,0,0:0:0:0:
448,192,80778,1,0,0:0:0:0:
64,192,80778,128,0,80855:0:0:0:0:
320,192,80932,1,0,0:0:0:0:
448,192,80932,128,0,81010:0:0:0:0:
192,192,81010,1,0,0:0:0:0:
64,192,81010,128,0,81087:0:0:0:0:
448,192,81087,1,0,0:0:0:0:
320,192,81087,128,0,81164:0:0:0:0:
64,192,81164,1,0,0:0:0:0:
192,192,81164,128,0,81242:0:0:0:0:
320,192,81242,1,0,0:0:0:0:
448,192,81242,128,0,81319:0:0:0:0:
192,192,81319,1,0,0:0:0:0:
64,192,81319,128,0,81396:0:0:0:0:
448,192,81396,1,0,0:0:0:0:
320,192,81396,128,0,81474:0:0:0:0:
64,192,81474,1,0,0:0:0:0:
192,192,81474,128,0,81551:0:0:0:0:
64,192,81551,128,0,82092:0:0:0:0:
320,192,81551,128,0,82711:0:0:0:0:
448,192,81551,128,0,82092:0:0:0:0:
192,192,82170,128,0,82711:0:0:0:0:
64,192,82170,128,0,82711:0:0:0:0:
448,192,82170,128,0,82711:0:0:0:0:
320,192,82788,128,0,82865:0:0:0:0:
448,192,82788,128,0,82865:0:0:0:0:
64,192,82943,128,0,83020:0:0:0:0:
320,192,83097,128,0,83175:0:0:0:0:
448,192,83097,128,0,83175:0:0:0:0:
64,192,83252,128,0,83329:0:0:0:0:
320,192,83407,128,0,83484:0:0:0:0:
448,192,83407,128,0,83484:0:0:0:0:
64,192,83561,128,0,83639:0:0:0:0:
320,192,83716,128,0,83793:0:0:0:0:
448,192,83716,128,0,83793:0:0:0:0:
64,192,83871,128,0,83948:0:0:0:0:
320,192,84025,128,0,84103:0:0:0:0:
448,192,84025,128,0,84103:0:0:0:0:
64,192,84180,128,0,84257:0:0:0:0:
320,192,84335,128,0,84412:0:0:0:0:
448,192,84335,128,0,84412:0:0:0:0:
64,192,84489,128,0,84566:0:0:0:0:
320,192,84644,128,0,84721:0:0:0:0:
448,192,84644,128,0,84721:0:0:0:0:
192,192,84721,128,0,84798:0:0:0:0:
320,192,84798,128,0,84876:0:0:0:0:
448,192,84798,128,0,84876:0:0:0:0:
192,192,84876,128,0,84953:0:0:0:0:
320,192,84953,128,0,85030:0:0:0:0:
192,192,85030,128,0,85108:0:0:0:0:
64,192,85030,128,0,85108:0:0:0:0:
320,192,85108,128,0,85185:0:0:0:0:
192,192,85185,128,0,85262:0:0:0:0:
64,192,85185,128,0,85262:0:0:0:0:
320,192,85262,128,0,85340:0:0:0:0:
448,192,85262,128,0,85340:0:0:0:0:
64,192,85417,128,0,85494:0:0:0:0:
320,192,85572,128,0,85649:0:0:0:0:
448,192,85572,128,0,85649:0:0:0:0:
64,192,85726,128,0,85804:0:0:0:0:
320,192,85881,128,0,85958:0:0:0:0:
448,192,85881,128,0,85958:0:0:0:0:
64,192,86036,128,0,86113:0:0:0:0:
320,192,86190,128,0,86268:0:0:0:0:
448,192,86190,128,0,86268:0:0:0:0:
64,192,86345,128,0,86422:0:0:0:0:
320,192,86499,128,0,86577:0:0:0:0:
448,192,86499,128,0,86577:0:0:0:0:
64,192,86654,128,0,86731:0:0:0:0:
320,192,86809,128,0,86886:0:0:0:0:
448,192,86809,128,0,86886:0:0:0:0:
64,192,86963,128,0,87041:0:0:0:0:
320,192,87118,128,0,87195:0:0:0:0:
448,192,87118,128,0,87195:0:0:0:0:
192,192,87195,128,0,87273:0:0:0:0:
64,192,87195,128,0,87273:0:0:0:0:
320,192,87273,128,0,87350:0:0:0:0:
192,192,87350,128,0,87427:0:0:0:0:
320,192,87427,128,0,87505:0:0:0:0:
448,192,87427,128,0,87505:0:0:0:0:
192,192,87505,128,0,87582:0:0:0:0:
64,192,87505,128,0,87582:0:0:0:0:
320,192,87582,128,0,87659:0:0:0:0:
192,192,87659,128,0,87737:0:0:0:0:
320,192,87737,128,0,87814:0:0:0:0:
448,192,87737,128,0,87814:0:0:0:0:
64,192,87891,128,0,87969:0:0:0:0:
192,192,87891,128,0,87969:0:0:0:0:
448,192,87891,128,0,88278:0:0:0:0:
320,192,87891,128,0,88278:0:0:0:0:
192,192,88046,128,0,88123:0:0:0:0:
64,192,88046,128,0,88123:0:0:0:0:
192,192,88201,128,0,88278:0:0:0:0:
64,192,88201,128,0,88278:0:0:0:0:
448,192,88355,128,0,88432:0:0:0:0:
64,192,88355,128,0,88742:0:0:0:0:
320,192,88355,128,0,88432:0:0:0:0:
192,192,88355,128,0,88742:0:0:0:0:
320,192,88510,128,0,88587:0:0:0:0:
448,192,88510,128,0,88587:0:0:0:0:
320,192,88664,128,0,88742:0:0:0:0:
448,192,88664,128,0,88742:0:0:0:0:
448,192,88819,128,0,88896:0:0:0:0:
64,192,88819,128,0,88896:0:0:0:0:
192,192,88819,128,0,88896:0:0:0:0:
320,192,88819,128,0,88896:0:0:0:0:
320,192,88974,128,0,89051:0:0:0:0:
64,192,88974,128,0,89128:0:0:0:0:
192,192,89051,128,0,89206:0:0:0:0:
320,192,89128,128,0,89283:0:0:0:0:
448,192,89128,128,0,89206:0:0:0:0:
64,192,89206,128,0,89360:0:0:0:0:
192,192,89283,128,0,89360:0:0:0:0:
448,192,89283,128,0,89438:0:0:0:0:
320,192,89360,128,0,89515:0:0:0:0:
192,192,89438,128,0,89592:0:0:0:0:
64,192,89438,128,0,89515:0:0:0:0:
448,192,89515,128,0,89670:0:0:0:0:
320,192,89592,128,0,89670:0:0:0:0:
64,192,89592,128,0,89747:0:0:0:0:
192,192,89670,128,0,89824:0:0:0:0:
320,192,89747,128,0,89824:0:0:0:0:
448,192,89747,128,0,89902:0:0:0:0:
64,192,89824,128,0,89979:0:0:0:0:
192,192,89902,128,0,89979:0:0:0:0:
320,192,89902,128,0,90056:0:0:0:0:
448,192,89979,128,0,90133:0:0:0:0:
192,192,90056,128,0,90133:0:0:0:0:
64,192,90056,128,0,90133:0:0:0:0:
320,192,90133,128,0,91448:0:0:0:0:
192,192,90211,128,0,91525:0:0:0:0:
64,192,90211,128,0,91603:0:0:0:0:
448,192,90211,128,0,91371:0:0:0:0:
448,192,91448,128,0,91680:0:0:0:0:
320,192,91525,128,0,91757:0:0:0:0:
192,192,91603,128,0,91835:0:0:0:0:
64,192,91680,128,0,91912:0:0:0:0:
448,192,91757,128,0,91989:0:0:0:0:
320,192,91835,128,0,91989:0:0:0:0:
192,192,91912,128,0,91989:0:0:0:0:
64,192,91989,128,0,92066:0:0:0:0:
448,192,92066,128,0,92298:0:0:0:0:
192,192,92066,128,0,92298:0:0:0:0:
320,192,92066,128,0,92298:0:0:0:0:
192,192,92376,128,0,92608:0:0:0:0:
320,192,92376,128,0,92608:0:0:0:0:
64,192,92376,128,0,92608:0:0:0:0:
64,192,92685,128,0,93226:0:0:0:0:
320,192,92685,128,0,93226:0:0:0:0:
192,192,92994,128,0,93226:0:0:0:0:
448,192,92994,128,0,93226:0:0:0:0:
448,192,93304,128,0,93536:0:0:0:0:
192,192,93304,128,0,93536:0:0:0:0:
320,192,93381,128,0,93458:0:0:0:0:
64,192,93381,128,0,93458:0:0:0:0:
64,192,93536,128,0,93613:0:0:0:0:
320,192,93536,128,0,93613:0:0:0:0:
192,192,93613,128,0,93845:0:0:0:0:
448,192,93613,128,0,93845:0:0:0:0:
320,192,93768,128,0,93845:0:0:0:0:
64,192,93768,128,0,93845:0:0:0:0:
64,192,93922,128,0,94154:0:0:0:0:
320,192,93922,128,0,94154:0:0:0:0:
448,192,93922,128,0,94154:0:0:0:0:
192,192,93922,128,0,94463:0:0:0:0:
448,192,94231,128,0,94463:0:0:0:0:
320,192,94231,128,0,94463:0:0:0:0:
64,192,94231,128,0,94463:0:0:0:0:
320,192,94541,128,0,95082:0:0:0:0:
192,192,94541,128,0,94773:0:0:0:0:
64,192,94541,128,0,94773:0:0:0:0:
448,192,94541,128,0,94773:0:0:0:0:
448,192,94850,128,0,95082:0:0:0:0:
64,192,94850,128,0,95082:0:0:0:0:
192,192,94850,128,0,95082:0:0:0:0:
192,192,95159,128,0,95701:0:0:0:0:
64,192,95159,128,0,95701:0:0:0:0:
320,192,95159,128,0,95391:0:0:0:0:
448,192,95159,128,0,95391:0:0:0:0:
320,192,95469,128,0,95701:0:0:0:0:
448,192,95469,128,0,95701:0:0:0:0:
320,192,95778,128,0,96010:0:0:0:0:
448,192,95778,128,0,96010:0:0:0:0:
192,192,95855,128,0,96010:0:0:0:0:
64,192,95855,128,0,96010:0:0:0:0:
64,192,96087,128,0,96319:0:0:0:0:
320,192,96087,128,0,96319:0:0:0:0:
448,192,96087,128,0,96319:0:0:0:0:
64,192,96396,128,0,96938:0:0:0:0:
192,192,96396,128,0,96628:0:0:0:0:
320,192,96396,128,0,96628:0:0:0:0:
448,192,96396,128,0,96628:0:0:0:0:
448,192,96706,128,0,96938:0:0:0:0:
320,192,96706,128,0,96938:0:0:0:0:
192,192,96706,128,0,96938:0:0:0:0:
448,192,97015,128,0,97556:0:0:0:0:
320,192,97015,128,0,97247:0:0:0:0:
192,192,97015,128,0,97247:0:0:0:0:
64,192,97015,128,0,97247:0:0:0:0:
64,192,97324,128,0,97556:0:0:0:0:
192,192,97324,128,0,97556:0:0:0:0:
320,192,97324,128,0,97556:0:0:0:0:
64,192,97633,128,0,98175:0:0:0:0:
192,192,97633,128,0,97865:0:0:0:0:
320,192,97633,128,0,97865:0:0:0:0:
448,192,97633,128,0,97865:0:0:0:0:
192,192,97943,128,0,98175:0:0:0:0:
320,192,97943,128,0,98175:0:0:0:0:
448,192,97943,128,0,98175:0:0:0:0:
448,192,98252,128,0,98329:0:0:0:0:
320,192,98252,128,0,98329:0:0:0:0:
192,192,98329,128,0,98407:0:0:0:0:
64,192,98329,128,0,98407:0:0:0:0:
64,192,98561,128,0,98793:0:0:0:0:
192,192,98561,128,0,98639:0:0:0:0:
320,192,98561,128,0,98793:0:0:0:0:
448,192,98561,128,0,98793:0:0:0:0:
192,192,98716,128,0,98793:0:0:0:0:
64,192,98871,128,0,99025:0:0:0:0:
320,192,98871,128,0,99025:0:0:0:0:
448,192,98871,128,0,99257:0:0:0:0:
192,192,98871,128,0,99025:0:0:0:0:
192,192,99103,128,0,99257:0:0:0:0:
320,192,99103,128,0,99257:0:0:0:0:
64,192,99103,128,0,99412:0:0:0:0:
192,192,99335,128,0,99412:0:0:0:0:
448,192,99335,128,0,99412:0:0:0:0:
320,192,99335,128,0,99412:0:0:0:0:
320,192,99489,128,0,99644:0:0:0:0:
192,192,99489,128,0,99644:0:0:0:0:
64,192,99489,128,0,99876:0:0:0:0:
448,192,99721,128,0,99876:0:0:0:0:
192,192,99721,128,0,99876:0:0:0:0:
320,192,99721,128,0,100030:0:0:0:0:
192,192,99953,128,0,100340:0:0:0:0:
64,192,99953,128,0,100030:0:0:0:0:
448,192,99953,128,0,100030:0:0:0:0:
448,192,100108,128,0,100185:0:0:0:0:
320,192,100108,128,0,100185:0:0:0:0:
64,192,100108,128,0,100185:0:0:0:0:
448,192,100262,128,0,100340:0:0:0:0:
320,192,100262,128,0,100572:0:0:0:0:
64,192,100262,128,0,100340:0:0:0:0:
448,192,100417,128,0,100610:0:0:0:0:
192,192,100417,128,0,100533:0:0:0:0:
64,192,100417,128,0,100494:0:0:0:0:
64,192,100572,128,0,100649:0:0:0:0:
192,192,100610,128,0,100649:0:0:0:0:
320,192,100649,128,0,100958:0:0:0:0:
448,192,100688,128,0,100958:0:0:0:0:
192,192,100726,128,0,100958:0:0:0:0:
64,192,100726,128,0,101113:0:0:0:0:
192,192,101036,128,0,101113:0:0:0:0:
320,192,101036,128,0,101113:0:0:0:0:
448,192,101036,128,0,101268:0:0:0:0:
64,192,101190,128,0,101422:0:0:0:0:
320,192,101190,128,0,101268:0:0:0:0:
192,192,101190,128,0,101268:0:0:0:0:
448,192,101345,128,0,101422:0:0:0:0:
320,192,101345,128,0,101422:0:0:0:0:
192,192,101345,128,0,101577:0:0:0:0:
320,192,101499,128,0,101577:0:0:0:0:
448,192,101499,128,0,101577:0:0:0:0:
64,192,101499,128,0,102195:0:0:0:0:
192,192,101654,128,0,102273:0:0:0:0:
448,192,101654,128,0,101886:0:0:0:0:
320,192,101654,128,0,102350:0:0:0:0:
448,192,101963,128,0,102505:0:0:0:0:
64,192,102273,128,0,102505:0:0:0:0:
192,192,102350,128,0,102505:0:0:0:0:
320,192,102427,128,0,102505:0:0:0:0:
448,192,102582,128,0,102814:0:0:0:0:
192,192,102582,128,0,102814:0:0:0:0:
320,192,102582,128,0,103123:0:0:0:0:
64,192,102582,128,0,102814:0:0:0:0:
192,192,102891,128,0,103123:0:0:0:0:
64,192,102891,128,0,103123:0:0:0:0:
448,192,102891,128,0,103123:0:0:0:0:
448,192,103201,128,0,103432:0:0:0:0:
320,192,103201,128,0,103432:0:0:0:0:
192,192,103278,128,0,103432:0:0:0:0:
64,192,103278,128,0,103432:0:0:0:0:
64,192,103510,128,0,103742:0:0:0:0:
192,192,103510,128,0,103742:0:0:0:0:
448,192,103510,128,0,104051:0:0:0:0:
320,192,103510,128,0,103742:0:0:0:0:
192,192,103819,128,0,104051:0:0:0:0:
320,192,103819,128,0,104051:0:0:0:0:
64,192,103819,128,0,104360:0:0:0:0:
448,192,104128,128,0,104360:0:0:0:0:
320,192,104128,128,0,104360:0:0:0:0:
192,192,104128,128,0,104360:0:0:0:0:
192,192,104438,128,0,104670:0:0:0:0:
64,192,104438,128,0,104670:0:0:0:0:
448,192,104438,128,0,104979:0:0:0:0:
320,192,104438,128,0,104670:0:0:0:0:
320,192,104747,128,0,104979:0:0:0:0:
192,192,104747,128,0,104979:0:0:0:0:
64,192,104747,128,0,104979:0:0:0:0:
64,192,105056,128,0,105288:0:0:0:0:
192,192,105056,128,0,105288:0:0:0:0:
320,192,105056,128,0,105597:0:0:0:0:
448,192,105056,128,0,105288:0:0:0:0:
448,192,105365,128,0,105597:0:0:0:0:
192,192,105365,128,0,105597:0:0:0:0:
64,192,105365,128,0,105597:0:0:0:0:
192,192,105675,128,0,105907:0:0:0:0:
448,192,105675,128,0,105907:0:0:0:0:
64,192,105752,128,0,105907:0:0:0:0:
320,192,105752,128,0,105907:0:0:0:0:
192,192,105984,128,0,106216:0:0:0:0:
448,192,105984,128,0,106525:0:0:0:0:
320,192,105984,128,0,106216:0:0:0:0:
64,192,105984,128,0,106216:0:0:0:0:
320,192,106293,128,0,106525:0:0:0:0:
64,192,106293,128,0,106525:0:0:0:0:
192,192,106293,128,0,106525:0:0:0:0:
64,192,106603,128,0,106912:0:0:0:0:
192,192,106603,128,0,106680:0:0:0:0:
320,192,106603,128,0,106680:0:0:0:0:
448,192,106603,128,0,106680:0:0:0:0:
192,192,106757,128,0,106912:0:0:0:0:
448,192,106757,128,0,107221:0:0:0:0:
320,192,106757,128,0,106912:0:0:0:0:
192,192,106989,128,0,107221:0:0:0:0:
320,192,106989,128,0,107221:0:0:0:0:
64,192,106989,128,0,107453:0:0:0:0:
448,192,107298,128,0,107453:0:0:0:0:
320,192,107298,128,0,107453:0:0:0:0:
192,192,107298,128,0,107453:0:0:0:0:
64,192,107530,128,0,108690:0:0:0:0:
192,192,107530,128,0,107608:0:0:0:0:
448,192,107530,128,0,107608:0:0:0:0:
320,192,107530,128,0,107762:0:0:0:0:
448,192,107685,128,0,107762:0:0:0:0:
192,192,107685,128,0,107762:0:0:0:0:
192,192,107840,128,0,108072:0:0:0:0:
320,192,107840,128,0,107917:0:0:0:0:
448,192,107840,128,0,107917:0:0:0:0:
320,192,107994,128,0,108072:0:0:0:0:
448,192,107994,128,0,108072:0:0:0:0:
448,192,108149,128,0,108381:0:0:0:0:
320,192,108149,128,0,108226:0:0:0:0:
192,192,108149,128,0,108226:0:0:0:0:
320,192,108304,128,0,108381:0:0:0:0:
192,192,108304,128,0,108381:0:0:0:0:
320,192,108458,128,0,108690:0:0:0:0:
192,192,108458,128,0,108536:0:0:0:0:
448,192,108458,128,0,108536:0:0:0:0:
448,192,108613,128,0,108690:0:0:0:0:
192,192,108613,128,0,108690:0:0:0:0:
448,192,108768,128,0,110005:0:0:0:0:
192,192,108768,128,0,108999:0:0:0:0:
64,192,108768,128,0,108845:0:0:0:0:
320,192,108768,128,0,108845:0:0:0:0:
64,192,108922,128,0,108999:0:0:0:0:
320,192,108922,128,0,108999:0:0:0:0:
64,192,109077,128,0,109309:0:0:0:0:
192,192,109077,128,0,109154:0:0:0:0:
320,192,109077,128,0,109154:0:0:0:0:
192,192,109231,128,0,109309:0:0:0:0:
320,192,109231,128,0,109309:0:0:0:0:
320,192,109386,128,0,109618:0:0:0:0:
192,192,109386,128,0,109463:0:0:0:0:
64,192,109386,128,0,109463:0:0:0:0:
64,192,109541,128,0,109618:0:0:0:0:
192,192,109541,128,0,109618:0:0:0:0:
192,192,109695,128,0,109927:0:0:0:0:
64,192,109695,128,0,109773:0:0:0:0:
320,192,109695,128,0,109773:0:0:0:0:
64,192,109850,128,0,109927:0:0:0:0:
320,192,109850,128,0,109927:0:0:0:0:
64,192,110005,128,0,110082:0:0:0:0:
192,192,110005,128,0,110159:0:0:0:0:
320,192,110082,128,0,110237:0:0:0:0:
448,192,110159,128,0,110237:0:0:0:0:
64,192,110159,128,0,110314:0:0:0:0:
192,192,110237,128,0,110391:0:0:0:0:
320,192,110314,128,0,110391:0:0:0:0:
448,192,110314,128,0,110469:0:0:0:0:
64,192,110391,128,0,110546:0:0:0:0:
192,192,110469,128,0,110546:0:0:0:0:
320,192,110469,128,0,110623:0:0:0:0:
448,192,110546,128,0,110701:0:0:0:0:
64,192,110623,128,0,110701:0:0:0:0:
192,192,110623,128,0,110778:0:0:0:0:
320,192,110701,128,0,110855:0:0:0:0:
448,192,110778,128,0,110855:0:0:0:0:
64,192,110778,128,0,110932:0:0:0:0:
192,192,110855,128,0,111010:0:0:0:0:
320,192,110932,128,0,111010:0:0:0:0:
448,192,110932,128,0,111087:0:0:0:0:
64,192,111010,128,0,111164:0:0:0:0:
192,192,111087,128,0,111164:0:0:0:0:
320,192,111087,128,0,111164:0:0:0:0:
448,192,111164,128,0,111242:0:0:0:0:
64,192,111242,128,0,111783:0:0:0:0:
192,192,111242,128,0,111783:0:0:0:0:
320,192,111242,128,0,112479:0:0:0:0:
192,192,111860,128,0,112479:0:0:0:0:
448,192,111860,128,0,112479:0:0:0:0:
64,192,112479,128,0,113175:0:0:0:0:
192,192,112788,128,0,113175:0:0:0:0:
320,192,112788,128,0,113020:0:0:0:0:
448,192,112788,128,0,113020:0:0:0:0:
320,192,113097,128,0,113329:0:0:0:0:
448,192,113097,128,0,113484:0:0:0:0:
192,192,113252,128,0,113639:0:0:0:0:
64,192,113252,128,0,113484:0:0:0:0:
320,192,113407,128,0,113948:0:0:0:0:
64,192,113561,128,0,113948:0:0:0:0:
448,192,113561,128,0,113639:0:0:0:0:
192,192,113716,128,0,114257:0:0:0:0:
448,192,113716,128,0,114412:0:0:0:0:
64,192,114025,128,0,114257:0:0:0:0:
320,192,114025,128,0,114412:0:0:0:0:
192,192,114335,128,0,114566:0:0:0:0:
64,192,114335,128,0,114721:0:0:0:0:
320,192,114489,128,0,114721:0:0:0:0:
448,192,114489,128,0,114566:0:0:0:0:
192,192,114644,128,0,114953:0:0:0:0:
448,192,114644,128,0,114876:0:0:0:0:
320,192,114798,128,0,114953:0:0:0:0:
64,192,114798,128,0,114953:0:0:0:0:
448,192,114953,128,0,115494:0:0:0:0:
320,192,115262,128,0,115649:0:0:0:0:
192,192,115262,128,0,115494:0:0:0:0:
64,192,115262,128,0,115649:0:0:0:0:
448,192,115572,128,0,115958:0:0:0:0:
192,192,115572,128,0,115804:0:0:0:0:
320,192,115726,128,0,116113:0:0:0:0:
64,192,115726,128,0,115958:0:0:0:0:
192,192,115881,128,0,116113:0:0:0:0:
448,192,116036,128,0,116190:0:0:0:0:
64,192,116036,128,0,116268:0:0:0:0:
192,192,116190,128,0,116731:0:0:0:0:
320,192,116190,128,0,116422:0:0:0:0:
64,192,116345,128,0,116577:0:0:0:0:
320,192,116499,128,0,116886:0:0:0:0:
448,192,116499,128,0,116731:0:0:0:0:
64,192,116654,128,0,117041:0:0:0:0:
192,192,116809,128,0,117350:0:0:0:0:
448,192,116809,128,0,117041:0:0:0:0:
320,192,116963,128,0,117350:0:0:0:0:
64,192,117118,128,0,117350:0:0:0:0:
448,192,117118,128,0,117350:0:0:0:0:
64,192,117427,128,0,117582:0:0:0:0:
320,192,117427,1,0,0:0:0:0:
448,192,117427,1,0,0:0:0:0:
192,192,117505,128,0,117659:0:0:0:0:
448,192,117582,128,0,117737:0:0:0:0:
320,192,117659,128,0,117814:0:0:0:0:
64,192,117737,128,0,117891:0:0:0:0:
192,192,117814,128,0,117969:0:0:0:0:
320,192,117891,128,0,118046:0:0:0:0:
448,192,117969,128,0,118123:0:0:0:0:
192,192,118046,128,0,118201:0:0:0:0:
64,192,118123,128,0,118278:0:0:0:0:
448,192,118201,128,0,118355:0:0:0:0:
320,192,118278,128,0,118432:0:0:0:0:
192,192,118355,128,0,118510:0:0:0:0:
64,192,118432,128,0,118587:0:0:0:0:
320,192,118510,128,0,118664:0:0:0:0:
448,192,118587,128,0,118742:0:0:0:0:
64,192,118664,128,0,118819:0:0:0:0:
192,192,118742,128,0,118896:0:0:0:0:
448,192,118819,128,0,118974:0:0:0:0:
320,192,118896,128,0,119051:0:0:0:0:
192,192,118974,128,0,119128:0:0:0:0:
64,192,119051,128,0,119206:0:0:0:0:
448,192,119128,128,0,119283:0:0:0:0:
320,192,119206,128,0,119360:0:0:0:0:
64,192,119283,128,0,119438:0:0:0:0:
192,192,119360,128,0,119515:0:0:0:0:
448,192,119438,128,0,119824:0:0:0:0:
320,192,119515,128,0,119747:0:0:0:0:
192,192,119592,128,0,119670:0:0:0:0:
64,192,119670,128,0,119902:0:0:0:0:
192,192,119747,128,0,119902:0:0:0:0:
320,192,119824,128,0,119902:0:0:0:0:
448,192,119902,128,0,120443:0:0:0:0:
320,192,120211,128,0,120443:0:0:0:0:
64,192,120211,128,0,120443:0:0:0:0:
192,192,120211,128,0,120752:0:0:0:0:
320,192,120520,128,0,120752:0:0:0:0:
448,192,120520,128,0,120752:0:0:0:0:
64,192,120520,128,0,121061:0:0:0:0:
320,192,120829,128,0,121371:0:0:0:0:
192,192,120829,128,0,121061:0:0:0:0:
448,192,120829,128,0,121061:0:0:0:0:
64,192,121139,128,0,121371:0:0:0:0:
192,192,121139,128,0,121680:0:0:0:0:
448,192,121139,128,0,121371:0:0:0:0:
320,192,121448,128,0,121680:0:0:0:0:
448,192,121448,128,0,121680:0:0:0:0:
64,192,121448,128,0,121680:0:0:0:0:
64,192,121757,128,0,121835:0:0:0:0:
192,192,121757,128,0,121835:0:0:0:0:
320,192,121757,128,0,121835:0:0:0:0:
448,192,121757,128,0,121835:0:0:0:0:
320,192,121912,128,0,122028:0:0:0:0:
448,192,121912,128,0,121989:0:0:0:0:
192,192,121912,128,0,122066:0:0:0:0:
64,192,121912,128,0,122105:0:0:0:0:
448,192,122066,128,0,122298:0:0:0:0:
320,192,122105,128,0,122298:0:0:0:0:
192,192,122144,128,0,122298:0:0:0:0:
64,192,122182,128,0,122298:0:0:0:0:
192,192,122376,128,0,122917:0:0:0:0:
64,192,122376,128,0,122608:0:0:0:0:
448,192,122530,128,0,122917:0:0:0:0:
64,192,122685,128,0,123149:0:0:0:0:
320,192,122685,128,0,123381:0:0:0:0:
448,192,122994,128,0,123149:0:0:0:0:
192,192,122994,128,0,123149:0:0:0:0:
64,192,123226,128,0,123381:0:0:0:0:
192,192,123226,128,0,123381:0:0:0:0:
448,192,123226,128,0,123536:0:0:0:0:
192,192,123458,128,0,123613:0:0:0:0:
320,192,123458,128,0,123613:0:0:0:0:
64,192,123458,128,0,123536:0:0:0:0:
64,192,123613,128,0,123845:0:0:0:0:
448,192,123613,128,0,123845:0:0:0:0:
192,192,123768,128,0,123845:0:0:0:0:
320,192,123768,128,0,123845:0:0:0:0:
64,192,123922,128,0,124154:0:0:0:0:
192,192,123922,128,0,124154:0:0:0:0:
320,192,123922,128,0,123999:0:0:0:0:
448,192,123922,128,0,123999:0:0:0:0:
320,192,124077,128,0,124541:0:0:0:0:
448,192,124077,128,0,124541:0:0:0:0:
192,192,124231,128,0,124309:0:0:0:0:
64,192,124231,128,0,124309:0:0:0:0:
64,192,124386,128,0,124463:0:0:0:0:
192,192,124386,128,0,124463:0:0:0:0:
192,192,124541,128,0,124618:0:0:0:0:
64,192,124541,128,0,124618:0:0:0:0:
320,192,124618,128,0,124695:0:0:0:0:
448,192,124618,128,0,124695:0:0:0:0:
192,192,124695,128,0,124773:0:0:0:0:
64,192,124695,128,0,124773:0:0:0:0:
320,192,124773,128,0,125082:0:0:0:0:
448,192,124773,128,0,125082:0:0:0:0:
64,192,124850,128,0,125082:0:0:0:0:
192,192,124850,128,0,125391:0:0:0:0:
64,192,125159,128,0,125391:0:0:0:0:
320,192,125159,128,0,125546:0:0:0:0:
448,192,125159,128,0,125391:0:0:0:0:
64,192,125469,128,0,125546:0:0:0:0:
192,192,125469,128,0,125546:0:0:0:0:
448,192,125469,128,0,125701:0:0:0:0:
192,192,125623,128,0,125701:0:0:0:0:
320,192,125623,128,0,125701:0:0:0:0:
64,192,125623,128,0,125855:0:0:0:0:
448,192,125778,128,0,125855:0:0:0:0:
320,192,125778,128,0,125855:0:0:0:0:
192,192,125778,128,0,126164:0:0:0:0:
64,192,125932,128,0,126164:0:0:0:0:
448,192,125932,128,0,126164:0:0:0:0:
320,192,125932,128,0,126164:0:0:0:0:
192,192,126242,128,0,126396:0:0:0:0:
320,192,126242,128,0,126396:0:0:0:0:
64,192,126242,128,0,126628:0:0:0:0:
192,192,126474,128,0,126628:0:0:0:0:
320,192,126474,128,0,126860:0:0:0:0:
448,192,126474,128,0,126938:0:0:0:0:
192,192,126706,128,0,126860:0:0:0:0:
64,192,126706,128,0,126938:0:0:0:0:
320,192,126938,128,0,127247:0:0:0:0:
192,192,126938,128,0,127092:0:0:0:0:
64,192,127015,128,0,127247:0:0:0:0:
448,192,127015,128,0,127247:0:0:0:0:
192,192,127170,128,0,127247:0:0:0:0:
192,192,127324,1,0,0:0:0:0:
448,192,127324,1,0,0:0:0:0:
320,192,127376,1,0,0:0:0:0:
64,192,127427,1,0,0:0:0:0:
192,192,127479,1,0,0:0:0:0:
320,192,127530,1,0,0:0:0:0:
448,192,127582,1,0,0:0:0:0:
192,192,127633,1,0,0:0:0:0:
320,192,127685,1,0,0:0:0:0:
64,192,127737,1,0,0:0:0:0:
192,192,127788,1,0,0:0:0:0:
320,192,127840,1,0,0:0:0:0:
448,192,127891,1,0,0:0:0:0:
192,192,127943,1,0,0:0:0:0:
64,192,127994,1,0,0:0:0:0:
320,192,128046,1,0,0:0:0:0:
448,192,128097,1,0,0:0:0:0:
64,192,128149,1,0,0:0:0:0:
192,192,128201,1,0,0:0:0:0:
320,192,128252,1,0,0:0:0:0:
448,192,128304,1,0,0:0:0:0:
192,192,128355,1,0,0:0:0:0:
320,192,128407,1,0,0:0:0:0:
448,192,128458,1,0,0:0:0:0:
64,192,128510,1,0,0:0:0:0:
192,192,128561,1,0,0:0:0:0:
320,192,128613,1,0,0:0:0:0:
448,192,128664,1,0,0:0:0:0:
192,192,128716,1,0,0:0:0:0:
320,192,128768,1,0,0:0:0:0:
64,192,128819,1,0,0:0:0:0:
192,192,128871,1,0,0:0:0:0:
448,192,128922,1,0,0:0:0:0:
320,192,128974,1,0,0:0:0:0:
192,192,129025,1,0,0:0:0:0:
64,192,129077,1,0,0:0:0:0:
320,192,129128,1,0,0:0:0:0:
192,192,129180,1,0,0:0:0:0:
448,192,129231,1,0,0:0:0:0:
320,192,129283,1,0,0:0:0:0:
192,192,129335,1,0,0:0:0:0:
64,192,129386,1,0,0:0:0:0:
320,192,129438,1,0,0:0:0:0:
448,192,129489,1,0,0:0:0:0:
64,192,129541,1,0,0:0:0:0:
192,192,129592,1,0,0:0:0:0:
320,192,129644,1,0,0:0:0:0:
448,192,129695,1,0,0:0:0:0:
192,192,129747,1,0,0:0:0:0:
64,192,129798,1,0,0:0:0:0:
448,192,129850,1,0,0:0:0:0:
320,192,129902,1,0,0:0:0:0:
192,192,129953,1,0,0:0:0:0:
64,192,130005,1,0,0:0:0:0:
320,192,130056,1,0,0:0:0:0:
192,192,130108,1,0,0:0:0:0:
448,192,130159,1,0,0:0:0:0:
320,192,130211,1,0,0:0:0:0:
64,192,130262,1,0,0:0:0:0:
192,192,130314,1,0,0:0:0:0:
320,192,130365,1,0,0:0:0:0:
448,192,130417,1,0,0:0:0:0:
192,192,130469,1,0,0:0:0:0:
64,192,130520,1,0,0:0:0:0:
448,192,130572,1,0,0:0:0:0:
320,192,130623,1,0,0:0:0:0:
192,192,130675,1,0,0:0:0:0:
448,192,130726,1,0,0:0:0:0:
320,192,130778,1,0,0:0:0:0:
192,192,130829,1,0,0:0:0:0:
64,192,130881,1,0,0:0:0:0:
320,192,130932,1,0,0:0:0:0:
448,192,130984,1,0,0:0:0:0:
64,192,131036,128,0,131074:0:0:0:0:
192,192,131074,128,0,131113:0:0:0:0:
320,192,131113,128,0,131152:0:0:0:0:
448,192,131152,128,0,131190:0:0:0:0:
64,192,131190,128,0,131229:0:0:0:0:
192,192,131229,128,0,131268:0:0:0:0:
320,192,131268,128,0,131306:0:0:0:0:
448,192,131306,128,0,131345:0:0:0:0:
64,192,131345,128,0,131383:0:0:0:0:
192,192,131383,128,0,131422:0:0:0:0:
320,192,131422,128,0,131461:0:0:0:0:
448,192,131461,128,0,131499:0:0:0:0:
64,192,131499,128,0,131538:0:0:0:0:
192,192,131538,128,0,131577:0:0:0:0:
320,192,131577,128,0,131615:0:0:0:0:
448,192,131615,128,0,131654:0:0:0:0:
64,192,131654,128,0,131731:0:0:0:0:
192,192,131693,128,0,131770:0:0:0:0:
320,192,131731,128,0,131809:0:0:0:0:
448,192,131770,128,0,131847:0:0:0:0:
64,192,131809,128,0,131886:0:0:0:0:
192,192,131847,128,0,131925:0:0:0:0:
320,192,131886,128,0,131963:0:0:0:0:
448,192,131925,128,0,132002:0:0:0:0:
64,192,131963,128,0,132041:0:0:0:0:
192,192,132002,128,0,132079:0:0:0:0:
320,192,132041,128,0,132118:0:0:0:0:
448,192,132079,128,0,132157:0:0:0:0:
64,192,132118,128,0,132195:0:0:0:0:
192,192,132157,128,0,132195:0:0:0:0:
320,192,132195,128,0,132273:0:0:0:0:
448,192,132234,128,0,132273:0:0:0:0:
64,192,132273,1,0,0:0:0:0:
192,192,132273,1,0,0:0:0:0:
448,192,147805,132,0,148361:0:0:0:0:
64,0,147898,128,0,148083:0:0:0:0:
192,0,147990,128,0,148175:0:0:0:0:
320,0,148083,128,0,148268:0:0:0:0:
64,0,148175,128,0,148731:0:0:0:0:
192,0,148268,128,0,148453:0:0:0:0:
320,0,148361,128,0,148546:0:0:0:0:
448,0,148453,128,0,148638:0:0:0:0:
192,0,148546,128,0,149194:0:0:0:0:
320,0,148638,128,0,148824:0:0:0:0:
448,0,148731,128,0,148916:0:0:0:0:
64,0,148824,128,0,149009:0:0:0:0:
320,0,148916,128,0,149101:0:0:0:0:
448,0,149009,128,0,149472:0:0:0:0:
64,0,149101,128,0,149287:0:0:0:0:
320,0,149194,128,0,149379:0:0:0:0:
192,0,149287,128,0,149564:0:0:0:0:
64,0,149379,128,0,150583:0:0:0:0:
320,0,149472,128,0,150398:0:0:0:0:
448,0,149564,128,0,150305:0:0:0:0:
192,0,149657,128,0,150490:0:0:0:0:
448,0,150398,128,0,151138:0:0:0:0:
320,0,150490,128,0,150675:0:0:0:0:
192,0,150583,128,0,150768:0:0:0:0:
64,0,150675,128,0,150861:0:0:0:0:
320,0,150768,128,0,150953:0:0:0:0:
192,0,150861,128,0,151046:0:0:0:0:
64,0,150953,128,0,151694:0:0:0:0:
320,0,151046,128,0,151231:0:0:0:0:
192,0,151138,128,0,151416:0:0:0:0:
448,0,151231,128,0,151324:0:0:0:0:
320,0,151324,128,0,151509:0:0:0:0:
448,0,151416,128,0,151601:0:0:0:0:
192,0,151509,128,0,151833:0:0:0:0:
320,0,151601,128,0,151925:0:0:0:0:
448,0,151694,128,0,152111:0:0:0:0:
64,0,151787,128,0,152018:0:0:0:0:
192,0,151879,128,0,152203:0:0:0:0:
320,0,151972,128,0,152296:0:0:0:0:
64,0,152064,128,0,152388:0:0:0:0:
448,0,152157,128,0,152574:0:0:0:0:
192,0,152250,128,0,152481:0:0:0:0:
320,0,152342,128,0,152759:0:0:0:0:
64,0,152435,128,0,152666:0:0:0:0:
192,0,152527,128,0,152944:0:0:0:0:
448,0,152620,128,0,152851:0:0:0:0:
64,0,152713,128,0,153129:0:0:0:0:
320,0,152805,128,0,153037:0:0:0:0:
448,0,152898,128,0,153314:0:0:0:0:
192,0,152990,128,0,153222:0:0:0:0:
320,0,153083,128,0,153407:0:0:0:0:
64,0,153175,128,0,153685:0:0:0:0:
192,0,153268,128,0,153500:0:0:0:0:
448,0,153361,128,0,153963:0:0:0:0:
320,0,153453,128,0,153870:0:0:0:0:
192,0,153546,128,0,153777:0:0:0:0:
64,0,153731,128,0,154055:0:0:0:0:
192,0,153824,128,0,154240:0:0:0:0:
320,0,153916,128,0,154148:0:0:0:0:
448,0,154009,128,0,154333:0:0:0:0:
64,0,154101,128,0,154425:0:0:0:0:
320,0,154194,128,0,154703:0:0:0:0:
192,0,154287,128,0,154518:0:0:0:0:
448,0,154379,128,0,154611:0:0:0:0:
64,0,154472,128,0,155259:0:0:0:0:
192,0,154564,128,0,154796:0:0:0:0:
448,0,154657,128,0,154888:0:0:0:0:
320,0,154750,128,0,155074:0:0:0:0:
192,0,154842,128,0,154981:0:0:0:0:
448,0,154935,128,0,155166:0:0:0:0:
192,0,155027,128,0,155351:0:0:0:0:
320,0,155120,128,0,155444:0:0:0:0:
448,0,155213,128,0,155814:0:0:0:0:
64,0,155305,128,0,155537:0:0:0:0:
192,0,155398,128,0,155629:0:0:0:0:
320,0,155490,128,0,155722:0:0:0:0:
64,0,155583,128,0,156555:0:0:0:0:
192,0,155675,128,0,155907:0:0:0:0:
320,0,155768,128,0,156000:0:0:0:0:
448,0,155861,128,0,156092:0:0:0:0:
192,0,155953,128,0,156185:0:0:0:0:
320,0,156046,128,0,156370:0:0:0:0:
448,0,156138,128,0,156277:0:0:0:0:
192,0,156231,128,0,156463:0:0:0:0:
448,0,156324,128,0,156740:0:0:0:0:
320,0,156416,128,0,157203:0:0:0:0:
192,0,156509,128,0,157296:0:0:0:0:
64,0,156601,128,0,156648:0:0:0:0:
64,0,156694,128,0,156833:0:0:0:0:
448,0,156787,128,0,157111:0:0:0:0:
64,0,156879,128,0,156925:0:0:0:0:
64,0,156972,128,0,157018:0:0:0:0:
64,0,157064,128,0,157388:0:0:0:0:
448,0,157157,128,0,157481:0:0:0:0:
320,0,157250,128,0,157666:0:0:0:0:
192,0,157342,128,0,157574:0:0:0:0:
64,0,157435,128,0,157759:0:0:0:0:
448,0,157527,128,0,158129:0:0:0:0:
192,0,157620,128,0,158037:0:0:0:0:
320,0,157713,128,0,157944:0:0:0:0:
64,0,157805,128,0,157851:0:0:0:0:
64,0,157898,128,0,158129:0:0:0:0:
320,0,157990,128,0,158314:0:0:0:0:
192,0,158083,128,0,158222:0:0:0:0:
64,0,158175,128,0,158407:0:0:0:0:
448,0,158175,128,0,158500:0:0:0:0:
192,0,158268,128,0,158685:0:0:0:0:
320,0,158361,128,0,158685:0:0:0:0:
64,0,158453,128,0,158592:0:0:0:0:
448,0,158546,128,0,158777:0:0:0:0:
64,0,158638,128,0,158777:0:0:0:0:
192,0,158731,128,0,158870:0:0:0:0:
320,0,158731,128,0,158870:0:0:0:0:
64,0,158824,128,0,159055:0:0:0:0:
448,0,158824,128,0,158963:0:0:0:0:
192,0,158916,128,0,159101:0:0:0:0:
320,0,158916,128,0,159148:0:0:0:0:
448,0,159009,128,0,159194:0:0:0:0:
64,0,159101,128,0,159240:0:0:0:0:
192,0,159148,128,0,159240:0:0:0:0:
320,0,159194,128,0,159333:0:0:0:0:
448,0,159240,128,0,159425:0:0:0:0:
64,0,159287,128,0,159611:0:0:0:0:
192,0,159287,128,0,159518:0:0:0:0:
320,0,159379,128,0,159564:0:0:0:0:
448,0,159472,128,0,159657:0:0:0:0:
64,0,159657,128,0,159750:0:0:0:0:
192,0,159657,1,0,1:0:0:0:
320,0,159657,1,0,1:0:0:0:
448,0,159750,128,0,159935:0:0:0:0:
64,0,159842,128,0,160027:0:0:0:0:
192,0,159935,128,0,160120:0:0:0:0:
320,0,160027,1,0,1:0:0:0:
448,0,160027,128,0,160305:0:0:0:0:
64,0,160120,128,0,160213:0:0:0:0:
320,0,160120,1,0,1:0:0:0:
192,0,160213,128,0,160305:0:0:0:0:
64,0,160305,128,0,160583:0:0:0:0:
320,0,160305,1,0,1:0:0:0:
192,0,160398,128,0,160490:0:0:0:0:
320,0,160490,128,0,160583:0:0:0:0:
192,0,160583,1,0,1:0:0:0:
448,0,160583,128,0,160675:0:0:0:0:
64,0,160675,128,0,160861:0:0:0:0:
320,0,160675,1,0,1:0:0:0:
192,0,160768,128,0,160861:0:0:0:0:
448,0,160768,1,0,1:0:0:0:
320,0,160861,128,0,160953:0:0:0:0:
64,0,160953,1,0,1:0:0:0:
192,0,160953,128,0,161046:0:0:0:0:
448,0,161046,1,0,1:0:0:0:
320,0,161046,128,0,161416:0:0:0:0:
64,0,161138,1,0,1:0:0:0:
192,0,161138,128,0,161324:0:0:0:0:
448,0,161231,128,0,161416:0:0:0:0:
64,0,161324,128,0,161416:0:0:0:0:
192,0,161416,128,0,161694:0:0:0:0:
320,0,161509,128,0,161601:0:0:0:0:
448,0,161509,1,0,1:0:0:0:
64,0,161601,128,0,161787:0:0:0:0:
448,0,161601,1,0,1:0:0:0:
320,0,161694,128,0,161879:0:0:0:0:
192,0,161787,128,0,161972:0:0:0:0:
448,0,161787,1,0,1:0:0:0:
64,0,161879,128,0,162064:0:0:0:0:
320,0,161972,128,0,162064:0:0:0:0:
192,0,162064,1,0,1:0:0:0:
448,0,162064,128,0,162157:0:0:0:0:
64,0,162157,128,0,162342:0:0:0:0:
320,0,162157,1,0,1:0:0:0:
192,0,162250,1,0,1:0:0:0:
448,0,162250,128,0,162527:0:0:0:0:
320,0,162342,128,0,162435:0:0:0:0:
64,0,162435,128,0,162527:0:0:0:0:
192,0,162527,1,0,1:0:0:0:
320,0,162527,128,0,162805:0:0:0:0:
64,0,162620,128,0,162898:0:0:0:0:
448,0,162620,1,0,1:0:0:0:
192,0,162713,128,0,162898:0:0:0:0:
448,0,162805,128,0,162990:0:0:0:0:
320,0,162898,128,0,163175:0:0:0:0:
64,0,162990,128,0,163083:0:0:0:0:
192,0,162990,1,0,1:0:0:0:
192,0,163083,1,0,1:0:0:0:
448,0,163083,128,0,163268:0:0:0:0:
64,0,163175,128,0,163453:0:0:0:0:
192,0,163268,1,0,1:0:0:0:
320,0,163268,128,0,163453:0:0:0:0:
448,0,163361,128,0,163546:0:0:0:0:
192,0,163453,128,0,163546:0:0:0:0:
64,0,163546,1,0,1:0:0:0:
320,0,163546,128,0,163638:0:0:0:0:
192,0,163638,1,0,1:0:0:0:
448,0,163638,128,0,163824:0:0:0:0:
64,0,163731,128,0,163824:0:0:0:0:
320,0,163731,1,0,1:0:0:0:
192,0,163824,128,0,163916:0:0:0:0:
320,0,163916,128,0,164009:0:0:0:0:
448,0,163916,1,0,1:0:0:0:
64,0,164009,1,0,1:0:0:0:
192,0,164009,128,0,164379:0:0:0:0:
320,0,164101,1,0,1:0:0:0:
448,0,164101,128,0,164194:0:0:0:0:
64,0,164194,128,0,164379:0:0:0:0:
448,0,164287,128,0,164657:0:0:0:0:
320,0,164379,128,0,164472:0:0:0:0:
64,0,164472,1,0,1:0:0:0:
192,0,164472,128,0,164564:0:0:0:0:
64,0,164564,1,0,1:0:0:0:
320,0,164564,128,0,164750:0:0:0:0:
192,0,164657,128,0,164842:0:0:0:0:
64,0,164750,1,0,1:0:0:0:
448,0,164750,128,0,165027:0:0:0:0:
320,0,164842,128,0,164935:0:0:0:0:
192,0,164935,128,0,165027:0:0:0:0:
64,0,165027,128,0,165213:0:0:0:0:
320,0,165027,1,0,1:0:0:0:
192,0,165120,1,0,1:0:0:0:
448,0,165120,128,0,165398:0:0:0:0:
320,0,165213,128,0,165305:0:0:0:0:
64,0,165259,1,0,1:0:0:0:
192,0,165305,128,0,165398:0:0:0:0:
320,0,165398,128,0,165490:0:0:0:0:
192,0,165490,1,0,1:0:0:0:
448,0,165490,128,0,165583:0:0:0:0:
64,0,165583,1,0,1:0:0:0:
192,0,165583,128,0,165861:0:0:0:0:
320,0,165583,1,0,1:0:0:0:
448,0,165675,128,0,165861:0:0:0:0:
64,0,165768,128,0,165953:0:0:0:0:
320,0,165861,128,0,166138:0:0:0:0:
192,0,165953,128,0,166046:0:0:0:0:
448,0,165953,1,0,1:0:0:0:
64,0,166046,128,0,166231:0:0:0:0:
448,0,166046,1,0,1:0:0:0:
192,0,166138,128,0,166324:0:0:0:0:
320,0,166231,128,0,166416:0:0:0:0:
448,0,166231,1,0,1:0:0:0:
64,0,166324,128,0,166509:0:0:0:0:
192,0,166416,128,0,166509:0:0:0:0:
320,0,166509,1,0,1:0:0:0:
448,0,166509,128,0,166601:0:0:0:0:
64,0,166601,128,0,166787:0:0:0:0:
192,0,166601,1,0,1:0:0:0:
320,0,166694,128,0,166787:0:0:0:0:
448,0,166694,1,0,1:0:0:0:
192,0,166787,128,0,166879:0:0:0:0:
64,0,166879,128,0,166972:0:0:0:0:
320,0,166879,1,0,1:0:0:0:
448,0,166972,1,0,1:0:0:0:
192,0,166972,128,0,167250:0:0:0:0:
64,0,167064,1,0,1:0:0:0:
320,0,167064,128,0,167250:0:0:0:0:
448,0,167157,128,0,167342:0:0:0:0:
64,0,167250,128,0,167435:0:0:0:0:
320,0,167342,128,0,167620:0:0:0:0:
192,0,167435,1,0,1:0:0:0:
448,0,167435,128,0,167527:0:0:0:0:
64,0,167527,128,0,167713:0:0:0:0:
192,0,167527,1,0,1:0:0:0:
448,0,167620,128,0,167898:0:0:0:0:
192,0,167713,1,0,1:0:0:0:
320,0,167713,128,0,167990:0:0:0:0:
64,0,167805,128,0,167898:0:0:0:0:
192,0,167898,128,0,167990:0:0:0:0:
64,0,167990,1,0,1:0:0:0:
448,0,167990,128,0,168083:0:0:0:0:
192,0,168083,1,0,1:0:0:0:
320,0,168083,128,0,168268:0:0:0:0:
64,0,168175,1,0,1:0:0:0:
448,0,168175,128,0,168361:0:0:0:0:
192,0,168268,128,0,168361:0:0:0:0:
320,0,168361,128,0,168453:0:0:0:0:
192,0,168453,1,0,1:0:0:0:
448,0,168453,128,0,168638:0:0:0:0:
64,0,168546,1,0,1:0:0:0:
320,0,168546,128,0,168824:0:0:0:0:
192,0,168638,128,0,168824:0:0:0:0:
448,0,168731,128,0,169009:0:0:0:0:
64,0,168824,128,0,168916:0:0:0:0:
192,0,168916,128,0,169009:0:0:0:0:
320,0,168916,1,0,1:0:0:0:
64,0,169009,128,0,169194:0:0:0:0:
320,0,169009,1,0,1:0:0:0:
192,0,169101,128,0,169287:0:0:0:0:
320,0,169194,1,0,1:0:0:0:
448,0,169194,128,0,169472:0:0:0:0:
64,0,169287,128,0,169379:0:0:0:0:
192,0,169379,128,0,169472:0:0:0:0:
64,0,169472,1,0,1:0:0:0:
320,0,169472,128,0,169564:0:0:0:0:
192,0,169564,1,0,1:0:0:0:
448,0,169564,128,0,169750:0:0:0:0:
320,0,169657,128,0,169842:0:0:0:0:
192,0,169750,128,0,169842:0:0:0:0:
64,0,169842,1,0,1:0:0:0:
448,0,169842,128,0,169935:0:0:0:0:
320,0,169935,1,0,1:0:0:0:
192,0,169935,128,0,170027:0:0:0:0:
64,0,170027,128,0,170120:0:0:0:0:
448,0,170027,1,0,1:0:0:0:
320,0,170120,128,0,170305:0:0:0:0:
64,0,170213,128,0,170305:0:0:0:0:
192,0,170305,128,0,170583:0:0:0:0:
64,0,170398,1,0,1:0:0:0:
320,0,170398,128,0,170490:0:0:0:0:
64,0,170490,1,0,1:0:0:0:
448,0,170490,128,0,170675:0:0:0:0:
320,0,170583,128,0,171231:0:0:0:0:
64,0,170675,1,0,1:0:0:0:
192,0,170675,128,0,170861:0:0:0:0:
448,0,170768,128,0,170953:0:0:0:0:
64,0,170861,128,0,171046:0:0:0:0:
192,0,170953,128,0,171046:0:0:0:0:
448,0,171046,128,0,171138:0:0:0:0:
192,0,171138,128,0,171324:0:0:0:0:
64,0,171185,1,0,1:0:0:0:
448,0,171231,128,0,171416:0:0:0:0:
320,0,171324,128,0,171416:0:0:0:0:
192,0,171416,1,0,1:0:0:0:
64,0,171416,128,0,171509:0:0:0:0:
192,0,171509,1,0,1:0:0:0:
320,0,171509,128,0,171787:0:0:0:0:
448,0,171509,1,0,1:0:0:0:
64,0,171601,128,0,171787:0:0:0:0:
448,0,171694,128,0,171879:0:0:0:0:
192,0,171787,128,0,171972:0:0:0:0:
64,0,171879,128,0,172157:0:0:0:0:
320,0,171879,1,0,1:0:0:0:
320,0,171972,1,0,1:0:0:0:
448,0,171972,128,0,172064:0:0:0:0:
192,0,172064,128,0,172157:0:0:0:0:
320,0,172157,1,0,1:0:0:0:
448,0,172157,128,0,172435:0:0:0:0:
192,0,172250,128,0,172342:0:0:0:0:
320,0,172342,128,0,172435:0:0:0:0:
64,0,172435,128,0,172527:0:0:0:0:
192,0,172435,1,0,1:0:0:0:
320,0,172527,1,0,1:0:0:0:
448,0,172527,128,0,172713:0:0:0:0:
64,0,172620,1,0,1:0:0:0:
192,0,172620,128,0,172713:0:0:0:0:
320,0,172713,128,0,172805:0:0:0:0:
192,0,172805,128,0,172898:0:0:0:0:
448,0,172805,1,0,1:0:0:0:
64,0,172898,1,0,1:0:0:0:
320,0,172898,128,0,173268:0:0:0:0:
192,0,172990,128,0,173175:0:0:0:0:
448,0,172990,1,0,1:0:0:0:
64,0,173083,128,0,173268:0:0:0:0:
448,0,173175,128,0,173268:0:0:0:0:
192,0,173268,128,0,173546:0:0:0:0:
64,0,173361,1,0,1:0:0:0:
320,0,173361,128,0,173453:0:0:0:0:
64,0,173453,1,0,1:0:0:0:
448,0,173453,128,0,173638:0:0:0:0:
320,0,173546,128,0,173731:0:0:0:0:
64,0,173638,1,0,1:0:0:0:
192,0,173638,128,0,173824:0:0:0:0:
448,0,173731,128,0,173916:0:0:0:0:
320,0,173824,128,0,173916:0:0:0:0:
64,0,173916,128,0,174009:0:0:0:0:
192,0,173916,1,0,1:0:0:0:
320,0,174009,1,0,1:0:0:0:
448,0,174009,128,0,174194:0:0:0:0:
64,0,174101,128,0,174379:0:0:0:0:
192,0,174101,1,0,1:0:0:0:
320,0,174194,128,0,174287:0:0:0:0:
448,0,174287,128,0,174379:0:0:0:0:
192,0,174379,1,0,1:0:0:0:
320,0,174379,128,0,174657:0:0:0:0:
64,0,174472,1,0,1:0:0:0:
448,0,174472,128,0,174750:0:0:0:0:
192,0,174564,128,0,174750:0:0:0:0:
64,0,174657,128,0,174842:0:0:0:0:
320,0,174750,128,0,175027:0:0:0:0:
192,0,174842,1,0,1:0:0:0:
448,0,174842,128,0,174935:0:0:0:0:
64,0,174935,128,0,175120:0:0:0:0:
192,0,174935,1,0,1:0:0:0:
448,0,175027,128,0,175305:0:0:0:0:
192,0,175120,1,0,1:0:0:0:
320,0,175120,128,0,175305:0:0:0:0:
64,0,175213,128,0,175398:0:0:0:0:
192,0,175305,128,0,175398:0:0:0:0:
320,0,175398,128,0,175490:0:0:0:0:
448,0,175398,1,0,1:0:0:0:
64,0,175490,128,0,175675:0:0:0:0:
192,0,175490,1,0,1:0:0:0:
320,0,175583,1,0,1:0:0:0:
448,0,175583,128,0,175675:0:0:0:0:
192,0,175675,128,0,175768:0:0:0:0:
64,0,175768,1,0,1:0:0:0:
320,0,175768,128,0,175861:0:0:0:0:
448,0,175861,1,0,1:0:0:0:
192,0,175861,128,0,176231:0:0:0:0:
64,0,175953,128,0,176046:0:0:0:0:
320,0,175953,1,0,1:0:0:0:
448,0,176046,128,0,176231:0:0:0:0:
64,0,176138,128,0,176509:0:0:0:0:
320,0,176231,128,0,176324:0:0:0:0:
192,0,176324,128,0,176416:0:0:0:0:
448,0,176324,1,0,1:0:0:0:
320,0,176416,128,0,176601:0:0:0:0:
448,0,176416,1,0,1:0:0:0:
192,0,176509,128,0,176694:0:0:0:0:
64,0,176601,128,0,176879:0:0:0:0:
448,0,176601,1,0,1:0:0:0:
320,0,176694,128,0,176787:0:0:0:0:
192,0,176787,128,0,176879:0:0:0:0:
320,0,176879,1,0,1:0:0:0:
448,0,176879,128,0,177064:0:0:0:0:
64,0,176972,128,0,177250:0:0:0:0:
192,0,176972,1,0,1:0:0:0:
320,0,177064,128,0,177157:0:0:0:0:
448,0,177111,1,0,1:0:0:0:
192,0,177157,128,0,177250:0:0:0:0:
320,0,177203,1,0,1:0:0:0:
448,0,177250,128,0,177342:0:0:0:0:
192,0,177296,1,0,1:0:0:0:
320,0,177342,1,0,1:0:0:0:
64,0,177342,128,0,177435:0:0:0:0:
192,0,177435,128,0,177713:0:0:0:0:
320,0,177435,1,0,1:0:0:0:
448,0,177435,1,0,1:0:0:0:
64,0,177527,128,0,177713:0:0:0:0:
448,0,177620,128,0,177805:0:0:0:0:
320,0,177713,128,0,177990:0:0:0:0:
64,0,177805,1,0,1:0:0:0:
192,0,177805,128,0,177898:0:0:0:0:
64,0,177898,1,0,1:0:0:0:
448,0,177898,128,0,178083:0:0:0:0:
192,0,177990,128,0,178175:0:0:0:0:
64,0,178083,1,0,1:0:0:0:
320,0,178083,128,0,178268:0:0:0:0:
448,0,178175,128,0,178361:0:0:0:0:
192,0,178268,128,0,178361:0:0:0:0:
64,0,178361,128,0,178453:0:0:0:0:
320,0,178361,1,0,1:0:0:0:
192,0,178453,1,0,1:0:0:0:
448,0,178453,128,0,178638:0:0:0:0:
64,0,178546,1,0,1:0:0:0:
320,0,178546,128,0,178638:0:0:0:0:
192,0,178638,128,0,178731:0:0:0:0:
320,0,178731,1,0,1:0:0:0:
448,0,178731,128,0,178824:0:0:0:0:
64,0,178824,1,0,1:0:0:0:
192,0,178824,128,0,179101:0:0:0:0:
320,0,178916,128,0,179101:0:0:0:0:
448,0,178916,1,0,1:0:0:0:
64,0,179009,128,0,179194:0:0:0:0:
448,0,179101,128,0,179287:0:0:0:0:
320,0,179194,128,0,179472:0:0:0:0:
64,0,179287,128,0,179379:0:0:0:0:
192,0,179287,1,0,1:0:0:0:
192,0,179379,1,0,1:0:0:0:
448,0,179379,128,0,179564:0:0:0:0:
64,0,179472,128,0,179750:0:0:0:0:
192,0,179564,1,0,1:0:0:0:
320,0,179564,128,0,179842:0:0:0:0:
448,0,179657,128,0,179750:0:0:0:0:
192,0,179750,128,0,179842:0:0:0:0:
64,0,179842,128,0,179935:0:0:0:0:
448,0,179842,1,0,1:0:0:0:
192,0,179935,1,0,1:0:0:0:
320,0,179935,128,0,180120:0:0:0:0:
64,0,180027,128,0,180212:0:0:0:0:
448,0,180027,1,0,1:0:0:0:
192,0,180120,128,0,180212:0:0:0:0:
320,0,180212,128,0,180305:0:0:0:0:
192,0,180305,1,0,1:0:0:0:
64,0,180305,128,0,180490:0:0:0:0:
320,0,180398,128,0,180675:0:0:0:0:
448,0,180398,1,0,1:0:0:0:
192,0,180490,128,0,180675:0:0:0:0:
64,0,180583,128,0,180861:0:0:0:0:
448,0,180675,128,0,180768:0:0:0:0:
192,0,180768,128,0,180861:0:0:0:0:
320,0,180768,1,0,1:0:0:0:
320,0,180861,1,0,1:0:0:0:
448,0,180861,128,0,181046:0:0:0:0:
192,0,180953,128,0,181138:0:0:0:0:
64,0,181046,128,0,181324:0:0:0:0:
320,0,181046,1,0,1:0:0:0:
448,0,181138,128,0,181231:0:0:0:0:
192,0,181231,128,0,181324:0:0:0:0:
320,0,181324,128,0,181416:0:0:0:0:
448,0,181324,1,0,1:0:0:0:
64,0,181416,128,0,181601:0:0:0:0:
192,0,181416,1,0,1:0:0:0:
320,0,181509,128,0,181694:0:0:0:0:
192,0,181601,128,0,181694:0:0:0:0:
64,0,181694,128,0,181787:0:0:0:0:
448,0,181694,1,0,1:0:0:0:
320,0,181787,1,0,1:0:0:0:
192,0,181787,128,0,182064:0:0:0:0:
64,0,181879,128,0,182250:0:0:0:0:
448,0,181879,1,0,1:0:0:0:
320,0,181972,128,0,182157:0:0:0:0:
448,0,182064,128,0,182157:0:0:0:0:
192,0,182157,128,0,182435:0:0:0:0:
320,0,182250,128,0,182342:0:0:0:0:
448,0,182250,1,0,1:0:0:0:
64,0,182342,128,0,182527:0:0:0:0:
448,0,182342,1,0,1:0:0:0:
320,0,182435,128,0,182620:0:0:0:0:
192,0,182527,128,0,182620:0:0:0:0:
448,0,182527,1,0,1:0:0:0:
64,0,182620,128,0,182712:0:0:0:0:
448,0,182666,1,0,1:0:0:0:
320,0,182712,128,0,182805:0:0:0:0:
192,0,182759,1,0,1:0:0:0:
448,0,182805,128,0,182898:0:0:0:0:
64,0,182851,1,0,1:0:0:0:
192,0,182898,128,0,182990:0:0:0:0:
320,0,182944,1,0,1:0:0:0:
64,0,182990,128,0,183083:0:0:0:0:
448,0,183037,1,0,1:0:0:0:
320,0,183083,128,0,183175:0:0:0:0:
192,0,183129,1,0,1:0:0:0:
448,0,183175,128,0,183268:0:0:0:0:
64,0,183222,1,0,1:0:0:0:
192,0,183268,128,0,183361:0:0:0:0:
64,0,183314,1,0,1:0:0:0:
320,0,183361,128,0,184379:0:0:0:0:
448,0,183361,128,0,183546:0:0:0:0:
192,0,183453,128,0,183638:0:0:0:0:
64,0,183546,128,0,183731:0:0:0:0:
448,0,183638,128,0,183823:0:0:0:0:
192,0,183731,128,0,183916:0:0:0:0:
64,0,183823,128,0,184009:0:0:0:0:
448,0,183916,128,0,184101:0:0:0:0:
192,0,184009,128,0,184194:0:0:0:0:
64,0,184101,128,0,184286:0:0:0:0:
448,0,184194,128,0,184379:0:0:0:0:
192,0,184286,128,0,184472:0:0:0:0:
64,0,184379,128,0,184564:0:0:0:0:
320,0,184472,128,0,184657:0:0:0:0:
448,0,184472,128,0,185490:0:0:0:0:
192,0,184564,128,0,184749:0:0:0:0:
64,0,184657,128,0,184842:0:0:0:0:
320,0,184749,128,0,184935:0:0:0:0:
192,0,184842,128,0,185027:0:0:0:0:
64,0,184935,128,0,185120:0:0:0:0:
320,0,185027,128,0,185212:0:0:0:0:
192,0,185120,128,0,185305:0:0:0:0:
64,0,185212,128,0,185398:0:0:0:0:
320,0,185305,128,0,185490:0:0:0:0:
192,0,185398,128,0,185583:0:0:0:0:
64,0,185490,128,0,185675:0:0:0:0:
448,0,185583,128,0,185768:0:0:0:0:
320,0,185583,128,0,186601:0:0:0:0:
192,0,185675,128,0,185860:0:0:0:0:
64,0,185768,128,0,185953:0:0:0:0:
448,0,185860,128,0,186046:0:0:0:0:
192,0,185953,128,0,186138:0:0:0:0:
64,0,186046,128,0,186231:0:0:0:0:
448,0,186138,128,0,186323:0:0:0:0:
192,0,186231,128,0,186416:0:0:0:0:
64,0,186323,128,0,186509:0:0:0:0:
448,0,186416,128,0,186601:0:0:0:0:
192,0,186509,128,0,186694:0:0:0:0:
64,0,186601,128,0,186786:0:0:0:0:
320,0,186694,128,0,186879:0:0:0:0:
448,0,186694,128,0,187712:0:0:0:0:
192,0,186786,128,0,186972:0:0:0:0:
64,0,186879,128,0,187064:0:0:0:0:
320,0,186972,128,0,187157:0:0:0:0:
192,0,187064,128,0,187249:0:0:0:0:
64,0,187157,128,0,187342:0:0:0:0:
320,0,187249,128,0,187435:0:0:0:0:
192,0,187342,128,0,187527:0:0:0:0:
64,0,187435,128,0,187620:0:0:0:0:
320,0,187527,128,0,187712:0:0:0:0:
192,0,187620,128,0,187805:0:0:0:0:
64,0,187712,128,0,187898:0:0:0:0:
320,0,187805,128,0,188916:0:0:0:0:
448,0,187805,128,0,187990:0:0:0:0:
192,0,187898,128,0,188083:0:0:0:0:
64,0,187990,128,0,188175:0:0:0:0:
448,0,188083,128,0,188268:0:0:0:0:
192,0,188175,128,0,188360:0:0:0:0:
64,0,188268,128,0,188453:0:0:0:0:
448,0,188360,128,0,188546:0:0:0:0:
192,0,188453,128,0,188638:0:0:0:0:
64,0,188546,128,0,188731:0:0:0:0:
448,0,188638,128,0,188823:0:0:0:0:
192,0,188731,128,0,188823:0:0:0:0:
64,0,188823,128,0,189009:0:0:0:0:
448,0,188916,128,0,189101:0:0:0:0:
192,0,188916,128,0,189564:0:0:0:0:
320,0,189009,128,0,189194:0:0:0:0:
64,0,189101,128,0,189286:0:0:0:0:
448,0,189194,128,0,189379:0:0:0:0:
320,0,189286,128,0,189472:0:0:0:0:
64,0,189379,128,0,190120:0:0:0:0:
448,0,189472,128,0,189657:0:0:0:0:
320,0,189564,128,0,189749:0:0:0:0:
192,0,189657,128,0,189842:0:0:0:0:
448,0,189749,128,0,189935:0:0:0:0:
320,0,189842,128,0,190027:0:0:0:0:
192,0,189935,128,0,190305:0:0:0:0:
448,0,190027,128,0,190212:0:0:0:0:
320,0,190120,128,0,190490:0:0:0:0:
64,0,190212,128,0,190398:0:0:0:0:
448,0,190305,128,0,190768:0:0:0:0:
192,0,190398,128,0,190583:0:0:0:0:
64,0,190490,128,0,190675:0:0:0:0:
320,0,190583,128,0,190860:0:0:0:0:
192,0,190675,128,0,190953:0:0:0:0:
64,0,190768,128,0,191231:0:0:0:0:
448,0,190860,128,0,191046:0:0:0:0:
320,0,190953,128,0,191138:0:0:0:0:
192,0,191046,128,0,191416:0:0:0:0:
448,0,191138,128,0,191323:0:0:0:0:
320,0,191231,128,0,191601:0:0:0:0:
64,0,191323,128,0,191509:0:0:0:0:
448,0,191416,128,0,191879:0:0:0:0:
192,0,191509,128,0,191694:0:0:0:0:
64,0,191601,128,0,191786:0:0:0:0:
320,0,191694,128,0,191972:0:0:0:0:
192,0,191786,128,0,192064:0:0:0:0:
64,0,191879,128,0,192342:0:0:0:0:
448,0,191972,128,0,192157:0:0:0:0:
320,0,192064,128,0,192157:0:0:0:0:
192,0,192157,128,0,192249:0:0:0:0:
320,0,192249,128,0,192435:0:0:0:0:
448,0,192249,128,0,192342:0:0:0:0:
192,0,192342,128,0,192435:0:0:0:0:
64,0,192435,128,0,192620:0:0:0:0:
448,0,192435,128,0,192527:0:0:0:0:
192,0,192527,128,0,192620:0:0:0:0:
320,0,192527,128,0,192712:0:0:0:0:
448,0,192620,128,0,192712:0:0:0:0:
64,0,192712,128,0,192898:0:0:0:0:
192,0,192712,128,0,192805:0:0:0:0:
320,0,192805,128,0,192990:0:0:0:0:
448,0,192805,128,0,192898:0:0:0:0:
192,0,192898,128,0,192990:0:0:0:0:
64,0,192990,128,0,193083:0:0:0:0:
448,0,192990,128,0,193175:0:0:0:0:
192,0,193083,128,0,193268:0:0:0:0:
320,0,193083,128,0,193175:0:0:0:0:
64,0,193175,128,0,193268:0:0:0:0:
320,0,193268,128,0,193453:0:0:0:0:
448,0,193268,128,0,193360:0:0:0:0:
64,0,193360,128,0,193453:0:0:0:0:
192,0,193360,128,0,193546:0:0:0:0:
448,0,193453,128,0,193546:0:0:0:0:
320,0,193546,128,0,193638:0:0:0:0:
64,0,193546,128,0,193731:0:0:0:0:
192,0,193638,128,0,193823:0:0:0:0:
448,0,193638,128,0,193731:0:0:0:0:
320,0,193731,128,0,193823:0:0:0:0:
64,0,193823,128,0,194009:0:0:0:0:
448,0,193823,128,0,193916:0:0:0:0:
192,0,193916,128,0,194009:0:0:0:0:
320,0,193916,128,0,194101:0:0:0:0:
448,0,194009,128,0,194101:0:0:0:0:
64,0,194101,128,0,194286:0:0:0:0:
192,0,194101,128,0,194194:0:0:0:0:
320,0,194194,128,0,194286:0:0:0:0:
448,0,194194,128,0,194379:0:0:0:0:
192,0,194286,128,0,194379:0:0:0:0:
64,0,194379,128,0,194564:0:0:0:0:
320,0,194379,128,0,194472:0:0:0:0:
192,0,194472,128,0,194657:0:0:0:0:
448,0,194472,128,0,194564:0:0:0:0:
320,0,194564,128,0,194657:0:0:0:0:
64,0,194657,128,0,194749:0:0:0:0:
448,0,194657,128,0,194842:0:0:0:0:
192,0,194749,128,0,194935:0:0:0:0:
320,0,194749,128,0,194842:0:0:0:0:
64,0,194842,128,0,194935:0:0:0:0:
320,0,194935,128,0,195120:0:0:0:0:
448,0,194935,128,0,195027:0:0:0:0:
192,0,195027,128,0,195120:0:0:0:0:
64,0,195027,128,0,195212:0:0:0:0:
448,0,195120,128,0,195212:0:0:0:0:
192,0,195212,128,0,195398:0:0:0:0:
320,0,195212,128,0,195305:0:0:0:0:
64,0,195305,128,0,195490:0:0:0:0:
448,0,195305,128,0,195398:0:0:0:0:
320,0,195398,128,0,195490:0:0:0:0:
192,0,195490,128,0,195583:0:0:0:0:
448,0,195490,128,0,195675:0:0:0:0:
64,0,195583,128,0,195675:0:0:0:0:
320,0,195583,128,0,195768:0:0:0:0:
192,0,195675,128,0,195768:0:0:0:0:
64,0,195768,128,0,195953:0:0:0:0:
448,0,195768,128,0,195860:0:0:0:0:
192,0,195860,128,0,196046:0:0:0:0:
320,0,195860,128,0,195953:0:0:0:0:
448,0,195953,128,0,196046:0:0:0:0:
64,0,196046,128,0,196231:0:0:0:0:
320,0,196046,128,0,196138:0:0:0:0:
192,0,196138,128,0,196323:0:0:0:0:
448,0,196138,128,0,196231:0:0:0:0:
320,0,196231,128,0,196323:0:0:0:0:
64,0,196323,128,0,196416:0:0:0:0:
448,0,196323,128,0,196509:0:0:0:0:
192,0,196416,128,0,196601:0:0:0:0:
320,0,196416,128,0,196509:0:0:0:0:
64,0,196509,128,0,196601:0:0:0:0:
320,0,196601,128,0,196694:0:0:0:0:
448,0,196601,128,0,196786:0:0:0:0:
64,0,196694,128,0,196786:0:0:0:0:
192,0,196694,128,0,196879:0:0:0:0:
320,0,196786,128,0,196879:0:0:0:0:
64,0,196879,128,0,196972:0:0:0:0:
448,0,196879,128,0,197064:0:0:0:0:
192,0,196972,128,0,197157:0:0:0:0:
320,0,196972,128,0,197064:0:0:0:0:
64,0,197064,128,0,197157:0:0:0:0:
320,0,197157,128,0,197249:0:0:0:0:
448,0,197157,128,0,197342:0:0:0:0:
64,0,197249,128,0,197342:0:0:0:0:
192,0,197249,128,0,197435:0:0:0:0:
320,0,197342,128,0,197435:0:0:0:0:
64,0,197435,128,0,197527:0:0:0:0:
448,0,197435,128,0,197620:0:0:0:0:
192,0,197527,128,0,197620:0:0:0:0:
320,0,197527,128,0,197712:0:0:0:0:
64,0,197620,128,0,197712:0:0:0:0:
192,0,197712,128,0,197805:0:0:0:0:
448,0,197712,128,0,197898:0:0:0:0:
64,0,197805,128,0,197990:0:0:0:0:
320,0,197805,128,0,197898:0:0:0:0:
192,0,197898,128,0,197990:0:0:0:0:
448,0,197990,128,0,198083:0:0:0:0:
320,0,197990,128,0,198175:0:0:0:0:
64,0,198083,128,0,198268:0:0:0:0:
192,0,198083,128,0,198175:0:0:0:0:
448,0,198175,128,0,198268:0:0:0:0:
192,0,198268,128,0,198360:0:0:0:0:
320,0,198268,128,0,198453:0:0:0:0:
64,0,198360,128,0,198546:0:0:0:0:
448,0,198360,128,0,198453:0:0:0:0:
192,0,198453,128,0,198546:0:0:0:0:
320,0,198546,128,0,198638:0:0:0:0:
448,0,198546,128,0,198731:0:0:0:0:
64,0,198638,128,0,198823:0:0:0:0:
192,0,198638,128,0,198731:0:0:0:0:
320,0,198731,128,0,198823:0:0:0:0:
192,0,198823,128,0,198916:0:0:0:0:
448,0,198823,128,0,199009:0:0:0:0:
64,0,198916,128,0,199101:0:0:0:0:
320,0,198916,128,0,199009:0:0:0:0:
192,0,199009,128,0,199101:0:0:0:0:
320,0,199101,128,0,199286:0:0:0:0:
448,0,199101,128,0,199194:0:0:0:0:
64,0,199194,128,0,199379:0:0:0:0:
192,0,199194,128,0,199286:0:0:0:0:
448,0,199286,128,0,199379:0:0:0:0:
192,0,199379,128,0,199472:0:0:0:0:
320,0,199379,128,0,199472:0:0:0:0:
64,0,199472,128,0,199564:0:0:0:0:
448,0,199472,128,0,199564:0:0:0:0:
192,0,199564,128,0,199657:0:0:0:0:
320,0,199657,128,0,199842:0:0:0:0:
448,0,199657,128,0,199749:0:0:0:0:
64,0,199749,128,0,199935:0:0:0:0:
192,0,199749,128,0,200027:0:0:0:0:
448,0,199842,128,0,199935:0:0:0:0:
320,0,199935,128,0,200027:0:0:0:0:
64,0,200027,128,0,200120:0:0:0:0:
448,0,200027,128,0,200120:0:0:0:0:
192,0,200120,128,0,200212:0:0:0:0:
320,0,200120,128,0,200305:0:0:0:0:
64,0,200212,128,0,200398:0:0:0:0:
448,0,200212,128,0,200305:0:0:0:0:
192,0,200305,1,0,1:0:0:0:
320,0,200398,128,0,200675:0:0:0:0:
448,0,200444,1,0,1:0:0:0:
64,0,200490,128,0,200675:0:0:0:0:
192,0,200536,1,0,1:0:0:0:
448,0,200583,128,0,200768:0:0:0:0:
192,0,200675,128,0,200768:0:0:0:0:
320,0,200768,128,0,200860:0:0:0:0:
64,0,200814,1,0,1:0:0:0:
448,0,200860,128,0,200953:0:0:0:0:
192,0,200907,1,0,1:0:0:0:
64,0,200953,128,0,201046:0:0:0:0:
320,0,200953,128,0,201046:0:0:0:0:
192,0,201046,128,0,201415:0:0:0:0:
64,0,201138,128,0,201600:0:0:0:0:
320,0,201138,128,0,201508:0:0:0:0:
448,0,201138,128,0,201508:0:0:0:0:
192,0,201508,128,0,201786:0:0:0:0:
320,0,201600,128,0,201693:0:0:0:0:
64,0,201693,1,0,1:0:0:0:
448,0,201693,128,0,201878:0:0:0:0:
320,0,201786,128,0,202063:0:0:0:0:
192,0,201878,128,0,201971:0:0:0:0:
448,0,201971,128,0,202156:0:0:0:0:
192,0,202063,128,0,202156:0:0:0:0:
320,0,202156,128,0,202434:0:0:0:0:
192,0,202249,1,0,1:0:0:0:
448,0,202249,128,0,203082:0:0:0:0:
64,0,202341,128,0,202526:0:0:0:0:
192,0,202434,128,0,202526:0:0:0:0:
320,0,202526,128,0,202619:0:0:0:0:
64,0,202619,128,0,202804:0:0:0:0:
192,0,202619,1,0,1:0:0:0:
320,0,202712,128,0,203082:0:0:0:0:
192,0,202804,128,0,203175:0:0:0:0:
64,0,202897,128,0,203175:0:0:0:0:
320,0,203175,1,0,1:0:0:0:
448,0,203175,1,0,1:0:0:0:
64,0,203730,1,0,1:0:0:0:
448,0,203730,128,0,204008:0:0:0:0:
192,0,203823,128,0,204008:0:0:0:0:
320,0,203915,128,0,204100:0:0:0:0:
64,0,204008,128,0,204193:0:0:0:0:
192,0,204100,128,0,204286:0:0:0:0:
448,0,204100,1,0,1:0:0:0:
320,0,204193,128,0,204471:0:0:0:0:
64,0,204286,128,0,204378:0:0:0:0:
192,0,204378,128,0,204563:0:0:0:0:
64,0,204471,128,0,205119:0:0:0:0:
448,0,204563,128,0,204656:0:0:0:0:
192,0,204656,1,0,1:0:0:0:
320,0,204656,128,0,205026:0:0:0:0:
448,192,204749,128,0,204841:0:0:0:0:
192,0,204841,128,0,204934:0:0:0:0:
448,0,204934,128,0,205119:0:0:0:0:
192,0,205026,128,0,205489:0:0:0:0:
320,0,205119,128,0,205212:0:0:0:0:
64,0,205212,1,0,1:0:0:0:
448,0,205212,128,0,205489:0:0:0:0:
320,0,205304,128,0,205397:0:0:0:0:
64,0,205397,128,0,205675:0:0:0:0:
320,0,205489,128,0,205582:0:0:0:0:
192,0,205582,128,0,205767:0:0:0:0:
448,0,205582,1,0,1:0:0:0:
320,0,205675,128,0,205952:0:0:0:0:
64,0,205767,128,0,205952:0:0:0:0:
192,0,205860,128,0,206045:0:0:0:0:
448,0,205952,128,0,206415:0:0:0:0:
320,0,206045,1,0,1:0:0:0:
64,0,206137,1,0,1:0:0:0:
192,0,206137,128,0,206508:0:0:0:0:
320,0,206230,128,0,206323:0:0:0:0:
64,0,206323,128,0,206600:0:0:0:0:
320,0,206415,128,0,206508:0:0:0:0:
448,0,206508,128,0,206693:0:0:0:0:
320,0,206600,128,0,206786:0:0:0:0:
64,0,206693,1,0,1:0:0:0:
192,0,206693,128,0,206878:0:0:0:0:
448,0,206786,128,0,206971:0:0:0:0:
320,0,206878,128,0,207156:0:0:0:0:
192,0,206971,128,0,207063:0:0:0:0:
64,0,207063,128,0,207156:0:0:0:0:
448,0,207063,1,0,1:0:0:0:
192,0,207156,128,0,207249:0:0:0:0:
320,0,207249,128,0,207341:0:0:0:0:
64,0,207341,128,0,207619:0:0:0:0:
192,0,207434,128,0,207526:0:0:0:0:
320,0,207526,128,0,207619:0:0:0:0:
192,0,207619,1,0,1:0:0:0:
448,0,207619,128,0,207804:0:0:0:0:
64,0,207712,128,0,207897:0:0:0:0:
320,0,207804,128,0,208175:0:0:0:0:
448,0,207897,128,0,208082:0:0:0:0:
64,0,207989,128,0,208082:0:0:0:0:
192,0,208082,128,0,208267:0:0:0:0:
64,0,208175,1,0,1:0:0:0:
448,0,208175,128,0,208637:0:0:0:0:
320,0,208267,128,0,208360:0:0:0:0:
64,0,208360,128,0,208452:0:0:0:0:
320,0,208452,128,0,208545:0:0:0:0:
64,0,208545,1,0,1:0:0:0:
192,0,208545,128,0,208915:0:0:0:0:
320,0,208637,128,0,208823:0:0:0:0:
448,0,208730,128,0,208915:0:0:0:0:
64,0,208823,128,0,209008:0:0:0:0:
320,0,208915,128,0,209471:0:0:0:0:
192,0,209008,128,0,209100:0:0:0:0:
64,0,209100,128,0,209286:0:0:0:0:
448,0,209100,1,0,1:0:0:0:
192,0,209193,128,0,209378:0:0:0:0:
448,0,209286,128,0,209563:0:0:0:0:
64,0,209378,128,0,209841:0:0:0:0:
192,0,209471,128,0,209563:0:0:0:0:
320,0,209563,128,0,209656:0:0:0:0:
192,0,209656,1,0,1:0:0:0:
448,0,209656,128,0,209934:0:0:0:0:
320,0,209749,128,0,209934:0:0:0:0:
192,0,209841,128,0,210675:0:0:0:0:
64,0,209934,128,0,210026:0:0:0:0:
320,0,210026,128,0,210489:0:0:0:0:
448,0,210026,128,0,210119:0:0:0:0:
64,0,210119,128,0,210397:0:0:0:0:
448,0,210212,1,0,1:0:0:0:
448,0,210304,1,0,1:0:0:0:
448,0,210397,128,0,210489:0:0:0:0:
64,0,210489,128,0,210582:0:0:0:0:
320,0,210582,128,0,210767:0:0:0:0:
448,0,210582,1,0,1:0:0:0:
64,0,210675,128,0,210767:0:0:0:0:
192,0,210767,1,0,1:0:0:0:
448,0,210767,128,0,210860:0:0:0:0:
320,0,210860,128,0,210952:0:0:0:0:
64,0,210952,128,0,211045:0:0:0:0:
448,0,210999,1,0,1:0:0:0:
192,0,211045,128,0,211137:0:0:0:0:
448,0,211091,1,0,1:0:0:0:
64,0,211137,1,0,1:0:0:0:
320,0,211137,128,0,211323:0:0:0:0:
64,0,211230,128,0,211508:0:0:0:0:
448,0,211323,128,0,211415:0:0:0:0:
192,0,211415,128,0,211508:0:0:0:0:
320,0,211508,1,0,1:0:0:0:
448,0,211508,128,0,211600:0:0:0:0:
64,0,211600,128,0,211786:0:0:0:0:
320,0,211693,128,0,211786:0:0:0:0:
448,0,211786,128,0,211971:0:0:0:0:
192,0,211878,128,0,212063:0:0:0:0:
64,0,211925,1,0,1:0:0:0:
320,0,211971,128,0,212156:0:0:0:0:
64,0,212063,128,0,212156:0:0:0:0:
192,0,212156,128,0,212341:0:0:0:0:
448,0,212249,128,0,212434:0:0:0:0:
320,0,212341,128,0,212434:0:0:0:0:
192,0,212434,128,0,212526:0:0:0:0:
64,0,212480,1,0,1:0:0:0:
448,0,212526,128,0,212619:0:0:0:0:
320,0,212573,1,0,1:0:0:0:
64,0,212619,1,0,1:0:0:0:
192,0,212619,128,0,212712:0:0:0:0:
320,0,212665,1,0,1:0:0:0:
64,0,212712,128,0,212804:0:0:0:0:
448,0,212758,1,0,1:0:0:0:
320,0,212804,128,0,212989:0:0:0:0:
192,0,212850,1,0,1:0:0:0:
64,0,212897,1,0,1:0:0:0:
192,0,212989,128,0,213082:0:0:0:0:
448,0,212989,1,0,1:0:0:0:
64,0,213082,1,0,1:0:0:0:
320,0,213082,128,0,213175:0:0:0:0:
64,0,213175,128,0,213267:0:0:0:0:
192,0,213175,1,0,1:0:0:0:
320,0,213267,1,0,1:0:0:0:
448,0,213267,128,0,213360:0:0:0:0:
64,0,213360,1,0,1:0:0:0:
192,0,213360,128,0,213452:0:0:0:0:
448,0,213452,128,0,213545:0:0:0:0:
64,0,213545,128,0,213637:0:0:0:0:
320,0,213545,1,0,1:0:0:0:
192,0,213637,128,0,213730:0:0:0:0:
448,0,213637,1,0,1:0:0:0:
64,0,213730,128,0,213823:0:0:0:0:
320,0,213730,1,0,1:0:0:0:
192,0,213823,128,0,213915:0:0:0:0:
448,0,213823,1,0,1:0:0:0:
320,0,213915,128,0,214008:0:0:0:0:
448,0,213915,1,0,1:0:0:0:
192,0,214008,128,0,214100:0:0:0:0:
64,0,214100,128,0,214193:0:0:0:0:
320,0,214100,1,0,1:0:0:0:
192,0,214193,128,0,214286:0:0:0:0:
448,0,214193,1,0,1:0:0:0:
64,0,214286,128,0,214378:0:0:0:0:
448,0,214378,1,0,1:0:0:0:
320,0,214378,128,0,214471:0:0:0:0:
64,0,214471,1,0,1:0:0:0:
192,0,214471,128,0,214563:0:0:0:0:
448,0,214563,128,0,214656:0:0:0:0:
320,0,214563,1,0,1:0:0:0:
64,0,214656,128,0,214749:0:0:0:0:
192,0,214656,1,0,1:0:0:0:
448,0,214749,128,0,214841:0:0:0:0:
320,0,214749,1,0,1:0:0:0:
192,0,214841,128,0,214934:0:0:0:0:
64,0,214841,1,0,1:0:0:0:
320,0,214934,128,0,215026:0:0:0:0:
64,0,215026,128,0,215119:0:0:0:0:
448,0,215026,1,0,1:0:0:0:
192,0,215119,1,0,1:0:0:0:
320,0,215119,128,0,215212:0:0:0:0:
64,0,215212,128,0,215304:0:0:0:0:
448,0,215212,1,0,1:0:0:0:
192,0,215304,1,0,1:0:0:0:
320,0,215304,128,0,215397:0:0:0:0:
64,0,215397,1,0,1:0:0:0:
192,0,215397,128,0,215489:0:0:0:0:
320,0,215489,128,0,215582:0:0:0:0:
192,0,215582,128,0,215675:0:0:0:0:
448,0,215582,1,0,1:0:0:0:
64,0,215675,128,0,215767:0:0:0:0:
320,0,215675,1,0,1:0:0:0:
192,0,215767,128,0,215860:0:0:0:0:
64,0,215860,1,0,1:0:0:0:
448,0,215860,128,0,215952:0:0:0:0:
192,0,215952,1,0,1:0:0:0:
320,0,215952,128,0,216045:0:0:0:0:
64,0,216045,1,0,1:0:0:0:
448,0,216045,128,0,216137:0:0:0:0:
192,0,216137,128,0,216230:0:0:0:0:
320,0,216137,1,0,1:0:0:0:
64,0,216230,128,0,216323:0:0:0:0:
448,0,216230,1,0,1:0:0:0:
192,0,216323,1,0,1:0:0:0:
448,0,216323,128,0,216415:0:0:0:0:
320,0,216415,128,0,216508:0:0:0:0:
192,0,216508,128,0,216600:0:0:0:0:
448,0,216508,1,0,1:0:0:0:
64,0,216600,1,0,1:0:0:0:
320,0,216600,128,0,216693:0:0:0:0:
192,0,216693,128,0,216786:0:0:0:0:
448,0,216693,1,0,1:0:0:0:
64,0,216786,1,0,1:0:0:0:
320,0,216786,128,0,216878:0:0:0:0:
64,0,216878,1,0,1:0:0:0:
448,0,216878,128,0,216971:0:0:0:0:
192,0,216971,128,0,217063:0:0:0:0:
64,0,217063,128,0,217156:0:0:0:0:
320,0,217063,1,0,1:0:0:0:
192,0,217156,128,0,217249:0:0:0:0:
448,0,217156,1,0,1:0:0:0:
64,0,217249,128,0,217341:0:0:0:0:
192,0,217341,1,0,1:0:0:0:
320,0,217341,128,0,217434:0:0:0:0:
64,0,217434,128,0,217526:0:0:0:0:
448,0,217434,1,0,1:0:0:0:
192,0,217526,128,0,217619:0:0:0:0:
320,0,217526,1,0,1:0:0:0:
64,0,217619,1,0,1:0:0:0:
448,0,217619,128,0,217712:0:0:0:0:
320,0,217712,128,0,217804:0:0:0:0:
192,0,217712,1,0,1:0:0:0:
64,0,217804,1,0,1:0:0:0:
448,0,217804,128,0,217897:0:0:0:0:
64,0,217897,128,0,217989:0:0:0:0:
192,0,217989,128,0,218082:0:0:0:0:
448,0,217989,1,0,1:0:0:0:
64,0,218082,1,0,1:0:0:0:
320,0,218082,128,0,218175:0:0:0:0:
192,0,218175,128,0,218267:0:0:0:0:
448,0,218175,1,0,1:0:0:0:
64,0,218267,1,0,1:0:0:0:
448,0,218267,128,0,218360:0:0:0:0:
64,0,218360,1,0,1:0:0:0:
320,0,218360,128,0,218452:0:0:0:0:
192,0,218452,128,0,218545:0:0:0:0:
320,0,218545,128,0,218637:0:0:0:0:
448,0,218545,1,0,1:0:0:0:
64,0,218591,1,0,1:0:0:0:
192,0,218637,128,0,218730:0:0:0:0:
448,0,218684,1,0,1:0:0:0:
320,0,218730,128,0,218823:0:0:0:0:
192,0,218823,1,0,1:0:0:0:
64,0,218823,128,0,218915:0:0:0:0:
192,0,218915,128,0,219008:0:0:0:0:
448,0,218915,1,0,1:0:0:0:
64,0,219008,1,0,1:0:0:0:
320,0,219008,128,0,219100:0:0:0:0:
192,0,219100,128,0,219193:0:0:0:0:
448,0,219100,1,0,1:0:0:0:
64,0,219193,128,0,219286:0:0:0:0:
320,0,219193,1,0,1:0:0:0:
192,0,219286,1,0,1:0:0:0:
448,0,219286,128,0,219378:0:0:0:0:
320,0,219378,128,0,219471:0:0:0:0:
64,0,219471,1,0,1:0:0:0:
448,0,219471,128,0,219563:0:0:0:0:
192,0,219563,128,0,219656:0:0:0:0:
320,0,219563,1,0,1:0:0:0:
64,0,219656,128,0,219749:0:0:0:0:
448,0,219656,1,0,1:0:0:0:
192,0,219749,1,0,1:0:0:0:
320,0,219749,128,0,219841:0:0:0:0:
64,0,219841,128,0,219934:0:0:0:0:
192,0,219841,1,0,1:0:0:0:
448,0,219934,128,0,220026:0:0:0:0:
64,0,220026,1,0,1:0:0:0:
320,0,220026,128,0,220119:0:0:0:0:
192,0,220119,128,0,220212:0:0:0:0:
448,0,220119,1,0,1:0:0:0:
320,0,220212,128,0,220304:0:0:0:0:
192,0,220304,1,0,1:0:0:0:
64,0,220304,128,0,220397:0:0:0:0:
320,0,220397,128,0,220489:0:0:0:0:
448,0,220397,1,0,1:0:0:0:
64,0,220489,128,0,220582:0:0:0:0:
192,0,220489,1,0,1:0:0:0:
192,0,220582,128,0,220675:0:0:0:0:
448,0,220582,1,0,1:0:0:0:
320,0,220675,1,0,1:0:0:0:
448,0,220675,128,0,220767:0:0:0:0:
64,0,220767,128,0,220860:0:0:0:0:
192,0,220767,1,0,1:0:0:0:
320,0,220860,128,0,220952:0:0:0:0:
64,0,220952,1,0,1:0:0:0:
448,0,220952,128,0,221045:0:0:0:0:
192,0,221045,128,0,221137:0:0:0:0:
320,0,221045,1,0,1:0:0:0:
64,0,221137,1,0,1:0:0:0:
448,0,221137,128,0,221230:0:0:0:0:
192,0,221230,1,0,1:0:0:0:
320,0,221230,128,0,221323:0:0:0:0:
192,0,221323,128,0,221415:0:0:0:0:
448,0,221323,1,0,1:0:0:0:
64,0,221415,128,0,221508:0:0:0:0:
192,0,221508,1,0,1:0:0:0:
320,0,221508,128,0,221600:0:0:0:0:
64,0,221600,128,0,221693:0:0:0:0:
448,0,221600,1,0,1:0:0:0:
320,0,221693,128,0,221786:0:0:0:0:
448,0,221786,1,0,1:0:0:0:
192,0,221786,128,0,221878:0:0:0:0:
64,0,221878,1,0,1:0:0:0:
320,0,221878,128,0,221971:0:0:0:0:
192,0,221971,1,0,1:0:0:0:
448,0,221971,128,0,222063:0:0:0:0:
64,0,222063,128,0,222156:0:0:0:0:
320,0,222063,1,0,1:0:0:0:
192,0,222156,128,0,222249:0:0:0:0:
448,0,222156,1,0,1:0:0:0:
64,0,222249,1,0,1:0:0:0:
448,0,222249,128,0,222341:0:0:0:0:
320,0,222341,128,0,222434:0:0:0:0:
64,0,222434,128,0,222526:0:0:0:0:
448,0,222434,1,0,1:0:0:0:
192,0,222526,128,0,222619:0:0:0:0:
320,0,222526,1,0,1:0:0:0:
64,0,222619,128,0,222712:0:0:0:0:
448,0,222619,1,0,1:0:0:0:
192,0,222712,128,0,222804:0:0:0:0:
320,0,222712,1,0,1:0:0:0:
320,0,222804,1,0,1:0:0:0:
448,0,222804,128,0,222897:0:0:0:0:
192,0,222897,128,0,222989:0:0:0:0:
64,0,222989,1,0,1:0:0:0:
320,0,222989,128,0,223082:0:0:0:0:
192,0,223082,1,0,1:0:0:0:
448,0,223082,128,0,223175:0:0:0:0:
64,0,223175,128,0,223267:0:0:0:0:
448,0,223267,1,0,1:0:0:0:
320,0,223267,128,0,223360:0:0:0:0:
64,0,223360,1,0,1:0:0:0:
192,0,223360,128,0,223452:0:0:0:0:
320,0,223452,1,0,1:0:0:0:
448,0,223452,128,0,223545:0:0:0:0:
64,0,223545,1,0,1:0:0:0:
192,0,223545,128,0,223637:0:0:0:0:
448,0,223637,1,0,1:0:0:0:
320,0,223637,128,0,223730:0:0:0:0:
192,0,223730,1,0,1:0:0:0:
448,0,223730,128,0,223823:0:0:0:0:
64,0,223823,128,0,223915:0:0:0:0:
192,0,223915,128,0,224008:0:0:0:0:
448,0,223915,1,0,1:0:0:0:
64,0,224008,1,0,1:0:0:0:
320,0,224008,128,0,224100:0:0:0:0:
192,0,224100,128,0,224193:0:0:0:0:
448,0,224100,1,0,1:0:0:0:
320,0,224147,1,0,1:0:0:0:
64,0,224193,128,0,224286:0:0:0:0:
448,0,224239,1,0,1:0:0:0:
192,0,224286,1,0,1:0:0:0:
320,0,224286,128,0,224378:0:0:0:0:
448,0,224378,128,0,224471:0:0:0:0:
64,0,224425,1,0,1:0:0:0:
192,0,224471,128,0,224563:0:0:0:0:
320,0,224471,1,0,1:0:0:0:
64,0,224517,1,0,1:0:0:0:
320,0,224563,128,0,224656:0:0:0:0:
448,0,224610,1,0,1:0:0:0:
192,0,224656,1,0,1:0:0:0:
64,0,224656,128,0,224749:0:0:0:0:
448,0,224702,1,0,1:0:0:0:
320,0,224749,1,0,1:0:0:0:
192,0,224795,1,0,1:0:0:0:
320,0,224841,128,0,224934:0:0:0:0:
448,0,224841,1,0,1:0:0:0:
64,0,224934,1,0,1:0:0:0:
192,0,224934,128,0,225026:0:0:0:0:
64,0,225026,128,0,225119:0:0:0:0:
320,0,225026,1,0,1:0:0:0:
192,0,225119,1,0,1:0:0:0:
448,0,225119,128,0,225212:0:0:0:0:
64,0,225212,1,0,1:0:0:0:
320,0,225212,128,0,225304:0:0:0:0:
448,0,225304,128,0,225397:0:0:0:0:
64,0,225397,128,0,225489:0:0:0:0:
192,0,225397,1,0,1:0:0:0:
320,0,225489,128,0,225582:0:0:0:0:
448,0,225489,1,0,1:0:0:0:
64,0,225582,128,0,225675:0:0:0:0:
192,0,225582,1,0,1:0:0:0:
320,0,225675,128,0,225767:0:0:0:0:
448,0,225675,1,0,1:0:0:0:
192,0,225767,128,0,225860:0:0:0:0:
448,0,225767,1,0,1:0:0:0:
320,0,225860,128,0,225952:0:0:0:0:
64,0,225952,128,0,226045:0:0:0:0:
192,0,225952,1,0,1:0:0:0:
320,0,226045,128,0,226137:0:0:0:0:
448,0,226045,1,0,1:0:0:0:
64,0,226137,128,0,226230:0:0:0:0:
448,0,226230,1,0,1:0:0:0:
192,0,226230,128,0,226323:0:0:0:0:
64,0,226323,1,0,1:0:0:0:
320,0,226323,128,0,226415:0:0:0:0:
192,0,226415,128,0,226508:0:0:0:0:
448,0,226415,1,0,1:0:0:0:
64,0,226508,128,0,226600:0:0:0:0:
448,0,226508,1,0,1:0:0:0:
192,0,226600,1,0,1:0:0:0:
320,0,226600,128,0,226693:0:0:0:0:
64,0,226693,128,0,226786:0:0:0:0:
448,0,226693,1,0,1:0:0:0:
192,0,226786,128,0,226878:0:0:0:0:
448,0,226878,128,0,226971:0:0:0:0:
64,0,226878,1,0,1:0:0:0:
320,0,226971,128,0,227063:0:0:0:0:
192,0,226971,1,0,1:0:0:0:
64,0,227063,128,0,227156:0:0:0:0:
448,0,227063,1,0,1:0:0:0:
192,0,227156,128,0,227249:0:0:0:0:
320,0,227156,1,0,1:0:0:0:
64,0,227249,1,0,1:0:0:0:
320,0,227249,128,0,227341:0:0:0:0:
192,0,227341,128,0,227434:0:0:0:0:
320,0,227434,128,0,227526:0:0:0:0:
448,0,227434,1,0,1:0:0:0:
64,0,227526,128,0,227619:0:0:0:0:
192,0,227526,1,0,1:0:0:0:
320,0,227619,128,0,227712:0:0:0:0:
64,0,227712,1,0,1:0:0:0:
448,0,227712,128,0,227804:0:0:0:0:
192,0,227804,128,0,227897:0:0:0:0:
320,0,227804,1,0,1:0:0:0:
64,0,227897,1,0,1:0:0:0:
448,0,227897,128,0,227989:0:0:0:0:
64,0,227989,128,0,228082:0:0:0:0:
192,0,227989,1,0,1:0:0:0:
320,0,228082,128,0,228175:0:0:0:0:
448,0,228082,1,0,1:0:0:0:
64,0,228175,1,0,1:0:0:0:
192,0,228175,128,0,228267:0:0:0:0:
448,0,228267,128,0,228360:0:0:0:0:
320,0,228360,128,0,228452:0:0:0:0:
64,0,228360,1,0,1:0:0:0:
448,0,228452,1,0,1:0:0:0:
192,0,228452,128,0,228545:0:0:0:0:
320,0,228545,128,0,228637:0:0:0:0:
64,0,228545,1,0,1:0:0:0:
448,0,228637,1,0,1:0:0:0:
192,0,228637,128,0,228730:0:0:0:0:
448,0,228730,1,0,1:0:0:0:
64,0,228730,128,0,228823:0:0:0:0:
320,0,228823,128,0,228915:0:0:0:0:
64,0,228915,128,0,229008:0:0:0:0:
192,0,228915,1,0,1:0:0:0:
320,0,229008,128,0,229100:0:0:0:0:
448,0,229008,1,0,1:0:0:0:
64,0,229100,128,0,229193:0:0:0:0:
320,0,229193,1,0,1:0:0:0:
192,0,229193,128,0,229286:0:0:0:0:
64,0,229286,128,0,229378:0:0:0:0:
448,0,229286,1,0,1:0:0:0:
192,0,229378,1,0,1:0:0:0:
320,0,229378,128,0,229471:0:0:0:0:
192,0,229471,1,0,1:0:0:0:
448,0,229471,128,0,229563:0:0:0:0:
64,0,229563,128,0,229656:0:0:0:0:
320,0,229563,1,0,1:0:0:0:
192,0,229656,128,0,229749:0:0:0:0:
448,0,229656,1,0,1:0:0:0:
64,0,229749,128,0,229841:0:0:0:0:
320,0,229841,128,0,229934:0:0:0:0:
448,0,229841,1,0,1:0:0:0:
64,0,229934,1,0,1:0:0:0:
192,0,229934,128,0,230026:0:0:0:0:
320,0,230026,128,0,230119:0:0:0:0:
448,0,230026,1,0,1:0:0:0:
64,0,230119,1,0,1:0:0:0:
448,0,230119,128,0,230212:0:0:0:0:
64,0,230212,1,0,1:0:0:0:
192,0,230212,128,0,230304:0:0:0:0:
320,0,230304,128,0,230397:0:0:0:0:
64,0,230397,128,0,230489:0:0:0:0:
448,0,230397,1,0,1:0:0:0:
192,0,230443,1,0,1:0:0:0:
448,0,230489,128,0,230582:0:0:0:0:
320,0,230536,1,0,1:0:0:0:
192,0,230582,128,0,230675:0:0:0:0:
64,0,230628,1,0,1:0:0:0:
448,0,230675,1,0,1:0:0:0:
320,0,230675,128,0,230767:0:0:0:0:
192,0,230767,128,0,230860:0:0:0:0:
64,0,230767,1,0,1:0:0:0:
320,0,230860,1,0,1:0:0:0:
448,0,230860,128,0,230952:0:0:0:0:
64,0,230952,128,0,231045:0:0:0:0:
320,0,230952,1,0,1:0:0:0:
192,0,231045,128,0,231137:0:0:0:0:
448,0,231045,1,0,1:0:0:0:
64,0,231137,1,0,1:0:0:0:
320,0,231137,128,0,231230:0:0:0:0:
192,0,231230,128,0,231323:0:0:0:0:
64,0,231323,1,0,1:0:0:0:
448,0,231323,128,0,231415:0:0:0:0:
192,0,231415,1,0,1:0:0:0:
320,0,231415,128,0,231508:0:0:0:0:
64,0,231508,128,0,231600:0:0:0:0:
448,0,231508,1,0,1:0:0:0:
192,0,231600,128,0,231693:0:0:0:0:
320,0,231600,1,0,1:0:0:0:
64,0,231693,128,0,231786:0:0:0:0:
320,0,231693,1,0,1:0:0:0:
448,0,231786,128,0,231878:0:0:0:0:
64,0,231878,1,0,1:0:0:0:
192,0,231878,128,0,231971:0:0:0:0:
320,0,231971,128,0,232063:0:0:0:0:
448,0,231971,1,0,1:0:0:0:
192,0,232063,128,0,232156:0:0:0:0:
320,0,232156,1,0,1:0:0:0:
64,0,232156,128,0,232249:0:0:0:0:
192,0,232249,128,0,232341:0:0:0:0:
448,0,232249,1,0,1:0:0:0:
64,0,232341,128,0,232434:0:0:0:0:
320,0,232341,1,0,1:0:0:0:
320,0,232434,128,0,232526:0:0:0:0:
448,0,232434,1,0,1:0:0:0:
192,0,232526,1,0,1:0:0:0:
448,0,232526,128,0,232619:0:0:0:0:
64,0,232619,128,0,232712:0:0:0:0:
320,0,232619,1,0,1:0:0:0:
192,0,232712,128,0,232804:0:0:0:0:
64,0,232804,1,0,1:0:0:0:
448,0,232804,128,0,232897:0:0:0:0:
192,0,232897,1,0,1:0:0:0:
320,0,232897,128,0,232989:0:0:0:0:
64,0,232989,1,0,1:0:0:0:
448,0,232989,128,0,233082:0:0:0:0:
192,0,233082,128,0,233175:0:0:0:0:
320,0,233082,1,0,1:0:0:0:
320,0,233175,128,0,233267:0:0:0:0:
448,0,233175,1,0,1:0:0:0:
64,0,233267,128,0,233360:0:0:0:0:
192,0,233360,128,0,233452:0:0:0:0:
320,0,233360,1,0,1:0:0:0:
64,0,233452,128,0,233545:0:0:0:0:
448,0,233452,1,0,1:0:0:0:
192,0,233545,128,0,233637:0:0:0:0:
448,0,233637,1,0,1:0:0:0:
320,0,233637,128,0,233730:0:0:0:0:
64,0,233730,1,0,1:0:0:0:
192,0,233730,128,0,233823:0:0:0:0:
320,0,233823,1,0,1:0:0:0:
448,0,233823,128,0,233915:0:0:0:0:
64,0,233915,128,0,234008:0:0:0:0:
320,0,233915,1,0,1:0:0:0:
192,0,234008,128,0,234100:0:0:0:0:
448,0,234008,1,0,1:0:0:0:
64,0,234100,1,0,1:0:0:0:
320,0,234100,128,0,234193:0:0:0:0:
192,0,234193,128,0,234286:0:0:0:0:
64,0,234286,128,0,234378:0:0:0:0:
448,0,234286,1,0,1:0:0:0:
192,0,234378,1,0,1:0:0:0:
320,0,234378,128,0,234471:0:0:0:0:
64,0,234471,128,0,234563:0:0:0:0:
448,0,234471,1,0,1:0:0:0:
192,0,234563,1,0,1:0:0:0:
320,0,234563,128,0,234656:0:0:0:0:
192,0,234656,1,0,1:0:0:0:
448,0,234656,128,0,234749:0:0:0:0:
320,0,234749,128,0,234841:0:0:0:0:
64,0,234841,1,0,1:0:0:0:
192,0,234841,128,0,234934:0:0:0:0:
320,0,234934,1,0,1:0:0:0:
448,0,234934,128,0,235026:0:0:0:0:
64,0,235026,128,0,235119:0:0:0:0:
448,0,235119,1,0,1:0:0:0:
192,0,235119,128,0,235212:0:0:0:0:
64,0,235212,1,0,1:0:0:0:
320,0,235212,128,0,235304:0:0:0:0:
192,0,235304,1,0,1:0:0:0:
448,0,235304,128,0,235397:0:0:0:0:
64,0,235397,1,0,1:0:0:0:
192,0,235397,128,0,235489:0:0:0:0:
448,0,235489,1,0,1:0:0:0:
320,0,235489,128,0,235582:0:0:0:0:
192,0,235582,1,0,1:0:0:0:
64,0,235582,128,0,235675:0:0:0:0:
320,0,235675,128,0,235767:0:0:0:0:
448,0,235767,128,0,235860:0:0:0:0:
64,0,235767,1,0,1:0:0:0:
320,0,235860,1,0,1:0:0:0:
192,0,235860,128,0,235952:0:0:0:0:
320,0,235952,128,0,236045:0:0:0:0:
448,0,235952,1,0,1:0:0:0:
64,0,235999,1,0,1:0:0:0:
192,0,236045,128,0,236137:0:0:0:0:
448,0,236091,1,0,1:0:0:0:
320,0,236137,1,0,1:0:0:0:
64,0,236137,128,0,236230:0:0:0:0:
448,0,236230,128,0,236323:0:0:0:0:
320,0,236276,1,0,1:0:0:0:
64,0,236323,128,0,236415:0:0:0:0:
192,0,236323,1,0,1:0:0:0:
320,0,236369,1,0,1:0:0:0:
192,0,236415,128,0,236508:0:0:0:0:
448,0,236462,1,0,1:0:0:0:
64,0,236508,1,0,1:0:0:0:
320,0,236508,128,0,236600:0:0:0:0:
448,0,236554,1,0,1:0:0:0:
192,0,236600,1,0,1:0:0:0:
64,0,236647,1,0,1:0:0:0:
448,0,236693,1,0,1:0:0:0:
320,0,236693,128,0,236786:0:0:0:0:
192,0,236786,128,0,236878:0:0:0:0:
64,0,236786,1,0,1:0:0:0:
320,0,236878,1,0,1:0:0:0:
448,0,236878,128,0,236971:0:0:0:0:
64,0,236971,128,0,237063:0:0:0:0:
320,0,236971,1,0,1:0:0:0:
192,0,237063,128,0,237156:0:0:0:0:
448,0,237063,1,0,1:0:0:0:
64,0,237156,128,0,237249:0:0:0:0:
192,0,237249,1,0,1:0:0:0:
448,0,237249,128,0,237341:0:0:0:0:
64,0,237341,1,0,1:0:0:0:
320,0,237341,128,0,237434:0:0:0:0:
192,0,237434,1,0,1:0:0:0:
448,0,237434,128,0,237526:0:0:0:0:
64,0,237526,1,0,1:0:0:0:
320,0,237526,128,0,237619:0:0:0:0:
64,0,237619,1,0,1:0:0:0:
192,0,237619,128,0,237712:0:0:0:0:
320,0,237712,128,0,237804:0:0:0:0:
192,0,237804,1,0,1:0:0:0:
448,0,237804,128,0,237897:0:0:0:0:
64,0,237897,1,0,1:0:0:0:
320,0,237897,128,0,237989:0:0:0:0:
448,0,237989,128,0,238082:0:0:0:0:
64,0,238082,1,0,1:0:0:0:
192,0,238082,128,0,238175:0:0:0:0:
320,0,238175,128,0,238267:0:0:0:0:
448,0,238175,1,0,1:0:0:0:
64,0,238267,1,0,1:0:0:0:
192,0,238267,128,0,238360:0:0:0:0:
320,0,238360,1,0,1:0:0:0:
448,0,238360,128,0,238452:0:0:0:0:
64,0,238452,1,0,1:0:0:0:
192,0,238452,128,0,238545:0:0:0:0:
448,0,238545,1,0,1:0:0:0:
64,0,238545,128,0,238637:0:0:0:0:
320,0,238637,128,0,238730:0:0:0:0:
64,0,238730,1,0,1:0:0:0:
448,0,238730,128,0,238823:0:0:0:0:
192,0,238823,128,0,238915:0:0:0:0:
320,0,238823,1,0,1:0:0:0:
64,0,238915,1,0,1:0:0:0:
448,0,238915,128,0,239008:0:0:0:0:
192,0,239008,128,0,239100:0:0:0:0:
320,0,239008,1,0,1:0:0:0:
320,0,239100,128,0,239193:0:0:0:0:
448,0,239100,1,0,1:0:0:0:
192,0,239193,128,0,239286:0:0:0:0:
64,0,239286,1,0,1:0:0:0:
320,0,239286,128,0,239378:0:0:0:0:
192,0,239378,1,0,1:0:0:0:
448,0,239378,128,0,239471:0:0:0:0:
320,0,239471,128,0,239563:0:0:0:0:
448,0,239563,1,0,1:0:0:0:
64,0,239563,128,0,239656:0:0:0:0:
192,0,239656,128,0,239749:0:0:0:0:
320,0,239656,1,0,1:0:0:0:
64,0,239749,128,0,239841:0:0:0:0:
448,0,239749,1,0,1:0:0:0:
192,0,239841,1,0,1:0:0:0:
320,0,239841,128,0,239934:0:0:0:0:
64,0,239934,1,0,1:0:0:0:
448,0,239934,128,0,240026:0:0:0:0:
64,0,240026,128,0,240119:0:0:0:0:
192,0,240026,1,0,1:0:0:0:
448,0,240119,128,0,240212:0:0:0:0:
64,0,240212,1,0,1:0:0:0:
320,0,240212,128,0,240304:0:0:0:0:
192,0,240304,128,0,240397:0:0:0:0:
448,0,240304,1,0,1:0:0:0:
64,0,240397,1,0,1:0:0:0:
320,0,240397,128,0,240489:0:0:0:0:
192,0,240489,128,0,240582:0:0:0:0:
448,0,240489,1,0,1:0:0:0:
64,0,240582,128,0,240674:0:0:0:0:
448,0,240582,1,0,1:0:0:0:
320,0,240674,128,0,240767:0:0:0:0:
192,0,240767,1,0,1:0:0:0:
448,0,240767,128,0,240860:0:0:0:0:
64,0,240860,1,0,1:0:0:0:
320,0,240860,128,0,240952:0:0:0:0:
448,0,240952,128,0,241045:0:0:0:0:
320,0,241045,1,0,1:0:0:0:
192,0,241045,128,0,241137:0:0:0:0:
64,0,241137,1,0,1:0:0:0:
448,0,241137,128,0,241230:0:0:0:0:
192,0,241230,1,0,1:0:0:0:
320,0,241230,128,0,241323:0:0:0:0:
64,0,241323,128,0,241415:0:0:0:0:
448,0,241323,1,0,1:0:0:0:
320,0,241415,1,0,1:0:0:0:
192,0,241415,128,0,241508:0:0:0:0:
320,0,241508,128,0,241600:0:0:0:0:
64,0,241508,1,0,1:0:0:0:
448,0,241600,128,0,241693:0:0:0:0:
64,0,241693,1,0,1:0:0:0:
320,0,241693,128,0,241786:0:0:0:0:
192,0,241786,128,0,241878:0:0:0:0:
448,0,241786,1,0,1:0:0:0:
64,0,241878,1,0,1:0:0:0:
320,0,241878,128,0,241971:0:0:0:0:
64,0,241971,128,0,242063:0:0:0:0:
448,0,241971,1,0,1:0:0:0:
192,0,242063,128,0,242156:0:0:0:0:
448,0,242063,1,0,1:0:0:0:
320,0,242156,128,0,242249:0:0:0:0:
64,0,242249,1,0,1:0:0:0:
192,0,242249,128,0,242341:0:0:0:0:
448,0,242295,1,0,1:0:0:0:
64,0,242341,128,0,242434:0:0:0:0:
320,0,242387,1,0,1:0:0:0:
448,0,242434,128,0,242526:0:0:0:0:
192,0,242526,1,0,1:0:0:0:
64,0,242526,128,0,242619:0:0:0:0:
320,0,242619,128,0,242712:0:0:0:0:
192,0,242712,128,0,242804:0:0:0:0:
448,0,242712,1,0,1:0:0:0:
320,0,242804,128,0,242897:0:0:0:0:
64,0,242897,128,0,242989:0:0:0:0:
192,0,242989,128,0,243082:0:0:0:0:
448,0,242989,1,0,1:0:0:0:
320,0,243082,128,0,243174:0:0:0:0:
64,0,243174,128,0,243267:0:0:0:0:
448,0,243174,1,0,1:0:0:0:
192,0,243267,1,0,1:0:0:0:
320,0,243267,128,0,243360:0:0:0:0:
64,0,243360,1,0,1:0:0:0:
448,0,243360,128,0,243452:0:0:0:0:
192,0,243452,128,0,243545:0:0:0:0:
320,0,243545,1,0,1:0:0:0:
448,0,243545,128,0,243637:0:0:0:0:
64,0,243637,128,0,243730:0:0:0:0:
192,0,243730,128,0,243823:0:0:0:0:
448,0,243730,1,0,1:0:0:0:
64,0,243823,1,0,1:0:0:0:
320,0,243823,128,0,243915:0:0:0:0:
192,0,243915,128,0,244008:0:0:0:0:
320,0,244008,1,0,1:0:0:0:
448,0,244008,128,0,244100:0:0:0:0:
64,0,244100,128,0,244193:0:0:0:0:
320,0,244193,1,0,1:0:0:0:
448,0,244193,128,0,244286:0:0:0:0:
192,0,244286,128,0,244378:0:0:0:0:
64,0,244378,128,0,244471:0:0:0:0:
320,0,244471,1,0,1:0:0:0:
448,0,244471,128,0,244563:0:0:0:0:
192,0,244563,128,0,244656:0:0:0:0:
64,0,244656,128,0,244749:0:0:0:0:
448,0,244656,1,0,1:0:0:0:
192,0,244749,1,0,1:0:0:0:
320,0,244749,128,0,244841:0:0:0:0:
64,0,244841,128,0,244934:0:0:0:0:
448,0,244841,1,0,1:0:0:0:
192,0,244934,128,0,245026:0:0:0:0:
64,0,245026,1,0,1:0:0:0:
320,0,245026,128,0,245119:0:0:0:0:
448,0,245119,128,0,245212:0:0:0:0:
192,0,245212,128,0,245304:0:0:0:0:
320,0,245212,1,0,1:0:0:0:
64,0,245304,1,0,1:0:0:0:
448,0,245304,128,0,245397:0:0:0:0:
192,0,245397,128,0,245489:0:0:0:0:
64,0,245489,1,0,1:0:0:0:
320,0,245489,128,0,245582:0:0:0:0:
192,0,245582,128,0,245674:0:0:0:0:
64,0,245674,128,0,245767:0:0:0:0:
320,0,245674,1,0,1:0:0:0:
448,0,245767,128,0,245860:0:0:0:0:
192,0,245860,128,0,245952:0:0:0:0:
64,0,245952,128,0,246045:0:0:0:0:
320,0,245952,1,0,1:0:0:0:
192,0,246045,128,0,246137:0:0:0:0:
64,0,246137,1,0,1:0:0:0:
448,0,246137,128,0,246230:0:0:0:0:
192,0,246230,1,0,1:0:0:0:
320,0,246230,128,0,246323:0:0:0:0:
64,0,246323,1,0,1:0:0:0:
448,0,246323,128,0,246415:0:0:0:0:
320,0,246415,128,0,246508:0:0:0:0:
64,0,246508,128,0,246600:0:0:0:0:
192,0,246508,1,0,1:0:0:0:
320,0,246600,128,0,246693:0:0:0:0:
192,0,246693,128,0,246786:0:0:0:0:
448,0,246693,1,0,1:0:0:0:
64,0,246786,128,0,246878:0:0:0:0:
320,0,246786,1,0,1:0:0:0:
448,0,246878,128,0,246971:0:0:0:0:
64,0,246971,1,0,1:0:0:0:
192,0,246971,128,0,247063:0:0:0:0:
320,0,247063,128,0,247156:0:0:0:0:
64,0,247156,128,0,247249:0:0:0:0:
192,0,247156,1,0,1:0:0:0:
448,0,247249,1,0,1:0:0:0:
320,0,247341,128,0,247434:0:0:0:0:
64,0,247434,128,0,247526:0:0:0:0:
192,0,247434,1,0,1:0:0:0:
448,0,247526,128,0,247619:0:0:0:0:
64,0,247619,1,0,1:0:0:0:
320,0,247619,128,0,247712:0:0:0:0:
192,0,247712,128,0,247804:0:0:0:0:
448,0,247712,1,0,1:0:0:0:
64,0,247804,1,0,1:0:0:0:
320,0,247804,128,0,247897:0:0:0:0:
448,0,247850,1,0,1:0:0:0:
64,0,247897,128,0,247989:0:0:0:0:
192,0,247943,1,0,1:0:0:0:
448,0,247989,128,0,248082:0:0:0:0:
320,0,248036,1,0,1:0:0:0:
192,0,248082,128,0,248174:0:0:0:0:
64,0,248128,1,0,1:0:0:0:
320,0,248174,128,0,248267:0:0:0:0:
448,0,248221,1,0,1:0:0:0:
64,0,248267,128,0,248360:0:0:0:0:
192,0,248313,1,0,1:0:0:0:
448,0,248360,128,0,248452:0:0:0:0:
320,0,248406,1,0,1:0:0:0:
64,0,248452,128,0,248545:0:0:0:0:
192,0,248499,1,0,1:0:0:0:
448,0,248545,1,0,1:0:0:0:
320,0,248545,1,0,1:0:0:0:
448,192,262913,5,0,0:0:0:0:
320,192,262913,5,0,0:0:0:0:
192,192,263071,1,0,0:0:0:0:
64,192,263071,1,0,0:0:0:0:
320,192,263230,1,0,0:0:0:0:
448,192,263230,1,0,0:0:0:0:
64,192,263389,1,0,0:0:0:0:
192,192,263389,1,0,0:0:0:0:
320,192,263547,1,0,0:0:0:0:
448,192,263547,128,0,263627:0:0:0:0:
192,192,263627,128,0,263706:0:0:0:0:
320,192,263706,128,0,263786:0:0:0:0:
64,192,263786,128,0,263865:0:0:0:0:
320,192,263865,1,0,0:0:0:0:
448,192,263865,128,0,263944:0:0:0:0:
192,192,263944,128,0,264024:0:0:0:0:
320,192,264024,128,0,264103:0:0:0:0:
64,192,264103,128,0,264182:0:0:0:0:
448,192,264182,128,0,264341:0:0:0:0:
320,192,264182,1,0,0:0:0:0:
192,192,264182,128,0,264341:0:0:0:0:
320,192,264341,128,0,264500:0:0:0:0:
192,192,264500,128,0,264579:0:0:0:0:
64,192,264500,128,0,264738:0:0:0:0:
448,192,264500,128,0,264976:0:0:0:0:
320,192,264659,1,0,0:0:0:0:
192,192,264817,128,0,264897:0:0:0:0:
320,192,264817,128,0,264976:0:0:0:0:
64,192,264976,128,0,265135:0:0:0:0:
192,192,265135,1,0,0:0:0:0:
320,192,265135,128,0,265293:0:0:0:0:
448,192,265135,128,0,265452:0:0:0:0:
64,192,265293,128,0,265611:0:0:0:0:
192,192,265452,1,0,0:0:0:0:
320,192,265452,1,0,0:0:0:0:
320,192,265611,128,0,265928:0:0:0:0:
448,192,265770,128,0,265849:0:0:0:0:
192,192,265770,128,0,265928:0:0:0:0:
64,192,265928,128,0,266246:0:0:0:0:
448,192,266087,128,0,266246:0:0:0:0:
320,192,266087,128,0,266166:0:0:0:0:
192,192,266246,128,0,266405:0:0:0:0:
320,192,266405,1,0,0:0:0:0:
448,192,266405,128,0,266563:0:0:0:0:
64,192,266405,128,0,266563:0:0:0:0:
320,192,266563,128,0,266881:0:0:0:0:
64,192,266722,128,0,266801:0:0:0:0:
192,192,266722,1,0,0:0:0:0:
448,192,266722,128,0,267039:0:0:0:0:
192,192,266881,128,0,267039:0:0:0:0:
320,192,267039,128,0,267198:0:0:0:0:
64,192,267039,128,0,267357:0:0:0:0:
448,192,267198,1,0,0:0:0:0:
448,192,267357,128,0,267674:0:0:0:0:
320,192,267357,128,0,267516:0:0:0:0:
192,192,267357,1,0,0:0:0:0:
192,192,267516,128,0,267833:0:0:0:0:
64,192,267674,128,0,267754:0:0:0:0:
320,192,267674,128,0,267833:0:0:0:0:
448,192,267833,128,0,267992:0:0:0:0:
320,192,267992,128,0,268071:0:0:0:0:
64,192,267992,128,0,268151:0:0:0:0:
192,192,268071,128,0,268151:0:0:0:0:
448,192,268151,128,0,268309:0:0:0:0:
320,192,268230,128,0,268309:0:0:0:0:
192,192,268309,1,0,0:0:0:0:
64,192,268309,128,0,268627:0:0:0:0:
448,192,268468,128,0,268786:0:0:0:0:
320,192,268627,128,0,268706:0:0:0:0:
192,192,268627,128,0,268786:0:0:0:0:
64,192,268786,128,0,268944:0:0:0:0:
192,192,268944,1,0,0:0:0:0:
448,192,268944,128,0,269024:0:0:0:0:
320,192,269024,128,0,269103:0:0:0:0:
64,192,269103,128,0,269182:0:0:0:0:
192,192,269182,128,0,269262:0:0:0:0:
320,192,269262,128,0,269341:0:0:0:0:
64,192,269262,1,0,0:0:0:0:
448,192,269262,128,0,269420:0:0:0:0:
64,192,269420,128,0,269579:0:0:0:0:
192,192,269579,128,0,269659:0:0:0:0:
448,192,269579,1,0,0:0:0:0:
320,192,269579,128,0,269897:0:0:0:0:
64,192,269738,1,0,0:0:0:0:
448,192,269897,1,0,0:0:0:0:
192,192,269897,128,0,270373:0:0:0:0:
320,192,270055,1,0,0:0:0:0:
448,192,270055,128,0,270214:0:0:0:0:
64,192,270214,1,0,0:0:0:0:
320,192,270214,128,0,270532:0:0:0:0:
64,192,270373,128,0,270849:0:0:0:0:
448,192,270532,128,0,270690:0:0:0:0:
192,192,270532,1,0,0:0:0:0:
320,192,270690,128,0,271008:0:0:0:0:
448,192,270849,128,0,271008:0:0:0:0:
192,192,270849,128,0,270928:0:0:0:0:
64,192,271008,128,0,271166:0:0:0:0:
192,192,271166,128,0,271484:0:0:0:0:
320,192,271166,1,0,0:0:0:0:
448,192,271166,128,0,271325:0:0:0:0:
320,192,271325,128,0,271484:0:0:0:0:
448,192,271484,128,0,271643:0:0:0:0:
64,192,271484,128,0,271643:0:0:0:0:
320,192,271643,128,0,271801:0:0:0:0:
448,192,271801,128,0,271881:0:0:0:0:
64,192,271801,1,0,0:0:0:0:
192,192,271801,128,0,271960:0:0:0:0:
320,192,271881,1,0,0:0:0:0:
64,192,271960,1,0,0:0:0:0:
448,192,271960,128,0,272119:0:0:0:0:
192,192,272039,1,0,0:0:0:0:
320,192,272119,128,0,272198:0:0:0:0:
64,192,272119,128,0,272436:0:0:0:0:
448,192,272198,1,0,0:0:0:0:
192,192,272278,1,0,0:0:0:0:
320,192,272357,1,0,0:0:0:0:
192,192,272436,1,0,0:0:0:0:
448,192,272436,128,0,272595:0:0:0:0:
64,192,272516,1,0,0:0:0:0:
192,192,272595,1,0,0:0:0:0:
320,192,272595,128,0,272754:0:0:0:0:
448,192,272674,1,0,0:0:0:0:
64,192,272754,1,0,0:0:0:0:
192,192,272754,128,0,272913:0:0:0:0:
320,192,272833,1,0,0:0:0:0:
448,192,272913,128,0,273071:0:0:0:0:
64,192,272913,128,0,273071:0:0:0:0:
64,192,273230,1,0,0:0:0:0:
448,192,273230,1,0,0:0:0:0:
192,192,273230,128,0,273389:0:0:0:0:
320,192,273389,1,0,0:0:0:0:
64,192,273389,1,0,0:0:0:0:
448,192,273389,128,0,273547:0:0:0:0:
192,192,273547,1,0,0:0:0:0:
320,192,273547,1,0,0:0:0:0:
64,192,273547,128,0,273706:0:0:0:0:
448,192,273706,128,0,273944:0:0:0:0:
320,192,273706,128,0,273865:0:0:0:0:
192,192,273706,128,0,273786:0:0:0:0:
64,192,273786,128,0,274182:0:0:0:0:
192,192,273865,128,0,274103:0:0:0:0:
320,192,273944,128,0,274024:0:0:0:0:
448,192,274024,128,0,274262:0:0:0:0:
320,192,274103,128,0,274262:0:0:0:0:
192,192,274182,128,0,274262:0:0:0:0:
64,192,274262,128,0,274341:0:0:0:0:
320,192,274341,1,0,0:0:0:0:
192,192,274341,1,0,0:0:0:0:
448,192,274341,128,0,274659:0:0:0:0:
64,192,274500,128,0,274659:0:0:0:0:
192,192,274659,1,0,0:0:0:0:
64,192,274817,128,0,274976:0:0:0:0:
448,192,274817,128,0,275293:0:0:0:0:
320,192,274976,1,0,0:0:0:0:
64,192,275135,128,0,275293:0:0:0:0:
192,192,275293,1,0,0:0:0:0:
320,192,275293,128,0,275452:0:0:0:0:
64,192,275452,128,0,275611:0:0:0:0:
192,192,275452,128,0,275928:0:0:0:0:
320,192,275611,1,0,0:0:0:0:
448,192,275770,128,0,275928:0:0:0:0:
64,192,275928,1,0,0:0:0:0:
448,192,276087,128,0,276246:0:0:0:0:
64,192,276246,1,0,0:0:0:0:
192,192,276246,128,0,276563:0:0:0:0:
448,192,276405,128,0,276563:0:0:0:0:
320,192,276563,1,0,0:0:0:0:
64,192,276563,128,0,276722:0:0:0:0:
448,192,276722,128,0,276881:0:0:0:0:
192,192,276722,128,0,277198:0:0:0:0:
64,192,276881,1,0,0:0:0:0:
320,192,277039,128,0,277198:0:0:0:0:
448,192,277198,1,0,0:0:0:0:
320,192,277357,128,0,277516:0:0:0:0:
64,192,277516,1,0,0:0:0:0:
192,192,277516,128,0,277833:0:0:0:0:
320,192,277674,128,0,277833:0:0:0:0:
448,192,277833,1,0,0:0:0:0:
64,192,277833,128,0,277992:0:0:0:0:
320,192,277992,128,0,278151:0:0:0:0:
192,192,277992,128,0,278309:0:0:0:0:
448,192,278151,1,0,0:0:0:0:
64,192,278309,128,0,278468:0:0:0:0:
320,192,278309,128,0,278627:0:0:0:0:
448,192,278468,1,0,0:0:0:0:
64,192,278627,128,0,278786:0:0:0:0:
192,192,278627,128,0,279103:0:0:0:0:
320,192,278786,1,0,0:0:0:0:
64,192,278944,128,0,279103:0:0:0:0:
320,192,279103,1,0,0:0:0:0:
448,192,279262,1,0,0:0:0:0:
64,192,279262,128,0,279420:0:0:0:0:
192,192,279341,1,0,0:0:0:0:
448,192,279420,1,0,0:0:0:0:
320,192,279420,128,0,279738:0:0:0:0:
448,192,279579,128,0,279738:0:0:0:0:
64,192,279738,1,0,0:0:0:0:
448,192,279897,128,0,280055:0:0:0:0:
320,192,279897,128,0,280373:0:0:0:0:
192,192,280055,1,0,0:0:0:0:
448,192,280214,128,0,280373:0:0:0:0:
64,192,280373,1,0,0:0:0:0:
192,192,280373,128,0,280532:0:0:0:0:
448,192,280532,128,0,280690:0:0:0:0:
64,192,280532,128,0,281008:0:0:0:0:
192,192,280690,1,0,0:0:0:0:
320,192,280849,128,0,281008:0:0:0:0:
448,192,281008,1,0,0:0:0:0:
320,192,281166,128,0,281325:0:0:0:0:
448,192,281325,1,0,0:0:0:0:
192,192,281325,128,0,281643:0:0:0:0:
64,192,281484,128,0,281643:0:0:0:0:
448,192,281643,1,0,0:0:0:0:
320,192,281643,128,0,281801:0:0:0:0:
64,192,281801,128,0,281960:0:0:0:0:
448,192,281801,128,0,282595:0:0:0:0:
320,192,281960,1,0,0:0:0:0:
320,192,282119,1,0,0:0:0:0:
192,192,282119,128,0,282278:0:0:0:0:
64,192,282278,1,0,0:0:0:0:
320,192,282436,1,0,0:0:0:0:
192,192,282436,128,0,282595:0:0:0:0:
64,192,282595,1,0,0:0:0:0:
448,192,282754,1,0,0:0:0:0:
192,192,282754,128,0,282913:0:0:0:0:
320,192,282913,1,0,0:0:0:0:
448,192,282913,128,0,283230:0:0:0:0:
64,192,282992,1,0,0:0:0:0:
320,192,283071,1,0,0:0:0:0:
192,192,283071,128,0,283230:0:0:0:0:
64,192,283151,1,0,0:0:0:0:
320,192,283230,128,0,283389:0:0:0:0:
448,192,283389,128,0,283706:0:0:0:0:
64,192,283389,1,0,0:0:0:0:
192,192,283389,128,0,283706:0:0:0:0:
320,192,283706,128,0,283865:0:0:0:0:
64,192,283706,128,0,284182:0:0:0:0:
192,192,283865,128,0,284024:0:0:0:0:
320,192,283944,128,0,284103:0:0:0:0:
448,192,284024,128,0,284103:0:0:0:0:
192,192,284103,128,0,284262:0:0:0:0:
448,192,284182,128,0,284341:0:0:0:0:
320,192,284182,128,0,284262:0:0:0:0:
64,192,284262,128,0,284420:0:0:0:0:
320,192,284341,128,0,284420:0:0:0:0:
192,192,284341,128,0,284500:0:0:0:0:
448,192,284420,128,0,284500:0:0:0:0:
64,192,284500,1,0,0:0:0:0:
320,192,284500,128,0,284659:0:0:0:0:
64,192,284659,1,0,0:0:0:0:
448,192,284659,128,0,284817:0:0:0:0:
192,192,284659,128,0,284976:0:0:0:0:
320,192,284817,1,0,0:0:0:0:
448,192,284976,1,0,0:0:0:0:
320,192,284976,128,0,285135:0:0:0:0:
64,192,284976,128,0,285293:0:0:0:0:
192,192,285135,1,0,0:0:0:0:
448,192,285293,128,0,285452:0:0:0:0:
320,192,285293,1,0,0:0:0:0:
192,192,285293,128,0,285611:0:0:0:0:
64,192,285452,1,0,0:0:0:0:
448,192,285611,1,0,0:0:0:0:
64,192,285611,128,0,285770:0:0:0:0:
320,192,285611,128,0,285928:0:0:0:0:
192,192,285770,1,0,0:0:0:0:
448,192,285928,128,0,286087:0:0:0:0:
64,192,285928,1,0,0:0:0:0:
192,192,285928,128,0,286008:0:0:0:0:
64,192,286087,128,0,286881:0:0:0:0:
320,192,286087,1,0,0:0:0:0:
192,192,286087,128,0,286246:0:0:0:0:
448,192,286405,128,0,286643:0:0:0:0:
320,192,286484,128,0,286563:0:0:0:0:
192,192,286563,128,0,286643:0:0:0:0:
320,192,286643,128,0,286722:0:0:0:0:
192,192,286722,1,0,0:0:0:0:
448,192,286722,128,0,286881:0:0:0:0:
192,192,286881,128,0,287039:0:0:0:0:
320,192,286881,1,0,0:0:0:0:
448,192,287039,1,0,0:0:0:0:
64,192,287039,1,0,0:0:0:0:
320,192,287039,128,0,287198:0:0:0:0:
448,192,287198,1,0,0:0:0:0:
64,192,287198,128,0,287357:0:0:0:0:
192,192,287198,128,0,287516:0:0:0:0:
320,192,287357,1,0,0:0:0:0:
448,192,287516,1,0,0:0:0:0:
320,192,287516,128,0,287674:0:0:0:0:
64,192,287516,128,0,287833:0:0:0:0:
192,192,287674,1,0,0:0:0:0:
320,192,287833,1,0,0:0:0:0:
448,192,287833,128,0,287992:0:0:0:0:
192,192,287833,128,0,288151:0:0:0:0:
64,192,287992,1,0,0:0:0:0:
448,192,288151,1,0,0:0:0:0:
64,192,288151,128,0,288309:0:0:0:0:
320,192,288151,128,0,288468:0:0:0:0:
192,192,288309,128,0,288468:0:0:0:0:
448,192,288309,1,0,0:0:0:0:
64,192,288468,1,0,0:0:0:0:
448,192,288468,128,0,288627:0:0:0:0:
320,192,288627,1,0,0:0:0:0:
64,192,288627,128,0,288786:0:0:0:0:
192,192,288627,128,0,288944:0:0:0:0:
448,192,288786,1,0,0:0:0:0:
64,192,288944,128,0,289262:0:0:0:0:
320,192,288944,128,0,289024:0:0:0:0:
448,192,289024,128,0,289103:0:0:0:0:
192,192,289103,128,0,289420:0:0:0:0:
320,192,289103,128,0,289182:0:0:0:0:
448,192,289182,128,0,289262:0:0:0:0:
320,192,289262,128,0,289341:0:0:0:0:
448,192,289341,128,0,289420:0:0:0:0:
64,192,289420,1,0,0:0:0:0:
320,192,289420,128,0,289500:0:0:0:0:
448,192,289500,128,0,289579:0:0:0:0:
320,192,289579,128,0,289738:0:0:0:0:
64,192,289579,128,0,289738:0:0:0:0:
192,192,289579,128,0,289897:0:0:0:0:
448,192,289738,1,0,0:0:0:0:
448,192,289897,128,0,290055:0:0:0:0:
320,192,289897,1,0,0:0:0:0:
64,192,289897,128,0,290055:0:0:0:0:
320,192,290055,128,0,290214:0:0:0:0:
192,192,290055,128,0,290373:0:0:0:0:
64,192,290214,1,0,0:0:0:0:
448,192,290214,128,0,290373:0:0:0:0:
64,192,290373,128,0,290532:0:0:0:0:
320,192,290373,128,0,290690:0:0:0:0:
192,192,290532,1,0,0:0:0:0:
192,192,290690,128,0,290849:0:0:0:0:
64,192,290690,1,0,0:0:0:0:
448,192,290690,128,0,291008:0:0:0:0:
320,192,290849,128,0,291008:0:0:0:0:
64,192,290849,1,0,0:0:0:0:
192,192,291008,1,0,0:0:0:0:
64,192,291008,128,0,291325:0:0:0:0:
448,192,291166,1,0,0:0:0:0:
320,192,291166,128,0,291325:0:0:0:0:
192,192,291166,1,0,0:0:0:0:
448,192,291325,128,0,291484:0:0:0:0:
192,192,291325,128,0,291643:0:0:0:0:
320,192,291484,1,0,0:0:0:0:
64,192,291484,1,0,0:0:0:0:
320,192,291643,128,0,292595:0:0:0:0:
448,192,291643,128,0,291722:0:0:0:0:
64,192,291643,128,0,291722:0:0:0:0:
192,192,291722,128,0,291801:0:0:0:0:
448,192,291801,128,0,291881:0:0:0:0:
64,192,291801,128,0,291881:0:0:0:0:
192,192,291881,128,0,292436:0:0:0:0:
64,192,291960,128,0,292278:0:0:0:0:
448,192,291960,128,0,292754:0:0:0:0:
320,192,292754,128,0,292912:0:0:0:0:
448,192,292912,1,0,0:0:0:0:
192,192,292912,128,0,293071:0:0:0:0:
448,192,293071,128,0,293230:0:0:0:0:
320,192,293071,128,0,293389:0:0:0:0:
64,192,293151,128,0,293309:0:0:0:0:
192,192,293230,128,0,293309:0:0:0:0:
448,192,293309,1,0,0:0:0:0:
64,192,293389,128,0,293547:0:0:0:0:
192,192,293389,128,0,293706:0:0:0:0:
320,192,293547,128,0,293706:0:0:0:0:
448,192,293547,1,0,0:0:0:0:
64,192,293706,1,0,0:0:0:0:
448,192,293706,128,0,293865:0:0:0:0:
192,192,293865,1,0,0:0:0:0:
64,192,293865,128,0,294024:0:0:0:0:
320,192,293865,128,0,294182:0:0:0:0:
448,192,294024,128,0,294103:0:0:0:0:
192,192,294024,1,0,0:0:0:0:
64,192,294103,128,0,294182:0:0:0:0:
448,192,294182,128,0,294262:0:0:0:0:
192,192,294182,128,0,294659:0:0:0:0:
64,192,294262,128,0,294341:0:0:0:0:
448,192,294341,128,0,294420:0:0:0:0:
320,192,294341,128,0,294659:0:0:0:0:
64,192,294420,128,0,294500:0:0:0:0:
448,192,294500,128,0,294579:0:0:0:0:
64,192,294579,128,0,294659:0:0:0:0:
448,192,294659,128,0,294897:0:0:0:0:
320,192,294738,128,0,294897:0:0:0:0:
192,192,294817,128,0,294976:0:0:0:0:
64,192,294897,128,0,295055:0:0:0:0:
320,192,294976,128,0,295214:0:0:0:0:
448,192,294976,1,0,0:0:0:0:
192,192,295055,128,0,295214:0:0:0:0:
64,192,295135,128,0,295293:0:0:0:0:
448,192,295214,128,0,295373:0:0:0:0:
192,192,295293,1,0,0:0:0:0:
320,192,295293,128,0,295373:0:0:0:0:
64,192,295373,128,0,295452:0:0:0:0:
448,192,295452,128,0,295532:0:0:0:0:
320,192,295452,128,0,295532:0:0:0:0:
192,192,295532,128,0,295849:0:0:0:0:
64,192,295532,128,0,295849:0:0:0:0:
448,192,295611,128,0,295849:0:0:0:0:
320,192,295611,128,0,295849:0:0:0:0:
64,192,295928,128,0,296087:0:0:0:0:
448,192,295928,1,0,0:0:0:0:
192,192,296008,128,0,296087:0:0:0:0:
320,192,296087,128,0,296246:0:0:0:0:
192,192,296166,128,0,296246:0:0:0:0:
64,192,296246,1,0,0:0:0:0:
448,192,296246,128,0,296405:0:0:0:0:
320,192,296325,128,0,296405:0:0:0:0:
64,192,296405,128,0,296563:0:0:0:0:
192,192,296484,128,0,296563:0:0:0:0:
448,192,296563,1,0,0:0:0:0:
320,192,296563,128,0,296722:0:0:0:0:
64,192,296643,128,0,296722:0:0:0:0:
192,192,296722,128,0,296881:0:0:0:0:
448,192,296801,128,0,296881:0:0:0:0:
320,192,296881,1,0,0:0:0:0:
64,192,296881,128,0,297039:0:0:0:0:
192,192,296960,128,0,297039:0:0:0:0:
448,192,297039,128,0,297198:0:0:0:0:
320,192,297119,128,0,297198:0:0:0:0:
192,192,297198,1,0,0:0:0:0:
64,192,297198,128,0,297357:0:0:0:0:
448,192,297278,128,0,297357:0:0:0:0:
320,192,297357,128,0,297516:0:0:0:0:
192,192,297436,128,0,297516:0:0:0:0:
448,192,297516,1,0,0:0:0:0:
64,192,297516,128,0,297674:0:0:0:0:
192,192,297595,128,0,297674:0:0:0:0:
320,192,297674,128,0,297833:0:0:0:0:
448,192,297754,128,0,297833:0:0:0:0:
192,192,297833,128,0,298071:0:0:0:0:
64,192,297912,128,0,298230:0:0:0:0:
320,192,297992,128,0,298151:0:0:0:0:
448,192,298071,128,0,298309:0:0:0:0:
192,192,298151,128,0,298230:0:0:0:0:
320,192,298230,128,0,298389:0:0:0:0:
192,192,298309,128,0,298468:0:0:0:0:
448,192,298389,128,0,298468:0:0:0:0:
320,192,298468,1,0,0:0:0:0:
64,192,298468,128,0,298627:0:0:0:0:
192,192,298547,128,0,298627:0:0:0:0:
448,192,298627,128,0,298786:0:0:0:0:
320,192,298706,128,0,298786:0:0:0:0:
64,192,298786,1,0,0:0:0:0:
192,192,298786,128,0,298944:0:0:0:0:
448,192,298865,128,0,298944:0:0:0:0:
320,192,298944,128,0,299103:0:0:0:0:
64,192,299024,128,0,299103:0:0:0:0:
448,192,299103,128,0,299262:0:0:0:0:
192,192,299103,1,0,0:0:0:0:
64,192,299182,128,0,299262:0:0:0:0:
192,192,299262,128,0,299420:0:0:0:0:
448,192,299341,128,0,299420:0:0:0:0:
64,192,299420,1,0,0:0:0:0:
320,192,299420,128,0,299579:0:0:0:0:
448,192,299500,128,0,299579:0:0:0:0:
192,192,299579,128,0,299738:0:0:0:0:
320,192,299659,128,0,299738:0:0:0:0:
448,192,299738,1,0,0:0:0:0:
64,192,299738,128,0,299897:0:0:0:0:
192,192,299817,128,0,299897:0:0:0:0:
320,192,299897,128,0,300055:0:0:0:0:
64,192,299976,128,0,300055:0:0:0:0:
192,192,300055,1,0,0:0:0:0:
448,192,300055,128,0,300214:0:0:0:0:
320,192,300135,128,0,300214:0:0:0:0:
192,192,300214,128,0,300373:0:0:0:0:
64,192,300293,128,0,300373:0:0:0:0:
320,192,300373,128,0,300611:0:0:0:0:
448,192,300373,128,0,300690:0:0:0:0:
192,192,300452,128,0,300532:0:0:0:0:
64,192,300532,128,0,300611:0:0:0:0:
192,192,300611,128,0,300690:0:0:0:0:
64,192,300690,1,0,0:0:0:0:
320,192,300690,128,0,300770:0:0:0:0:
448,192,300770,128,0,300849:0:0:0:0:
320,192,300849,1,0,0:0:0:0:
192,192,300849,128,0,300928:0:0:0:0:
64,192,300928,128,0,301008:0:0:0:0:
192,192,301008,1,0,0:0:0:0:
448,192,301008,128,0,301166:0:0:0:0:
320,192,301087,128,0,301166:0:0:0:0:
192,192,301166,128,0,301325:0:0:0:0:
320,192,301246,128,0,301325:0:0:0:0:
448,192,301325,1,0,0:0:0:0:
64,192,301325,128,0,301484:0:0:0:0:
192,192,301405,128,0,301484:0:0:0:0:
320,192,301484,128,0,301643:0:0:0:0:
448,192,301563,128,0,301643:0:0:0:0:
64,192,301643,1,0,0:0:0:0:
192,192,301643,128,0,301801:0:0:0:0:
448,192,301722,128,0,301801:0:0:0:0:
320,192,301801,128,0,301960:0:0:0:0:
64,192,301881,128,0,301960:0:0:0:0:
192,192,301960,1,0,0:0:0:0:
448,192,301960,128,0,302119:0:0:0:0:
320,192,302039,128,0,302119:0:0:0:0:
64,192,302119,128,0,302278:0:0:0:0:
192,192,302198,128,0,302278:0:0:0:0:
320,192,302278,1,0,0:0:0:0:
448,192,302278,128,0,302436:0:0:0:0:
64,192,302357,128,0,302436:0:0:0:0:
192,192,302436,128,0,302595:0:0:0:0:
320,192,302516,128,0,302595:0:0:0:0:
448,192,302595,1,0,0:0:0:0:
64,192,302595,128,0,302754:0:0:0:0:
320,192,302674,128,0,302754:0:0:0:0:
448,192,302754,128,0,302912:0:0:0:0:
192,192,302833,128,0,302912:0:0:0:0:
320,192,302912,1,0,0:0:0:0:
64,192,302912,128,0,303309:0:0:0:0:
192,192,302992,128,0,303230:0:0:0:0:
320,192,303071,128,0,303151:0:0:0:0:
448,192,303151,128,0,303309:0:0:0:0:
320,192,303230,128,0,303309:0:0:0:0:
192,192,303309,128,0,303389:0:0:0:0:
64,192,303389,128,0,303468:0:0:0:0:
448,192,303468,128,0,303547:0:0:0:0:
320,192,303547,128,0,303786:0:0:0:0:
192,192,303547,128,0,303944:0:0:0:0:
64,192,303547,128,0,303944:0:0:0:0:
320,192,303865,128,0,304262:0:0:0:0:
448,192,303865,128,0,304579:0:0:0:0:
192,192,304024,128,0,304579:0:0:0:0:
64,192,304024,128,0,304262:0:0:0:0:
320,192,304341,128,0,304579:0:0:0:0:
64,192,304341,128,0,304897:0:0:0:0:
448,192,304659,128,0,304897:0:0:0:0:
320,192,304659,128,0,304897:0:0:0:0:
192,192,304659,128,0,304897:0:0:0:0:
320,192,304976,128,0,305055:0:0:0:0:
192,192,304976,128,0,305055:0:0:0:0:
64,192,304976,128,0,305135:0:0:0:0:
448,192,305135,128,0,305214:0:0:0:0:
192,192,305135,128,0,305214:0:0:0:0:
320,192,305135,128,0,305293:0:0:0:0:
448,192,305293,128,0,305373:0:0:0:0:
64,192,305293,128,0,305373:0:0:0:0:
192,192,305293,128,0,305452:0:0:0:0:
448,192,305452,128,0,305849:0:0:0:0:
320,192,305452,128,0,305770:0:0:0:0:
64,192,305452,128,0,306008:0:0:0:0:
192,192,305770,128,0,306008:0:0:0:0:
320,192,305849,128,0,305928:0:0:0:0:
448,192,305928,128,0,306087:0:0:0:0:
320,192,306008,128,0,306087:0:0:0:0:
192,192,306087,128,0,306166:0:0:0:0:
64,192,306087,128,0,306405:0:0:0:0:
320,192,306166,128,0,306246:0:0:0:0:
448,192,306246,128,0,306325:0:0:0:0:
192,192,306325,128,0,306405:0:0:0:0:
320,192,306405,128,0,306563:0:0:0:0:
448,192,306405,128,0,306484:0:0:0:0:
64,192,306484,128,0,306643:0:0:0:0:
192,192,306563,128,0,306643:0:0:0:0:
448,192,306643,128,0,306722:0:0:0:0:
64,192,306722,1,0,0:0:0:0:
320,192,306722,128,0,306801:0:0:0:0:
192,192,306801,128,0,306960:0:0:0:0:
64,192,306881,128,0,306960:0:0:0:0:
448,192,306881,128,0,307039:0:0:0:0:
320,192,306960,128,0,307039:0:0:0:0:
192,192,307039,1,0,0:0:0:0:
64,192,307039,128,0,307119:0:0:0:0:
448,192,307119,128,0,307198:0:0:0:0:
320,192,307198,128,0,307357:0:0:0:0:
64,192,307278,128,0,307357:0:0:0:0:
448,192,307357,1,0,0:0:0:0:
192,192,307357,128,0,307516:0:0:0:0:
320,192,307436,128,0,307516:0:0:0:0:
64,192,307516,128,0,307595:0:0:0:0:
448,192,307516,128,0,307674:0:0:0:0:
192,192,307595,128,0,307674:0:0:0:0:
320,192,307674,1,0,0:0:0:0:
64,192,307674,128,0,307992:0:0:0:0:
448,192,307754,128,0,307912:0:0:0:0:
320,192,307833,128,0,307912:0:0:0:0:
192,192,307912,128,0,307992:0:0:0:0:
448,192,307992,128,0,308071:0:0:0:0:
320,192,307992,128,0,308151:0:0:0:0:
192,192,308071,128,0,308230:0:0:0:0:
64,192,308151,128,0,308309:0:0:0:0:
320,192,308230,128,0,308389:0:0:0:0:
192,192,308309,128,0,308468:0:0:0:0:
448,192,308389,128,0,308468:0:0:0:0:
320,192,308468,128,0,308547:0:0:0:0:
192,192,308547,128,0,308627:0:0:0:0:
448,192,308627,128,0,308786:0:0:0:0:
64,192,308627,128,0,308944:0:0:0:0:
320,192,308706,128,0,308786:0:0:0:0:
192,192,308786,128,0,308865:0:0:0:0:
448,192,308865,128,0,308944:0:0:0:0:
320,192,308944,128,0,309024:0:0:0:0:
192,192,308944,128,0,309103:0:0:0:0:
64,192,309024,128,0,309103:0:0:0:0:
320,192,309103,128,0,309182:0:0:0:0:
448,192,309103,128,0,309262:0:0:0:0:
64,192,309182,128,0,309262:0:0:0:0:
320,192,309262,128,0,309341:0:0:0:0:
192,192,309262,128,0,309420:0:0:0:0:
448,192,309341,128,0,309420:0:0:0:0:
64,192,309420,128,0,309500:0:0:0:0:
320,192,309420,128,0,309738:0:0:0:0:
192,192,309500,128,0,309579:0:0:0:0:
448,192,309579,128,0,309659:0:0:0:0:
64,192,309659,128,0,309817:0:0:0:0:
192,192,309738,128,0,309817:0:0:0:0:
448,192,309738,128,0,309897:0:0:0:0:
320,192,309817,128,0,309897:0:0:0:0:
192,192,309897,128,0,309976:0:0:0:0:
64,192,309897,128,0,309976:0:0:0:0:
320,192,309976,128,0,310055:0:0:0:0:
448,192,310055,128,0,310135:0:0:0:0:
192,192,310055,128,0,310214:0:0:0:0:
320,192,310214,128,0,310373:0:0:0:0:
64,192,310214,128,0,310532:0:0:0:0:
448,192,310293,128,0,310373:0:0:0:0:
192,192,310373,128,0,310452:0:0:0:0:
320,192,310452,128,0,310611:0:0:0:0:
448,192,310532,128,0,310690:0:0:0:0:
192,192,310611,128,0,310690:0:0:0:0:
64,192,310690,128,0,310849:0:0:0:0:
320,192,310770,128,0,310849:0:0:0:0:
192,192,310849,128,0,310928:0:0:0:0:
448,192,310849,1,0,0:0:0:0:
320,192,310928,128,0,311008:0:0:0:0:
448,192,311008,128,0,311087:0:0:0:0:
64,192,311008,1,0,0:0:0:0:
192,192,311087,128,0,311166:0:0:0:0:
448,192,311166,1,0,0:0:0:0:
64,192,311166,128,0,311325:0:0:0:0:
320,192,311166,128,0,311484:0:0:0:0:
192,192,311246,128,0,311325:0:0:0:0:
448,192,311325,128,0,311405:0:0:0:0:
192,192,311405,128,0,311484:0:0:0:0:
448,192,311484,128,0,311563:0:0:0:0:
64,192,311484,128,0,311643:0:0:0:0:
320,192,311563,128,0,311643:0:0:0:0:
448,192,311643,128,0,311722:0:0:0:0:
192,192,311643,128,0,311801:0:0:0:0:
64,192,311722,128,0,311801:0:0:0:0:
448,192,311801,128,0,311881:0:0:0:0:
320,192,311801,128,0,311960:0:0:0:0:
192,192,311881,128,0,311960:0:0:0:0:
64,192,311960,128,0,312119:0:0:0:0:
448,192,311960,128,0,312119:0:0:0:0:
192,192,312039,128,0,312119:0:0:0:0:
320,192,312119,128,0,312278:0:0:0:0:
448,192,312198,128,0,312278:0:0:0:0:
192,192,312278,128,0,312357:0:0:0:0:
64,192,312278,128,0,312436:0:0:0:0:
448,192,312357,128,0,312436:0:0:0:0:
192,192,312436,128,0,312516:0:0:0:0:
320,192,312436,128,0,312516:0:0:0:0:
64,192,312516,128,0,312595:0:0:0:0:
448,192,312595,128,0,312674:0:0:0:0:
192,192,312595,128,0,312754:0:0:0:0:
320,192,312674,128,0,312754:0:0:0:0:
64,192,312754,128,0,312912:0:0:0:0:
448,192,312754,128,0,313071:0:0:0:0:
320,192,312833,128,0,312912:0:0:0:0:
192,192,312912,128,0,313071:0:0:0:0:
64,192,312992,128,0,313071:0:0:0:0:
320,192,313071,128,0,313230:0:0:0:0:
448,192,313151,128,0,313230:0:0:0:0:
64,192,313230,128,0,313389:0:0:0:0:
192,192,313309,128,0,313389:0:0:0:0:
320,192,313389,128,0,313468:0:0:0:0:
448,192,313389,128,0,313547:0:0:0:0:
64,192,313468,128,0,313547:0:0:0:0:
320,192,313547,1,0,0:0:0:0:
192,192,313547,128,0,313706:0:0:0:0:
448,192,313706,128,0,314103:0:0:0:0:
320,192,313706,128,0,314103:0:0:0:0:
64,192,313706,128,0,313944:0:0:0:0:
192,192,314024,128,0,314738:0:0:0:0:
64,192,314024,128,0,314420:0:0:0:0:
448,192,314182,128,0,314738:0:0:0:0:
320,192,314182,128,0,314420:0:0:0:0:
320,192,314500,128,0,315055:0:0:0:0:
64,192,314500,128,0,314738:0:0:0:0:
448,192,314817,128,0,315055:0:0:0:0:
192,192,314817,128,0,315055:0:0:0:0:
64,192,314817,128,0,315055:0:0:0:0:
448,192,315135,128,0,315214:0:0:0:0:
64,192,315135,128,0,315214:0:0:0:0:
320,192,315135,128,0,315293:0:0:0:0:
448,192,315293,128,0,315373:0:0:0:0:
192,192,315293,128,0,315373:0:0:0:0:
64,192,315293,128,0,315452:0:0:0:0:
192,192,315452,128,0,315532:0:0:0:0:
320,192,315452,128,0,315532:0:0:0:0:
448,192,315452,128,0,315611:0:0:0:0:
192,192,315611,128,0,316008:0:0:0:0:
64,192,315611,128,0,316087:0:0:0:0:
320,192,315611,128,0,315928:0:0:0:0:
448,192,315928,128,0,316166:0:0:0:0:
320,192,316008,128,0,316166:0:0:0:0:
192,192,316087,128,0,316166:0:0:0:0:
64,192,316166,128,0,316246:0:0:0:0:
320,192,316246,128,0,316484:0:0:0:0:
192,192,316246,1,0,0:0:0:0:
448,192,316246,128,0,316881:0:0:0:0:
64,192,316405,128,0,316643:0:0:0:0:
192,192,316484,128,0,316563:0:0:0:0:
320,192,316563,1,0,0:0:0:0:
192,192,316643,1,0,0:0:0:0:
64,192,316722,1,0,0:0:0:0:
64,192,316881,128,0,317119:0:0:0:0:
192,192,316881,1,0,0:0:0:0:
320,192,316881,128,0,317516:0:0:0:0:
448,192,317039,128,0,317278:0:0:0:0:
192,192,317119,128,0,317198:0:0:0:0:
64,192,317198,1,0,0:0:0:0:
192,192,317278,1,0,0:0:0:0:
448,192,317357,1,0,0:0:0:0:
448,192,317516,128,0,317754:0:0:0:0:
64,192,317516,1,0,0:0:0:0:
192,192,317516,128,0,318151:0:0:0:0:
64,192,317674,128,0,317912:0:0:0:0:
320,192,317754,128,0,317833:0:0:0:0:
448,192,317833,128,0,318071:0:0:0:0:
320,192,317912,128,0,317992:0:0:0:0:
64,192,317992,1,0,0:0:0:0:
320,192,318071,1,0,0:0:0:0:
448,192,318151,128,0,318389:0:0:0:0:
64,192,318151,128,0,318786:0:0:0:0:
320,192,318309,128,0,318389:0:0:0:0:
192,192,318309,1,0,0:0:0:0:
448,192,318468,128,0,318627:0:0:0:0:
320,192,318547,128,0,318706:0:0:0:0:
192,192,318627,128,0,318706:0:0:0:0:
448,192,318706,1,0,0:0:0:0:
192,192,318786,128,0,319341:0:0:0:0:
320,192,318786,128,0,319024:0:0:0:0:
64,192,318944,1,0,0:0:0:0:
448,192,319024,1,0,0:0:0:0:
320,192,319103,128,0,319659:0:0:0:0:
64,192,319103,1,0,0:0:0:0:
448,192,319262,1,0,0:0:0:0:
64,192,319341,1,0,0:0:0:0:
448,192,319420,1,0,0:0:0:0:
192,192,319420,128,0,319738:0:0:0:0:
64,192,319579,1,0,0:0:0:0:
448,192,319659,1,0,0:0:0:0:
320,192,319738,1,0,0:0:0:0:
64,192,319738,128,0,319897:0:0:0:0:
448,192,319897,128,0,320055:0:0:0:0:
320,192,319897,1,0,0:0:0:0:
192,192,319897,128,0,320690:0:0:0:0:
64,192,320055,128,0,320214:0:0:0:0:
448,192,320214,128,0,320373:0:0:0:0:
320,192,320214,1,0,0:0:0:0:
64,192,320373,128,0,320532:0:0:0:0:
320,192,320373,1,0,0:0:0:0:
448,192,320532,1,0,0:0:0:0:
448,192,320690,128,0,321008:0:0:0:0:
320,192,320690,1,0,0:0:0:0:
64,192,320849,128,0,321087:0:0:0:0:
192,192,320928,128,0,321166:0:0:0:0:
320,192,321008,128,0,321087:0:0:0:0:
448,192,321087,128,0,321246:0:0:0:0:
64,192,321166,128,0,321246:0:0:0:0:
320,192,321166,128,0,321325:0:0:0:0:
192,192,321246,128,0,321325:0:0:0:0:
64,192,321325,1,0,0:0:0:0:
448,192,321325,128,0,321960:0:0:0:0:
192,192,321484,1,0,0:0:0:0:
320,192,321643,128,0,321722:0:0:0:0:
192,192,321643,1,0,0:0:0:0:
192,192,321801,1,0,0:0:0:0:
192,192,321960,128,0,322039:0:0:0:0:
64,192,321960,1,0,0:0:0:0:
320,192,321960,128,0,322516:0:0:0:0:
64,192,322119,1,0,0:0:0:0:
448,192,322278,1,0,0:0:0:0:
64,192,322278,128,0,322357:0:0:0:0:
448,192,322436,1,0,0:0:0:0:
192,192,322436,128,0,322516:0:0:0:0:
64,192,322516,1,0,0:0:0:0:
448,192,322595,128,0,322674:0:0:0:0:
320,192,322595,1,0,0:0:0:0:
192,192,322595,128,0,323230:0:0:0:0:
320,192,322754,1,0,0:0:0:0:
64,192,322912,128,0,322992:0:0:0:0:
320,192,322912,1,0,0:0:0:0:
320,192,323071,1,0,0:0:0:0:
448,192,323230,128,0,323468:0:0:0:0:
320,192,323230,128,0,323865:0:0:0:0:
64,192,323309,128,0,323389:0:0:0:0:
192,192,323389,128,0,323627:0:0:0:0:
64,192,323468,128,0,323547:0:0:0:0:
448,192,323547,128,0,323786:0:0:0:0:
64,192,323627,128,0,323706:0:0:0:0:
192,192,323706,128,0,323786:0:0:0:0:
64,192,323786,128,0,323865:0:0:0:0:
448,192,323865,128,0,323944:0:0:0:0:
192,192,323865,128,0,324182:0:0:0:0:
64,192,324182,128,0,324262:0:0:0:0:
320,192,324182,128,0,324262:0:0:0:0:
448,192,324182,128,0,324500:0:0:0:0:
192,192,324500,128,0,324579:0:0:0:0:
64,192,324500,128,0,324579:0:0:0:0:
320,192,324500,128,0,324817:0:0:0:0:
448,192,324817,128,0,324897:0:0:0:0:
192,192,324817,128,0,324897:0:0:0:0:
64,192,324817,128,0,324976:0:0:0:0:
448,192,324976,128,0,325055:0:0:0:0:
320,192,324976,128,0,325770:0:0:0:0:
192,192,324976,128,0,326087:0:0:0:0:
448,192,325293,128,0,325373:0:0:0:0:
448,192,325452,128,0,325532:0:0:0:0:
64,192,325611,128,0,325690:0:0:0:0:
448,192,325770,128,0,325928:0:0:0:0:
320,192,325849,128,0,325928:0:0:0:0:
64,192,325928,128,0,326087:0:0:0:0:
320,192,326008,128,0,326087:0:0:0:0:
448,192,326087,128,0,326325:0:0:0:0:
320,192,326166,128,0,326246:0:0:0:0:
192,192,326246,1,0,0:0:0:0:
320,192,326325,1,0,0:0:0:0:
192,192,326405,128,0,326484:0:0:0:0:
448,192,326405,1,0,0:0:0:0:
64,192,326405,128,0,326563:0:0:0:0:
320,192,326563,128,0,326643:0:0:0:0:
192,192,326563,128,0,326722:0:0:0:0:
448,192,326643,128,0,326722:0:0:0:0:
64,192,326722,128,0,326881:0:0:0:0:
320,192,326722,128,0,327039:0:0:0:0:
192,192,326881,128,0,326960:0:0:0:0:
448,192,326960,128,0,327039:0:0:0:0:
64,192,327039,128,0,327198:0:0:0:0:
192,192,327039,128,0,327198:0:0:0:0:
448,192,327198,128,0,327278:0:0:0:0:
320,192,327198,128,0,327357:0:0:0:0:
192,192,327278,128,0,327357:0:0:0:0:
64,192,327357,128,0,327436:0:0:0:0:
448,192,327357,128,0,327516:0:0:0:0:
192,192,327436,128,0,327516:0:0:0:0:
64,192,327516,128,0,327674:0:0:0:0:
320,192,327516,128,0,327833:0:0:0:0:
448,192,327674,128,0,327833:0:0:0:0:
192,192,327674,1,0,0:0:0:0:
64,192,327833,128,0,327912:0:0:0:0:
192,192,327833,128,0,327992:0:0:0:0:
320,192,327912,128,0,327992:0:0:0:0:
448,192,327992,128,0,328151:0:0:0:0:
64,192,327992,128,0,328151:0:0:0:0:
320,192,328151,128,0,328230:0:0:0:0:
192,192,328151,128,0,328309:0:0:0:0:
64,192,328230,128,0,328309:0:0:0:0:
448,192,328309,128,0,328468:0:0:0:0:
320,192,328309,128,0,328468:0:0:0:0:
192,192,328468,128,0,328547:0:0:0:0:
64,192,328468,128,0,328627:0:0:0:0:
320,192,328547,128,0,328627:0:0:0:0:
448,192,328627,128,0,328706:0:0:0:0:
192,192,328627,128,0,328786:0:0:0:0:
320,192,328706,128,0,328786:0:0:0:0:
448,192,328786,128,0,328865:0:0:0:0:
64,192,328786,128,0,328944:0:0:0:0:
320,192,328865,128,0,328944:0:0:0:0:
448,192,328944,128,0,329103:0:0:0:0:
192,192,328944,128,0,329103:0:0:0:0:
64,192,329103,128,0,329182:0:0:0:0:
320,192,329103,128,0,329262:0:0:0:0:
192,192,329182,128,0,329262:0:0:0:0:
64,192,329262,128,0,329420:0:0:0:0:
448,192,329262,128,0,329579:0:0:0:0:
320,192,329420,128,0,329500:0:0:0:0:
192,192,329500,128,0,329579:0:0:0:0:
320,192,329579,128,0,329738:0:0:0:0:
64,192,329579,128,0,329738:0:0:0:0:
448,192,329738,128,0,329817:0:0:0:0:
192,192,329738,128,0,329897:0:0:0:0:
64,192,329817,128,0,329897:0:0:0:0:
448,192,329897,128,0,329976:0:0:0:0:
320,192,329897,128,0,330055:0:0:0:0:
192,192,329976,128,0,330055:0:0:0:0:
64,192,330055,128,0,330214:0:0:0:0:
448,192,330055,128,0,330214:0:0:0:0:
192,192,330214,128,0,330293:0:0:0:0:
320,192,330293,128,0,330373:0:0:0:0:
448,192,330373,1,0,0:0:0:0:
192,192,330373,128,0,330452:0:0:0:0:
320,192,330452,128,0,330532:0:0:0:0:
64,192,330532,1,0,0:0:0:0:
192,192,330532,128,0,330690:0:0:0:0:
320,192,330690,1,0,0:0:0:0:
448,192,330690,1,0,0:0:0:0:
64,192,330690,128,0,330849:0:0:0:0:
192,192,330849,1,0,0:0:0:0:
320,192,330849,128,0,330928:0:0:0:0:
64,192,331008,1,0,0:0:0:0:
448,192,331008,128,0,331087:0:0:0:0:
320,192,331087,1,0,0:0:0:0:
192,192,331166,1,0,0:0:0:0:
448,192,331166,128,0,331246:0:0:0:0:
64,192,331246,1,0,0:0:0:0:
320,192,331246,128,0,331325:0:0:0:0:
448,192,331325,1,0,0:0:0:0:
192,192,331325,128,0,331405:0:0:0:0:
64,192,331405,128,0,331484:0:0:0:0:
320,192,331484,128,0,331563:0:0:0:0:
192,192,331484,128,0,331643:0:0:0:0:
64,192,331643,128,0,331722:0:0:0:0:
320,192,331643,128,0,331801:0:0:0:0:
192,192,331722,128,0,331801:0:0:0:0:
64,192,331801,128,0,331960:0:0:0:0:
448,192,331801,128,0,331960:0:0:0:0:
192,192,331960,128,0,332119:0:0:0:0:
320,192,332039,128,0,332119:0:0:0:0:
448,192,332119,128,0,332278:0:0:0:0:
64,192,332119,128,0,332278:0:0:0:0:
320,192,332278,128,0,332357:0:0:0:0:
192,192,332278,128,0,332436:0:0:0:0:
64,192,332357,128,0,332436:0:0:0:0:
320,192,332436,128,0,332516:0:0:0:0:
448,192,332436,128,0,332595:0:0:0:0:
192,192,332516,128,0,332595:0:0:0:0:
64,192,332595,128,0,332674:0:0:0:0:
320,192,332595,128,0,332912:0:0:0:0:
192,192,332674,128,0,332754:0:0:0:0:
64,192,332754,1,0,0:0:0:0:
448,192,332754,128,0,332912:0:0:0:0:
64,192,332912,128,0,332992:0:0:0:0:
192,192,332912,128,0,333071:0:0:0:0:
320,192,332992,128,0,333071:0:0:0:0:
448,192,333071,128,0,333230:0:0:0:0:
64,192,333071,128,0,333230:0:0:0:0:
320,192,333230,128,0,333309:0:0:0:0:
192,192,333230,128,0,333389:0:0:0:0:
64,192,333309,128,0,333389:0:0:0:0:
448,192,333389,128,0,333547:0:0:0:0:
320,192,333389,128,0,333547:0:0:0:0:
192,192,333547,128,0,333627:0:0:0:0:
64,192,333547,128,0,333706:0:0:0:0:
320,192,333627,128,0,333706:0:0:0:0:
448,192,333706,128,0,333786:0:0:0:0:
192,192,333706,128,0,333865:0:0:0:0:
320,192,333786,128,0,333865:0:0:0:0:
448,192,333865,128,0,334024:0:0:0:0:
64,192,333865,128,0,334024:0:0:0:0:
320,192,334024,128,0,334103:0:0:0:0:
192,192,334024,128,0,334182:0:0:0:0:
448,192,334103,1,0,0:0:0:0:
64,192,334182,128,0,334262:0:0:0:0:
320,192,334182,128,0,334341:0:0:0:0:
192,192,334262,1,0,0:0:0:0:
64,192,334341,128,0,334500:0:0:0:0:
448,192,334341,128,0,334659:0:0:0:0:
192,192,334420,128,0,334579:0:0:0:0:
320,192,334500,128,0,334579:0:0:0:0:
64,192,334579,1,0,0:0:0:0:
192,192,334659,128,0,334738:0:0:0:0:
320,192,334659,128,0,334817:0:0:0:0:
448,192,334738,1,0,0:0:0:0:
64,192,334817,128,0,334897:0:0:0:0:
192,192,334817,128,0,334976:0:0:0:0:
320,192,334897,128,0,334976:0:0:0:0:
448,192,334976,1,0,0:0:0:0:
64,192,334976,128,0,335135:0:0:0:0:
192,192,335055,128,0,335373:0:0:0:0:
320,192,335135,128,0,335373:0:0:0:0:
448,192,335135,128,0,335532:0:0:0:0:
320,192,335452,128,0,335532:0:0:0:0:
192,192,335452,128,0,335532:0:0:0:0:
64,192,335452,128,0,335690:0:0:0:0:
448,192,335611,128,0,335849:0:0:0:0:
320,192,335611,128,0,335690:0:0:0:0:
192,192,335611,128,0,335690:0:0:0:0:
64,192,335770,128,0,336405:0:0:0:0:
320,192,335770,128,0,335849:0:0:0:0:
192,192,335770,128,0,335928:0:0:0:0:
448,192,335928,128,0,336563:0:0:0:0:
320,192,335928,128,0,336008:0:0:0:0:
192,192,336008,128,0,336087:0:0:0:0:
320,192,336087,128,0,336166:0:0:0:0:
192,192,336166,128,0,336246:0:0:0:0:
320,192,336246,128,0,336325:0:0:0:0:
192,192,336325,128,0,336405:0:0:0:0:
320,192,336405,128,0,336484:0:0:0:0:
192,192,336484,128,0,336563:0:0:0:0:
64,192,336563,1,0,0:0:0:0:
320,192,336563,1,0,0:0:0:0:
192,192,336722,128,0,336801:0:0:0:0:
320,192,336801,1,0,0:0:0:0:
448,192,336881,1,0,0:0:0:0:
192,192,337039,128,0,337119:0:0:0:0:
320,192,337119,1,0,0:0:0:0:
64,192,337198,1,0,0:0:0:0:
192,192,337357,128,0,337436:0:0:0:0:
320,192,337436,1,0,0:0:0:0:
448,192,337516,1,0,0:0:0:0:
192,192,337674,128,0,337754:0:0:0:0:
320,192,337754,1,0,0:0:0:0:
64,192,337833,1,0,0:0:0:0:
192,192,337992,128,0,338071:0:0:0:0:
320,192,338071,1,0,0:0:0:0:
448,192,338151,1,0,0:0:0:0:
192,192,338309,128,0,338389:0:0:0:0:
320,192,338389,1,0,0:0:0:0:
64,192,338468,1,0,0:0:0:0:
192,192,338627,128,0,338706:0:0:0:0:
320,192,338706,1,0,0:0:0:0:
448,192,338786,1,0,0:0:0:0:
192,192,338944,128,0,339024:0:0:0:0:
320,192,339024,1,0,0:0:0:0:
64,192,339103,1,0,0:0:0:0:
320,192,339262,128,0,339341:0:0:0:0:
192,192,339341,1,0,0:0:0:0:
64,192,339420,1,0,0:0:0:0:
320,192,339579,128,0,339659:0:0:0:0:
192,192,339659,1,0,0:0:0:0:
448,192,339738,1,0,0:0:0:0:
320,192,339897,128,0,339976:0:0:0:0:
192,192,339976,1,0,0:0:0:0:
64,192,340055,1,0,0:0:0:0:
320,192,340214,128,0,340293:0:0:0:0:
192,192,340293,1,0,0:0:0:0:
448,192,340373,1,0,0:0:0:0:
64,192,340532,128,0,340611:0:0:0:0:
192,192,340611,1,0,0:0:0:0:
320,192,340690,1,0,0:0:0:0:
64,192,340849,128,0,340928:0:0:0:0:
448,192,340928,1,0,0:0:0:0:
320,192,341008,1,0,0:0:0:0:
64,192,341166,128,0,341246:0:0:0:0:
192,192,341246,1,0,0:0:0:0:
320,192,341325,128,0,341405:0:0:0:0:
448,192,341325,128,0,341405:0:0:0:0:
192,192,341484,128,0,341563:0:0:0:0:
64,192,341484,128,0,341563:0:0:0:0:
448,192,341643,128,0,341960:0:0:0:0:
320,192,341643,1,0,0:0:0:0:
64,192,341643,1,0,0:0:0:0:
192,192,341801,128,0,341881:0:0:0:0:
320,192,341960,128,0,342436:0:0:0:0:
192,192,341960,1,0,0:0:0:0:
64,192,341960,1,0,0:0:0:0:
64,192,342119,128,0,342198:0:0:0:0:
448,192,342278,1,0,0:0:0:0:
192,192,342278,1,0,0:0:0:0:
64,192,342436,128,0,342516:0:0:0:0:
448,192,342595,128,0,342754:0:0:0:0:
192,192,342595,1,0,0:0:0:0:
320,192,342754,128,0,342833:0:0:0:0:
64,192,342754,128,0,343230:0:0:0:0:
448,192,342912,1,0,0:0:0:0:
192,192,342912,1,0,0:0:0:0:
192,192,343071,128,0,343151:0:0:0:0:
448,192,343230,1,0,0:0:0:0:
320,192,343230,1,0,0:0:0:0:
320,192,343389,128,0,343468:0:0:0:0:
64,192,343547,1,0,0:0:0:0:
192,192,343547,128,0,343865:0:0:0:0:
448,192,343547,1,0,0:0:0:0:
448,192,343706,128,0,343786:0:0:0:0:
64,192,343865,1,0,0:0:0:0:
320,192,343865,128,0,344182:0:0:0:0:
448,192,344024,1,0,0:0:0:0:
64,192,344024,128,0,344182:0:0:0:0:
192,192,344182,1,0,0:0:0:0:
448,192,344182,128,0,345135:0:0:0:0:
320,192,344341,128,0,344420:0:0:0:0:
64,192,344500,1,0,0:0:0:0:
192,192,344500,1,0,0:0:0:0:
192,192,344659,128,0,344738:0:0:0:0:
64,192,344817,1,0,0:0:0:0:
320,192,344817,1,0,0:0:0:0:
192,192,344897,1,0,0:0:0:0:
64,192,344976,128,0,345055:0:0:0:0:
192,192,345055,1,0,0:0:0:0:
64,192,345135,1,0,0:0:0:0:
320,192,345135,128,0,345452:0:0:0:0:
192,192,345214,1,0,0:0:0:0:
448,192,345293,1,0,0:0:0:0:
64,192,345373,1,0,0:0:0:0:
192,192,345452,128,0,346246:0:0:0:0:
448,192,345452,128,0,345532:0:0:0:0:
320,192,345532,128,0,345611:0:0:0:0:
64,192,345611,128,0,345690:0:0:0:0:
448,192,345690,128,0,345770:0:0:0:0:
320,192,345770,128,0,345849:0:0:0:0:
64,192,345849,128,0,345928:0:0:0:0:
320,192,345928,128,0,346008:0:0:0:0:
448,192,345928,128,0,346008:0:0:0:0:
64,192,346008,128,0,346087:0:0:0:0:
448,192,346087,128,0,346166:0:0:0:0:
320,192,346166,128,0,346246:0:0:0:0:
448,192,346246,128,0,346405:0:0:0:0:
64,192,346246,128,0,346405:0:0:0:0:
320,192,346325,128,0,346484:0:0:0:0:
192,192,346405,128,0,346563:0:0:0:0:
64,192,346484,128,0,346563:0:0:0:0:
448,192,346563,128,0,346643:0:0:0:0:
320,192,346563,128,0,346643:0:0:0:0:
192,192,346643,128,0,346722:0:0:0:0:
64,192,346643,128,0,346722:0:0:0:0:
320,192,346722,128,0,346881:0:0:0:0:
448,192,346722,128,0,347833:0:0:0:0:
64,192,346881,128,0,347039:0:0:0:0:
320,192,347039,1,0,0:0:0:0:
64,192,347198,1,0,0:0:0:0:
64,192,347357,128,0,347516:0:0:0:0:
192,192,347357,1,0,0:0:0:0:
320,192,347516,128,0,347674:0:0:0:0:
192,192,347674,128,0,347833:0:0:0:0:
320,192,347833,128,0,348151:0:0:0:0:
64,192,347833,128,0,349024:0:0:0:0:
448,192,347992,1,0,0:0:0:0:
192,192,348151,1,0,0:0:0:0:
320,192,348309,1,0,0:0:0:0:
448,192,348309,128,0,348627:0:0:0:0:
320,192,348627,128,0,348786:0:0:0:0:
192,192,348706,128,0,348865:0:0:0:0:
448,192,348786,128,0,348865:0:0:0:0:
320,192,348865,128,0,348944:0:0:0:0:
448,192,348944,128,0,349103:0:0:0:0:
192,192,348944,128,0,349103:0:0:0:0:
64,192,349103,1,0,0:0:0:0:
320,192,349103,128,0,350373:0:0:0:0:
192,192,349262,128,0,349420:0:0:0:0:
448,192,349262,1,0,0:0:0:0:
64,192,349262,1,0,0:0:0:0:
448,192,349420,128,0,349579:0:0:0:0:
64,192,349579,1,0,0:0:0:0:
64,192,349738,128,0,349897:0:0:0:0:
448,192,349738,1,0,0:0:0:0:
192,192,349897,1,0,0:0:0:0:
448,192,350055,128,0,350214:0:0:0:0:
64,192,350214,1,0,0:0:0:0:
192,192,350373,128,0,350690:0:0:0:0:
64,192,350532,128,0,351166:0:0:0:0:
448,192,350532,128,0,350611:0:0:0:0:
320,192,350690,1,0,0:0:0:0:
448,192,350690,128,0,350770:0:0:0:0:
192,192,350849,1,0,0:0:0:0:
448,192,350849,128,0,350928:0:0:0:0:
448,192,351008,128,0,351087:0:0:0:0:
448,192,351166,128,0,351405:0:0:0:0:
320,192,351246,128,0,351484:0:0:0:0:
192,192,351325,128,0,351563:0:0:0:0:
64,192,351405,128,0,351643:0:0:0:0:
448,192,351484,128,0,351722:0:0:0:0:
320,192,351563,128,0,351722:0:0:0:0:
192,192,351643,128,0,351801:0:0:0:0:
64,192,351722,128,0,351801:0:0:0:0:
448,192,351801,128,0,352119:0:0:0:0:
320,192,351801,1,0,0:0:0:0:
64,192,351960,1,0,0:0:0:0:
192,192,352119,128,0,352278:0:0:0:0:
320,192,352119,1,0,0:0:0:0:
448,192,352278,1,0,0:0:0:0:
64,192,352278,128,0,352595:0:0:0:0:
320,192,352436,1,0,0:0:0:0:
192,192,352595,1,0,0:0:0:0:
448,192,352595,128,0,352912:0:0:0:0:
64,192,352754,1,0,0:0:0:0:
320,192,352912,1,0,0:0:0:0:
192,192,352912,128,0,353230:0:0:0:0:
448,192,353071,128,0,353230:0:0:0:0:
64,192,353230,1,0,0:0:0:0:
320,192,353230,128,0,353547:0:0:0:0:
64,192,353389,128,0,353547:0:0:0:0:
448,192,353389,1,0,0:0:0:0:
192,192,353547,1,0,0:0:0:0:
448,192,353547,128,0,353865:0:0:0:0:
192,192,353706,128,0,353865:0:0:0:0:
320,192,353865,128,0,353944:0:0:0:0:
64,192,353865,128,0,354976:0:0:0:0:
192,192,353944,128,0,354024:0:0:0:0:
448,192,354024,128,0,354103:0:0:0:0:
192,192,354103,128,0,354182:0:0:0:0:
448,192,354182,128,0,354659:0:0:0:0:
320,192,354182,128,0,354817:0:0:0:0:
192,192,354500,128,0,354579:0:0:0:0:
192,192,354659,128,0,354738:0:0:0:0:
192,192,354817,128,0,354897:0:0:0:0:
192,192,354976,128,0,355055:0:0:0:0:
192,192,355135,128,0,355214:0:0:0:0:
64,192,355293,128,0,355373:0:0:0:0:
448,192,355293,128,0,355611:0:0:0:0:
192,192,355373,128,0,355452:0:0:0:0:
320,192,355452,128,0,355532:0:0:0:0:
64,192,355532,128,0,355611:0:0:0:0:
320,192,355611,128,0,355928:0:0:0:0:
192,192,355611,128,0,355928:0:0:0:0:
448,192,355770,128,0,355849:0:0:0:0:
64,192,355928,128,0,356087:0:0:0:0:
448,192,356087,128,0,356166:0:0:0:0:
320,192,356087,128,0,356166:0:0:0:0:
192,192,356246,128,0,356325:0:0:0:0:
64,192,356246,128,0,356325:0:0:0:0:
320,192,356325,128,0,356405:0:0:0:0:
192,192,356405,128,0,356484:0:0:0:0:
64,192,356405,128,0,356484:0:0:0:0:
448,192,356405,128,0,356881:0:0:0:0:
320,192,356484,128,0,356563:0:0:0:0:
192,192,356563,128,0,356643:0:0:0:0:
64,192,356563,128,0,356643:0:0:0:0:
320,192,356643,128,0,356722:0:0:0:0:
192,192,356722,128,0,356801:0:0:0:0:
64,192,356722,128,0,356801:0:0:0:0:
320,192,356801,128,0,356881:0:0:0:0:
192,192,356881,128,0,357119:0:0:0:0:
64,192,356881,128,0,357039:0:0:0:0:
320,192,356960,128,0,357119:0:0:0:0:
448,192,357039,128,0,357198:0:0:0:0:
64,192,357119,128,0,357278:0:0:0:0:
320,192,357198,128,0,357278:0:0:0:0:
192,192,357198,128,0,357357:0:0:0:0:
448,192,357278,128,0,357357:0:0:0:0:
320,192,357357,128,0,357436:0:0:0:0:
64,192,357357,128,0,357436:0:0:0:0:
192,192,357436,128,0,357516:0:0:0:0:
320,192,357516,128,0,357595:0:0:0:0:
448,192,357516,128,0,357595:0:0:0:0:
64,192,357595,128,0,357674:0:0:0:0:
192,192,357595,128,0,357674:0:0:0:0:
448,192,357674,128,0,357754:0:0:0:0:
320,192,357674,128,0,357754:0:0:0:0:
64,192,357754,128,0,358071:0:0:0:0:
192,192,357754,128,0,358071:0:0:0:0:
448,192,357833,128,0,358071:0:0:0:0:
320,192,357833,128,0,358071:0:0:0:0:
64,192,358151,128,0,358547:0:0:0:0:
320,192,358151,1,0,0:0:0:0:
448,192,358151,128,0,358389:0:0:0:0:
192,192,358309,128,0,358389:0:0:0:0:
192,192,358468,128,0,358706:0:0:0:0:
320,192,358468,1,0,0:0:0:0:
448,192,358468,128,0,358547:0:0:0:0:
64,192,358627,128,0,358865:0:0:0:0:
448,192,358627,128,0,358865:0:0:0:0:
192,192,358786,128,0,359024:0:0:0:0:
320,192,358786,1,0,0:0:0:0:
64,192,358944,128,0,359182:0:0:0:0:
448,192,358944,128,0,359182:0:0:0:0:
192,192,359103,128,0,359341:0:0:0:0:
320,192,359103,1,0,0:0:0:0:
64,192,359262,128,0,359500:0:0:0:0:
448,192,359262,128,0,359500:0:0:0:0:
192,192,359420,128,0,359659:0:0:0:0:
320,192,359420,1,0,0:0:0:0:
64,192,359579,128,0,359817:0:0:0:0:
448,192,359579,128,0,359659:0:0:0:0:
192,192,359738,128,0,359976:0:0:0:0:
320,192,359738,1,0,0:0:0:0:
448,192,359738,128,0,359976:0:0:0:0:
64,192,359897,128,0,360135:0:0:0:0:
192,192,360055,128,0,360293:0:0:0:0:
320,192,360055,1,0,0:0:0:0:
448,192,360055,128,0,360293:0:0:0:0:
64,192,360214,128,0,360611:0:0:0:0:
192,192,360373,128,0,360452:0:0:0:0:
320,192,360373,1,0,0:0:0:0:
448,192,360373,128,0,360611:0:0:0:0:
192,192,360532,128,0,360611:0:0:0:0:
320,192,360690,1,0,0:0:0:0:
448,192,360690,128,0,361087:0:0:0:0:
64,192,360690,128,0,360928:0:0:0:0:
192,192,360849,128,0,360928:0:0:0:0:
320,192,361008,1,0,0:0:0:0:
192,192,361008,128,0,361246:0:0:0:0:
64,192,361008,128,0,361087:0:0:0:0:
448,192,361166,128,0,361405:0:0:0:0:
64,192,361166,128,0,361405:0:0:0:0:
320,192,361325,1,0,0:0:0:0:
192,192,361325,128,0,361563:0:0:0:0:
448,192,361484,128,0,361722:0:0:0:0:
64,192,361484,128,0,361881:0:0:0:0:
320,192,361643,1,0,0:0:0:0:
192,192,361643,128,0,361722:0:0:0:0:
448,192,361801,128,0,362039:0:0:0:0:
192,192,361801,128,0,362039:0:0:0:0:
320,192,361960,1,0,0:0:0:0:
64,192,361960,128,0,362198:0:0:0:0:
448,192,362119,128,0,362357:0:0:0:0:
192,192,362119,128,0,362198:0:0:0:0:
320,192,362278,1,0,0:0:0:0:
192,192,362278,128,0,362516:0:0:0:0:
64,192,362278,128,0,362516:0:0:0:0:
448,192,362436,128,0,362674:0:0:0:0:
320,192,362595,1,0,0:0:0:0:
192,192,362595,128,0,362992:0:0:0:0:
64,192,362595,128,0,362833:0:0:0:0:
448,192,362754,128,0,363071:0:0:0:0:
64,192,362912,128,0,363151:0:0:0:0:
320,192,362912,1,0,0:0:0:0:
320,192,363071,1,0,0:0:0:0:
192,192,363071,128,0,363151:0:0:0:0:
192,192,363230,1,0,0:0:0:0:
320,192,363230,1,0,0:0:0:0:
64,192,363230,128,0,363468:0:0:0:0:
448,192,363230,128,0,363468:0:0:0:0:
320,192,363389,128,0,363627:0:0:0:0:
192,192,363547,1,0,0:0:0:0:
448,192,363547,128,0,363786:0:0:0:0:
64,192,363547,128,0,363627:0:0:0:0:
320,192,363706,128,0,363944:0:0:0:0:
64,192,363706,128,0,363944:0:0:0:0:
192,192,363865,1,0,0:0:0:0:
448,192,363865,128,0,364103:0:0:0:0:
64,192,364024,128,0,364262:0:0:0:0:
320,192,364024,128,0,364262:0:0:0:0:
192,192,364182,1,0,0:0:0:0:
448,192,364182,128,0,364420:0:0:0:0:
64,192,364341,128,0,364579:0:0:0:0:
320,192,364341,128,0,364579:0:0:0:0:
192,192,364500,1,0,0:0:0:0:
448,192,364500,128,0,364738:0:0:0:0:
64,192,364659,128,0,364897:0:0:0:0:
320,192,364659,128,0,364738:0:0:0:0:
192,192,364817,1,0,0:0:0:0:
448,192,364817,128,0,365055:0:0:0:0:
320,192,364817,128,0,365055:0:0:0:0:
64,192,364976,128,0,365214:0:0:0:0:
192,192,365135,1,0,0:0:0:0:
448,192,365135,128,0,365373:0:0:0:0:
320,192,365135,128,0,365373:0:0:0:0:
64,192,365293,128,0,365532:0:0:0:0:
192,192,365452,1,0,0:0:0:0:
448,192,365452,128,0,365532:0:0:0:0:
320,192,365452,128,0,365690:0:0:0:0:
448,192,365611,128,0,365690:0:0:0:0:
64,192,365611,128,0,365770:0:0:0:0:
320,192,365770,128,0,366087:0:0:0:0:
448,192,365770,1,0,0:0:0:0:
192,192,365770,128,0,366008:0:0:0:0:
448,192,365928,128,0,366008:0:0:0:0:
64,192,366008,128,0,366087:0:0:0:0:
192,192,366087,1,0,0:0:0:0:
448,192,366087,128,0,366246:0:0:0:0:
192,192,366246,1,0,0:0:0:0:
64,192,366246,1,0,0:0:0:0:
320,192,366246,128,0,366563:0:0:0:0:
192,192,366405,1,0,0:0:0:0:
448,192,366563,1,0,0:0:0:0:
64,192,366563,1,0,0:0:0:0:
192,192,366563,128,0,366881:0:0:0:0:
64,192,366722,1,0,0:0:0:0:
448,192,366881,1,0,0:0:0:0:
320,192,366881,128,0,367039:0:0:0:0:
64,192,366881,128,0,367198:0:0:0:0:
448,192,367198,1,0,0:0:0:0:
320,192,367198,128,0,367357:0:0:0:0:
192,192,367198,1,0,0:0:0:0:
448,192,367357,1,0,0:0:0:0:
192,192,367357,128,0,367516:0:0:0:0:
64,192,367357,1,0,0:0:0:0:
448,192,367516,128,0,367674:0:0:0:0:
320,192,367516,1,0,0:0:0:0:
64,192,367516,1,0,0:0:0:0:
64,192,367674,128,0,368230:0:0:0:0:
320,192,367674,1,0,0:0:0:0:
192,192,367674,1,0,0:0:0:0:
192,192,367992,128,0,368151:0:0:0:0:
448,192,368071,1,0,0:0:0:0:
320,192,368151,1,0,0:0:0:0:
192,192,368230,1,0,0:0:0:0:
448,192,368309,128,0,368547:0:0:0:0:
320,192,368309,128,0,368468:0:0:0:0:
64,192,368309,1,0,0:0:0:0:
192,192,368468,128,0,368547:0:0:0:0:
320,192,368547,128,0,368706:0:0:0:0:
448,192,368627,128,0,368865:0:0:0:0:
192,192,368627,128,0,368706:0:0:0:0:
64,192,368627,1,0,0:0:0:0:
320,192,368786,128,0,368944:0:0:0:0:
192,192,368786,128,0,369024:0:0:0:0:
448,192,368944,128,0,369024:0:0:0:0:
64,192,368944,1,0,0:0:0:0:
320,192,369024,128,0,369182:0:0:0:0:
448,192,369103,128,0,369262:0:0:0:0:
192,192,369103,128,0,369341:0:0:0:0:
320,192,369262,128,0,369341:0:0:0:0:
64,192,369262,1,0,0:0:0:0:
448,192,369341,128,0,369500:0:0:0:0:
192,192,369420,128,0,369738:0:0:0:0:
320,192,369420,128,0,369659:0:0:0:0:
448,192,369579,128,0,369659:0:0:0:0:
64,192,369579,1,0,0:0:0:0:
448,192,369738,128,0,369817:0:0:0:0:
320,192,369738,128,0,369817:0:0:0:0:
192,192,369817,128,0,369976:0:0:0:0:
448,192,369897,128,0,370135:0:0:0:0:
320,192,369897,128,0,370214:0:0:0:0:
64,192,369897,1,0,0:0:0:0:
192,192,370055,128,0,370293:0:0:0:0:
448,192,370214,128,0,370452:0:0:0:0:
64,192,370214,1,0,0:0:0:0:
320,192,370293,128,0,370373:0:0:0:0:
192,192,370373,128,0,370770:0:0:0:0:
320,192,370452,128,0,370611:0:0:0:0:
448,192,370532,128,0,370690:0:0:0:0:
64,192,370532,1,0,0:0:0:0:
320,192,370690,128,0,370770:0:0:0:0:
448,192,370770,1,0,0:0:0:0:
320,192,370849,128,0,371087:0:0:0:0:
192,192,370849,128,0,370928:0:0:0:0:
64,192,370849,1,0,0:0:0:0:
192,192,371008,128,0,371087:0:0:0:0:
448,192,371087,128,0,371246:0:0:0:0:
192,192,371166,128,0,371405:0:0:0:0:
320,192,371166,128,0,371246:0:0:0:0:
64,192,371166,1,0,0:0:0:0:
448,192,371325,128,0,371563:0:0:0:0:
320,192,371325,128,0,371484:0:0:0:0:
192,192,371484,128,0,371563:0:0:0:0:
64,192,371484,1,0,0:0:0:0:
320,192,371563,128,0,371722:0:0:0:0:
192,192,371643,128,0,371801:0:0:0:0:
448,192,371643,128,0,371881:0:0:0:0:
320,192,371801,128,0,371881:0:0:0:0:
64,192,371801,1,0,0:0:0:0:
192,192,371881,128,0,372039:0:0:0:0:
320,192,371960,128,0,372278:0:0:0:0:
448,192,371960,128,0,372198:0:0:0:0:
192,192,372119,128,0,372198:0:0:0:0:
64,192,372119,1,0,0:0:0:0:
448,192,372278,128,0,372516:0:0:0:0:
192,192,372278,128,0,372357:0:0:0:0:
320,192,372357,128,0,372754:0:0:0:0:
192,192,372436,128,0,372674:0:0:0:0:
64,192,372436,1,0,0:0:0:0:
448,192,372595,128,0,372833:0:0:0:0:
192,192,372754,128,0,372912:0:0:0:0:
64,192,372754,1,0,0:0:0:0:
320,192,372833,128,0,373071:0:0:0:0:
448,192,372912,128,0,372992:0:0:0:0:
192,192,372992,128,0,373151:0:0:0:0:
448,192,373071,128,0,373309:0:0:0:0:
64,192,373071,1,0,0:0:0:0:
320,192,373151,128,0,373230:0:0:0:0:
192,192,373230,128,0,373309:0:0:0:0:
64,192,373230,1,0,0:0:0:0:
320,192,373309,1,0,0:0:0:0:
192,192,373389,128,0,373627:0:0:0:0:
64,192,373389,128,0,373547:0:0:0:0:
448,192,373389,1,0,0:0:0:0:
320,192,373547,128,0,373627:0:0:0:0:
64,192,373627,128,0,373786:0:0:0:0:
320,192,373706,128,0,374024:0:0:0:0:
192,192,373706,128,0,373786:0:0:0:0:
448,192,373706,1,0,0:0:0:0:
64,192,373865,128,0,373944:0:0:0:0:
192,192,373865,128,0,374103:0:0:0:0:
64,192,374024,128,0,374103:0:0:0:0:
448,192,374024,1,0,0:0:0:0:
320,192,374103,128,0,374262:0:0:0:0:
192,192,374182,128,0,374420:0:0:0:0:
64,192,374182,128,0,374341:0:0:0:0:
320,192,374341,128,0,374420:0:0:0:0:
448,192,374341,1,0,0:0:0:0:
64,192,374420,128,0,374579:0:0:0:0:
320,192,374500,128,0,374738:0:0:0:0:
192,192,374500,128,0,374738:0:0:0:0:
64,192,374659,128,0,374817:0:0:0:0:
448,192,374659,1,0,0:0:0:0:
192,192,374817,128,0,374897:0:0:0:0:
320,192,374817,128,0,374897:0:0:0:0:
64,192,374897,128,0,375055:0:0:0:0:
320,192,374976,128,0,375214:0:0:0:0:
192,192,374976,128,0,375214:0:0:0:0:
448,192,374976,1,0,0:0:0:0:
64,192,375135,128,0,375293:0:0:0:0:
320,192,375293,128,0,375452:0:0:0:0:
192,192,375293,128,0,375373:0:0:0:0:
448,192,375293,1,0,0:0:0:0:
64,192,375373,128,0,375532:0:0:0:0:
192,192,375452,128,0,375532:0:0:0:0:
320,192,375532,128,0,375611:0:0:0:0:
64,192,375611,128,0,375770:0:0:0:0:
192,192,375611,128,0,375690:0:0:0:0:
448,192,375611,1,0,0:0:0:0:
320,192,375690,128,0,375849:0:0:0:0:
192,192,375770,128,0,375849:0:0:0:0:
64,192,375849,128,0,375928:0:0:0:0:
320,192,375928,1,0,0:0:0:0:
192,192,375928,1,0,0:0:0:0:
448,192,375928,128,0,376166:0:0:0:0:
64,192,376087,1,0,0:0:0:0:
320,192,376166,1,0,0:0:0:0:
192,192,376246,1,0,0:0:0:0:
64,192,376246,128,0,376405:0:0:0:0:
448,192,376246,1,0,0:0:0:0:
192,192,376405,128,0,376722:0:0:0:0:
320,192,376405,1,0,0:0:0:0:
448,192,376405,1,0,0:0:0:0:
320,192,376563,1,0,0:0:0:0:
64,192,376722,1,0,0:0:0:0:
448,192,376722,1,0,0:0:0:0:
320,192,376722,128,0,377039:0:0:0:0:
448,192,376881,1,0,0:0:0:0:
448,192,377039,128,0,377357:0:0:0:0:
192,192,377039,1,0,0:0:0:0:
64,192,377039,1,0,0:0:0:0:
320,192,377357,128,0,377436:0:0:0:0:
64,192,377357,1,0,0:0:0:0:
192,192,377357,1,0,0:0:0:0:
448,192,377516,1,0,0:0:0:0:
320,192,377516,128,0,377674:0:0:0:0:
64,192,377516,1,0,0:0:0:0:
192,192,377516,1,0,0:0:0:0:
192,192,377674,128,0,377833:0:0:0:0:
448,192,377833,1,0,0:0:0:0:
320,192,377833,128,0,378151:0:0:0:0:
64,192,377833,1,0,0:0:0:0:
448,192,378151,128,0,378309:0:0:0:0:
64,192,378151,128,0,378309:0:0:0:0:
192,192,378151,128,0,378230:0:0:0:0:
320,192,378230,128,0,378309:0:0:0:0:
192,192,378309,128,0,378468:0:0:0:0:
64,192,378389,128,0,378468:0:0:0:0:
320,192,378468,128,0,378627:0:0:0:0:
448,192,378468,128,0,379103:0:0:0:0:
64,192,378627,128,0,378786:0:0:0:0:
192,192,378786,128,0,378944:0:0:0:0:
320,192,378786,128,0,378944:0:0:0:0:
64,192,378944,128,0,379103:0:0:0:0:
320,192,379103,128,0,379262:0:0:0:0:
192,192,379103,128,0,379738:0:0:0:0:
448,192,379262,128,0,379420:0:0:0:0:
320,192,379420,128,0,379579:0:0:0:0:
64,192,379420,128,0,379579:0:0:0:0:
448,192,379579,128,0,379738:0:0:0:0:
64,192,379738,128,0,379897:0:0:0:0:
320,192,379738,128,0,380373:0:0:0:0:
192,192,379897,128,0,380055:0:0:0:0:
64,192,380055,128,0,380214:0:0:0:0:
448,192,380055,128,0,380214:0:0:0:0:
192,192,380214,128,0,380373:0:0:0:0:
64,192,380373,128,0,380532:0:0:0:0:
448,192,380373,128,0,381008:0:0:0:0:
320,192,380532,128,0,380690:0:0:0:0:
192,192,380690,128,0,380849:0:0:0:0:
64,192,380690,128,0,380849:0:0:0:0:
320,192,380849,128,0,381008:0:0:0:0:
192,192,381008,128,0,381166:0:0:0:0:
64,192,381008,128,0,381325:0:0:0:0:
448,192,381166,128,0,381325:0:0:0:0:
320,192,381325,128,0,381484:0:0:0:0:
192,192,381325,128,0,381643:0:0:0:0:
64,192,381484,128,0,381643:0:0:0:0:
320,192,381643,128,0,381801:0:0:0:0:
448,192,381643,128,0,381960:0:0:0:0:
192,192,381801,128,0,381960:0:0:0:0:
320,192,381960,128,0,382119:0:0:0:0:
64,192,381960,128,0,382119:0:0:0:0:
192,192,382119,128,0,382278:0:0:0:0:
448,192,382119,128,0,383071:0:0:0:0:
320,192,382278,128,0,382436:0:0:0:0:
64,192,382436,128,0,382595:0:0:0:0:
320,192,382595,128,0,382754:0:0:0:0:
192,192,382595,128,0,382754:0:0:0:0:
64,192,382754,128,0,382912:0:0:0:0:
320,192,382912,128,0,383230:0:0:0:0:
192,192,382912,128,0,383071:0:0:0:0:
64,192,383071,128,0,383230:0:0:0:0:
448,192,383230,128,0,383468:0:0:0:0:
192,192,383230,128,0,383389:0:0:0:0:
320,192,383389,128,0,383468:0:0:0:0:
64,192,383389,128,0,383468:0:0:0:0:
192,192,383547,1,0,0:0:0:0:
64,192,383547,128,0,384182:0:0:0:0:
448,192,383547,128,0,383627:0:0:0:0:
320,192,383706,1,0,0:0:0:0:
192,192,383706,128,0,383786:0:0:0:0:
448,192,383865,1,0,0:0:0:0:
320,192,383865,128,0,383944:0:0:0:0:
448,192,384024,1,0,0:0:0:0:
192,192,384024,128,0,384103:0:0:0:0:
320,192,384182,128,0,384817:0:0:0:0:
448,192,384182,128,0,384262:0:0:0:0:
64,192,384341,1,0,0:0:0:0:
192,192,384341,128,0,384420:0:0:0:0:
448,192,384500,1,0,0:0:0:0:
64,192,384500,128,0,384579:0:0:0:0:
448,192,384659,1,0,0:0:0:0:
192,192,384659,128,0,384738:0:0:0:0:
64,192,384738,1,0,0:0:0:0:
192,192,384817,1,0,0:0:0:0:
448,192,384817,128,0,385452:0:0:0:0:
64,192,384976,1,0,0:0:0:0:
320,192,384976,128,0,385055:0:0:0:0:
64,192,385135,1,0,0:0:0:0:
192,192,385135,128,0,385214:0:0:0:0:
192,192,385293,1,0,0:0:0:0:
320,192,385293,128,0,385373:0:0:0:0:
64,192,385452,128,0,385532:0:0:0:0:
192,192,385452,128,0,386087:0:0:0:0:
320,192,385532,1,0,0:0:0:0:
448,192,385611,128,0,385690:0:0:0:0:
320,192,385690,1,0,0:0:0:0:
64,192,385770,128,0,385849:0:0:0:0:
320,192,385849,1,0,0:0:0:0:
448,192,385928,128,0,386008:0:0:0:0:
320,192,386008,1,0,0:0:0:0:
64,192,386087,128,0,386405:0:0:0:0:
448,192,386087,128,0,386166:0:0:0:0:
448,192,386405,1,0,0:0:0:0:
320,192,386405,1,0,0:0:0:0:
192,192,386405,128,0,386722:0:0:0:0:
320,192,386722,1,0,0:0:0:0:
64,192,386722,1,0,0:0:0:0:
448,192,386722,128,0,387039:0:0:0:0:
192,192,387039,1,0,0:0:0:0:
64,192,387039,1,0,0:0:0:0:
320,192,387039,128,0,387198:0:0:0:0:
448,192,387198,1,0,0:0:0:0:
64,192,387198,1,0,0:0:0:0:
192,192,387198,128,0,388627:0:0:0:0:
448,192,387516,128,0,387595:0:0:0:0:
448,192,387674,128,0,387754:0:0:0:0:
448,192,387833,128,0,387912:0:0:0:0:
448,192,387992,128,0,388071:0:0:0:0:
448,192,388151,128,0,388230:0:0:0:0:
64,192,388230,128,0,388309:0:0:0:0:
448,192,388309,128,0,388389:0:0:0:0:
64,192,388389,128,0,388468:0:0:0:0:
448,192,388468,128,0,388547:0:0:0:0:
64,192,388547,128,0,388627:0:0:0:0:
448,192,388627,1,0,0:0:0:0:
320,192,388627,128,0,388786:0:0:0:0:
192,192,388786,128,0,388944:0:0:0:0:
64,192,388944,128,0,389103:0:0:0:0:
320,192,389262,128,0,389420:0:0:0:0:
192,192,389420,128,0,389579:0:0:0:0:
448,192,389579,128,0,389738:0:0:0:0:
320,192,389738,128,0,389976:0:0:0:0:
192,192,390055,128,0,390135:0:0:0:0:
64,192,390214,128,0,390373:0:0:0:0:
192,192,390373,128,0,390532:0:0:0:0:
320,192,390532,128,0,390690:0:0:0:0:
64,192,390690,128,0,390849:0:0:0:0:
320,192,390849,128,0,391008:0:0:0:0:
64,192,391008,128,0,391166:0:0:0:0:
448,192,391166,128,0,391325:0:0:0:0:
320,192,391325,128,0,391484:0:0:0:0:
192,192,391484,128,0,391643:0:0:0:0:
64,192,391801,128,0,391960:0:0:0:0:
320,192,391960,128,0,392119:0:0:0:0:
192,192,392119,128,0,392278:0:0:0:0:
448,192,392278,128,0,392436:0:0:0:0:
64,192,392436,128,0,392516:0:0:0:0:
320,192,392516,128,0,392595:0:0:0:0:
64,192,392595,128,0,392674:0:0:0:0:
320,192,392674,128,0,392754:0:0:0:0:
448,192,392754,128,0,392912:0:0:0:0:
192,192,392912,128,0,393071:0:0:0:0:
448,192,393071,128,0,393230:0:0:0:0:
320,192,393230,128,0,393389:0:0:0:0:
192,192,393389,128,0,393468:0:0:0:0:
64,192,393468,128,0,393547:0:0:0:0:
192,192,393547,128,0,393627:0:0:0:0:
320,192,393627,128,0,393706:0:0:0:0:
448,192,393706,128,0,393865:0:0:0:0:
320,192,393865,128,0,394024:0:0:0:0:
192,192,394024,128,0,394182:0:0:0:0:
448,192,394341,128,0,394500:0:0:0:0:
64,192,394500,128,0,394659:0:0:0:0:
192,192,394659,128,0,394817:0:0:0:0:
320,192,394817,128,0,395055:0:0:0:0:
192,192,395135,128,0,395214:0:0:0:0:
448,192,395293,128,0,395452:0:0:0:0:
320,192,395452,128,0,395611:0:0:0:0:
64,192,395611,128,0,395770:0:0:0:0:
448,192,395770,128,0,395928:0:0:0:0:
192,192,395928,128,0,396087:0:0:0:0:
448,192,396087,128,0,396246:0:0:0:0:
64,192,396246,128,0,396405:0:0:0:0:
192,192,396405,128,0,396563:0:0:0:0:
320,192,396563,128,0,396722:0:0:0:0:
448,192,396881,128,0,397039:0:0:0:0:
64,192,397039,128,0,397198:0:0:0:0:
320,192,397198,128,0,397357:0:0:0:0:
192,192,397357,128,0,397516:0:0:0:0:
448,192,397516,128,0,397595:0:0:0:0:
64,192,397674,128,0,397754:0:0:0:0:
320,192,397833,128,0,397992:0:0:0:0:
448,192,397992,128,0,398151:0:0:0:0:
192,192,398151,128,0,398230:0:0:0:0:
320,192,398230,128,0,398309:0:0:0:0:
192,192,398309,128,0,398389:0:0:0:0:
320,192,398389,128,0,398468:0:0:0:0:
192,192,398468,128,0,398547:0:0:0:0:
320,192,398547,128,0,398627:0:0:0:0:
192,192,398627,128,0,398706:0:0:0:0:
320,192,398706,128,0,398786:0:0:0:0:
448,192,398786,1,0,0:0:0:0:
192,192,398786,1,0,0:0:0:0:
64,192,398786,128,0,398944:0:0:0:0:
192,192,398944,128,0,399103:0:0:0:0:
448,192,399103,1,0,0:0:0:0:
64,192,399103,1,0,0:0:0:0:
320,192,399103,128,0,399420:0:0:0:0:
448,192,399420,1,0,0:0:0:0:
64,192,399420,1,0,0:0:0:0:
192,192,399420,128,0,399579:0:0:0:0:
320,192,399579,128,0,399738:0:0:0:0:
192,192,399738,1,0,0:0:0:0:
64,192,399738,1,0,0:0:0:0:
448,192,399738,128,0,399897:0:0:0:0:
64,192,399897,1,0,0:0:0:0:
320,192,399897,128,0,400214:0:0:0:0:
448,192,400055,1,0,0:0:0:0:
192,192,400055,1,0,0:0:0:0:
64,192,400055,1,0,0:0:0:0:
192,192,400214,128,0,400373:0:0:0:0:
448,192,400373,1,0,0:0:0:0:
320,192,400373,1,0,0:0:0:0:
64,192,400373,128,0,400532:0:0:0:0:
192,192,400532,128,0,400690:0:0:0:0:
448,192,400690,1,0,0:0:0:0:
64,192,400690,1,0,0:0:0:0:
320,192,400690,128,0,400849:0:0:0:0:
448,192,400849,128,0,400928:0:0:0:0:
64,192,400849,128,0,401008:0:0:0:0:
320,192,400928,128,0,401008:0:0:0:0:
448,192,401008,1,0,0:0:0:0:
192,192,401008,128,0,401166:0:0:0:0:
320,192,401166,128,0,401246:0:0:0:0:
64,192,401166,128,0,401325:0:0:0:0:
448,192,401246,128,0,401325:0:0:0:0:
192,192,401325,128,0,401484:0:0:0:0:
320,192,401325,1,0,0:0:0:0:
320,192,401484,128,0,401643:0:0:0:0:
192,192,401643,1,0,0:0:0:0:
64,192,401643,1,0,0:0:0:0:
448,192,401643,128,0,401960:0:0:0:0:
320,192,401960,1,0,0:0:0:0:
192,192,401960,1,0,0:0:0:0:
64,192,401960,128,0,402119:0:0:0:0:
192,192,402119,128,0,402278:0:0:0:0:
448,192,402278,1,0,0:0:0:0:
64,192,402278,1,0,0:0:0:0:
320,192,402278,128,0,402436:0:0:0:0:
64,192,402436,1,0,0:0:0:0:
448,192,402436,128,0,402595:0:0:0:0:
64,192,402595,1,0,0:0:0:0:
192,192,402595,128,0,402674:0:0:0:0:
320,192,402674,128,0,402754:0:0:0:0:
192,192,402754,128,0,402833:0:0:0:0:
320,192,402833,128,0,402912:0:0:0:0:
448,192,402912,1,0,0:0:0:0:
64,192,402912,1,0,0:0:0:0:
192,192,402912,128,0,403071:0:0:0:0:
64,192,403071,128,0,403230:0:0:0:0:
448,192,403230,1,0,0:0:0:0:
192,192,403230,1,0,0:0:0:0:
320,192,403230,128,0,403389:0:0:0:0:
192,192,403389,128,0,403468:0:0:0:0:
448,192,403389,128,0,403468:0:0:0:0:
64,192,403468,128,0,403547:0:0:0:0:
192,192,403547,1,0,0:0:0:0:
448,192,403547,128,0,403627:0:0:0:0:
320,192,403627,128,0,403706:0:0:0:0:
448,192,403706,1,0,0:0:0:0:
192,192,403706,128,0,403786:0:0:0:0:
64,192,403786,128,0,403865:0:0:0:0:
448,192,403865,1,0,0:0:0:0:
320,192,403865,1,0,0:0:0:0:
192,192,403865,128,0,404024:0:0:0:0:
448,192,404024,1,0,0:0:0:0:
320,192,404024,128,0,404182:0:0:0:0:
192,192,404182,1,0,0:0:0:0:
64,192,404182,1,0,0:0:0:0:
448,192,404182,128,0,404500:0:0:0:0:
64,192,404341,1,0,0:0:0:0:
320,192,404500,1,0,0:0:0:0:
64,192,404500,1,0,0:0:0:0:
192,192,404500,128,0,404659:0:0:0:0:
448,192,404659,1,0,0:0:0:0:
320,192,404659,128,0,404817:0:0:0:0:
192,192,404817,1,0,0:0:0:0:
64,192,404817,1,0,0:0:0:0:
448,192,404817,128,0,404976:0:0:0:0:
64,192,404976,1,0,0:0:0:0:
320,192,404976,128,0,405293:0:0:0:0:
448,192,405135,1,0,0:0:0:0:
192,192,405135,1,0,0:0:0:0:
64,192,405135,1,0,0:0:0:0:
448,192,405293,1,0,0:0:0:0:
192,192,405293,128,0,405452:0:0:0:0:
448,192,405452,1,0,0:0:0:0:
320,192,405452,1,0,0:0:0:0:
64,192,405452,128,0,405611:0:0:0:0:
320,192,405611,1,0,0:0:0:0:
192,192,405611,128,0,405770:0:0:0:0:
448,192,405770,1,0,0:0:0:0:
64,192,405770,1,0,0:0:0:0:
320,192,405770,128,0,405928:0:0:0:0:
448,192,405928,1,0,0:0:0:0:
64,192,405928,128,0,406087:0:0:0:0:
448,192,406087,1,0,0:0:0:0:
320,192,406087,1,0,0:0:0:0:
192,192,406087,128,0,406246:0:0:0:0:
320,192,406246,1,0,0:0:0:0:
64,192,406246,128,0,406405:0:0:0:0:
448,192,406405,128,0,406484:0:0:0:0:
320,192,406405,1,0,0:0:0:0:
192,192,406405,128,0,406563:0:0:0:0:
64,192,406484,128,0,406563:0:0:0:0:
448,192,406563,128,0,406643:0:0:0:0:
320,192,406563,128,0,406722:0:0:0:0:
64,192,406643,128,0,406722:0:0:0:0:
192,192,406722,128,0,406881:0:0:0:0:
448,192,406722,128,0,407039:0:0:0:0:
320,192,406801,128,0,406960:0:0:0:0:
64,192,406881,128,0,406960:0:0:0:0:
192,192,406960,1,0,0:0:0:0:
320,192,407039,128,0,407119:0:0:0:0:
64,192,407039,128,0,407198:0:0:0:0:
448,192,407119,128,0,407198:0:0:0:0:
320,192,407198,128,0,407278:0:0:0:0:
192,192,407198,128,0,407357:0:0:0:0:
448,192,407278,128,0,407357:0:0:0:0:
64,192,407357,128,0,407436:0:0:0:0:
320,192,407357,128,0,407516:0:0:0:0:
192,192,407436,128,0,407595:0:0:0:0:
64,192,407516,128,0,407595:0:0:0:0:
448,192,407516,128,0,407833:0:0:0:0:
320,192,407595,1,0,0:0:0:0:
192,192,407674,128,0,407754:0:0:0:0:
64,192,407754,128,0,407833:0:0:0:0:
320,192,407833,128,0,407912:0:0:0:0:
192,192,407833,128,0,407992:0:0:0:0:
64,192,407912,128,0,407992:0:0:0:0:
448,192,407992,128,0,408071:0:0:0:0:
320,192,407992,128,0,408151:0:0:0:0:
64,192,408071,128,0,408151:0:0:0:0:
448,192,408151,128,0,408230:0:0:0:0:
192,192,408151,128,0,408309:0:0:0:0:
64,192,408230,128,0,408309:0:0:0:0:
448,192,408309,1,0,0:0:0:0:
320,192,408309,128,0,408389:0:0:0:0:
192,192,408389,128,0,408468:0:0:0:0:
64,192,408389,1,0,0:0:0:0:
448,192,408468,1,0,0:0:0:0:
320,192,408468,128,0,408547:0:0:0:0:
192,192,408547,128,0,408627:0:0:0:0:
64,192,408547,1,0,0:0:0:0:
448,192,408627,128,0,408706:0:0:0:0:
320,192,408627,1,0,0:0:0:0:
192,192,408706,1,0,0:0:0:0:
64,192,408706,128,0,408786:0:0:0:0:
448,192,408786,128,0,408865:0:0:0:0:
320,192,408786,1,0,0:0:0:0:
64,192,408865,128,0,408944:0:0:0:0:
448,192,408944,128,0,409817:0:0:0:0:
320,192,408944,128,0,409182:0:0:0:0:
192,192,408944,128,0,409182:0:0:0:0:
320,192,409262,128,0,409579:0:0:0:0:
192,192,409262,128,0,409500:0:0:0:0:
64,192,409262,128,0,409500:0:0:0:0:
192,192,409579,128,0,409659:0:0:0:0:
64,192,409579,128,0,409817:0:0:0:0:
320,192,409659,128,0,409738:0:0:0:0:
192,192,409738,128,0,410135:0:0:0:0:
320,192,409817,128,0,410135:0:0:0:0:
448,192,409897,1,0,0:0:0:0:
64,192,409897,1,0,0:0:0:0:
448,192,410214,128,0,410373:0:0:0:0:
320,192,410214,128,0,410532:0:0:0:0:
192,192,410293,128,0,410452:0:0:0:0:
64,192,410373,128,0,410452:0:0:0:0:
448,192,410452,1,0,0:0:0:0:
64,192,410532,128,0,410611:0:0:0:0:
192,192,410532,128,0,410690:0:0:0:0:
448,192,410611,128,0,410690:0:0:0:0:
64,192,410690,128,0,410770:0:0:0:0:
320,192,410690,128,0,411008:0:0:0:0:
448,192,410770,1,0,0:0:0:0:
192,192,410849,128,0,410928:0:0:0:0:
64,192,410928,128,0,411087:0:0:0:0:
448,192,411008,128,0,411087:0:0:0:0:
192,192,411008,128,0,411325:0:0:0:0:
320,192,411087,1,0,0:0:0:0:
64,192,411166,128,0,411246:0:0:0:0:
448,192,411246,128,0,411325:0:0:0:0:
320,192,411325,128,0,411563:0:0:0:0:
64,192,411325,128,0,411405:0:0:0:0:
192,192,411405,1,0,0:0:0:0:
448,192,411484,128,0,411643:0:0:0:0:
192,192,411563,128,0,411722:0:0:0:0:
64,192,411643,128,0,411722:0:0:0:0:
320,192,411643,128,0,411801:0:0:0:0:
448,192,411722,1,0,0:0:0:0:
64,192,411801,128,0,411960:0:0:0:0:
192,192,411801,128,0,412119:0:0:0:0:
320,192,411881,128,0,412039:0:0:0:0:
448,192,411960,128,0,412039:0:0:0:0:
64,192,412039,1,0,0:0:0:0:
448,192,412119,128,0,412198:0:0:0:0:
320,192,412119,128,0,412436:0:0:0:0:
192,192,412198,128,0,412278:0:0:0:0:
448,192,412278,128,0,412754:0:0:0:0:
192,192,412357,128,0,412436:0:0:0:0:
64,192,412436,128,0,412516:0:0:0:0:
192,192,412516,128,0,412595:0:0:0:0:
64,192,412595,128,0,412674:0:0:0:0:
192,192,412674,128,0,412754:0:0:0:0:
64,192,412754,128,0,412912:0:0:0:0:
320,192,412754,128,0,413071:0:0:0:0:
192,192,412833,128,0,412992:0:0:0:0:
448,192,412912,128,0,412992:0:0:0:0:
64,192,412992,1,0,0:0:0:0:
448,192,413071,128,0,413151:0:0:0:0:
192,192,413071,128,0,413230:0:0:0:0:
64,192,413151,128,0,413230:0:0:0:0:
448,192,413230,128,0,413309:0:0:0:0:
320,192,413230,128,0,413547:0:0:0:0:
64,192,413309,128,0,413389:0:0:0:0:
192,192,413389,1,0,0:0:0:0:
448,192,413389,128,0,413468:0:0:0:0:
64,192,413468,128,0,413627:0:0:0:0:
192,192,413547,128,0,413627:0:0:0:0:
448,192,413547,128,0,413865:0:0:0:0:
320,192,413627,1,0,0:0:0:0:
192,192,413706,128,0,413786:0:0:0:0:
64,192,413786,128,0,413865:0:0:0:0:
192,192,413865,128,0,413944:0:0:0:0:
320,192,413865,128,0,414182:0:0:0:0:
64,192,413944,1,0,0:0:0:0:
192,192,414024,128,0,414103:0:0:0:0:
448,192,414103,128,0,414262:0:0:0:0:
64,192,414182,128,0,414262:0:0:0:0:
192,192,414182,128,0,414341:0:0:0:0:
320,192,414262,1,0,0:0:0:0:
448,192,414341,128,0,414579:0:0:0:0:
64,192,414341,128,0,414659:0:0:0:0:
320,192,414420,128,0,414500:0:0:0:0:
192,192,414500,1,0,0:0:0:0:
320,192,414579,1,0,0:0:0:0:
448,192,414659,128,0,414738:0:0:0:0:
192,192,414659,128,0,414976:0:0:0:0:
320,192,414738,128,0,414817:0:0:0:0:
448,192,414817,128,0,415135:0:0:0:0:
320,192,414897,128,0,415055:0:0:0:0:
64,192,414976,128,0,415214:0:0:0:0:
192,192,415055,128,0,415214:0:0:0:0:
320,192,415135,128,0,415214:0:0:0:0:
448,192,415214,128,0,415293:0:0:0:0:
64,192,415293,128,0,415452:0:0:0:0:
320,192,415293,128,0,415611:0:0:0:0:
192,192,415373,128,0,415532:0:0:0:0:
448,192,415452,128,0,415532:0:0:0:0:
64,192,415532,1,0,0:0:0:0:
448,192,415611,128,0,415690:0:0:0:0:
192,192,415611,128,0,415770:0:0:0:0:
64,192,415690,128,0,415770:0:0:0:0:
448,192,415770,128,0,415849:0:0:0:0:
320,192,415770,128,0,416087:0:0:0:0:
64,192,415849,1,0,0:0:0:0:
192,192,415928,128,0,416008:0:0:0:0:
448,192,416008,128,0,416166:0:0:0:0:
64,192,416087,128,0,416166:0:0:0:0:
192,192,416087,128,0,416405:0:0:0:0:
320,192,416166,1,0,0:0:0:0:
448,192,416246,128,0,416325:0:0:0:0:
64,192,416325,128,0,416405:0:0:0:0:
448,192,416405,128,0,416484:0:0:0:0:
320,192,416405,128,0,416643:0:0:0:0:
64,192,416484,1,0,0:0:0:0:
192,192,416563,128,0,416722:0:0:0:0:
448,192,416643,128,0,416722:0:0:0:0:
64,192,416722,128,0,416801:0:0:0:0:
320,192,416722,128,0,416881:0:0:0:0:
448,192,416801,1,0,0:0:0:0:
64,192,416881,128,0,417039:0:0:0:0:
192,192,416881,128,0,417198:0:0:0:0:
320,192,416960,128,0,417119:0:0:0:0:
448,192,417039,128,0,417119:0:0:0:0:
64,192,417119,1,0,0:0:0:0:
320,192,417198,128,0,417516:0:0:0:0:
448,192,417198,128,0,417278:0:0:0:0:
192,192,417278,128,0,417357:0:0:0:0:
448,192,417357,128,0,417516:0:0:0:0:
192,192,417436,128,0,417516:0:0:0:0:
64,192,417516,128,0,417754:0:0:0:0:
448,192,417595,128,0,417674:0:0:0:0:
320,192,417674,128,0,417754:0:0:0:0:
192,192,417674,128,0,417833:0:0:0:0:
448,192,417754,128,0,417833:0:0:0:0:
64,192,417833,128,0,417992:0:0:0:0:
320,192,417833,128,0,418151:0:0:0:0:
192,192,417992,128,0,418071:0:0:0:0:
64,192,418071,128,0,418151:0:0:0:0:
192,192,418151,1,0,0:0:0:0:
448,192,418151,128,0,418309:0:0:0:0:
192,192,418309,1,0,0:0:0:0:
64,192,418309,128,0,418468:0:0:0:0:
320,192,418309,128,0,418627:0:0:0:0:
192,192,418468,1,0,0:0:0:0:
448,192,418627,1,0,0:0:0:0:
64,192,418627,128,0,418786:0:0:0:0:
192,192,418627,128,0,418944:0:0:0:0:
448,192,418786,1,0,0:0:0:0:
448,192,418944,128,0,419262:0:0:0:0:
320,192,418944,1,0,0:0:0:0:
64,192,418944,128,0,419262:0:0:0:0:
320,192,419262,128,0,419420:0:0:0:0:
192,192,419262,128,0,419341:0:0:0:0:
448,192,419420,128,0,419579:0:0:0:0:
64,192,419420,1,0,0:0:0:0:
192,192,419420,128,0,419579:0:0:0:0:
64,192,419579,128,0,420214:0:0:0:0:
320,192,419579,128,0,420055:0:0:0:0:
192,192,419738,128,0,420135:0:0:0:0:
448,192,419738,128,0,419976:0:0:0:0:
448,192,420055,128,0,420214:0:0:0:0:
320,192,420135,128,0,420214:0:0:0:0:
192,192,420214,128,0,420373:0:0:0:0:
64,192,420293,128,0,420373:0:0:0:0:
320,192,420373,128,0,420452:0:0:0:0:
448,192,420373,128,0,420690:0:0:0:0:
192,192,420452,128,0,420532:0:0:0:0:
320,192,420532,128,0,420611:0:0:0:0:
64,192,420532,128,0,420611:0:0:0:0:
192,192,420611,128,0,420690:0:0:0:0:
320,192,420690,128,0,420770:0:0:0:0:
64,192,420690,128,0,421008:0:0:0:0:
448,192,420770,128,0,420849:0:0:0:0:
192,192,420849,128,0,420928:0:0:0:0:
320,192,420849,128,0,420928:0:0:0:0:
448,192,420928,128,0,421008:0:0:0:0:
192,192,421008,128,0,421087:0:0:0:0:
320,192,421008,128,0,421325:0:0:0:0:
64,192,421087,128,0,421166:0:0:0:0:
448,192,421166,128,0,421246:0:0:0:0:
192,192,421166,128,0,421246:0:0:0:0:
64,192,421246,128,0,421325:0:0:0:0:
448,192,421325,128,0,421405:0:0:0:0:
192,192,421325,128,0,421643:0:0:0:0:
320,192,421405,128,0,421484:0:0:0:0:
448,192,421484,128,0,421563:0:0:0:0:
64,192,421484,128,0,421563:0:0:0:0:
320,192,421563,128,0,421643:0:0:0:0:
448,192,421643,128,0,421722:0:0:0:0:
64,192,421643,128,0,421960:0:0:0:0:
192,192,421722,128,0,421801:0:0:0:0:
448,192,421801,128,0,421881:0:0:0:0:
320,192,421801,128,0,421881:0:0:0:0:
192,192,421881,128,0,421960:0:0:0:0:
320,192,421960,128,0,422039:0:0:0:0:
448,192,421960,128,0,422278:0:0:0:0:
64,192,422039,128,0,422119:0:0:0:0:
192,192,422119,128,0,422198:0:0:0:0:
320,192,422119,128,0,422198:0:0:0:0:
64,192,422198,128,0,422278:0:0:0:0:
192,192,422278,128,0,422595:0:0:0:0:
320,192,422357,128,0,422516:0:0:0:0:
448,192,422436,128,0,422595:0:0:0:0:
64,192,422516,128,0,422833:0:0:0:0:
320,192,422595,128,0,422754:0:0:0:0:
192,192,422674,128,0,422754:0:0:0:0:
448,192,422754,128,0,422912:0:0:0:0:
320,192,422833,128,0,422912:0:0:0:0:
64,192,422912,128,0,422992:0:0:0:0:
192,192,422912,128,0,423230:0:0:0:0:
320,192,422992,128,0,423071:0:0:0:0:
64,192,423071,128,0,423151:0:0:0:0:
448,192,423071,128,0,423151:0:0:0:0:
320,192,423151,128,0,423230:0:0:0:0:
64,192,423230,128,0,423309:0:0:0:0:
448,192,423230,128,0,423547:0:0:0:0:
320,192,423309,128,0,423389:0:0:0:0:
192,192,423389,128,0,423468:0:0:0:0:
64,192,423389,128,0,423468:0:0:0:0:
320,192,423468,128,0,423547:0:0:0:0:
192,192,423547,128,0,423627:0:0:0:0:
64,192,423547,128,0,423865:0:0:0:0:
448,192,423627,128,0,423706:0:0:0:0:
320,192,423706,128,0,423786:0:0:0:0:
192,192,423706,128,0,423786:0:0:0:0:
448,192,423786,128,0,423865:0:0:0:0:
192,192,423865,128,0,423944:0:0:0:0:
320,192,423865,128,0,424182:0:0:0:0:
64,192,423944,128,0,424024:0:0:0:0:
448,192,424024,128,0,424103:0:0:0:0:
192,192,424024,128,0,424103:0:0:0:0:
64,192,424103,128,0,424182:0:0:0:0:
448,192,424182,128,0,424262:0:0:0:0:
192,192,424182,128,0,424500:0:0:0:0:
320,192,424262,128,0,424341:0:0:0:0:
448,192,424341,128,0,424420:0:0:0:0:
64,192,424341,128,0,424420:0:0:0:0:
320,192,424420,128,0,424500:0:0:0:0:
64,192,424500,128,0,424579:0:0:0:0:
448,192,424500,128,0,424817:0:0:0:0:
192,192,424579,128,0,424659:0:0:0:0:
320,192,424659,128,0,424738:0:0:0:0:
64,192,424659,128,0,424738:0:0:0:0:
192,192,424738,128,0,424817:0:0:0:0:
320,192,424817,128,0,425055:0:0:0:0:
64,192,424897,128,0,424976:0:0:0:0:
192,192,424976,128,0,425135:0:0:0:0:
448,192,425055,128,0,425214:0:0:0:0:
64,192,425135,1,0,0:0:0:0:
320,192,425135,128,0,425293:0:0:0:0:
192,192,425214,128,0,425293:0:0:0:0:
448,192,425293,1,0,0:0:0:0:
64,192,425293,128,0,425532:0:0:0:0:
320,192,425373,128,0,425452:0:0:0:0:
448,192,425452,128,0,425532:0:0:0:0:
192,192,425452,128,0,425849:0:0:0:0:
320,192,425532,128,0,425611:0:0:0:0:
448,192,425611,128,0,425690:0:0:0:0:
64,192,425611,128,0,425690:0:0:0:0:
320,192,425690,128,0,425770:0:0:0:0:
64,192,425770,128,0,425849:0:0:0:0:
448,192,425770,128,0,426166:0:0:0:0:
320,192,425849,128,0,425928:0:0:0:0:
192,192,425928,128,0,426008:0:0:0:0:
64,192,425928,128,0,426008:0:0:0:0:
320,192,426008,128,0,426087:0:0:0:0:
192,192,426087,128,0,426166:0:0:0:0:
64,192,426087,128,0,426484:0:0:0:0:
320,192,426166,128,0,426246:0:0:0:0:
448,192,426246,128,0,426325:0:0:0:0:
192,192,426246,128,0,426325:0:0:0:0:
320,192,426325,128,0,426405:0:0:0:0:
448,192,426405,128,0,426484:0:0:0:0:
192,192,426405,128,0,426722:0:0:0:0:
320,192,426484,128,0,426563:0:0:0:0:
448,192,426563,128,0,426643:0:0:0:0:
64,192,426563,128,0,426643:0:0:0:0:
320,192,426643,128,0,426801:0:0:0:0:
64,192,426722,128,0,426801:0:0:0:0:
448,192,426722,128,0,427039:0:0:0:0:
192,192,426801,128,0,426881:0:0:0:0:
320,192,426881,128,0,426960:0:0:0:0:
64,192,426881,128,0,426960:0:0:0:0:
192,192,426960,128,0,427119:0:0:0:0:
320,192,427039,128,0,427119:0:0:0:0:
64,192,427039,128,0,427357:0:0:0:0:
448,192,427119,128,0,427198:0:0:0:0:
320,192,427198,128,0,427278:0:0:0:0:
192,192,427198,128,0,427278:0:0:0:0:
448,192,427278,128,0,427357:0:0:0:0:
192,192,427357,128,0,427516:0:0:0:0:
320,192,427436,128,0,427674:0:0:0:0:
64,192,427516,128,0,427833:0:0:0:0:
192,192,427595,128,0,427754:0:0:0:0:
448,192,427674,128,0,427833:0:0:0:0:
320,192,427754,128,0,427912:0:0:0:0:
192,192,427833,128,0,427912:0:0:0:0:
64,192,427912,128,0,427992:0:0:0:0:
448,192,427992,128,0,428071:0:0:0:0:
320,192,427992,128,0,428071:0:0:0:0:
192,192,427992,128,0,428071:0:0:0:0:
64,192,428071,1,0,0:0:0:0:
192,192,428151,1,0,0:0:0:0:
320,192,428230,1,0,0:0:0:0:
448,192,428309,128,0,428389:0:0:0:0:
64,192,428309,128,0,428389:0:0:0:0:
192,192,428389,1,0,0:0:0:0:
448,192,428468,128,0,428547:0:0:0:0:
64,192,428468,128,0,428547:0:0:0:0:
320,192,428547,1,0,0:0:0:0:
192,192,428627,1,0,0:0:0:0:
320,192,428706,1,0,0:0:0:0:
448,192,428786,128,0,428865:0:0:0:0:
64,192,428786,128,0,428865:0:0:0:0:
192,192,428865,1,0,0:0:0:0:
320,192,428944,1,0,0:0:0:0:
192,192,429024,1,0,0:0:0:0:
448,192,429103,128,0,429341:0:0:0:0:
320,192,429103,128,0,429341:0:0:0:0:
64,192,429103,128,0,429341:0:0:0:0:
320,192,429420,128,0,429500:0:0:0:0:
192,192,429420,128,0,429579:0:0:0:0:
64,192,429420,128,0,429500:0:0:0:0:
64,192,429579,128,0,429659:0:0:0:0:
320,192,429579,128,0,429659:0:0:0:0:
448,192,429579,128,0,429738:0:0:0:0:
320,192,429738,128,0,429817:0:0:0:0:
192,192,429738,128,0,429817:0:0:0:0:
64,192,429738,128,0,429897:0:0:0:0:
448,192,429897,128,0,430373:0:0:0:0:
192,192,429897,128,0,430214:0:0:0:0:
320,192,429897,128,0,430293:0:0:0:0:
64,192,430214,128,0,430452:0:0:0:0:
192,192,430293,128,0,430452:0:0:0:0:
320,192,430373,128,0,430452:0:0:0:0:
448,192,430452,128,0,430532:0:0:0:0:
320,192,430532,1,0,0:0:0:0:
192,192,430532,128,0,430690:0:0:0:0:
64,192,430532,128,0,431166:0:0:0:0:
448,192,430690,128,0,430770:0:0:0:0:
448,192,430849,1,0,0:0:0:0:
192,192,430849,1,0,0:0:0:0:
320,192,430849,128,0,431008:0:0:0:0:
448,192,431008,128,0,431087:0:0:0:0:
192,192,431166,128,0,431325:0:0:0:0:
320,192,431166,128,0,431801:0:0:0:0:
64,192,431325,128,0,431405:0:0:0:0:
64,192,431484,1,0,0:0:0:0:
192,192,431484,1,0,0:0:0:0:
448,192,431484,128,0,431643:0:0:0:0:
64,192,431643,128,0,431722:0:0:0:0:
192,192,431801,128,0,431960:0:0:0:0:
448,192,431801,128,0,431960:0:0:0:0:
320,192,431960,128,0,432278:0:0:0:0:
192,192,432119,1,0,0:0:0:0:
448,192,432119,128,0,432595:0:0:0:0:
64,192,432119,128,0,432278:0:0:0:0:
192,192,432278,128,0,432436:0:0:0:0:
64,192,432436,128,0,432595:0:0:0:0:
320,192,432436,128,0,432595:0:0:0:0:
192,192,432595,128,0,432754:0:0:0:0:
448,192,432754,1,0,0:0:0:0:
64,192,432754,128,0,433230:0:0:0:0:
320,192,432754,128,0,432912:0:0:0:0:
448,192,432912,128,0,433071:0:0:0:0:
192,192,433071,128,0,433230:0:0:0:0:
320,192,433071,128,0,433547:0:0:0:0:
448,192,433230,128,0,433389:0:0:0:0:
192,192,433389,128,0,433547:0:0:0:0:
64,192,433389,128,0,433706:0:0:0:0:
448,192,433547,128,0,433865:0:0:0:0:
320,192,433706,128,0,433865:0:0:0:0:
192,192,433706,128,0,434103:0:0:0:0:
64,192,433865,128,0,434103:0:0:0:0:
448,192,434024,1,0,0:0:0:0:
320,192,434024,128,0,434420:0:0:0:0:
192,192,434182,1,0,0:0:0:0:
64,192,434182,128,0,434579:0:0:0:0:
448,192,434182,128,0,434897:0:0:0:0:
192,192,434341,128,0,434579:0:0:0:0:
320,192,434500,128,0,434738:0:0:0:0:
64,192,434659,128,0,434897:0:0:0:0:
192,192,434659,128,0,435214:0:0:0:0:
320,192,434817,128,0,435055:0:0:0:0:
448,192,434976,128,0,435373:0:0:0:0:
64,192,434976,128,0,435214:0:0:0:0:
320,192,435135,128,0,435373:0:0:0:0:
192,192,435293,128,0,435532:0:0:0:0:
64,192,435293,128,0,435532:0:0:0:0:
448,192,435452,128,0,435532:0:0:0:0:
320,192,435452,128,0,435532:0:0:0:0:
192,192,435611,128,0,435690:0:0:0:0:
320,192,435611,1,0,0:0:0:0:
64,192,435611,128,0,436166:0:0:0:0:
192,192,435770,1,0,0:0:0:0:
448,192,435770,128,0,435849:0:0:0:0:
448,192,435928,1,0,0:0:0:0:
320,192,435928,128,0,436008:0:0:0:0:
448,192,436087,1,0,0:0:0:0:
192,192,436087,128,0,436166:0:0:0:0:
64,192,436246,1,0,0:0:0:0:
320,192,436246,128,0,436325:0:0:0:0:
448,192,436246,128,0,436722:0:0:0:0:
192,192,436405,1,0,0:0:0:0:
64,192,436405,128,0,436484:0:0:0:0:
320,192,436563,1,0,0:0:0:0:
192,192,436563,128,0,436643:0:0:0:0:
64,192,436722,1,0,0:0:0:0:
320,192,436722,128,0,436801:0:0:0:0:
448,192,436801,1,0,0:0:0:0:
320,192,436881,1,0,0:0:0:0:
64,192,436881,128,0,436960:0:0:0:0:
192,192,436881,128,0,437436:0:0:0:0:
320,192,437039,1,0,0:0:0:0:
448,192,437039,128,0,437119:0:0:0:0:
64,192,437198,1,0,0:0:0:0:
320,192,437198,128,0,437278:0:0:0:0:
64,192,437357,128,0,437436:0:0:0:0:
448,192,437357,1,0,0:0:0:0:
448,192,437516,128,0,437674:0:0:0:0:
320,192,437516,128,0,437992:0:0:0:0:
192,192,437595,128,0,437754:0:0:0:0:
64,192,437674,128,0,437754:0:0:0:0:
448,192,437754,128,0,437833:0:0:0:0:
64,192,437833,1,0,0:0:0:0:
192,192,437833,128,0,437912:0:0:0:0:
448,192,437912,128,0,438071:0:0:0:0:
192,192,437992,1,0,0:0:0:0:
64,192,437992,128,0,438071:0:0:0:0:
320,192,438071,128,0,438151:0:0:0:0:
192,192,438151,128,0,438468:0:0:0:0:
448,192,438151,1,0,0:0:0:0:
64,192,438151,1,0,0:0:0:0:
448,192,438468,1,0,0:0:0:0:
64,192,438468,1,0,0:0:0:0:
320,192,438468,128,0,438786:0:0:0:0:
448,192,438786,1,0,0:0:0:0:
64,192,438786,1,0,0:0:0:0:
192,192,438786,128,0,439103:0:0:0:0:
64,192,439103,1,0,0:0:0:0:
320,192,439103,1,0,0:0:0:0:
448,192,439103,128,0,439262:0:0:0:0:
320,192,439262,1,0,0:0:0:0:
192,192,439262,1,0,0:0:0:0:
64,192,439262,128,0,440055:0:0:0:0:
448,192,439579,128,0,439659:0:0:0:0:
448,192,439738,128,0,439817:0:0:0:0:
448,192,439897,128,0,439976:0:0:0:0:
448,192,440055,128,0,440135:0:0:0:0:
320,192,440135,1,0,0:0:0:0:
64,192,440214,1,0,0:0:0:0:
192,192,440214,128,0,440293:0:0:0:0:
448,192,440293,1,0,0:0:0:0:
320,192,440293,128,0,440373:0:0:0:0:
192,192,440373,1,0,0:0:0:0:
64,192,440373,128,0,440452:0:0:0:0:
320,192,440452,1,0,0:0:0:0:
448,192,440452,128,0,440532:0:0:0:0:
64,192,440532,1,0,0:0:0:0:
192,192,440532,128,0,440611:0:0:0:0:
320,192,440611,128,0,440690:0:0:0:0:
448,192,440690,1,0,0:0:0:0:
64,192,440690,1,0,0:0:0:0:
192,192,440690,128,0,440770:0:0:0:0:
64,192,440849,128,0,441166:0:0:0:0:
320,192,440849,128,0,440928:0:0:0:0:
320,192,441008,1,0,0:0:0:0:
192,192,441008,1,0,0:0:0:0:
448,192,441008,128,0,441246:0:0:0:0:
192,192,441166,128,0,441484:0:0:0:0:
448,192,441325,1,0,0:0:0:0:
64,192,441325,128,0,441405:0:0:0:0:
64,192,441484,128,0,441801:0:0:0:0:
320,192,441484,128,0,441563:0:0:0:0:
320,192,441643,1,0,0:0:0:0:
192,192,441643,1,0,0:0:0:0:
448,192,441643,128,0,441722:0:0:0:0:
320,192,441801,128,0,442119:0:0:0:0:
192,192,441801,128,0,442119:0:0:0:0:
64,192,441960,1,0,0:0:0:0:
64,192,442119,128,0,442436:0:0:0:0:
448,192,442119,128,0,442198:0:0:0:0:
448,192,442278,1,0,0:0:0:0:
192,192,442278,1,0,0:0:0:0:
320,192,442278,128,0,442357:0:0:0:0:
448,192,442436,128,0,442754:0:0:0:0:
192,192,442436,128,0,442516:0:0:0:0:
64,192,442595,1,0,0:0:0:0:
320,192,442595,128,0,442674:0:0:0:0:
320,192,442754,128,0,443071:0:0:0:0:
64,192,442754,128,0,442833:0:0:0:0:
448,192,442912,1,0,0:0:0:0:
64,192,442912,1,0,0:0:0:0:
192,192,442912,128,0,442992:0:0:0:0:
448,192,443071,128,0,443389:0:0:0:0:
64,192,443071,128,0,443151:0:0:0:0:
320,192,443230,1,0,0:0:0:0:
192,192,443230,128,0,443309:0:0:0:0:
192,192,443389,128,0,443706:0:0:0:0:
320,192,443389,128,0,443468:0:0:0:0:
320,192,443547,1,0,0:0:0:0:
64,192,443547,1,0,0:0:0:0:
448,192,443547,128,0,443786:0:0:0:0:
320,192,443706,128,0,444024:0:0:0:0:
448,192,443865,1,0,0:0:0:0:
64,192,443865,128,0,443944:0:0:0:0:
64,192,444024,128,0,444341:0:0:0:0:
192,192,444024,128,0,444103:0:0:0:0:
448,192,444182,1,0,0:0:0:0:
192,192,444182,1,0,0:0:0:0:
320,192,444182,128,0,444262:0:0:0:0:
192,192,444341,128,0,444500:0:0:0:0:
448,192,444341,128,0,444420:0:0:0:0:
448,192,444500,1,0,0:0:0:0:
64,192,444500,128,0,444659:0:0:0:0:
320,192,444500,128,0,444579:0:0:0:0:
192,192,444579,128,0,444659:0:0:0:0:
448,192,444659,128,0,444976:0:0:0:0:
320,192,444659,128,0,444738:0:0:0:0:
192,192,444738,128,0,444817:0:0:0:0:
64,192,444817,1,0,0:0:0:0:
320,192,444817,128,0,444897:0:0:0:0:
192,192,444976,128,0,445293:0:0:0:0:
64,192,444976,128,0,445055:0:0:0:0:
64,192,445135,1,0,0:0:0:0:
320,192,445135,128,0,445214:0:0:0:0:
448,192,445293,128,0,445373:0:0:0:0:
320,192,445293,128,0,445452:0:0:0:0:
64,192,445452,1,0,0:0:0:0:
448,192,445452,128,0,445532:0:0:0:0:
192,192,445452,128,0,445770:0:0:0:0:
320,192,445532,128,0,445611:0:0:0:0:
64,192,445611,128,0,445690:0:0:0:0:
320,192,445690,128,0,445770:0:0:0:0:
448,192,445770,1,0,0:0:0:0:
64,192,445770,128,0,445849:0:0:0:0:
192,192,445928,128,0,446246:0:0:0:0:
320,192,445928,128,0,446008:0:0:0:0:
320,192,446087,1,0,0:0:0:0:
64,192,446087,1,0,0:0:0:0:
448,192,446087,128,0,446325:0:0:0:0:
64,192,446246,128,0,446563:0:0:0:0:
448,192,446405,1,0,0:0:0:0:
192,192,446405,128,0,446484:0:0:0:0:
192,192,446563,128,0,446881:0:0:0:0:
320,192,446563,128,0,446643:0:0:0:0:
320,192,446722,1,0,0:0:0:0:
64,192,446722,1,0,0:0:0:0:
448,192,446722,128,0,446801:0:0:0:0:
448,192,446881,128,0,447198:0:0:0:0:
320,192,446881,128,0,447119:0:0:0:0:
64,192,447039,1,0,0:0:0:0:
320,192,447198,128,0,447516:0:0:0:0:
192,192,447198,128,0,447278:0:0:0:0:
448,192,447357,1,0,0:0:0:0:
192,192,447357,1,0,0:0:0:0:
64,192,447357,128,0,447436:0:0:0:0:
448,192,447516,128,0,447833:0:0:0:0:
192,192,447516,128,0,447595:0:0:0:0:
192,192,447674,1,0,0:0:0:0:
320,192,447674,128,0,447754:0:0:0:0:
192,192,447833,128,0,448151:0:0:0:0:
64,192,447833,128,0,447912:0:0:0:0:
320,192,447992,1,0,0:0:0:0:
64,192,447992,1,0,0:0:0:0:
448,192,447992,128,0,448071:0:0:0:0:
64,192,448151,128,0,448230:0:0:0:0:
448,192,448151,128,0,448309:0:0:0:0:
320,192,448309,128,0,448389:0:0:0:0:
192,192,448309,128,0,448468:0:0:0:0:
448,192,448389,1,0,0:0:0:0:
64,192,448468,128,0,448547:0:0:0:0:
320,192,448468,128,0,448627:0:0:0:0:
192,192,448547,1,0,0:0:0:0:
64,192,448627,128,0,448865:0:0:0:0:
448,192,448627,128,0,448944:0:0:0:0:
192,192,448706,128,0,448786:0:0:0:0:
320,192,448786,128,0,448865:0:0:0:0:
192,192,448865,1,0,0:0:0:0:
320,192,448944,128,0,449024:0:0:0:0:
64,192,448944,128,0,449103:0:0:0:0:
448,192,449024,1,0,0:0:0:0:
320,192,449103,128,0,449182:0:0:0:0:
192,192,449103,128,0,449262:0:0:0:0:
64,192,449182,1,0,0:0:0:0:
448,192,449262,128,0,449341:0:0:0:0:
320,192,449262,128,0,449420:0:0:0:0:
192,192,449341,128,0,449420:0:0:0:0:
64,192,449420,1,0,0:0:0:0:
448,192,449420,128,0,449738:0:0:0:0:
192,192,449738,1,0,0:0:0:0:
64,192,449738,1,0,0:0:0:0:
320,192,449738,128,0,449897:0:0:0:0:
448,192,449897,1,0,0:0:0:0:
64,192,449897,1,0,0:0:0:0:
192,192,449897,128,0,450055:0:0:0:0:
448,192,450055,1,0,0:0:0:0:
320,192,450055,1,0,0:0:0:0:
64,192,450055,128,0,450214:0:0:0:0:
448,192,450214,1,0,0:0:0:0:
320,192,450214,1,0,0:0:0:0:
192,192,450214,1,0,0:0:0:0:
64,192,464847,132,0,466110:0:0:0:0:
192,192,465478,128,0,466741:0:0:0:0:
448,192,466110,128,0,467373:0:0:0:0:
64,192,466741,128,0,467689:0:0:0:0:
192,192,467373,128,0,467689:0:0:0:0:
320,192,467689,128,0,468004:0:0:0:0:
448,192,467689,128,0,468320:0:0:0:0:
192,192,468004,128,0,468636:0:0:0:0:
320,192,468320,128,0,468636:0:0:0:0:
64,192,468636,128,0,469899:0:0:0:0:
192,192,468952,1,0,0:0:0:0:
320,192,469031,1,0,0:0:0:0:
448,192,469110,1,0,0:0:0:0:
320,192,469189,1,0,0:0:0:0:
192,192,469268,1,0,0:0:0:0:
320,192,469347,1,0,0:0:0:0:
448,192,469425,1,0,0:0:0:0:
320,192,469504,1,0,0:0:0:0:
192,192,469583,1,0,0:0:0:0:
320,192,469662,1,0,0:0:0:0:
448,192,469741,1,0,0:0:0:0:
192,192,469820,1,0,0:0:0:0:
320,192,469899,128,0,471162:0:0:0:0:
448,192,469899,128,0,470531:0:0:0:0:
192,192,470531,128,0,471794:0:0:0:0:
448,192,471162,128,0,471794:0:0:0:0:
64,192,471794,128,0,473689:0:0:0:0:
320,192,471794,128,0,473689:0:0:0:0:
448,192,472425,128,0,473689:0:0:0:0:
192,192,472425,128,0,473689:0:0:0:0:
64,192,474162,1,0,0:0:0:0:
192,192,474241,1,0,0:0:0:0:
320,192,474320,1,0,0:0:0:0:
64,192,474399,1,0,0:0:0:0:
448,192,474399,1,0,0:0:0:0:
192,192,474478,1,0,0:0:0:0:
320,192,474557,1,0,0:0:0:0:
64,192,474636,1,0,0:0:0:0:
448,192,474636,1,0,0:0:0:0:
192,192,474715,1,0,0:0:0:0:
320,192,474794,1,0,0:0:0:0:
64,192,474873,1,0,0:0:0:0:
448,192,474873,1,0,0:0:0:0:
320,192,474952,128,0,475031:0:0:0:0:
192,192,474952,128,0,475031:0:0:0:0:
320,192,475268,1,0,0:0:0:0:
448,192,475268,1,0,0:0:0:0:
64,192,475268,1,0,0:0:0:0:
192,192,475268,1,0,0:0:0:0:
448,192,475425,1,0,0:0:0:0:
64,192,475425,128,0,475662:0:0:0:0:
320,192,475504,1,0,0:0:0:0:
192,192,475583,128,0,475662:0:0:0:0:
320,192,475662,1,0,0:0:0:0:
192,192,475741,128,0,475978:0:0:0:0:
448,192,475741,1,0,0:0:0:0:
320,192,475820,1,0,0:0:0:0:
64,192,475899,128,0,475978:0:0:0:0:
448,192,475899,1,0,0:0:0:0:
320,192,475978,1,0,0:0:0:0:
64,192,476057,128,0,476373:0:0:0:0:
448,192,476057,128,0,476215:0:0:0:0:
192,192,476136,128,0,476215:0:0:0:0:
320,192,476215,128,0,476294:0:0:0:0:
448,192,476294,128,0,476373:0:0:0:0:
192,192,476373,128,0,476452:0:0:0:0:
320,192,476452,128,0,476531:0:0:0:0:
64,192,476531,128,0,476847:0:0:0:0:
448,192,476531,128,0,476610:0:0:0:0:
192,192,476610,128,0,476689:0:0:0:0:
448,192,476689,128,0,476768:0:0:0:0:
320,192,476768,128,0,476847:0:0:0:0:
192,192,476847,128,0,476925:0:0:0:0:
64,192,476925,128,0,477004:0:0:0:0:
320,192,477004,128,0,477162:0:0:0:0:
448,192,477004,1,0,0:0:0:0:
64,192,477083,1,0,0:0:0:0:
192,192,477083,1,0,0:0:0:0:
448,192,477162,128,0,477320:0:0:0:0:
192,192,477241,1,0,0:0:0:0:
64,192,477320,1,0,0:0:0:0:
320,192,477320,128,0,477478:0:0:0:0:
192,192,477399,1,0,0:0:0:0:
448,192,477478,1,0,0:0:0:0:
64,192,477478,1,0,0:0:0:0:
320,192,477557,1,0,0:0:0:0:
448,192,477636,1,0,0:0:0:0:
64,192,477636,1,0,0:0:0:0:
192,192,477636,128,0,477794:0:0:0:0:
320,192,477715,1,0,0:0:0:0:
64,192,477794,1,0,0:0:0:0:
448,192,477794,128,0,477952:0:0:0:0:
320,192,477873,1,0,0:0:0:0:
192,192,477952,128,0,478110:0:0:0:0:
64,192,477952,1,0,0:0:0:0:
320,192,478031,1,0,0:0:0:0:
64,192,478110,1,0,0:0:0:0:
448,192,478110,1,0,0:0:0:0:
320,192,478189,128,0,478268:0:0:0:0:
192,192,478268,1,0,0:0:0:0:
64,192,478268,128,0,478347:0:0:0:0:
448,192,478347,128,0,478425:0:0:0:0:
320,192,478425,1,0,0:0:0:0:
64,192,478425,1,0,0:0:0:0:
192,192,478425,128,0,478504:0:0:0:0:
448,192,478583,1,0,0:0:0:0:
64,192,478583,1,0,0:0:0:0:
320,192,478583,128,0,478820:0:0:0:0:
192,192,478741,1,0,0:0:0:0:
64,192,478741,1,0,0:0:0:0:
448,192,478741,1,0,0:0:0:0:
448,192,478899,128,0,478978:0:0:0:0:
320,192,478899,128,0,479136:0:0:0:0:
64,192,478899,1,0,0:0:0:0:
192,192,478899,1,0,0:0:0:0:
448,192,479057,1,0,0:0:0:0:
64,192,479057,128,0,479294:0:0:0:0:
192,192,479057,128,0,479136:0:0:0:0:
192,192,479215,1,0,0:0:0:0:
448,192,479215,128,0,479452:0:0:0:0:
320,192,479215,128,0,479294:0:0:0:0:
320,192,479373,1,0,0:0:0:0:
64,192,479373,128,0,479610:0:0:0:0:
192,192,479373,128,0,479452:0:0:0:0:
320,192,479531,128,0,479610:0:0:0:0:
448,192,479531,128,0,479768:0:0:0:0:
192,192,479531,1,0,0:0:0:0:
192,192,479689,128,0,479768:0:0:0:0:
64,192,479689,128,0,479886:0:0:0:0:
320,192,479689,1,0,0:0:0:0:
320,192,479847,128,0,480004:0:0:0:0:
448,192,479847,128,0,479925:0:0:0:0:
192,192,479847,1,0,0:0:0:0:
64,192,480004,128,0,480083:0:0:0:0:
192,192,480004,128,0,480241:0:0:0:0:
448,192,480083,128,0,480241:0:0:0:0:
320,192,480083,128,0,480162:0:0:0:0:
64,192,480162,128,0,480320:0:0:0:0:
320,192,480241,128,0,480557:0:0:0:0:
192,192,480320,128,0,480478:0:0:0:0:
448,192,480320,128,0,480399:0:0:0:0:
64,192,480399,128,0,480478:0:0:0:0:
448,192,480478,128,0,480636:0:0:0:0:
192,192,480557,128,0,480794:0:0:0:0:
64,192,480557,128,0,480715:0:0:0:0:
320,192,480636,128,0,480715:0:0:0:0:
448,192,480715,128,0,480794:0:0:0:0:
320,192,480794,128,0,480873:0:0:0:0:
192,192,480873,128,0,480952:0:0:0:0:
448,192,480873,128,0,481110:0:0:0:0:
64,192,480873,128,0,481189:0:0:0:0:
320,192,480952,128,0,481110:0:0:0:0:
192,192,481031,128,0,481110:0:0:0:0:
448,192,481189,128,0,481504:0:0:0:0:
192,192,481189,128,0,481504:0:0:0:0:
64,192,481268,128,0,481347:0:0:0:0:
320,192,481268,128,0,481347:0:0:0:0:
320,192,481425,128,0,481504:0:0:0:0:
64,192,481504,128,0,481583:0:0:0:0:
448,192,481583,128,0,481741:0:0:0:0:
320,192,481583,128,0,481662:0:0:0:0:
192,192,481583,128,0,481978:0:0:0:0:
64,192,481662,128,0,481741:0:0:0:0:
320,192,481741,128,0,481978:0:0:0:0:
64,192,481899,128,0,482057:0:0:0:0:
448,192,481899,128,0,481978:0:0:0:0:
448,192,482057,1,0,0:0:0:0:
192,192,482057,128,0,482136:0:0:0:0:
320,192,482057,128,0,482531:0:0:0:0:
64,192,482215,1,0,0:0:0:0:
192,192,482215,128,0,482294:0:0:0:0:
448,192,482215,128,0,482294:0:0:0:0:
448,192,482373,1,0,0:0:0:0:
192,192,482373,128,0,482531:0:0:0:0:
64,192,482373,128,0,482531:0:0:0:0:
448,192,482531,128,0,482689:0:0:0:0:
192,192,482610,1,0,0:0:0:0:
64,192,482610,1,0,0:0:0:0:
320,192,482689,1,0,0:0:0:0:
448,192,482768,1,0,0:0:0:0:
320,192,482847,1,0,0:0:0:0:
64,192,482847,128,0,483004:0:0:0:0:
192,192,482925,1,0,0:0:0:0:
320,192,483004,1,0,0:0:0:0:
448,192,483004,128,0,483162:0:0:0:0:
64,192,483083,1,0,0:0:0:0:
192,192,483162,1,0,0:0:0:0:
448,192,483241,1,0,0:0:0:0:
320,192,483241,1,0,0:0:0:0:
192,192,483320,1,0,0:0:0:0:
64,192,483320,128,0,483478:0:0:0:0:
320,192,483399,1,0,0:0:0:0:
448,192,483478,1,0,0:0:0:0:
192,192,483557,1,0,0:0:0:0:
64,192,483557,1,0,0:0:0:0:
320,192,483557,1,0,0:0:0:0:
448,192,483636,128,0,483873:0:0:0:0:
320,192,483715,1,0,0:0:0:0:
192,192,483794,1,0,0:0:0:0:
64,192,483873,1,0,0:0:0:0:
192,192,483952,128,0,484189:0:0:0:0:
448,192,483952,1,0,0:0:0:0:
320,192,483952,1,0,0:0:0:0:
64,192,484110,1,0,0:0:0:0:
320,192,484110,1,0,0:0:0:0:
448,192,484110,128,0,484347:0:0:0:0:
192,192,484268,1,0,0:0:0:0:
64,192,484268,128,0,484504:0:0:0:0:
320,192,484347,1,0,0:0:0:0:
448,192,484425,1,0,0:0:0:0:
320,192,484504,1,0,0:0:0:0:
448,192,484583,128,0,484741:0:0:0:0:
192,192,484583,1,0,0:0:0:0:
64,192,484662,128,0,485057:0:0:0:0:
192,192,484741,1,0,0:0:0:0:
320,192,484741,128,0,484899:0:0:0:0:
448,192,484899,1,0,0:0:0:0:
192,192,484899,128,0,485057:0:0:0:0:
320,192,484978,1,0,0:0:0:0:
448,192,485057,1,0,0:0:0:0:
192,192,485373,128,0,485531:0:0:0:0:
64,192,485373,128,0,485610:0:0:0:0:
448,192,485373,128,0,485925:0:0:0:0:
320,192,485373,128,0,485452:0:0:0:0:
320,192,485610,128,0,485925:0:0:0:0:
192,192,485689,128,0,485847:0:0:0:0:
64,192,485768,128,0,485925:0:0:0:0:
192,192,485925,128,0,486004:0:0:0:0:
64,192,486004,128,0,486320:0:0:0:0:
448,192,486004,128,0,486241:0:0:0:0:
320,192,486083,128,0,486241:0:0:0:0:
192,192,486162,128,0,486241:0:0:0:0:
192,192,486320,128,0,486399:0:0:0:0:
320,192,486320,128,0,486715:0:0:0:0:
448,192,486320,128,0,486478:0:0:0:0:
64,192,486478,128,0,486557:0:0:0:0:
192,192,486478,128,0,486636:0:0:0:0:
64,192,486636,128,0,486794:0:0:0:0:
448,192,486636,128,0,486873:0:0:0:0:
192,192,486794,128,0,486952:0:0:0:0:
320,192,486794,128,0,486873:0:0:0:0:
320,192,486952,128,0,487268:0:0:0:0:
448,192,486952,128,0,487031:0:0:0:0:
64,192,486952,128,0,487031:0:0:0:0:
448,192,487110,128,0,487189:0:0:0:0:
192,192,487110,128,0,487189:0:0:0:0:
64,192,487110,128,0,487189:0:0:0:0:
448,192,487268,128,0,487347:0:0:0:0:
64,192,487268,128,0,487583:0:0:0:0:
192,192,487268,128,0,487425:0:0:0:0:
448,192,487425,128,0,487583:0:0:0:0:
320,192,487425,128,0,487504:0:0:0:0:
320,192,487583,1,0,0:0:0:0:
192,192,487583,1,0,0:0:0:0:
448,192,487662,1,0,0:0:0:0:
64,192,487662,1,0,0:0:0:0:
192,192,487741,128,0,487820:0:0:0:0:
320,192,487741,1,0,0:0:0:0:
320,192,487899,128,0,487978:0:0:0:0:
448,192,487899,128,0,488136:0:0:0:0:
192,192,487899,128,0,488057:0:0:0:0:
64,192,487978,128,0,488057:0:0:0:0:
320,192,488057,128,0,488215:0:0:0:0:
192,192,488136,128,0,488215:0:0:0:0:
64,192,488215,128,0,488452:0:0:0:0:
320,192,488294,128,0,488373:0:0:0:0:
448,192,488373,128,0,488531:0:0:0:0:
192,192,488373,128,0,488610:0:0:0:0:
320,192,488452,128,0,488531:0:0:0:0:
64,192,488531,128,0,488610:0:0:0:0:
320,192,488610,128,0,488689:0:0:0:0:
448,192,488689,128,0,488847:0:0:0:0:
192,192,488689,1,0,0:0:0:0:
64,192,488689,1,0,0:0:0:0:
320,192,488768,128,0,488847:0:0:0:0:
64,192,488847,128,0,489241:0:0:0:0:
192,192,488847,1,0,0:0:0:0:
448,192,488925,128,0,489083:0:0:0:0:
192,192,489004,128,0,489083:0:0:0:0:
320,192,489004,128,0,489083:0:0:0:0:
448,192,489162,128,0,489557:0:0:0:0:
320,192,489162,128,0,489399:0:0:0:0:
192,192,489241,128,0,489399:0:0:0:0:
64,192,489320,128,0,489399:0:0:0:0:
320,192,489478,128,0,489715:0:0:0:0:
192,192,489478,128,0,489873:0:0:0:0:
64,192,489557,128,0,489715:0:0:0:0:
448,192,489636,128,0,489715:0:0:0:0:
320,192,489794,128,0,490031:0:0:0:0:
448,192,489873,128,0,490031:0:0:0:0:
192,192,489952,128,0,490031:0:0:0:0:
64,192,489952,128,0,490031:0:0:0:0:
192,192,490110,1,0,0:0:0:0:
64,192,490110,128,0,490347:0:0:0:0:
320,192,490110,1,0,0:0:0:0:
448,192,490110,1,0,0:0:0:0:
320,192,490268,128,0,490347:0:0:0:0:
320,192,490425,128,0,490662:0:0:0:0:
448,192,490425,128,0,490662:0:0:0:0:
64,192,490425,128,0,490662:0:0:0:0:
192,192,490425,128,0,490662:0:0:0:0:
192,192,490741,1,0,0:0:0:0:
64,192,490741,1,0,0:0:0:0:
448,192,490741,128,0,491057:0:0:0:0:
320,192,490820,1,0,0:0:0:0:
64,192,490899,1,0,0:0:0:0:
192,192,490899,128,0,491057:0:0:0:0:
64,192,491057,1,0,0:0:0:0:
320,192,491057,128,0,491373:0:0:0:0:
448,192,491136,1,0,0:0:0:0:
192,192,491215,1,0,0:0:0:0:
64,192,491215,1,0,0:0:0:0:
448,192,491294,1,0,0:0:0:0:
64,192,491373,128,0,491452:0:0:0:0:
192,192,491373,128,0,492636:0:0:0:0:
320,192,491531,1,0,0:0:0:0:
448,192,491531,128,0,491610:0:0:0:0:
320,192,491689,128,0,491768:0:0:0:0:
64,192,491689,128,0,491925:0:0:0:0:
448,192,491847,128,0,491925:0:0:0:0:
320,192,492004,128,0,492241:0:0:0:0:
64,192,492004,128,0,492083:0:0:0:0:
448,192,492083,128,0,492162:0:0:0:0:
64,192,492162,128,0,492399:0:0:0:0:
320,192,492320,128,0,492557:0:0:0:0:
448,192,492399,128,0,492478:0:0:0:0:
64,192,492478,128,0,492636:0:0:0:0:
448,192,492636,128,0,492952:0:0:0:0:
320,192,492636,1,0,0:0:0:0:
192,192,492794,1,0,0:0:0:0:
320,192,492873,128,0,492952:0:0:0:0:
192,192,492952,128,0,493031:0:0:0:0:
64,192,492952,128,0,493268:0:0:0:0:
320,192,493110,1,0,0:0:0:0:
448,192,493189,128,0,493268:0:0:0:0:
320,192,493268,128,0,493347:0:0:0:0:
192,192,493268,128,0,493583:0:0:0:0:
64,192,493425,1,0,0:0:0:0:
448,192,493504,128,0,493583:0:0:0:0:
64,192,493583,128,0,493899:0:0:0:0:
320,192,493583,128,0,493662:0:0:0:0:
192,192,493662,128,0,493741:0:0:0:0:
448,192,493741,128,0,493820:0:0:0:0:
320,192,493820,128,0,493899:0:0:0:0:
448,192,493899,128,0,494531:0:0:0:0:
192,192,493899,128,0,493978:0:0:0:0:
192,192,494057,1,0,0:0:0:0:
320,192,494057,1,0,0:0:0:0:
64,192,494057,128,0,494531:0:0:0:0:
320,192,494215,1,0,0:0:0:0:
192,192,494215,128,0,494531:0:0:0:0:
320,192,494373,128,0,494531:0:0:0:0:
192,192,494847,1,0,0:0:0:0:
448,192,494847,1,0,0:0:0:0:
64,192,495004,1,0,0:0:0:0:
192,192,495162,1,0,0:0:0:0:
320,192,495162,1,0,0:0:0:0:
448,192,495162,128,0,495478:0:0:0:0:
64,192,495478,1,0,0:0:0:0:
64,192,495794,1,0,0:0:0:0:
320,192,495794,1,0,0:0:0:0:
448,192,495952,1,0,0:0:0:0:
64,192,496110,1,0,0:0:0:0:
192,192,496268,1,0,0:0:0:0:
64,192,496425,1,0,0:0:0:0:
320,192,496583,1,0,0:0:0:0:
64,192,496741,1,0,0:0:0:0:
448,192,496741,1,0,0:0:0:0:
64,192,497057,1,0,0:0:0:0:
320,192,497057,1,0,0:0:0:0:
320,192,497215,1,0,0:0:0:0:
64,192,497373,1,0,0:0:0:0:
448,192,497373,1,0,0:0:0:0:
192,192,497531,1,0,0:0:0:0:
320,192,497689,1,0,0:0:0:0:
64,192,497689,1,0,0:0:0:0:
448,192,497847,1,0,0:0:0:0:
448,192,498004,1,0,0:0:0:0:
64,192,498004,1,0,0:0:0:0:
320,192,498162,1,0,0:0:0:0:
320,192,498320,1,0,0:0:0:0:
64,192,498320,1,0,0:0:0:0:
192,192,498478,1,0,0:0:0:0:
64,192,498636,1,0,0:0:0:0:
320,192,498794,1,0,0:0:0:0:
448,192,498794,1,0,0:0:0:0:
64,192,498952,1,0,0:0:0:0:
192,192,499110,1,0,0:0:0:0:
448,192,499268,1,0,0:0:0:0:
64,192,499268,1,0,0:0:0:0:
320,192,499583,1,0,0:0:0:0:
64,192,499583,1,0,0:0:0:0:
320,192,499741,1,0,0:0:0:0:
64,192,499899,1,0,0:0:0:0:
448,192,499899,1,0,0:0:0:0:
320,192,500057,1,0,0:0:0:0:
448,192,500215,1,0,0:0:0:0:
64,192,500215,1,0,0:0:0:0:
320,192,500531,1,0,0:0:0:0:
64,192,500531,1,0,0:0:0:0:
448,192,500689,1,0,0:0:0:0:
64,192,500847,1,0,0:0:0:0:
320,192,501004,1,0,0:0:0:0:
192,192,501162,1,0,0:0:0:0:
64,192,501162,1,0,0:0:0:0:
320,192,501320,1,0,0:0:0:0:
448,192,501320,128,0,501636:0:0:0:0:
64,192,501478,1,0,0:0:0:0:
192,192,501636,1,0,0:0:0:0:
320,192,501636,128,0,501952:0:0:0:0:
448,192,501794,1,0,0:0:0:0:
64,192,501794,1,0,0:0:0:0:
192,192,501952,128,0,502268:0:0:0:0:
320,192,502110,1,0,0:0:0:0:
64,192,502110,1,0,0:0:0:0:
320,192,502268,128,0,502583:0:0:0:0:
448,192,502425,1,0,0:0:0:0:
64,192,502425,1,0,0:0:0:0:
448,192,502583,128,0,503057:0:0:0:0:
192,192,502741,1,0,0:0:0:0:
64,192,502741,1,0,0:0:0:0:
64,192,503057,1,0,0:0:0:0:
448,192,503215,1,0,0:0:0:0:
320,192,503215,1,0,0:0:0:0:
64,192,503373,1,0,0:0:0:0:
320,192,503531,1,0,0:0:0:0:
192,192,503531,1,0,0:0:0:0:
320,192,503689,1,0,0:0:0:0:
192,192,503689,1,0,0:0:0:0:
64,192,503689,1,0,0:0:0:0:
448,192,503847,128,0,503886:0:0:0:0:
192,192,503847,128,0,503886:0:0:0:0:
64,192,503847,128,0,503886:0:0:0:0:
448,192,504004,1,0,0:0:0:0:
320,192,504004,1,0,0:0:0:0:
192,192,504004,1,0,0:0:0:0:
320,192,504162,1,0,0:0:0:0:
192,192,504162,1,0,0:0:0:0:
64,192,504162,1,0,0:0:0:0:
64,192,504320,128,0,504478:0:0:0:0:
192,192,504399,128,0,504557:0:0:0:0:
320,192,504478,128,0,504636:0:0:0:0:
64,192,504557,128,0,504715:0:0:0:0:
448,192,504557,128,0,504715:0:0:0:0:
192,192,504636,128,0,504794:0:0:0:0:
320,192,504715,128,0,504873:0:0:0:0:
64,192,504794,128,0,504873:0:0:0:0:
448,192,504794,128,0,504952:0:0:0:0:
192,192,504873,128,0,504952:0:0:0:0:
320,192,504952,128,0,505031:0:0:0:0:
64,192,505031,128,0,505110:0:0:0:0:
448,192,505031,128,0,505110:0:0:0:0:
192,192,505110,128,0,505189:0:0:0:0:
320,192,505189,128,0,505268:0:0:0:0:
192,192,505268,128,0,505899:0:0:0:0:
448,192,505268,128,0,505347:0:0:0:0:
64,192,505347,128,0,505425:0:0:0:0:
320,192,505425,1,0,0:0:0:0:
448,192,505504,128,0,505583:0:0:0:0:
320,192,505583,128,0,506136:0:0:0:0:
64,192,505662,128,0,505741:0:0:0:0:
448,192,505820,128,0,505899:0:0:0:0:
64,192,505899,128,0,506452:0:0:0:0:
448,192,505978,1,0,0:0:0:0:
192,192,506057,128,0,506136:0:0:0:0:
448,192,506136,128,0,506215:0:0:0:0:
320,192,506215,128,0,506294:0:0:0:0:
192,192,506215,128,0,506768:0:0:0:0:
448,192,506294,128,0,506373:0:0:0:0:
320,192,506373,1,0,0:0:0:0:
448,192,506452,128,0,506531:0:0:0:0:
320,192,506531,128,0,506610:0:0:0:0:
64,192,506531,128,0,506768:0:0:0:0:
448,192,506610,128,0,506689:0:0:0:0:
320,192,506689,128,0,506768:0:0:0:0:
448,192,506768,1,0,0:0:0:0:
192,192,506847,1,0,0:0:0:0:
320,192,506847,128,0,506925:0:0:0:0:
64,192,506847,128,0,507162:0:0:0:0:
192,192,507004,1,0,0:0:0:0:
320,192,507004,128,0,507162:0:0:0:0:
448,192,507083,1,0,0:0:0:0:
192,192,507162,128,0,507320:0:0:0:0:
448,192,507241,1,0,0:0:0:0:
64,192,507241,128,0,507320:0:0:0:0:
320,192,507399,1,0,0:0:0:0:
64,192,507478,128,0,507715:0:0:0:0:
448,192,507478,1,0,0:0:0:0:
192,192,507478,128,0,507715:0:0:0:0:
320,192,507636,1,0,0:0:0:0:
448,192,507794,128,0,508031:0:0:0:0:
320,192,507794,128,0,508031:0:0:0:0:
64,192,507794,1,0,0:0:0:0:
192,192,507794,1,0,0:0:0:0:
320,192,508110,128,0,508268:0:0:0:0:
448,192,508110,128,0,508268:0:0:0:0:
64,192,508268,128,0,508425:0:0:0:0:
192,192,508268,128,0,508425:0:0:0:0:
448,192,508583,128,0,508741:0:0:0:0:
320,192,508583,128,0,508741:0:0:0:0:
192,192,508899,128,0,509057:0:0:0:0:
448,192,508899,128,0,509215:0:0:0:0:
64,192,508899,128,0,509136:0:0:0:0:
320,192,508899,128,0,508978:0:0:0:0:
320,192,509057,128,0,509373:0:0:0:0:
192,192,509136,128,0,509373:0:0:0:0:
64,192,509215,128,0,509294:0:0:0:0:
448,192,509294,128,0,509373:0:0:0:0:
64,192,509373,1,0,0:0:0:0:
320,192,509452,1,0,0:0:0:0:
64,192,509452,128,0,509570:0:0:0:0:
448,192,509531,1,0,0:0:0:0:
192,192,509531,128,0,509649:0:0:0:0:
320,192,509610,128,0,509728:0:0:0:0:
64,192,509689,128,0,509768:0:0:0:0:
448,192,509689,128,0,509807:0:0:0:0:
192,192,509768,128,0,509847:0:0:0:0:
64,192,509847,128,0,509925:0:0:0:0:
320,192,509847,128,0,509925:0:0:0:0:
192,192,509925,128,0,510004:0:0:0:0:
448,192,509925,128,0,510004:0:0:0:0:
64,192,510004,128,0,510241:0:0:0:0:
320,192,510004,128,0,510083:0:0:0:0:
192,192,510083,128,0,510320:0:0:0:0:
448,192,510083,128,0,510162:0:0:0:0:
320,192,510162,128,0,510241:0:0:0:0:
448,192,510241,128,0,510320:0:0:0:0:
320,192,510320,1,0,0:0:0:0:
64,192,510320,128,0,510715:0:0:0:0:
192,192,510399,128,0,510636:0:0:0:0:
320,192,510478,128,0,510557:0:0:0:0:
448,192,510478,1,0,0:0:0:0:
448,192,510636,128,0,511031:0:0:0:0:
320,192,510715,128,0,510952:0:0:0:0:
192,192,510794,128,0,510873:0:0:0:0:
64,192,510794,1,0,0:0:0:0:
64,192,510952,128,0,511347:0:0:0:0:
192,192,511031,128,0,511268:0:0:0:0:
448,192,511110,1,0,0:0:0:0:
320,192,511110,128,0,511189:0:0:0:0:
320,192,511268,1,0,0:0:0:0:
448,192,511347,1,0,0:0:0:0:
320,192,511425,128,0,511504:0:0:0:0:
64,192,511425,128,0,511583:0:0:0:0:
192,192,511425,128,0,511662:0:0:0:0:
448,192,511583,1,0,0:0:0:0:
320,192,511583,128,0,511741:0:0:0:0:
64,192,511662,128,0,511820:0:0:0:0:
192,192,511741,128,0,511978:0:0:0:0:
320,192,511820,128,0,511899:0:0:0:0:
64,192,511899,128,0,511978:0:0:0:0:
448,192,511899,128,0,512294:0:0:0:0:
64,192,512057,128,0,512136:0:0:0:0:
320,192,512057,128,0,512373:0:0:0:0:
192,192,512057,128,0,512452:0:0:0:0:
64,192,512215,128,0,512373:0:0:0:0:
448,192,512373,1,0,0:0:0:0:
320,192,512452,1,0,0:0:0:0:
64,192,512531,1,0,0:0:0:0:
192,192,512531,128,0,512689:0:0:0:0:
448,192,512531,128,0,512768:0:0:0:0:
64,192,512689,128,0,513004:0:0:0:0:
320,192,512689,128,0,512768:0:0:0:0:
320,192,512847,1,0,0:0:0:0:
448,192,512847,1,0,0:0:0:0:
192,192,512925,1,0,0:0:0:0:
320,192,513004,128,0,513162:0:0:0:0:
64,192,513083,1,0,0:0:0:0:
448,192,513083,128,0,513162:0:0:0:0:
192,192,513162,128,0,513320:0:0:0:0:
320,192,513241,128,0,513320:0:0:0:0:
64,192,513320,128,0,513478:0:0:0:0:
448,192,513320,1,0,0:0:0:0:
192,192,513399,128,0,513478:0:0:0:0:
320,192,513478,128,0,513597:0:0:0:0:
448,192,513557,128,0,513636:0:0:0:0:
64,192,513557,128,0,513794:0:0:0:0:
192,192,513636,128,0,513754:0:0:0:0:
320,192,513715,128,0,513794:0:0:0:0:
448,192,513794,128,0,513952:0:0:0:0:
192,192,513873,128,0,513952:0:0:0:0:
64,192,513952,128,0,514347:0:0:0:0:
192,192,514031,1,0,0:0:0:0:
320,192,514110,1,0,0:0:0:0:
448,192,514189,1,0,0:0:0:0:
320,192,514268,128,0,514347:0:0:0:0:
192,192,514268,1,0,0:0:0:0:
448,192,514347,1,0,0:0:0:0:
192,192,514425,1,0,0:0:0:0:
320,192,514425,1,0,0:0:0:0:
448,192,514504,1,0,0:0:0:0:
64,192,514504,1,0,0:0:0:0:
192,192,514583,1,0,0:0:0:0:
320,192,514583,1,0,0:0:0:0:
448,192,514662,1,0,0:0:0:0:
64,192,514662,1,0,0:0:0:0:
320,192,514741,1,0,0:0:0:0:
64,192,514820,1,0,0:0:0:0:
192,192,514820,1,0,0:0:0:0:
448,192,514899,1,0,0:0:0:0:
192,192,514978,1,0,0:0:0:0:
320,192,514978,1,0,0:0:0:0:
448,192,515057,1,0,0:0:0:0:
64,192,515057,1,0,0:0:0:0:
320,192,515136,1,0,0:0:0:0:
448,192,515215,1,0,0:0:0:0:
64,192,515215,1,0,0:0:0:0:
192,192,515215,1,0,0:0:0:0:
320,192,515294,1,0,0:0:0:0:
448,192,515373,1,0,0:0:0:0:
64,192,515373,1,0,0:0:0:0:
192,192,515373,1,0,0:0:0:0:
320,192,516478,1,0,0:0:0:0:
320,192,516636,1,0,0:0:0:0:
320,192,517899,1,0,0:0:0:0:
320,192,518847,1,0,0:0:0:0:
64,192,518847,1,0,0:0:0:0:
192,192,518847,1,0,0:0:0:0:
448,192,519004,1,0,0:0:0:0:
64,192,519004,1,0,0:0:0:0:
192,192,519004,128,0,519399:0:0:0:0:
320,192,519004,1,0,0:0:0:0:
448,192,519320,1,0,0:0:0:0:
320,192,519320,1,0,0:0:0:0:
64,192,519320,1,0,0:0:0:0:
448,192,519478,128,0,519715:0:0:0:0:
320,192,519478,1,0,0:0:0:0:
64,192,519478,1,0,0:0:0:0:
192,192,519557,1,0,0:0:0:0:
64,192,519636,1,0,0:0:0:0:
320,192,519715,128,0,519952:0:0:0:0:
192,192,519715,1,0,0:0:0:0:
448,192,519794,1,0,0:0:0:0:
64,192,519794,1,0,0:0:0:0:
192,192,519873,128,0,520031:0:0:0:0:
448,192,519952,128,0,520031:0:0:0:0:
320,192,520031,128,0,520110:0:0:0:0:
192,192,520110,1,0,0:0:0:0:
64,192,520110,1,0,0:0:0:0:
448,192,520189,128,0,520347:0:0:0:0:
320,192,520268,1,0,0:0:0:0:
192,192,520268,1,0,0:0:0:0:
64,192,520425,1,0,0:0:0:0:
448,192,520425,128,0,520662:0:0:0:0:
192,192,520504,1,0,0:0:0:0:
320,192,520504,128,0,520662:0:0:0:0:
64,192,520583,128,0,520820:0:0:0:0:
192,192,520662,128,0,520820:0:0:0:0:
320,192,520741,128,0,520820:0:0:0:0:
448,192,520820,128,0,521057:0:0:0:0:
320,192,520899,128,0,521057:0:0:0:0:
192,192,520978,128,0,521057:0:0:0:0:
64,192,521057,128,0,521294:0:0:0:0:
448,192,521136,128,0,521610:0:0:0:0:
192,192,521136,1,0,0:0:0:0:
320,192,521215,1,0,0:0:0:0:
192,192,521294,128,0,521452:0:0:0:0:
320,192,521373,1,0,0:0:0:0:
64,192,521373,128,0,521452:0:0:0:0:
64,192,521531,1,0,0:0:0:0:
192,192,521531,1,0,0:0:0:0:
320,192,521610,1,0,0:0:0:0:
192,192,521689,1,0,0:0:0:0:
64,192,521689,128,0,521925:0:0:0:0:
320,192,521768,1,0,0:0:0:0:
448,192,521847,128,0,521925:0:0:0:0:
192,192,521847,128,0,522083:0:0:0:0:
320,192,521925,128,0,522004:0:0:0:0:
448,192,522004,128,0,522083:0:0:0:0:
64,192,522004,128,0,522241:0:0:0:0:
320,192,522083,128,0,522162:0:0:0:0:
448,192,522162,1,0,0:0:0:0:
192,192,522162,128,0,522399:0:0:0:0:
320,192,522241,1,0,0:0:0:0:
448,192,522320,1,0,0:0:0:0:
64,192,522320,1,0,0:0:0:0:
320,192,522399,1,0,0:0:0:0:
448,192,522478,128,0,522636:0:0:0:0:
192,192,522478,128,0,522557:0:0:0:0:
64,192,522478,128,0,522557:0:0:0:0:
64,192,522636,1,0,0:0:0:0:
192,192,522636,128,0,522873:0:0:0:0:
320,192,522636,128,0,522952:0:0:0:0:
448,192,522715,128,0,522794:0:0:0:0:
64,192,522794,128,0,522873:0:0:0:0:
64,192,522952,1,0,0:0:0:0:
192,192,522952,128,0,523268:0:0:0:0:
448,192,522952,1,0,0:0:0:0:
320,192,523110,128,0,523268:0:0:0:0:
448,192,523268,1,0,0:0:0:0:
64,192,523268,1,0,0:0:0:0:
64,192,523425,1,0,0:0:0:0:
448,192,523425,1,0,0:0:0:0:
320,192,523425,1,0,0:0:0:0:
192,192,523425,128,0,523583:0:0:0:0:
64,192,523741,1,0,0:0:0:0:
448,192,523741,1,0,0:0:0:0:
320,192,523741,128,0,523899:0:0:0:0:
192,192,523741,1,0,0:0:0:0:
448,192,524057,1,0,0:0:0:0:
320,192,524057,1,0,0:0:0:0:
192,192,524057,128,0,524294:0:0:0:0:
64,192,524136,128,0,524215:0:0:0:0:
448,192,524215,1,0,0:0:0:0:
320,192,524294,1,0,0:0:0:0:
448,192,524373,128,0,524452:0:0:0:0:
192,192,524373,1,0,0:0:0:0:
320,192,524452,128,0,524531:0:0:0:0:
64,192,524452,1,0,0:0:0:0:
192,192,524531,128,0,524768:0:0:0:0:
448,192,524531,128,0,524768:0:0:0:0:
64,192,524610,128,0,524768:0:0:0:0:
320,192,524689,128,0,524768:0:0:0:0:
448,192,524847,128,0,525083:0:0:0:0:
192,192,524847,1,0,0:0:0:0:
64,192,524847,1,0,0:0:0:0:
320,192,524925,128,0,525083:0:0:0:0:
192,192,525004,128,0,525083:0:0:0:0:
64,192,525083,1,0,0:0:0:0:
448,192,525162,1,0,0:0:0:0:
320,192,525241,1,0,0:0:0:0:
64,192,525320,1,0,0:0:0:0:
192,192,525320,1,0,0:0:0:0:
320,192,525399,1,0,0:0:0:0:
64,192,525478,128,0,525557:0:0:0:0:
448,192,525478,128,0,525636:0:0:0:0:
192,192,525557,128,0,525636:0:0:0:0:
64,192,525636,128,0,525873:0:0:0:0:
320,192,525636,128,0,525715:0:0:0:0:
192,192,525715,128,0,525794:0:0:0:0:
448,192,525715,128,0,525794:0:0:0:0:
320,192,525794,128,0,526031:0:0:0:0:
448,192,525873,128,0,525952:0:0:0:0:
64,192,525952,128,0,526149:0:0:0:0:
192,192,526031,128,0,526110:0:0:0:0:
320,192,526110,128,0,526268:0:0:0:0:
448,192,526189,128,0,526425:0:0:0:0:
64,192,526268,128,0,526347:0:0:0:0:
192,192,526347,128,0,526425:0:0:0:0:
64,192,526425,1,0,0:0:0:0:
320,192,526425,128,0,526504:0:0:0:0:
192,192,526504,1,0,0:0:0:0:
448,192,526504,128,0,526583:0:0:0:0:
64,192,526583,128,0,526623:0:0:0:0:
320,192,526583,1,0,0:0:0:0:
192,192,526662,128,0,526702:0:0:0:0:
448,192,526662,1,0,0:0:0:0:
64,192,526741,1,0,0:0:0:0:
192,192,526899,1,0,0:0:0:0:
64,192,526899,1,0,0:0:0:0:
192,192,527057,1,0,0:0:0:0:
64,192,527057,1,0,0:0:0:0:
320,192,527057,1,0,0:0:0:0:
192,192,527215,1,0,0:0:0:0:
64,192,527215,1,0,0:0:0:0:
448,192,527215,1,0,0:0:0:0:
320,192,527215,1,0,0:0:0:0:
448,192,528004,128,0,528083:0:0:0:0:
192,192,528004,1,0,0:0:0:0:
64,192,528004,128,0,528162:0:0:0:0:
320,192,528083,1,0,0:0:0:0:
192,192,528162,1,0,0:0:0:0:
320,192,528241,1,0,0:0:0:0:
448,192,528281,128,0,528439:0:0:0:0:
192,192,528320,1,0,0:0:0:0:
320,192,528399,1,0,0:0:0:0:
64,192,528439,128,0,528636:0:0:0:0:
192,192,528478,1,0,0:0:0:0:
448,192,528557,128,0,529268:0:0:0:0:
320,192,528557,1,0,0:0:0:0:
192,192,528636,1,0,0:0:0:0:
320,192,528715,128,0,529347:0:0:0:0:
64,192,528715,128,0,528794:0:0:0:0:
192,192,528794,128,0,528873:0:0:0:0:
64,192,528873,128,0,528952:0:0:0:0:
192,192,528952,128,0,529031:0:0:0:0:
64,192,529031,128,0,529110:0:0:0:0:
192,192,529110,128,0,529189:0:0:0:0:
64,192,529189,128,0,529899:0:0:0:0:
192,192,529268,128,0,529347:0:0:0:0:
448,192,529347,128,0,529425:0:0:0:0:
320,192,529425,1,0,0:0:0:0:
192,192,529425,128,0,529583:0:0:0:0:
448,192,529504,128,0,529583:0:0:0:0:
320,192,529583,128,0,529781:0:0:0:0:
448,192,529662,128,0,529741:0:0:0:0:
192,192,529662,128,0,529741:0:0:0:0:
448,192,529820,128,0,529899:0:0:0:0:
320,192,529899,128,0,530452:0:0:0:0:
448,192,529978,128,0,530136:0:0:0:0:
192,192,529978,128,0,530057:0:0:0:0:
64,192,530057,128,0,530136:0:0:0:0:
192,192,530136,128,0,530215:0:0:0:0:
448,192,530215,128,0,530294:0:0:0:0:
64,192,530215,128,0,530531:0:0:0:0:
192,192,530294,128,0,530373:0:0:0:0:
448,192,530373,128,0,530452:0:0:0:0:
192,192,530452,128,0,530531:0:0:0:0:
448,192,530531,128,0,530768:0:0:0:0:
320,192,530531,128,0,530610:0:0:0:0:
192,192,530610,128,0,530689:0:0:0:0:
64,192,530610,128,0,530689:0:0:0:0:
320,192,530689,128,0,530768:0:0:0:0:
192,192,530768,128,0,531478:0:0:0:0:
64,192,530768,128,0,530847:0:0:0:0:
448,192,530847,128,0,530925:0:0:0:0:
320,192,530925,128,0,531004:0:0:0:0:
64,192,531004,128,0,531083:0:0:0:0:
448,192,531083,128,0,531715:0:0:0:0:
320,192,531083,128,0,531162:0:0:0:0:
64,192,531162,128,0,531241:0:0:0:0:
320,192,531241,128,0,531320:0:0:0:0:
64,192,531320,128,0,531399:0:0:0:0:
320,192,531399,128,0,532110:0:0:0:0:
64,192,531478,128,0,531557:0:0:0:0:
192,192,531557,128,0,531636:0:0:0:0:
64,192,531636,128,0,531715:0:0:0:0:
192,192,531715,128,0,531794:0:0:0:0:
448,192,531794,128,0,531873:0:0:0:0:
64,192,531794,128,0,532425:0:0:0:0:
192,192,531873,128,0,531952:0:0:0:0:
448,192,531952,128,0,532031:0:0:0:0:
192,192,532031,1,0,0:0:0:0:
448,192,532110,1,0,0:0:0:0:
192,192,532189,1,0,0:0:0:0:
448,192,532268,128,0,532504:0:0:0:0:
320,192,532268,1,0,0:0:0:0:
192,192,532347,1,0,0:0:0:0:
320,192,532425,1,0,0:0:0:0:
192,192,532504,128,0,532741:0:0:0:0:
64,192,532504,1,0,0:0:0:0:
448,192,532583,1,0,0:0:0:0:
320,192,532583,128,0,532820:0:0:0:0:
64,192,532662,128,0,532899:0:0:0:0:
448,192,532741,128,0,532899:0:0:0:0:
192,192,532899,1,0,0:0:0:0:
320,192,532899,1,0,0:0:0:0:
448,192,532978,1,0,0:0:0:0:
64,192,532978,1,0,0:0:0:0:
192,192,533057,128,0,533136:0:0:0:0:
320,192,533136,1,0,0:0:0:0:
192,192,533215,128,0,533294:0:0:0:0:
64,192,533215,1,0,0:0:0:0:
448,192,533294,1,0,0:0:0:0:
320,192,533294,1,0,0:0:0:0:
192,192,533373,128,0,533491:0:0:0:0:
64,192,533373,1,0,0:0:0:0:
448,192,533452,128,0,533531:0:0:0:0:
320,192,533452,1,0,0:0:0:0:
64,192,533531,128,0,533610:0:0:0:0:
448,192,533610,128,0,533689:0:0:0:0:
192,192,533610,128,0,533689:0:0:0:0:
64,192,533689,128,0,533847:0:0:0:0:
448,192,533768,1,0,0:0:0:0:
192,192,533768,1,0,0:0:0:0:
320,192,533768,128,0,533925:0:0:0:0:
192,192,533925,128,0,534004:0:0:0:0:
64,192,533925,1,0,0:0:0:0:
320,192,534004,128,0,534083:0:0:0:0:
448,192,534083,1,0,0:0:0:0:
192,192,534083,1,0,0:0:0:0:
64,192,534083,128,0,534162:0:0:0:0:
320,192,534162,128,0,534241:0:0:0:0:
448,192,534241,1,0,0:0:0:0:
192,192,534241,1,0,0:0:0:0:
64,192,534241,1,0,0:0:0:0:
64,192,534320,128,0,534557:0:0:0:0:
320,192,534399,1,0,0:0:0:0:
448,192,534478,128,0,534557:0:0:0:0:
192,192,534478,1,0,0:0:0:0:
320,192,534557,1,0,0:0:0:0:
448,192,534636,128,0,534715:0:0:0:0:
192,192,534636,128,0,534952:0:0:0:0:
64,192,534636,128,0,534794:0:0:0:0:
320,192,534715,1,0,0:0:0:0:
448,192,534794,1,0,0:0:0:0:
64,192,534873,1,0,0:0:0:0:
320,192,534952,128,0,535268:0:0:0:0:
448,192,535031,1,0,0:0:0:0:
192,192,535110,128,0,535189:0:0:0:0:
64,192,535110,1,0,0:0:0:0:
192,192,535268,128,0,535504:0:0:0:0:
64,192,535268,1,0,0:0:0:0:
448,192,535347,1,0,0:0:0:0:
320,192,535347,128,0,535425:0:0:0:0:
64,192,535425,128,0,535662:0:0:0:0:
320,192,535504,1,0,0:0:0:0:
448,192,535583,1,0,0:0:0:0:
192,192,535583,128,0,535662:0:0:0:0:
320,192,535662,1,0,0:0:0:0:
448,192,535741,1,0,0:0:0:0:
64,192,535741,128,0,536215:0:0:0:0:
320,192,535820,1,0,0:0:0:0:
448,192,535899,1,0,0:0:0:0:
192,192,535899,1,0,0:0:0:0:
320,192,535978,1,0,0:0:0:0:
448,192,536057,128,0,536215:0:0:0:0:
192,192,536057,1,0,0:0:0:0:
320,192,536136,128,0,536215:0:0:0:0:
192,192,536215,128,0,536294:0:0:0:0:
64,192,536294,1,0,0:0:0:0:
448,192,536373,128,0,536649:0:0:0:0:
320,192,536373,1,0,0:0:0:0:
192,192,536452,1,0,0:0:0:0:
64,192,536452,128,0,536531:0:0:0:0:
320,192,536531,128,0,537083:0:0:0:0:
64,192,536610,128,0,536689:0:0:0:0:
192,192,536689,128,0,536925:0:0:0:0:
448,192,537004,1,0,0:0:0:0:
64,192,537004,128,0,537241:0:0:0:0:
448,192,537162,1,0,0:0:0:0:
192,192,537162,128,0,537241:0:0:0:0:
320,192,537162,128,0,537794:0:0:0:0:
448,192,537320,1,0,0:0:0:0:
192,192,537320,1,0,0:0:0:0:
64,192,537320,1,0,0:0:0:0:
448,192,537478,1,0,0:0:0:0:
192,192,537478,1,0,0:0:0:0:
64,192,537478,128,0,537557:0:0:0:0:
448,192,537636,128,0,537873:0:0:0:0:
192,192,537636,128,0,537715:0:0:0:0:
192,192,537794,128,0,538110:0:0:0:0:
64,192,537873,128,0,537952:0:0:0:0:
448,192,537952,1,0,0:0:0:0:
320,192,537952,128,0,538031:0:0:0:0:
64,192,538031,1,0,0:0:0:0:
448,192,538110,128,0,538347:0:0:0:0:
320,192,538110,1,0,0:0:0:0:
320,192,538268,128,0,538425:0:0:0:0:
448,192,538425,128,0,538583:0:0:0:0:
192,192,538425,128,0,538583:0:0:0:0:
64,192,538425,1,0,0:0:0:0:
64,192,538583,128,0,538741:0:0:0:0:
448,192,538741,128,0,538899:0:0:0:0:
192,192,538741,1,0,0:0:0:0:
320,192,538741,1,0,0:0:0:0:
320,192,538899,128,0,539215:0:0:0:0:
448,192,539057,128,0,539215:0:0:0:0:
64,192,539057,1,0,0:0:0:0:
192,192,539215,128,0,539294:0:0:0:0:
64,192,539215,1,0,0:0:0:0:
320,192,539373,1,0,0:0:0:0:
448,192,539531,1,0,0:0:0:0:
320,192,539531,128,0,539610:0:0:0:0:
64,192,539531,1,0,0:0:0:0:
448,192,539847,1,0,0:0:0:0:
320,192,539847,128,0,540004:0:0:0:0:
192,192,539847,128,0,540162:0:0:0:0:
448,192,540004,128,0,540162:0:0:0:0:
64,192,540004,128,0,540636:0:0:0:0:
448,192,540320,1,0,0:0:0:0:
320,192,540399,1,0,0:0:0:0:
448,192,540478,1,0,0:0:0:0:
192,192,540557,1,0,0:0:0:0:
448,192,540636,128,0,540794:0:0:0:0:
320,192,540636,128,0,540952:0:0:0:0:
64,192,540794,1,0,0:0:0:0:
448,192,540952,1,0,0:0:0:0:
64,192,540952,1,0,0:0:0:0:
192,192,541110,128,0,541347:0:0:0:0:
64,192,541110,1,0,0:0:0:0:
448,192,541268,1,0,0:0:0:0:
320,192,541268,128,0,541347:0:0:0:0:
64,192,541268,1,0,0:0:0:0:
448,192,541425,1,0,0:0:0:0:
320,192,541425,128,0,541662:0:0:0:0:
448,192,541583,1,0,0:0:0:0:
64,192,541583,128,0,541662:0:0:0:0:
448,192,541741,1,0,0:0:0:0:
192,192,541741,128,0,542175:0:0:0:0:
64,192,541820,1,0,0:0:0:0:
320,192,541899,1,0,0:0:0:0:
64,192,541978,1,0,0:0:0:0:
448,192,542057,128,0,542136:0:0:0:0:
320,192,542057,1,0,0:0:0:0:
64,192,542136,128,0,542215:0:0:0:0:
448,192,542215,128,0,542452:0:0:0:0:
320,192,542215,128,0,542294:0:0:0:0:
192,192,542294,128,0,542373:0:0:0:0:
320,192,542373,128,0,542452:0:0:0:0:
64,192,542373,128,0,542531:0:0:0:0:
192,192,542452,128,0,542610:0:0:0:0:
448,192,542531,128,0,542610:0:0:0:0:
320,192,542531,128,0,542689:0:0:0:0:
64,192,542610,128,0,542768:0:0:0:0:
448,192,542689,128,0,542768:0:0:0:0:
192,192,542689,128,0,542847:0:0:0:0:
320,192,542768,128,0,542925:0:0:0:0:
448,192,542847,128,0,543004:0:0:0:0:
64,192,542847,1,0,0:0:0:0:
192,192,542925,128,0,543004:0:0:0:0:
64,192,542925,128,0,543083:0:0:0:0:
320,192,543004,128,0,543083:0:0:0:0:
448,192,543083,128,0,543162:0:0:0:0:
320,192,543162,128,0,543320:0:0:0:0:
192,192,543162,128,0,543241:0:0:0:0:
64,192,543162,128,0,543675:0:0:0:0:
448,192,543241,128,0,543320:0:0:0:0:
192,192,543320,1,0,0:0:0:0:
448,192,543399,128,0,543518:0:0:0:0:
320,192,543399,128,0,543478:0:0:0:0:
192,192,543478,128,0,543952:0:0:0:0:
320,192,543557,128,0,543636:0:0:0:0:
448,192,543636,128,0,544307:0:0:0:0:
320,192,543715,128,0,543794:0:0:0:0:
64,192,543794,128,0,543873:0:0:0:0:
320,192,543873,128,0,543952:0:0:0:0:
64,192,543952,128,0,544031:0:0:0:0:
320,192,544031,128,0,544110:0:0:0:0:
192,192,544110,128,0,544189:0:0:0:0:
64,192,544110,128,0,544189:0:0:0:0:
320,192,544189,128,0,544268:0:0:0:0:
192,192,544268,128,0,544347:0:0:0:0:
64,192,544268,128,0,544899:0:0:0:0:
320,192,544347,128,0,544425:0:0:0:0:
448,192,544425,128,0,544504:0:0:0:0:
320,192,544504,1,0,0:0:0:0:
192,192,544504,128,0,544583:0:0:0:0:
448,192,544583,128,0,545097:0:0:0:0:
320,192,544662,128,0,544741:0:0:0:0:
192,192,544741,128,0,544820:0:0:0:0:
320,192,544820,128,0,544899:0:0:0:0:
192,192,544899,128,0,544978:0:0:0:0:
320,192,544978,1,0,0:0:0:0:
64,192,544978,128,0,545294:0:0:0:0:
192,192,545057,128,0,545136:0:0:0:0:
320,192,545136,128,0,545215:0:0:0:0:
448,192,545215,128,0,545610:0:0:0:0:
192,192,545215,128,0,545373:0:0:0:0:
320,192,545294,128,0,545373:0:0:0:0:
64,192,545373,128,0,545452:0:0:0:0:
192,192,545452,1,0,0:0:0:0:
320,192,545531,1,0,0:0:0:0:
64,192,545531,1,0,0:0:0:0:
192,192,545610,1,0,0:0:0:0:
448,192,545689,1,0,0:0:0:0:
320,192,545689,1,0,0:0:0:0:
64,192,545689,1,0,0:0:0:0:
320,192,545847,1,0,0:0:0:0:
192,192,545847,128,0,546636:0:0:0:0:
64,192,545847,1,0,0:0:0:0:
448,192,546162,128,0,546636:0:0:0:0:
320,192,546162,1,0,0:0:0:0:
64,192,546162,1,0,0:0:0:0:
320,192,546478,128,0,546952:0:0:0:0:
64,192,546478,128,0,546636:0:0:0:0:
448,192,546794,128,0,547189:0:0:0:0:
192,192,546794,1,0,0:0:0:0:
64,192,546794,128,0,547189:0:0:0:0:
192,192,547110,128,0,547583:0:0:0:0:
448,192,547268,1,0,0:0:0:0:
320,192,547268,1,0,0:0:0:0:
64,192,547268,1,0,0:0:0:0:
448,192,547425,1,0,0:0:0:0:
320,192,547425,1,0,0:0:0:0:
64,192,547504,1,0,0:0:0:0:
448,192,547583,1,0,0:0:0:0:
320,192,547583,1,0,0:0:0:0:
64,192,547662,1,0,0:0:0:0:
448,192,547741,1,0,0:0:0:0:
192,192,547741,1,0,0:0:0:0:
320,192,547741,1,0,0:0:0:0:
64,192,547820,1,0,0:0:0:0:
448,192,547899,1,0,0:0:0:0:
192,192,547899,128,0,548215:0:0:0:0:
320,192,547978,1,0,0:0:0:0:
448,192,548057,1,0,0:0:0:0:
64,192,548057,128,0,548373:0:0:0:0:
320,192,548136,1,0,0:0:0:0:
448,192,548215,1,0,0:0:0:0:
192,192,548294,1,0,0:0:0:0:
320,192,548294,1,0,0:0:0:0:
448,192,548373,128,0,548886:0:0:0:0:
192,192,548531,1,0,0:0:0:0:
64,192,548531,1,0,0:0:0:0:
320,192,548689,1,0,0:0:0:0:
64,192,548689,128,0,549044:0:0:0:0:
192,192,548847,1,0,0:0:0:0:
320,192,548847,128,0,548925:0:0:0:0:
448,192,549004,128,0,549083:0:0:0:0:
320,192,549004,128,0,549320:0:0:0:0:
448,192,549162,128,0,549320:0:0:0:0:
192,192,549162,128,0,549241:0:0:0:0:
192,192,549320,128,0,549675:0:0:0:0:
64,192,549320,1,0,0:0:0:0:
448,192,549478,1,0,0:0:0:0:
320,192,549478,1,0,0:0:0:0:
448,192,549636,1,0,0:0:0:0:
320,192,549636,128,0,550031:0:0:0:0:
64,192,549636,128,0,550110:0:0:0:0:
448,192,549794,1,0,0:0:0:0:
192,192,549794,1,0,0:0:0:0:
448,192,549952,1,0,0:0:0:0:
192,192,549952,1,0,0:0:0:0:
192,192,550110,1,0,0:0:0:0:
448,192,550110,1,0,0:0:0:0:
320,192,550149,1,0,0:0:0:0:
192,192,550189,1,0,0:0:0:0:
64,192,550228,1,0,0:0:0:0:
448,192,550268,1,0,0:0:0:0:
320,192,550307,1,0,0:0:0:0:
192,192,550347,1,0,0:0:0:0:
64,192,550386,1,0,0:0:0:0:
448,192,550425,128,0,550504:0:0:0:0:
320,192,550465,128,0,550544:0:0:0:0:
192,192,550504,128,0,550583:0:0:0:0:
64,192,550544,128,0,550623:0:0:0:0:
448,192,550583,128,0,550623:0:0:0:0:
320,192,550623,128,0,550662:0:0:0:0:
192,192,550662,128,0,550702:0:0:0:0:
64,192,550702,128,0,550741:0:0:0:0:
448,192,550741,1,0,0:0:0:0:
320,192,550741,1,0,0:0:0:0:
448,192,550899,1,0,0:0:0:0:
320,192,550899,1,0,0:0:0:0:
192,192,550899,1,0,0:0:0:0:
448,192,551215,1,0,0:0:0:0:
192,192,551215,1,0,0:0:0:0:
64,192,551215,1,0,0:0:0:0:
320,192,551531,1,0,0:0:0:0:
192,192,551531,1,0,0:0:0:0:
64,192,551531,1,0,0:0:0:0:
192,192,551847,1,0,0:0:0:0:
64,192,551847,128,0,552162:0:0:0:0:
320,192,551847,1,0,0:0:0:0:
448,192,551925,1,0,0:0:0:0:
320,192,552004,1,0,0:0:0:0:
192,192,552004,128,0,552320:0:0:0:0:
448,192,552083,1,0,0:0:0:0:
320,192,552162,128,0,552399:0:0:0:0:
448,192,552241,1,0,0:0:0:0:
64,192,552241,1,0,0:0:0:0:
448,192,552320,128,0,552478:0:0:0:0:
192,192,552399,1,0,0:0:0:0:
320,192,552478,128,0,552636:0:0:0:0:
64,192,552478,128,0,552636:0:0:0:0:
192,192,553268,1,0,0:0:0:0:
64,192,553268,1,0,0:0:0:0:
448,192,555794,1,0,0:0:0:0:
192,192,555794,1,0,0:0:0:0:
448,192,556425,1,0,0:0:0:0:
320,192,556899,1,0,0:0:0:0:
64,192,556899,1,0,0:0:0:0:
448,192,558320,1,0,0:0:0:0:
320,192,558320,1,0,0:0:0:0:
64,192,558952,1,0,0:0:0:0:
320,192,559425,1,0,0:0:0:0:
64,192,559425,1,0,0:0:0:0:
192,192,560847,1,0,0:0:0:0:
64,192,560847,1,0,0:0:0:0:
448,192,561004,1,0,0:0:0:0:
320,192,561083,1,0,0:0:0:0:
192,192,561162,1,0,0:0:0:0:
320,192,561320,1,0,0:0:0:0:
64,192,561478,1,0,0:0:0:0:
448,192,561636,1,0,0:0:0:0:
192,192,561794,1,0,0:0:0:0:
448,192,561952,1,0,0:0:0:0:
320,192,561952,1,0,0:0:0:0:
64,192,561952,1,0,0:0:0:0:
64,192,562425,128,0,563057:0:0:0:0:
320,192,562425,1,0,0:0:0:0:
192,192,562425,1,0,0:0:0:0:
192,192,562899,128,0,563057:0:0:0:0:
448,192,563057,1,0,0:0:0:0:
320,192,563057,1,0,0:0:0:0:
192,192,563215,128,0,563254:0:0:0:0:
64,192,563215,128,0,563254:0:0:0:0:
320,192,563294,128,0,563333:0:0:0:0:
448,192,563294,128,0,563333:0:0:0:0:
64,192,563373,1,0,0:0:0:0:
192,192,563373,128,0,563925:0:0:0:0:
320,192,563452,128,0,563531:0:0:0:0:
448,192,563531,1,0,0:0:0:0:
64,192,563610,128,0,563689:0:0:0:0:
320,192,563689,128,0,563768:0:0:0:0:
448,192,563768,128,0,563847:0:0:0:0:
64,192,563847,128,0,564004:0:0:0:0:
320,192,563925,128,0,564004:0:0:0:0:
448,192,564004,128,0,564241:0:0:0:0:
192,192,564004,128,0,564320:0:0:0:0:
64,192,564083,128,0,564162:0:0:0:0:
320,192,564162,128,0,564241:0:0:0:0:
320,192,564320,128,0,564399:0:0:0:0:
448,192,564320,1,0,0:0:0:0:
64,192,564320,1,0,0:0:0:0:
192,192,564399,128,0,564557:0:0:0:0:
64,192,564478,1,0,0:0:0:0:
320,192,564557,128,0,564636:0:0:0:0:
64,192,564636,128,0,564873:0:0:0:0:
192,192,564636,128,0,564715:0:0:0:0:
448,192,564636,1,0,0:0:0:0:
320,192,564715,128,0,564794:0:0:0:0:
192,192,564794,128,0,564873:0:0:0:0:
448,192,564873,1,0,0:0:0:0:
320,192,564873,1,0,0:0:0:0:
320,192,564952,128,0,565031:0:0:0:0:
64,192,564952,128,0,565268:0:0:0:0:
192,192,565110,1,0,0:0:0:0:
320,192,565189,1,0,0:0:0:0:
192,192,565268,128,0,565425:0:0:0:0:
448,192,565268,128,0,565465:0:0:0:0:
64,192,565347,128,0,565425:0:0:0:0:
192,192,565504,1,0,0:0:0:0:
64,192,565583,128,0,565820:0:0:0:0:
448,192,565583,1,0,0:0:0:0:
320,192,565583,128,0,565820:0:0:0:0:
192,192,565741,1,0,0:0:0:0:
448,192,565741,1,0,0:0:0:0:
320,192,565899,128,0,566136:0:0:0:0:
448,192,565899,128,0,566136:0:0:0:0:
64,192,565899,1,0,0:0:0:0:
64,192,566057,128,0,566215:0:0:0:0:
448,192,566215,1,0,0:0:0:0:
320,192,566215,1,0,0:0:0:0:
448,192,566294,128,0,566373:0:0:0:0:
320,192,566294,128,0,566373:0:0:0:0:
64,192,566373,128,0,566531:0:0:0:0:
192,192,566373,128,0,566531:0:0:0:0:
448,192,566689,128,0,566847:0:0:0:0:
192,192,566689,128,0,566847:0:0:0:0:
448,192,567004,128,0,567241:0:0:0:0:
320,192,567004,128,0,567162:0:0:0:0:
192,192,567004,128,0,567083:0:0:0:0:
64,192,567004,128,0,567320:0:0:0:0:
192,192,567162,128,0,567478:0:0:0:0:
320,192,567241,128,0,567478:0:0:0:0:
448,192,567320,128,0,567399:0:0:0:0:
64,192,567399,128,0,567478:0:0:0:0:
448,192,567478,1,0,0:0:0:0:
448,192,567557,128,0,567675:0:0:0:0:
192,192,567557,1,0,0:0:0:0:
320,192,567636,128,0,567754:0:0:0:0:
64,192,567636,1,0,0:0:0:0:
192,192,567715,128,0,567833:0:0:0:0:
448,192,567794,128,0,567873:0:0:0:0:
64,192,567794,128,0,567912:0:0:0:0:
320,192,567873,128,0,567952:0:0:0:0:
448,192,567952,128,0,568031:0:0:0:0:
192,192,567952,128,0,568031:0:0:0:0:
320,192,568031,128,0,568110:0:0:0:0:
64,192,568031,128,0,568110:0:0:0:0:
448,192,568110,128,0,568347:0:0:0:0:
192,192,568110,128,0,568189:0:0:0:0:
320,192,568189,128,0,568425:0:0:0:0:
64,192,568189,128,0,568268:0:0:0:0:
192,192,568268,128,0,568347:0:0:0:0:
64,192,568347,128,0,568425:0:0:0:0:
192,192,568425,1,0,0:0:0:0:
448,192,568425,128,0,568820:0:0:0:0:
320,192,568504,128,0,568741:0:0:0:0:
64,192,568583,1,0,0:0:0:0:
192,192,568583,128,0,568662:0:0:0:0:
64,192,568741,128,0,569136:0:0:0:0:
192,192,568820,128,0,569057:0:0:0:0:
448,192,568899,1,0,0:0:0:0:
320,192,568899,128,0,568978:0:0:0:0:
448,192,569057,128,0,569452:0:0:0:0:
320,192,569136,128,0,569373:0:0:0:0:
192,192,569215,128,0,569294:0:0:0:0:
64,192,569215,1,0,0:0:0:0:
192,192,569373,1,0,0:0:0:0:
64,192,569452,1,0,0:0:0:0:
448,192,569531,128,0,569689:0:0:0:0:
192,192,569531,128,0,569610:0:0:0:0:
320,192,569531,128,0,569768:0:0:0:0:
64,192,569689,1,0,0:0:0:0:
192,192,569689,128,0,569847:0:0:0:0:
448,192,569768,128,0,569925:0:0:0:0:
64,192,569847,1,0,0:0:0:0:
320,192,569847,128,0,570083:0:0:0:0:
192,192,569925,128,0,570004:0:0:0:0:
64,192,570004,128,0,570399:0:0:0:0:
448,192,570004,128,0,570083:0:0:0:0:
192,192,570162,128,0,570478:0:0:0:0:
320,192,570162,128,0,570557:0:0:0:0:
448,192,570162,128,0,570241:0:0:0:0:
448,192,570320,128,0,570478:0:0:0:0:
64,192,570478,1,0,0:0:0:0:
192,192,570557,1,0,0:0:0:0:
64,192,570636,128,0,570873:0:0:0:0:
320,192,570636,128,0,570794:0:0:0:0:
448,192,570636,1,0,0:0:0:0:
448,192,570794,128,0,571110:0:0:0:0:
192,192,570794,128,0,570873:0:0:0:0:
192,192,570952,1,0,0:0:0:0:
64,192,570952,1,0,0:0:0:0:
320,192,571031,1,0,0:0:0:0:
192,192,571110,128,0,571268:0:0:0:0:
64,192,571189,128,0,571268:0:0:0:0:
448,192,571189,1,0,0:0:0:0:
320,192,571268,128,0,571425:0:0:0:0:
192,192,571347,128,0,571425:0:0:0:0:
448,192,571425,128,0,571583:0:0:0:0:
64,192,571425,1,0,0:0:0:0:
320,192,571504,128,0,571583:0:0:0:0:
192,192,571583,128,0,571702:0:0:0:0:
448,192,571662,128,0,571899:0:0:0:0:
64,192,571662,128,0,571741:0:0:0:0:
320,192,571741,128,0,571860:0:0:0:0:
192,192,571820,128,0,571899:0:0:0:0:
64,192,571899,128,0,572057:0:0:0:0:
320,192,571978,128,0,572057:0:0:0:0:
448,192,572057,128,0,572452:0:0:0:0:
320,192,572136,1,0,0:0:0:0:
192,192,572215,1,0,0:0:0:0:
64,192,572294,1,0,0:0:0:0:
192,192,572373,128,0,572452:0:0:0:0:
320,192,572373,1,0,0:0:0:0:
64,192,572452,1,0,0:0:0:0:
192,192,572531,1,0,0:0:0:0:
320,192,572531,1,0,0:0:0:0:
448,192,572610,1,0,0:0:0:0:
64,192,572610,1,0,0:0:0:0:
320,192,572689,1,0,0:0:0:0:
192,192,572689,1,0,0:0:0:0:
448,192,572768,1,0,0:0:0:0:
64,192,572768,1,0,0:0:0:0:
192,192,572847,1,0,0:0:0:0:
320,192,572925,1,0,0:0:0:0:
448,192,572925,1,0,0:0:0:0:
64,192,573004,1,0,0:0:0:0:
320,192,573083,1,0,0:0:0:0:
192,192,573083,1,0,0:0:0:0:
448,192,573162,1,0,0:0:0:0:
64,192,573162,1,0,0:0:0:0:
192,192,573241,1,0,0:0:0:0:
448,192,573320,1,0,0:0:0:0:
64,192,573320,1,0,0:0:0:0:
320,192,573320,1,0,0:0:0:0:
192,192,573399,1,0,0:0:0:0:
64,192,573478,1,0,0:0:0:0:
448,192,573478,1,0,0:0:0:0:
320,192,573478,1,0,0:0:0:0:
320,192,574583,1,0,0:0:0:0:
320,192,574741,1,0,0:0:0:0:
320,192,576004,1,0,0:0:0:0:
64,192,576952,1,0,0:0:0:0:
320,192,576952,1,0,0:0:0:0:
192,192,576952,1,0,0:0:0:0:
192,192,577110,128,0,577504:0:0:0:0:
64,192,577110,1,0,0:0:0:0:
448,192,577110,1,0,0:0:0:0:
320,192,577110,1,0,0:0:0:0:
448,192,577425,1,0,0:0:0:0:
320,192,577425,1,0,0:0:0:0:
64,192,577425,1,0,0:0:0:0:
448,192,577583,128,0,577820:0:0:0:0:
320,192,577583,1,0,0:0:0:0:
64,192,577583,1,0,0:0:0:0:
192,192,577662,1,0,0:0:0:0:
64,192,577741,1,0,0:0:0:0:
320,192,577820,128,0,578057:0:0:0:0:
192,192,577820,1,0,0:0:0:0:
448,192,577899,1,0,0:0:0:0:
64,192,577899,1,0,0:0:0:0:
192,192,577978,128,0,578136:0:0:0:0:
448,192,578057,128,0,578136:0:0:0:0:
320,192,578136,128,0,578215:0:0:0:0:
64,192,578215,1,0,0:0:0:0:
192,192,578215,1,0,0:0:0:0:
448,192,578294,128,0,578452:0:0:0:0:
192,192,578373,1,0,0:0:0:0:
320,192,578373,1,0,0:0:0:0:
64,192,578531,1,0,0:0:0:0:
448,192,578531,128,0,578768:0:0:0:0:
192,192,578610,1,0,0:0:0:0:
320,192,578610,128,0,578768:0:0:0:0:
64,192,578689,128,0,578925:0:0:0:0:
192,192,578768,128,0,578925:0:0:0:0:
320,192,578847,128,0,578925:0:0:0:0:
448,192,578925,128,0,579162:0:0:0:0:
320,192,579004,128,0,579162:0:0:0:0:
192,192,579083,128,0,579162:0:0:0:0:
64,192,579162,128,0,579399:0:0:0:0:
192,192,579241,1,0,0:0:0:0:
448,192,579241,128,0,579715:0:0:0:0:
320,192,579320,1,0,0:0:0:0:
192,192,579399,128,0,579557:0:0:0:0:
320,192,579478,1,0,0:0:0:0:
64,192,579478,128,0,579557:0:0:0:0:
64,192,579636,1,0,0:0:0:0:
192,192,579636,1,0,0:0:0:0:
320,192,579715,1,0,0:0:0:0:
192,192,579794,1,0,0:0:0:0:
64,192,579794,128,0,580031:0:0:0:0:
320,192,579873,1,0,0:0:0:0:
448,192,579952,128,0,580031:0:0:0:0:
192,192,579952,128,0,580189:0:0:0:0:
320,192,580031,128,0,580110:0:0:0:0:
448,192,580110,128,0,580189:0:0:0:0:
64,192,580110,128,0,580347:0:0:0:0:
320,192,580189,128,0,580268:0:0:0:0:
192,192,580268,128,0,580504:0:0:0:0:
448,192,580268,1,0,0:0:0:0:
320,192,580347,1,0,0:0:0:0:
64,192,580425,1,0,0:0:0:0:
448,192,580425,1,0,0:0:0:0:
320,192,580504,1,0,0:0:0:0:
64,192,580583,128,0,580662:0:0:0:0:
192,192,580583,128,0,580662:0:0:0:0:
448,192,580583,128,0,580741:0:0:0:0:
192,192,580741,128,0,580978:0:0:0:0:
320,192,580741,128,0,581057:0:0:0:0:
64,192,580741,1,0,0:0:0:0:
448,192,580820,128,0,580899:0:0:0:0:
64,192,580899,128,0,580978:0:0:0:0:
448,192,581057,1,0,0:0:0:0:
192,192,581057,128,0,581373:0:0:0:0:
64,192,581057,1,0,0:0:0:0:
320,192,581215,128,0,581373:0:0:0:0:
64,192,581373,1,0,0:0:0:0:
448,192,581373,1,0,0:0:0:0:
320,192,581531,1,0,0:0:0:0:
192,192,581531,128,0,581689:0:0:0:0:
448,192,581531,1,0,0:0:0:0:
64,192,581531,1,0,0:0:0:0:
64,192,581847,1,0,0:0:0:0:
320,192,581847,128,0,582004:0:0:0:0:
448,192,581847,1,0,0:0:0:0:
192,192,581847,1,0,0:0:0:0:
448,192,582162,1,0,0:0:0:0:
320,192,582162,1,0,0:0:0:0:
192,192,582162,128,0,582399:0:0:0:0:
64,192,582241,128,0,582320:0:0:0:0:
448,192,582320,1,0,0:0:0:0:
320,192,582399,1,0,0:0:0:0:
448,192,582478,128,0,582557:0:0:0:0:
192,192,582478,1,0,0:0:0:0:
320,192,582557,128,0,582636:0:0:0:0:
64,192,582557,1,0,0:0:0:0:
192,192,582636,128,0,582873:0:0:0:0:
448,192,582636,128,0,582873:0:0:0:0:
64,192,582715,128,0,582873:0:0:0:0:
320,192,582794,128,0,582873:0:0:0:0:
64,192,582952,1,0,0:0:0:0:
192,192,582952,1,0,0:0:0:0:
448,192,582952,128,0,583189:0:0:0:0:
320,192,583031,128,0,583189:0:0:0:0:
192,192,583110,128,0,583189:0:0:0:0:
64,192,583189,1,0,0:0:0:0:
448,192,583268,1,0,0:0:0:0:
320,192,583347,1,0,0:0:0:0:
192,192,583425,1,0,0:0:0:0:
64,192,583425,1,0,0:0:0:0:
320,192,583504,1,0,0:0:0:0:
448,192,583583,128,0,583741:0:0:0:0:
64,192,583583,128,0,583662:0:0:0:0:
192,192,583662,128,0,583741:0:0:0:0:
64,192,583741,128,0,583978:0:0:0:0:
320,192,583741,128,0,583820:0:0:0:0:
448,192,583820,128,0,583899:0:0:0:0:
192,192,583820,128,0,583899:0:0:0:0:
320,192,583899,128,0,584136:0:0:0:0:
448,192,583978,128,0,584057:0:0:0:0:
64,192,584057,128,0,584254:0:0:0:0:
192,192,584136,128,0,584215:0:0:0:0:
320,192,584215,128,0,584373:0:0:0:0:
448,192,584294,128,0,584531:0:0:0:0:
64,192,584373,128,0,584452:0:0:0:0:
192,192,584452,128,0,584531:0:0:0:0:
64,192,584531,1,0,0:0:0:0:
320,192,584531,128,0,584610:0:0:0:0:
448,192,584610,128,0,584689:0:0:0:0:
192,192,584610,1,0,0:0:0:0:
64,192,584689,1,0,0:0:0:0:
320,192,584689,1,0,0:0:0:0:
192,192,584768,1,0,0:0:0:0:
448,192,584768,1,0,0:0:0:0:
64,192,584847,1,0,0:0:0:0:
64,192,585004,1,0,0:0:0:0:
192,192,585004,1,0,0:0:0:0:
64,192,585162,1,0,0:0:0:0:
192,192,585162,1,0,0:0:0:0:
320,192,585162,1,0,0:0:0:0:
448,192,585320,1,0,0:0:0:0:
320,192,585320,1,0,0:0:0:0:
64,192,585320,1,0,0:0:0:0:
192,192,585320,1,0,0:0:0:0:
448,192,585636,1,0,0:0:0:0:
192,192,585715,1,0,0:0:0:0:
448,192,585794,1,0,0:0:0:0:
320,192,585794,1,0,0:0:0:0:
64,192,585873,1,0,0:0:0:0:
192,192,585873,1,0,0:0:0:0:
448,192,585952,1,0,0:0:0:0:
320,192,585952,1,0,0:0:0:0:
64,192,586031,128,0,586110:0:0:0:0:
448,192,586110,1,0,0:0:0:0:
192,192,586110,128,0,586268:0:0:0:0:
320,192,586189,1,0,0:0:0:0:
448,192,586268,1,0,0:0:0:0:
320,192,586347,1,0,0:0:0:0:
64,192,586386,128,0,586544:0:0:0:0:
448,192,586425,1,0,0:0:0:0:
320,192,586504,1,0,0:0:0:0:
192,192,586544,128,0,586741:0:0:0:0:
448,192,586583,1,0,0:0:0:0:
320,192,586662,1,0,0:0:0:0:
64,192,586662,128,0,587373:0:0:0:0:
448,192,586741,1,0,0:0:0:0:
192,192,586820,128,0,586899:0:0:0:0:
320,192,586820,128,0,587452:0:0:0:0:
448,192,586899,128,0,586978:0:0:0:0:
192,192,586978,128,0,587057:0:0:0:0:
448,192,587057,128,0,587136:0:0:0:0:
192,192,587136,128,0,587215:0:0:0:0:
448,192,587215,128,0,587294:0:0:0:0:
192,192,587294,128,0,588004:0:0:0:0:
448,192,587373,128,0,587452:0:0:0:0:
64,192,587452,128,0,587531:0:0:0:0:
320,192,587531,1,0,0:0:0:0:
448,192,587531,128,0,587689:0:0:0:0:
64,192,587610,128,0,587689:0:0:0:0:
320,192,587689,128,0,587886:0:0:0:0:
64,192,587768,128,0,587847:0:0:0:0:
448,192,587768,128,0,587847:0:0:0:0:
64,192,587925,128,0,588004:0:0:0:0:
320,192,588004,128,0,588557:0:0:0:0:
64,192,588083,128,0,588241:0:0:0:0:
448,192,588083,128,0,588162:0:0:0:0:
192,192,588162,128,0,588241:0:0:0:0:
448,192,588241,128,0,588320:0:0:0:0:
192,192,588320,128,0,588636:0:0:0:0:
64,192,588320,128,0,588399:0:0:0:0:
448,192,588399,128,0,588478:0:0:0:0:
64,192,588478,128,0,588557:0:0:0:0:
448,192,588557,128,0,588636:0:0:0:0:
64,192,588636,128,0,588873:0:0:0:0:
320,192,588636,128,0,588715:0:0:0:0:
192,192,588715,128,0,588794:0:0:0:0:
448,192,588715,128,0,588794:0:0:0:0:
320,192,588794,128,0,588873:0:0:0:0:
448,192,588873,128,0,589583:0:0:0:0:
192,192,588873,128,0,588952:0:0:0:0:
64,192,588952,128,0,589031:0:0:0:0:
320,192,589031,128,0,589110:0:0:0:0:
192,192,589110,128,0,589189:0:0:0:0:
64,192,589189,128,0,589820:0:0:0:0:
320,192,589189,128,0,589268:0:0:0:0:
192,192,589268,128,0,589347:0:0:0:0:
320,192,589347,128,0,589425:0:0:0:0:
192,192,589425,128,0,589504:0:0:0:0:
320,192,589504,128,0,590215:0:0:0:0:
192,192,589583,128,0,589662:0:0:0:0:
448,192,589662,128,0,589741:0:0:0:0:
192,192,589741,128,0,589820:0:0:0:0:
448,192,589820,128,0,589899:0:0:0:0:
64,192,589899,128,0,589978:0:0:0:0:
192,192,589899,128,0,590531:0:0:0:0:
448,192,589978,128,0,590057:0:0:0:0:
64,192,590057,128,0,590136:0:0:0:0:
448,192,590136,1,0,0:0:0:0:
64,192,590215,1,0,0:0:0:0:
448,192,590294,1,0,0:0:0:0:
320,192,590373,1,0,0:0:0:0:
64,192,590373,128,0,590610:0:0:0:0:
448,192,590452,1,0,0:0:0:0:
320,192,590531,1,0,0:0:0:0:
448,192,590610,128,0,590847:0:0:0:0:
192,192,590610,1,0,0:0:0:0:
64,192,590689,1,0,0:0:0:0:
320,192,590689,128,0,590925:0:0:0:0:
192,192,590768,128,0,591004:0:0:0:0:
64,192,590847,128,0,591004:0:0:0:0:
320,192,591004,1,0,0:0:0:0:
448,192,591004,1,0,0:0:0:0:
64,192,591083,1,0,0:0:0:0:
192,192,591083,1,0,0:0:0:0:
448,192,591162,128,0,591241:0:0:0:0:
320,192,591241,1,0,0:0:0:0:
448,192,591320,128,0,591399:0:0:0:0:
192,192,591320,1,0,0:0:0:0:
320,192,591399,1,0,0:0:0:0:
64,192,591399,1,0,0:0:0:0:
192,192,591478,1,0,0:0:0:0:
448,192,591478,128,0,591597:0:0:0:0:
320,192,591557,1,0,0:0:0:0:
64,192,591557,128,0,591636:0:0:0:0:
192,192,591636,128,0,591715:0:0:0:0:
448,192,591715,128,0,591794:0:0:0:0:
64,192,591715,128,0,591794:0:0:0:0:
192,192,591794,128,0,591952:0:0:0:0:
320,192,591873,128,0,592031:0:0:0:0:
64,192,591873,1,0,0:0:0:0:
448,192,591873,1,0,0:0:0:0:
192,192,592031,1,0,0:0:0:0:
448,192,592031,128,0,592110:0:0:0:0:
320,192,592110,128,0,592189:0:0:0:0:
64,192,592189,1,0,0:0:0:0:
192,192,592189,128,0,592268:0:0:0:0:
448,192,592189,1,0,0:0:0:0:
320,192,592268,128,0,592347:0:0:0:0:
448,192,592347,1,0,0:0:0:0:
64,192,592347,1,0,0:0:0:0:
192,192,592347,1,0,0:0:0:0:
192,192,592425,128,0,592662:0:0:0:0:
320,192,592504,1,0,0:0:0:0:
448,192,592583,1,0,0:0:0:0:
64,192,592583,128,0,592662:0:0:0:0:
320,192,592662,1,0,0:0:0:0:
192,192,592741,128,0,592899:0:0:0:0:
448,192,592741,128,0,593057:0:0:0:0:
64,192,592741,128,0,592820:0:0:0:0:
320,192,592820,1,0,0:0:0:0:
64,192,592899,1,0,0:0:0:0:
192,192,592978,1,0,0:0:0:0:
320,192,593057,128,0,593373:0:0:0:0:
64,192,593136,1,0,0:0:0:0:
448,192,593215,128,0,593294:0:0:0:0:
192,192,593215,1,0,0:0:0:0:
192,192,593373,1,0,0:0:0:0:
448,192,593373,128,0,593610:0:0:0:0:
64,192,593452,1,0,0:0:0:0:
320,192,593452,128,0,593531:0:0:0:0:
192,192,593531,128,0,593768:0:0:0:0:
320,192,593610,1,0,0:0:0:0:
448,192,593689,128,0,593768:0:0:0:0:
64,192,593689,1,0,0:0:0:0:
320,192,593768,1,0,0:0:0:0:
64,192,593847,1,0,0:0:0:0:
192,192,593847,128,0,594320:0:0:0:0:
320,192,593925,1,0,0:0:0:0:
64,192,594004,1,0,0:0:0:0:
448,192,594004,1,0,0:0:0:0:
320,192,594083,1,0,0:0:0:0:
448,192,594162,1,0,0:0:0:0:
64,192,594162,128,0,594320:0:0:0:0:
320,192,594241,128,0,594320:0:0:0:0:
448,192,594320,128,0,594399:0:0:0:0:
192,192,594399,1,0,0:0:0:0:
64,192,594478,128,0,594754:0:0:0:0:
320,192,594478,1,0,0:0:0:0:
192,192,594557,128,0,594636:0:0:0:0:
448,192,594557,1,0,0:0:0:0:
320,192,594636,128,0,595189:0:0:0:0:
192,192,594715,128,0,594794:0:0:0:0:
448,192,594794,128,0,595031:0:0:0:0:
192,192,595110,128,0,595347:0:0:0:0:
64,192,595110,1,0,0:0:0:0:
320,192,595268,128,0,595899:0:0:0:0:
448,192,595268,128,0,595347:0:0:0:0:
64,192,595268,1,0,0:0:0:0:
64,192,595425,1,0,0:0:0:0:
448,192,595425,1,0,0:0:0:0:
192,192,595425,1,0,0:0:0:0:
192,192,595583,128,0,595662:0:0:0:0:
448,192,595583,1,0,0:0:0:0:
64,192,595583,1,0,0:0:0:0:
448,192,595741,128,0,595820:0:0:0:0:
64,192,595741,128,0,595978:0:0:0:0:
448,192,595899,128,0,596215:0:0:0:0:
192,192,595978,128,0,596057:0:0:0:0:
64,192,596057,1,0,0:0:0:0:
320,192,596057,128,0,596136:0:0:0:0:
192,192,596136,1,0,0:0:0:0:
64,192,596215,128,0,596452:0:0:0:0:
320,192,596215,1,0,0:0:0:0:
320,192,596373,128,0,596531:0:0:0:0:
192,192,596531,1,0,0:0:0:0:
64,192,596531,128,0,596689:0:0:0:0:
448,192,596531,128,0,596689:0:0:0:0:
192,192,596689,128,0,596847:0:0:0:0:
320,192,596847,1,0,0:0:0:0:
64,192,596847,128,0,597004:0:0:0:0:
448,192,596847,1,0,0:0:0:0:
320,192,597004,128,0,597320:0:0:0:0:
64,192,597162,128,0,597320:0:0:0:0:
192,192,597162,1,0,0:0:0:0:
192,192,597320,1,0,0:0:0:0:
448,192,597320,128,0,597399:0:0:0:0:
320,192,597478,1,0,0:0:0:0:
64,192,597636,1,0,0:0:0:0:
320,192,597636,128,0,597715:0:0:0:0:
192,192,597636,1,0,0:0:0:0:
64,192,597952,1,0,0:0:0:0:
320,192,597952,128,0,598110:0:0:0:0:
448,192,597952,128,0,598268:0:0:0:0:
192,192,598110,128,0,598741:0:0:0:0:
64,192,598110,128,0,598268:0:0:0:0:
64,192,598425,1,0,0:0:0:0:
320,192,598504,1,0,0:0:0:0:
64,192,598583,1,0,0:0:0:0:
448,192,598662,1,0,0:0:0:0:
320,192,598741,128,0,599057:0:0:0:0:
64,192,598741,128,0,598899:0:0:0:0:
192,192,598899,1,0,0:0:0:0:
64,192,599057,1,0,0:0:0:0:
192,192,599057,1,0,0:0:0:0:
448,192,599215,128,0,599452:0:0:0:0:
192,192,599215,1,0,0:0:0:0:
64,192,599373,1,0,0:0:0:0:
320,192,599373,128,0,599452:0:0:0:0:
192,192,599373,1,0,0:0:0:0:
320,192,599531,128,0,599768:0:0:0:0:
64,192,599531,1,0,0:0:0:0:
64,192,599689,1,0,0:0:0:0:
192,192,599689,128,0,599768:0:0:0:0:
64,192,599847,1,0,0:0:0:0:
448,192,599847,128,0,600281:0:0:0:0:
192,192,599925,1,0,0:0:0:0:
320,192,600004,1,0,0:0:0:0:
192,192,600083,1,0,0:0:0:0:
320,192,600162,1,0,0:0:0:0:
64,192,600162,128,0,600241:0:0:0:0:
192,192,600241,128,0,600320:0:0:0:0:
64,192,600320,128,0,600557:0:0:0:0:
320,192,600320,128,0,600399:0:0:0:0:
448,192,600399,128,0,600478:0:0:0:0:
192,192,600478,128,0,600636:0:0:0:0:
320,192,600478,128,0,600557:0:0:0:0:
448,192,600557,128,0,600715:0:0:0:0:
320,192,600636,128,0,600794:0:0:0:0:
64,192,600636,128,0,600715:0:0:0:0:
192,192,600715,128,0,600873:0:0:0:0:
448,192,600794,128,0,600952:0:0:0:0:
64,192,600794,128,0,600873:0:0:0:0:
320,192,600873,128,0,601031:0:0:0:0:
192,192,600952,1,0,0:0:0:0:
64,192,600952,128,0,601110:0:0:0:0:
448,192,601031,128,0,601110:0:0:0:0:
192,192,601031,128,0,601189:0:0:0:0:
320,192,601110,128,0,601189:0:0:0:0:
64,192,601189,128,0,601268:0:0:0:0:
192,192,601268,128,0,601781:0:0:0:0:
448,192,601268,128,0,601347:0:0:0:0:
320,192,601268,128,0,601425:0:0:0:0:
64,192,601347,128,0,601425:0:0:0:0:
448,192,601425,1,0,0:0:0:0:
320,192,601504,128,0,601583:0:0:0:0:
64,192,601504,128,0,601623:0:0:0:0:
448,192,601583,128,0,602057:0:0:0:0:
320,192,601662,128,0,601741:0:0:0:0:
64,192,601741,128,0,602412:0:0:0:0:
320,192,601820,128,0,601899:0:0:0:0:
192,192,601899,128,0,601978:0:0:0:0:
320,192,601978,128,0,602057:0:0:0:0:
192,192,602057,128,0,602136:0:0:0:0:
320,192,602136,128,0,602215:0:0:0:0:
448,192,602215,128,0,602294:0:0:0:0:
192,192,602215,128,0,602294:0:0:0:0:
320,192,602294,128,0,602373:0:0:0:0:
448,192,602373,128,0,602452:0:0:0:0:
192,192,602373,128,0,603004:0:0:0:0:
320,192,602452,128,0,602531:0:0:0:0:
64,192,602531,128,0,602610:0:0:0:0:
448,192,602610,128,0,602689:0:0:0:0:
320,192,602610,1,0,0:0:0:0:
64,192,602689,128,0,603202:0:0:0:0:
320,192,602768,128,0,602847:0:0:0:0:
448,192,602847,128,0,602925:0:0:0:0:
320,192,602925,128,0,603004:0:0:0:0:
448,192,603004,128,0,603083:0:0:0:0:
320,192,603083,1,0,0:0:0:0:
192,192,603083,128,0,603399:0:0:0:0:
448,192,603162,128,0,603241:0:0:0:0:
320,192,603241,128,0,603320:0:0:0:0:
448,192,603320,128,0,603478:0:0:0:0:
64,192,603320,128,0,603715:0:0:0:0:
320,192,603399,128,0,603478:0:0:0:0:
192,192,603478,128,0,603557:0:0:0:0:
448,192,603557,1,0,0:0:0:0:
320,192,603636,1,0,0:0:0:0:
192,192,603636,1,0,0:0:0:0:
448,192,603715,1,0,0:0:0:0:
320,192,603794,1,0,0:0:0:0:
64,192,603794,1,0,0:0:0:0:
192,192,603794,1,0,0:0:0:0:
320,192,603952,1,0,0:0:0:0:
448,192,603952,128,0,604741:0:0:0:0:
192,192,603952,1,0,0:0:0:0:
64,192,604268,128,0,604741:0:0:0:0:
192,192,604268,1,0,0:0:0:0:
320,192,604268,1,0,0:0:0:0:
320,192,604583,128,0,605057:0:0:0:0:
192,192,604583,128,0,604741:0:0:0:0:
448,192,604899,1,0,0:0:0:0:
192,192,604899,128,0,605294:0:0:0:0:
64,192,604899,128,0,605294:0:0:0:0:
448,192,605215,128,0,605689:0:0:0:0:
64,192,605373,1,0,0:0:0:0:
192,192,605373,1,0,0:0:0:0:
320,192,605373,1,0,0:0:0:0:
64,192,605531,1,0,0:0:0:0:
320,192,605531,1,0,0:0:0:0:
192,192,605610,1,0,0:0:0:0:
64,192,605689,1,0,0:0:0:0:
320,192,605689,1,0,0:0:0:0:
192,192,605768,1,0,0:0:0:0:
64,192,605847,1,0,0:0:0:0:
448,192,605847,1,0,0:0:0:0:
320,192,605847,1,0,0:0:0:0:
192,192,605925,1,0,0:0:0:0:
64,192,606004,1,0,0:0:0:0:
448,192,606004,128,0,606320:0:0:0:0:
320,192,606083,1,0,0:0:0:0:
192,192,606162,128,0,606478:0:0:0:0:
64,192,606162,1,0,0:0:0:0:
320,192,606241,1,0,0:0:0:0:
64,192,606320,1,0,0:0:0:0:
64,192,606478,1,0,0:0:0:0:
448,192,606636,128,0,606715:0:0:0:0:
192,192,606952,1,0,0:0:0:0:
320,192,606952,1,0,0:0:0:0:
192,192,607110,1,0,0:0:0:0:
320,192,607110,1,0,0:0:0:0:
448,192,607425,128,0,607504:0:0:0:0:
320,192,607583,1,0,0:0:0:0:
192,192,607583,1,0,0:0:0:0:
192,192,607741,1,0,0:0:0:0:
64,192,607741,1,0,0:0:0:0:
320,192,607820,1,0,0:0:0:0:
448,192,607899,1,0,0:0:0:0:
64,192,607899,1,0,0:0:0:0:
320,192,607978,1,0,0:0:0:0:
64,192,608057,128,0,608136:0:0:0:0:
192,192,608057,1,0,0:0:0:0:
448,192,608136,1,0,0:0:0:0:
320,192,608215,1,0,0:0:0:0:
192,192,608215,128,0,608294:0:0:0:0:
448,192,608294,1,0,0:0:0:0:
320,192,608373,1,0,0:0:0:0:
64,192,608373,128,0,608452:0:0:0:0:
192,192,608452,1,0,0:0:0:0:
448,192,608531,1,0,0:0:0:0:
64,192,608531,1,0,0:0:0:0:
192,192,608610,1,0,0:0:0:0:
320,192,608689,1,0,0:0:0:0:
192,192,608768,1,0,0:0:0:0:
64,192,608847,5,0,0:0:0:0:
320,192,608847,1,0,0:0:0:0:
448,192,608847,128,0,609004:0:0:0:0:
320,192,609004,128,0,609162:0:0:0:0:
64,192,609083,1,0,0:0:0:0:
448,192,609083,1,0,0:0:0:0:
192,192,609162,128,0,609320:0:0:0:0:
448,192,609320,1,0,0:0:0:0:
64,192,609320,1,0,0:0:0:0:
320,192,609320,128,0,609478:0:0:0:0:
64,192,609478,1,0,0:0:0:0:
192,192,609478,128,0,609597:0:0:0:0:
448,192,609557,1,0,0:0:0:0:
320,192,609597,128,0,609715:0:0:0:0:
64,192,609636,1,0,0:0:0:0:
192,192,609715,1,0,0:0:0:0:
448,192,609715,128,0,609794:0:0:0:0:
64,192,609794,1,0,0:0:0:0:
320,192,609794,128,0,609912:0:0:0:0:
448,192,609873,1,0,0:0:0:0:
192,192,609912,128,0,609991:0:0:0:0:
64,192,609952,1,0,0:0:0:0:
320,192,609991,128,0,610110:0:0:0:0:
64,192,610031,1,0,0:0:0:0:
192,192,610110,1,0,0:0:0:0:
448,192,610110,128,0,610268:0:0:0:0:
320,192,610425,1,0,0:0:0:0:
192,192,610425,1,0,0:0:0:0:
64,192,610425,1,0,0:0:0:0:
448,192,610583,1,0,0:0:0:0:
320,192,610662,1,0,0:0:0:0:
448,192,610741,1,0,0:0:0:0:
192,192,610741,1,0,0:0:0:0:
64,192,610820,1,0,0:0:0:0:
448,192,610899,1,0,0:0:0:0:
320,192,610978,1,0,0:0:0:0:
192,192,611057,1,0,0:0:0:0:
320,192,611136,1,0,0:0:0:0:
64,192,611136,1,0,0:0:0:0:
448,192,611215,1,0,0:0:0:0:
320,192,611373,128,0,611452:0:0:0:0:
448,192,611373,128,0,611610:0:0:0:0:
64,192,611373,128,0,611768:0:0:0:0:
192,192,611452,128,0,611531:0:0:0:0:
320,192,611531,128,0,611610:0:0:0:0:
192,192,611610,128,0,611689:0:0:0:0:
448,192,611689,128,0,611925:0:0:0:0:
320,192,611689,128,0,611925:0:0:0:0:
192,192,611768,128,0,611847:0:0:0:0:
64,192,611847,128,0,612004:0:0:0:0:
192,192,611925,128,0,612004:0:0:0:0:
448,192,612004,128,0,612162:0:0:0:0:
320,192,612004,128,0,612083:0:0:0:0:
64,192,612083,128,0,612399:0:0:0:0:
192,192,612083,128,0,612320:0:0:0:0:
320,192,612162,128,0,612241:0:0:0:0:
448,192,612241,128,0,612636:0:0:0:0:
320,192,612320,128,0,612399:0:0:0:0:
192,192,612399,128,0,612478:0:0:0:0:
320,192,612478,128,0,612557:0:0:0:0:
64,192,612478,128,0,612557:0:0:0:0:
192,192,612557,128,0,612715:0:0:0:0:
64,192,612636,128,0,612873:0:0:0:0:
320,192,612636,128,0,612715:0:0:0:0:
448,192,612715,128,0,612794:0:0:0:0:
320,192,612794,128,0,612873:0:0:0:0:
192,192,612794,128,0,612952:0:0:0:0:
448,192,612873,128,0,613189:0:0:0:0:
64,192,612952,128,0,613031:0:0:0:0:
320,192,612952,128,0,613031:0:0:0:0:
192,192,613031,128,0,613110:0:0:0:0:
64,192,613110,128,0,613347:0:0:0:0:
320,192,613110,128,0,613189:0:0:0:0:
192,192,613189,128,0,613268:0:0:0:0:
448,192,613268,128,0,613347:0:0:0:0:
320,192,613268,128,0,613425:0:0:0:0:
192,192,613347,128,0,613504:0:0:0:0:
64,192,613425,128,0,613583:0:0:0:0:
448,192,613425,128,0,613820:0:0:0:0:
320,192,613504,128,0,613662:0:0:0:0:
192,192,613583,128,0,613662:0:0:0:0:
64,192,613662,128,0,613741:0:0:0:0:
192,192,613741,128,0,613899:0:0:0:0:
320,192,613741,128,0,613820:0:0:0:0:
64,192,613820,128,0,614057:0:0:0:0:
320,192,613899,128,0,613978:0:0:0:0:
448,192,613899,128,0,613978:0:0:0:0:
192,192,613978,128,0,614136:0:0:0:0:
320,192,614057,128,0,614215:0:0:0:0:
448,192,614057,128,0,614136:0:0:0:0:
64,192,614136,128,0,614373:0:0:0:0:
192,192,614215,128,0,614294:0:0:0:0:
448,192,614215,128,0,614294:0:0:0:0:
320,192,614294,128,0,614452:0:0:0:0:
192,192,614373,128,0,614531:0:0:0:0:
448,192,614373,128,0,614452:0:0:0:0:
64,192,614452,128,0,614610:0:0:0:0:
448,192,614531,128,0,614768:0:0:0:0:
320,192,614531,128,0,614768:0:0:0:0:
192,192,614610,128,0,614689:0:0:0:0:
64,192,614689,128,0,615083:0:0:0:0:
192,192,614768,128,0,614847:0:0:0:0:
448,192,614847,128,0,615004:0:0:0:0:
320,192,614847,128,0,614925:0:0:0:0:
192,192,614925,128,0,615083:0:0:0:0:
320,192,615004,128,0,615241:0:0:0:0:
448,192,615083,128,0,615162:0:0:0:0:
64,192,615162,128,0,615399:0:0:0:0:
192,192,615162,128,0,615320:0:0:0:0:
448,192,615241,128,0,615399:0:0:0:0:
320,192,615320,128,0,615399:0:0:0:0:
192,192,615399,128,0,615478:0:0:0:0:
448,192,615478,128,0,615557:0:0:0:0:
320,192,615478,128,0,615557:0:0:0:0:
64,192,615478,128,0,615557:0:0:0:0:
192,192,615557,128,0,615636:0:0:0:0:
64,192,615636,128,0,615873:0:0:0:0:
448,192,615636,128,0,615794:0:0:0:0:
320,192,615636,128,0,615715:0:0:0:0:
192,192,615715,128,0,615873:0:0:0:0:
320,192,615794,128,0,615952:0:0:0:0:
448,192,615873,128,0,616031:0:0:0:0:
192,192,615952,128,0,616031:0:0:0:0:
64,192,615952,128,0,616189:0:0:0:0:
320,192,616031,128,0,616110:0:0:0:0:
448,192,616110,128,0,616189:0:0:0:0:
192,192,616110,128,0,616268:0:0:0:0:
320,192,616189,128,0,616347:0:0:0:0:
64,192,616268,128,0,616504:0:0:0:0:
448,192,616268,128,0,616347:0:0:0:0:
192,192,616347,128,0,616425:0:0:0:0:
448,192,616425,128,0,616820:0:0:0:0:
320,192,616425,128,0,616662:0:0:0:0:
192,192,616504,128,0,616583:0:0:0:0:
64,192,616583,128,0,616662:0:0:0:0:
192,192,616662,128,0,616741:0:0:0:0:
320,192,616741,128,0,616820:0:0:0:0:
64,192,616741,128,0,616899:0:0:0:0:
192,192,616820,128,0,617057:0:0:0:0:
448,192,616899,128,0,616978:0:0:0:0:
320,192,616899,128,0,616978:0:0:0:0:
64,192,616978,128,0,617136:0:0:0:0:
320,192,617057,128,0,617136:0:0:0:0:
448,192,617057,128,0,617373:0:0:0:0:
192,192,617136,128,0,617215:0:0:0:0:
320,192,617215,128,0,617294:0:0:0:0:
64,192,617215,128,0,617294:0:0:0:0:
192,192,617294,128,0,617452:0:0:0:0:
64,192,617373,128,0,617531:0:0:0:0:
320,192,617373,128,0,617452:0:0:0:0:
448,192,617452,128,0,617610:0:0:0:0:
192,192,617531,128,0,617689:0:0:0:0:
320,192,617531,128,0,617610:0:0:0:0:
64,192,617610,128,0,617768:0:0:0:0:
320,192,617689,128,0,618004:0:0:0:0:
448,192,617689,128,0,617847:0:0:0:0:
192,192,617768,128,0,617925:0:0:0:0:
64,192,617847,128,0,617925:0:0:0:0:
448,192,617925,128,0,618241:0:0:0:0:
192,192,618004,128,0,618083:0:0:0:0:
64,192,618004,128,0,618162:0:0:0:0:
320,192,618083,128,0,618241:0:0:0:0:
192,192,618162,128,0,618320:0:0:0:0:
64,192,618241,128,0,618557:0:0:0:0:
448,192,618320,128,0,618478:0:0:0:0:
320,192,618320,128,0,618399:0:0:0:0:
192,192,618399,128,0,618557:0:0:0:0:
320,192,618478,128,0,618636:0:0:0:0:
448,192,618557,128,0,618715:0:0:0:0:
64,192,618636,128,0,618873:0:0:0:0:
192,192,618636,128,0,618952:0:0:0:0:
320,192,618715,128,0,618794:0:0:0:0:
448,192,618794,128,0,618873:0:0:0:0:
320,192,618873,128,0,619031:0:0:0:0:
64,192,618952,128,0,619268:0:0:0:0:
448,192,618952,128,0,619189:0:0:0:0:
192,192,619031,128,0,619110:0:0:0:0:
320,192,619110,128,0,619189:0:0:0:0:
192,192,619189,128,0,619504:0:0:0:0:
448,192,619268,128,0,619425:0:0:0:0:
320,192,619268,128,0,619347:0:0:0:0:
64,192,619347,128,0,619504:0:0:0:0:
320,192,619425,128,0,619583:0:0:0:0:
448,192,619504,128,0,619662:0:0:0:0:
192,192,619583,128,0,619820:0:0:0:0:
64,192,619583,128,0,619820:0:0:0:0:
320,192,619662,128,0,619741:0:0:0:0:
448,192,619741,128,0,619978:0:0:0:0:
320,192,619820,128,0,619899:0:0:0:0:
64,192,619899,128,0,619978:0:0:0:0:
192,192,619899,128,0,619978:0:0:0:0:
320,192,619978,128,0,620057:0:0:0:0:
448,192,620057,128,0,620294:0:0:0:0:
192,192,620057,128,0,620136:0:0:0:0:
64,192,620057,128,0,620215:0:0:0:0:
320,192,620136,128,0,620373:0:0:0:0:
192,192,620215,128,0,620294:0:0:0:0:
64,192,620294,128,0,620373:0:0:0:0:
448,192,620373,1,0,0:0:0:0:
192,192,620373,1,0,0:0:0:0:
320,192,620531,1,0,0:0:0:0:
64,192,620531,1,0,0:0:0:0:
192,192,620531,1,0,0:0:0:0:
64,192,620689,1,0,0:0:0:0:
448,192,620689,1,0,0:0:0:0:
320,192,620728,1,0,0:0:0:0:
192,192,620768,1,0,0:0:0:0:
64,192,620807,1,0,0:0:0:0:
448,192,620847,128,0,621162:0:0:0:0:
192,192,620847,1,0,0:0:0:0:
320,192,620847,1,0,0:0:0:0:
320,192,621162,1,0,0:0:0:0:
64,192,621162,1,0,0:0:0:0:
192,192,621162,128,0,621478:0:0:0:0:
448,192,621478,128,0,621715:0:0:0:0:
320,192,621478,128,0,621715:0:0:0:0:
64,192,621478,128,0,621794:0:0:0:0:
192,192,621636,128,0,621715:0:0:0:0:
448,192,621794,128,0,622110:0:0:0:0:
320,192,621794,128,0,622031:0:0:0:0:
192,192,621794,128,0,622031:0:0:0:0:
64,192,621873,1,0,0:0:0:0:
64,192,621952,128,0,622031:0:0:0:0:
64,192,622110,128,0,622347:0:0:0:0:
192,192,622110,128,0,622425:0:0:0:0:
320,192,622110,128,0,622347:0:0:0:0:
448,192,622189,1,0,0:0:0:0:
448,192,622268,128,0,622347:0:0:0:0:
448,192,622425,128,0,622741:0:0:0:0:
320,192,622425,128,0,622662:0:0:0:0:
64,192,622425,128,0,622662:0:0:0:0:
192,192,622504,1,0,0:0:0:0:
192,192,622583,128,0,622662:0:0:0:0:
64,192,622741,128,0,622978:0:0:0:0:
192,192,622741,128,0,623057:0:0:0:0:
320,192,622741,128,0,622978:0:0:0:0:
448,192,622820,1,0,0:0:0:0:
448,192,622899,128,0,622978:0:0:0:0:
448,192,623057,128,0,623373:0:0:0:0:
320,192,623057,128,0,623294:0:0:0:0:
64,192,623057,128,0,623294:0:0:0:0:
192,192,623136,1,0,0:0:0:0:
192,192,623215,128,0,623294:0:0:0:0:
192,192,623373,128,0,623610:0:0:0:0:
64,192,623373,128,0,623689:0:0:0:0:
320,192,623373,128,0,623610:0:0:0:0:
448,192,623452,1,0,0:0:0:0:
448,192,623531,128,0,623610:0:0:0:0:
448,192,623689,128,0,624004:0:0:0:0:
320,192,623689,128,0,623925:0:0:0:0:
192,192,623689,128,0,623925:0:0:0:0:
64,192,623768,1,0,0:0:0:0:
64,192,623847,128,0,624004:0:0:0:0:
320,192,624004,128,0,624320:0:0:0:0:
192,192,624004,128,0,624320:0:0:0:0:
448,192,624083,1,0,0:0:0:0:
64,192,624083,1,0,0:0:0:0:
448,192,624162,128,0,624241:0:0:0:0:
64,192,624162,128,0,624241:0:0:0:0:
64,192,624320,128,0,624636:0:0:0:0:
448,192,624320,128,0,624557:0:0:0:0:
320,192,624399,1,0,0:0:0:0:
192,192,624399,1,0,0:0:0:0:
320,192,624478,128,0,624557:0:0:0:0:
192,192,624478,128,0,624636:0:0:0:0:
448,192,624636,128,0,624952:0:0:0:0:
320,192,624636,128,0,624952:0:0:0:0:
64,192,624715,1,0,0:0:0:0:
192,192,624715,1,0,0:0:0:0:
64,192,624794,128,0,624873:0:0:0:0:
192,192,624794,128,0,624873:0:0:0:0:
64,192,624952,128,0,625189:0:0:0:0:
192,192,624952,128,0,625189:0:0:0:0:
448,192,625031,1,0,0:0:0:0:
320,192,625031,1,0,0:0:0:0:
448,192,625110,128,0,625189:0:0:0:0:
320,192,625110,128,0,625189:0:0:0:0:
64,192,625268,1,0,0:0:0:0:
448,192,625268,1,0,0:0:0:0:
320,192,625268,1,0,0:0:0:0:
192,192,625347,1,0,0:0:0:0:
320,192,625425,1,0,0:0:0:0:
192,192,625504,1,0,0:0:0:0:
320,192,625583,1,0,0:0:0:0:
192,192,625662,1,0,0:0:0:0:
320,192,625741,1,0,0:0:0:0:
64,192,625820,1,0,0:0:0:0:
192,192,625820,1,0,0:0:0:0:
448,192,625899,128,0,626057:0:0:0:0:
320,192,625978,128,0,626136:0:0:0:0:
192,192,626057,128,0,626215:0:0:0:0:
64,192,626136,128,0,626294:0:0:0:0:
448,192,626215,128,0,626294:0:0:0:0:
320,192,626294,128,0,626373:0:0:0:0:
192,192,626373,128,0,626452:0:0:0:0:
64,192,626452,128,0,626531:0:0:0:0:
448,192,626531,1,0,0:0:0:0:
320,192,626531,1,0,0:0:0:0:
64,192,626689,1,0,0:0:0:0:
448,192,626847,1,0,0:0:0:0:
64,192,627004,1,0,0:0:0:0:
192,192,627004,1,0,0:0:0:0:
448,192,627162,1,0,0:0:0:0:
448,192,627478,1,0,0:0:0:0:
320,192,627636,1,0,0:0:0:0:
448,192,627794,1,0,0:0:0:0:
192,192,627952,1,0,0:0:0:0:
448,192,628110,1,0,0:0:0:0:
320,192,628268,1,0,0:0:0:0:
448,192,628425,1,0,0:0:0:0:
64,192,628425,1,0,0:0:0:0:
64,192,628741,1,0,0:0:0:0:
448,192,628741,1,0,0:0:0:0:
320,192,628741,1,0,0:0:0:0:
320,192,629057,1,0,0:0:0:0:
64,192,629057,1,0,0:0:0:0:
192,192,629057,128,0,629136:0:0:0:0:
192,192,629215,1,0,0:0:0:0:
448,192,629215,1,0,0:0:0:0:
320,192,629215,128,0,629294:0:0:0:0:
64,192,629373,128,0,629452:0:0:0:0:
320,192,629373,1,0,0:0:0:0:
192,192,629373,1,0,0:0:0:0:
192,192,629531,128,0,629610:0:0:0:0:
320,192,629531,1,0,0:0:0:0:
64,192,629531,1,0,0:0:0:0:
448,192,629689,128,0,629768:0:0:0:0:
192,192,629689,1,0,0:0:0:0:
64,192,629689,1,0,0:0:0:0:
192,192,629847,128,0,629925:0:0:0:0:
320,192,629847,1,0,0:0:0:0:
448,192,629847,1,0,0:0:0:0:
64,192,630004,1,0,0:0:0:0:
192,192,630004,1,0,0:0:0:0:
320,192,630004,128,0,630083:0:0:0:0:
64,192,630162,1,0,0:0:0:0:
320,192,630162,1,0,0:0:0:0:
448,192,630162,128,0,630241:0:0:0:0:
448,192,630320,1,0,0:0:0:0:
64,192,630320,128,0,630399:0:0:0:0:
192,192,630320,1,0,0:0:0:0:
448,192,630478,128,0,630557:0:0:0:0:
320,192,630478,1,0,0:0:0:0:
64,192,630478,1,0,0:0:0:0:
448,192,630636,1,0,0:0:0:0:
192,192,630636,128,0,630715:0:0:0:0:
64,192,630636,1,0,0:0:0:0:
448,192,630794,1,0,0:0:0:0:
192,192,630794,1,0,0:0:0:0:
64,192,630794,128,0,630873:0:0:0:0:
320,192,630952,128,0,631031:0:0:0:0:
192,192,630952,1,0,0:0:0:0:
64,192,630952,1,0,0:0:0:0:
320,192,631110,1,0,0:0:0:0:
448,192,631110,1,0,0:0:0:0:
64,192,631110,128,0,631189:0:0:0:0:
448,192,631268,128,0,631347:0:0:0:0:
64,192,631268,1,0,0:0:0:0:
192,192,631268,1,0,0:0:0:0:
320,192,631425,128,0,631504:0:0:0:0:
448,192,631425,1,0,0:0:0:0:
192,192,631425,1,0,0:0:0:0:
192,192,631583,1,0,0:0:0:0:
64,192,631583,1,0,0:0:0:0:
320,192,631662,1,0,0:0:0:0:
64,192,631741,1,0,0:0:0:0:
448,192,631741,1,0,0:0:0:0:
448,192,631899,1,0,0:0:0:0:
192,192,631899,1,0,0:0:0:0:
320,192,631978,1,0,0:0:0:0:
64,192,632057,1,0,0:0:0:0:
192,192,632057,1,0,0:0:0:0:
320,192,632215,1,0,0:0:0:0:
64,192,632215,1,0,0:0:0:0:
192,192,632294,1,0,0:0:0:0:
448,192,632373,1,0,0:0:0:0:
320,192,632373,1,0,0:0:0:0:
192,192,632531,1,0,0:0:0:0:
64,192,632531,1,0,0:0:0:0:
320,192,632610,1,0,0:0:0:0:
64,192,632689,1,0,0:0:0:0:
448,192,632728,1,0,0:0:0:0:
320,192,632768,1,0,0:0:0:0:
192,192,632847,1,0,0:0:0:0:
320,192,632925,1,0,0:0:0:0:
64,192,632925,1,0,0:0:0:0:
448,192,633004,1,0,0:0:0:0:
192,192,633004,1,0,0:0:0:0:
320,192,633083,1,0,0:0:0:0:
64,192,633162,1,0,0:0:0:0:
448,192,633162,1,0,0:0:0:0:
192,192,633241,1,0,0:0:0:0:
64,192,633320,1,0,0:0:0:0:
448,192,633320,1,0,0:0:0:0:
320,192,633320,1,0,0:0:0:0:
448,192,635373,128,0,635452:0:0:0:0:
64,192,635373,128,0,635531:0:0:0:0:
192,192,635373,1,0,0:0:0:0:
320,192,635452,1,0,0:0:0:0:
192,192,635531,1,0,0:0:0:0:
320,192,635610,1,0,0:0:0:0:
448,192,635649,128,0,635807:0:0:0:0:
192,192,635689,1,0,0:0:0:0:
320,192,635768,1,0,0:0:0:0:
64,192,635807,128,0,636004:0:0:0:0:
192,192,635847,1,0,0:0:0:0:
448,192,635925,128,0,636636:0:0:0:0:
320,192,635925,1,0,0:0:0:0:
192,192,636004,1,0,0:0:0:0:
320,192,636083,128,0,636715:0:0:0:0:
64,192,636083,128,0,636162:0:0:0:0:
192,192,636162,128,0,636241:0:0:0:0:
64,192,636241,128,0,636320:0:0:0:0:
192,192,636320,128,0,636399:0:0:0:0:
64,192,636399,128,0,636478:0:0:0:0:
192,192,636478,128,0,636557:0:0:0:0:
64,192,636557,128,0,637268:0:0:0:0:
192,192,636636,128,0,636715:0:0:0:0:
448,192,636715,128,0,636794:0:0:0:0:
192,192,636794,128,0,636952:0:0:0:0:
320,192,636794,1,0,0:0:0:0:
448,192,636873,128,0,636952:0:0:0:0:
320,192,636952,128,0,637149:0:0:0:0:
192,192,637031,128,0,637110:0:0:0:0:
448,192,637031,128,0,637110:0:0:0:0:
448,192,637189,128,0,637268:0:0:0:0:
320,192,637268,128,0,637820:0:0:0:0:
192,192,637347,128,0,637425:0:0:0:0:
448,192,637347,128,0,637504:0:0:0:0:
64,192,637425,128,0,637504:0:0:0:0:
192,192,637504,128,0,637583:0:0:0:0:
64,192,637583,128,0,637899:0:0:0:0:
448,192,637583,128,0,637662:0:0:0:0:
192,192,637662,128,0,637741:0:0:0:0:
448,192,637741,128,0,637820:0:0:0:0:
192,192,637820,128,0,637899:0:0:0:0:
320,192,637899,128,0,637978:0:0:0:0:
448,192,637899,128,0,638136:0:0:0:0:
192,192,637978,128,0,638057:0:0:0:0:
64,192,637978,128,0,638057:0:0:0:0:
320,192,638057,128,0,638136:0:0:0:0:
192,192,638136,128,0,638847:0:0:0:0:
64,192,638136,128,0,638215:0:0:0:0:
448,192,638215,128,0,638294:0:0:0:0:
320,192,638294,128,0,638373:0:0:0:0:
64,192,638373,128,0,638452:0:0:0:0:
320,192,638452,128,0,638531:0:0:0:0:
448,192,638452,128,0,639083:0:0:0:0:
64,192,638531,128,0,638610:0:0:0:0:
320,192,638610,128,0,638689:0:0:0:0:
64,192,638689,128,0,638768:0:0:0:0:
320,192,638768,128,0,639478:0:0:0:0:
64,192,638847,128,0,638925:0:0:0:0:
192,192,638925,128,0,639004:0:0:0:0:
64,192,639004,128,0,639083:0:0:0:0:
192,192,639083,128,0,639162:0:0:0:0:
64,192,639162,128,0,639794:0:0:0:0:
448,192,639162,128,0,639241:0:0:0:0:
192,192,639241,128,0,639320:0:0:0:0:
448,192,639320,128,0,639399:0:0:0:0:
192,192,639399,1,0,0:0:0:0:
448,192,639478,1,0,0:0:0:0:
192,192,639557,1,0,0:0:0:0:
320,192,639636,1,0,0:0:0:0:
448,192,639636,128,0,639873:0:0:0:0:
192,192,639715,1,0,0:0:0:0:
320,192,639794,1,0,0:0:0:0:
192,192,639873,128,0,640110:0:0:0:0:
64,192,639873,1,0,0:0:0:0:
320,192,639952,128,0,640189:0:0:0:0:
448,192,639952,1,0,0:0:0:0:
64,192,640031,128,0,640268:0:0:0:0:
448,192,640110,128,0,640268:0:0:0:0:
320,192,640268,1,0,0:0:0:0:
192,192,640268,1,0,0:0:0:0:
448,192,640347,1,0,0:0:0:0:
64,192,640347,1,0,0:0:0:0:
192,192,640425,128,0,640504:0:0:0:0:
320,192,640504,1,0,0:0:0:0:
64,192,640583,1,0,0:0:0:0:
192,192,640583,128,0,640662:0:0:0:0:
320,192,640662,1,0,0:0:0:0:
448,192,640662,1,0,0:0:0:0:
64,192,640741,1,0,0:0:0:0:
192,192,640741,128,0,640860:0:0:0:0:
448,192,640820,128,0,640899:0:0:0:0:
320,192,640820,1,0,0:0:0:0:
64,192,640899,128,0,640978:0:0:0:0:
192,192,640978,128,0,641057:0:0:0:0:
448,192,640978,128,0,641057:0:0:0:0:
64,192,641057,128,0,641215:0:0:0:0:
448,192,641136,1,0,0:0:0:0:
320,192,641136,128,0,641294:0:0:0:0:
192,192,641136,1,0,0:0:0:0:
192,192,641294,128,0,641373:0:0:0:0:
64,192,641294,1,0,0:0:0:0:
320,192,641373,128,0,641452:0:0:0:0:
448,192,641452,1,0,0:0:0:0:
192,192,641452,1,0,0:0:0:0:
64,192,641452,128,0,641531:0:0:0:0:
320,192,641531,128,0,641610:0:0:0:0:
448,192,641610,1,0,0:0:0:0:
64,192,641610,1,0,0:0:0:0:
192,192,641610,1,0,0:0:0:0:
64,192,641689,128,0,641925:0:0:0:0:
320,192,641768,1,0,0:0:0:0:
192,192,641847,1,0,0:0:0:0:
448,192,641847,128,0,641925:0:0:0:0:
320,192,641925,1,0,0:0:0:0:
192,192,642004,128,0,642320:0:0:0:0:
448,192,642004,128,0,642083:0:0:0:0:
64,192,642004,128,0,642162:0:0:0:0:
320,192,642083,1,0,0:0:0:0:
448,192,642162,1,0,0:0:0:0:
64,192,642241,1,0,0:0:0:0:
320,192,642320,128,0,642636:0:0:0:0:
448,192,642399,1,0,0:0:0:0:
64,192,642478,1,0,0:0:0:0:
192,192,642478,128,0,642557:0:0:0:0:
192,192,642636,128,0,642873:0:0:0:0:
64,192,642636,1,0,0:0:0:0:
448,192,642715,1,0,0:0:0:0:
320,192,642715,128,0,642794:0:0:0:0:
64,192,642794,128,0,643031:0:0:0:0:
320,192,642873,1,0,0:0:0:0:
448,192,642952,1,0,0:0:0:0:
192,192,642952,128,0,643031:0:0:0:0:
320,192,643031,1,0,0:0:0:0:
448,192,643110,1,0,0:0:0:0:
64,192,643110,128,0,643583:0:0:0:0:
320,192,643189,1,0,0:0:0:0:
448,192,643268,1,0,0:0:0:0:
192,192,643268,1,0,0:0:0:0:
320,192,643347,1,0,0:0:0:0:
192,192,643425,1,0,0:0:0:0:
448,192,643425,128,0,643583:0:0:0:0:
320,192,643504,128,0,643583:0:0:0:0:
192,192,643583,128,0,643662:0:0:0:0:
64,192,643662,1,0,0:0:0:0:
320,192,643741,1,0,0:0:0:0:
448,192,643741,128,0,644018:0:0:0:0:
192,192,643820,1,0,0:0:0:0:
64,192,643820,128,0,643899:0:0:0:0:
320,192,643899,128,0,644452:0:0:0:0:
64,192,643978,128,0,644057:0:0:0:0:
192,192,644057,128,0,644294:0:0:0:0:
64,192,644373,128,0,644610:0:0:0:0:
448,192,644373,1,0,0:0:0:0:
320,192,644531,128,0,645162:0:0:0:0:
448,192,644531,1,0,0:0:0:0:
192,192,644531,128,0,644610:0:0:0:0:
64,192,644689,1,0,0:0:0:0:
192,192,644689,1,0,0:0:0:0:
448,192,644689,1,0,0:0:0:0:
448,192,644847,1,0,0:0:0:0:
64,192,644847,128,0,644925:0:0:0:0:
192,192,644847,1,0,0:0:0:0:
448,192,645004,128,0,645241:0:0:0:0:
192,192,645004,128,0,645083:0:0:0:0:
192,192,645162,128,0,645478:0:0:0:0:
64,192,645241,128,0,645320:0:0:0:0:
448,192,645320,1,0,0:0:0:0:
320,192,645320,128,0,645399:0:0:0:0:
64,192,645399,1,0,0:0:0:0:
320,192,645478,1,0,0:0:0:0:
448,192,645478,128,0,645715:0:0:0:0:
320,192,645636,128,0,645794:0:0:0:0:
64,192,645794,1,0,0:0:0:0:
192,192,645794,128,0,645952:0:0:0:0:
448,192,645794,128,0,645952:0:0:0:0:
64,192,645952,128,0,646110:0:0:0:0:
320,192,646110,1,0,0:0:0:0:
448,192,646110,128,0,646268:0:0:0:0:
192,192,646110,1,0,0:0:0:0:
320,192,646268,128,0,646583:0:0:0:0:
64,192,646425,1,0,0:0:0:0:
448,192,646425,128,0,646583:0:0:0:0:
192,192,646583,128,0,646662:0:0:0:0:
64,192,646583,1,0,0:0:0:0:
320,192,646741,1,0,0:0:0:0:
320,192,646899,128,0,646978:0:0:0:0:
448,192,646899,1,0,0:0:0:0:
64,192,646899,1,0,0:0:0:0:
192,192,647215,128,0,647531:0:0:0:0:
448,192,647215,1,0,0:0:0:0:
320,192,647215,128,0,647373:0:0:0:0:
64,192,647373,128,0,648004:0:0:0:0:
448,192,647373,128,0,647531:0:0:0:0:
448,192,647689,1,0,0:0:0:0:
320,192,647768,1,0,0:0:0:0:
448,192,647847,1,0,0:0:0:0:
192,192,647925,1,0,0:0:0:0:
448,192,648004,128,0,648162:0:0:0:0:
320,192,648004,128,0,648320:0:0:0:0:
64,192,648162,1,0,0:0:0:0:
64,192,648320,1,0,0:0:0:0:
448,192,648320,1,0,0:0:0:0:
64,192,648478,1,0,0:0:0:0:
192,192,648478,128,0,648715:0:0:0:0:
64,192,648636,1,0,0:0:0:0:
320,192,648636,128,0,648715:0:0:0:0:
448,192,648636,1,0,0:0:0:0:
448,192,648794,1,0,0:0:0:0:
320,192,648794,128,0,649031:0:0:0:0:
448,192,648952,1,0,0:0:0:0:
64,192,648952,128,0,649031:0:0:0:0:
448,192,649110,1,0,0:0:0:0:
192,192,649110,128,0,649544:0:0:0:0:
64,192,649189,1,0,0:0:0:0:
320,192,649268,1,0,0:0:0:0:
64,192,649347,1,0,0:0:0:0:
320,192,649425,1,0,0:0:0:0:
448,192,649425,128,0,649504:0:0:0:0:
64,192,649504,128,0,649583:0:0:0:0:
448,192,649583,128,0,649820:0:0:0:0:
320,192,649583,128,0,649662:0:0:0:0:
192,192,649662,128,0,649741:0:0:0:0:
64,192,649741,128,0,649899:0:0:0:0:
320,192,649741,128,0,649820:0:0:0:0:
192,192,649820,128,0,649978:0:0:0:0:
320,192,649899,128,0,650057:0:0:0:0:
448,192,649899,128,0,649978:0:0:0:0:
64,192,649978,128,0,650136:0:0:0:0:
448,192,650057,128,0,650136:0:0:0:0:
192,192,650057,128,0,650215:0:0:0:0:
320,192,650136,128,0,650294:0:0:0:0:
448,192,650215,128,0,650373:0:0:0:0:
64,192,650215,1,0,0:0:0:0:
64,192,650294,128,0,650452:0:0:0:0:
192,192,650294,128,0,650373:0:0:0:0:
320,192,650373,128,0,650452:0:0:0:0:
448,192,650452,128,0,650531:0:0:0:0:
320,192,650531,128,0,650689:0:0:0:0:
64,192,650531,128,0,651044:0:0:0:0:
192,192,650531,128,0,650610:0:0:0:0:
448,192,650610,128,0,650689:0:0:0:0:
192,192,650689,1,0,0:0:0:0:
448,192,650768,128,0,650886:0:0:0:0:
320,192,650768,128,0,650847:0:0:0:0:
192,192,650847,128,0,651320:0:0:0:0:
320,192,650925,128,0,651004:0:0:0:0:
448,192,651004,128,0,651675:0:0:0:0:
320,192,651083,128,0,651162:0:0:0:0:
64,192,651162,128,0,651241:0:0:0:0:
320,192,651241,128,0,651320:0:0:0:0:
64,192,651320,128,0,651399:0:0:0:0:
320,192,651399,128,0,651478:0:0:0:0:
192,192,651478,128,0,651557:0:0:0:0:
64,192,651478,128,0,651557:0:0:0:0:
320,192,651557,128,0,651636:0:0:0:0:
64,192,651636,128,0,652268:0:0:0:0:
192,192,651636,128,0,651715:0:0:0:0:
320,192,651715,128,0,651794:0:0:0:0:
448,192,651794,128,0,651873:0:0:0:0:
320,192,651873,1,0,0:0:0:0:
192,192,651873,128,0,651952:0:0:0:0:
448,192,651952,128,0,652465:0:0:0:0:
320,192,652031,128,0,652110:0:0:0:0:
192,192,652110,128,0,652189:0:0:0:0:
320,192,652189,128,0,652268:0:0:0:0:
192,192,652268,128,0,652347:0:0:0:0:
320,192,652347,1,0,0:0:0:0:
64,192,652347,128,0,652662:0:0:0:0:
192,192,652425,128,0,652504:0:0:0:0:
320,192,652504,128,0,652583:0:0:0:0:
192,192,652583,128,0,652741:0:0:0:0:
448,192,652583,128,0,652978:0:0:0:0:
320,192,652662,128,0,652741:0:0:0:0:
64,192,652741,128,0,652820:0:0:0:0:
192,192,652820,1,0,0:0:0:0:
64,192,652899,1,0,0:0:0:0:
320,192,652899,1,0,0:0:0:0:
192,192,652978,1,0,0:0:0:0:
320,192,653057,1,0,0:0:0:0:
448,192,653057,1,0,0:0:0:0:
64,192,653057,1,0,0:0:0:0:
64,192,653215,1,0,0:0:0:0:
320,192,653215,1,0,0:0:0:0:
192,192,653215,128,0,654004:0:0:0:0:
64,192,653531,1,0,0:0:0:0:
320,192,653531,1,0,0:0:0:0:
448,192,653531,128,0,654004:0:0:0:0:
320,192,653847,128,0,654320:0:0:0:0:
64,192,653847,128,0,654004:0:0:0:0:
448,192,654162,128,0,654557:0:0:0:0:
192,192,654162,1,0,0:0:0:0:
64,192,654162,128,0,654557:0:0:0:0:
192,192,654478,128,0,654952:0:0:0:0:
448,192,654636,1,0,0:0:0:0:
64,192,654636,1,0,0:0:0:0:
320,192,654636,1,0,0:0:0:0:
448,192,654794,1,0,0:0:0:0:
320,192,654794,1,0,0:0:0:0:
64,192,654873,1,0,0:0:0:0:
448,192,654952,1,0,0:0:0:0:
320,192,654952,1,0,0:0:0:0:
64,192,655031,1,0,0:0:0:0:
320,192,655110,1,0,0:0:0:0:
192,192,655110,1,0,0:0:0:0:
448,192,655110,1,0,0:0:0:0:
64,192,655189,1,0,0:0:0:0:
192,192,655268,1,0,0:0:0:0:
448,192,655268,1,0,0:0:0:0:
320,192,655347,1,0,0:0:0:0:
64,192,655425,1,0,0:0:0:0:
192,192,655425,1,0,0:0:0:0:
448,192,655504,1,0,0:0:0:0:
64,192,655583,128,0,656097:0:0:0:0:
320,192,655583,128,0,655741:0:0:0:0:
192,192,655583,128,0,655662:0:0:0:0:
448,192,655662,128,0,655741:0:0:0:0:
192,192,655741,1,0,0:0:0:0:
448,192,655820,128,0,655939:0:0:0:0:
320,192,655820,128,0,655899:0:0:0:0:
192,192,655899,128,0,656373:0:0:0:0:
320,192,655978,128,0,656057:0:0:0:0:
448,192,656057,128,0,656728:0:0:0:0:
320,192,656136,128,0,656215:0:0:0:0:
64,192,656215,128,0,656294:0:0:0:0:
320,192,656294,128,0,656373:0:0:0:0:
64,192,656373,128,0,656452:0:0:0:0:
320,192,656452,128,0,656531:0:0:0:0:
192,192,656531,128,0,656610:0:0:0:0:
64,192,656531,128,0,656610:0:0:0:0:
320,192,656610,128,0,656689:0:0:0:0:
192,192,656689,128,0,656768:0:0:0:0:
64,192,656689,128,0,657320:0:0:0:0:
320,192,656768,128,0,656847:0:0:0:0:
448,192,656847,128,0,656925:0:0:0:0:
320,192,656925,1,0,0:0:0:0:
192,192,656925,128,0,657004:0:0:0:0:
448,192,657004,128,0,657518:0:0:0:0:
320,192,657083,128,0,657162:0:0:0:0:
192,192,657162,128,0,657241:0:0:0:0:
320,192,657241,128,0,657320:0:0:0:0:
192,192,657320,128,0,657399:0:0:0:0:
320,192,657399,1,0,0:0:0:0:
64,192,657399,128,0,657715:0:0:0:0:
192,192,657478,128,0,657557:0:0:0:0:
320,192,657557,128,0,657636:0:0:0:0:
192,192,657636,128,0,657794:0:0:0:0:
448,192,657636,128,0,658031:0:0:0:0:
320,192,657715,128,0,657794:0:0:0:0:
64,192,657794,128,0,657873:0:0:0:0:
192,192,657873,1,0,0:0:0:0:
320,192,657952,1,0,0:0:0:0:
64,192,657952,1,0,0:0:0:0:
192,192,658031,1,0,0:0:0:0:
320,192,658110,1,0,0:0:0:0:
64,192,658110,1,0,0:0:0:0:
448,192,658110,1,0,0:0:0:0:
64,192,658268,1,0,0:0:0:0:
192,192,658268,128,0,659057:0:0:0:0:
320,192,658268,1,0,0:0:0:0:
64,192,658583,1,0,0:0:0:0:
320,192,658583,1,0,0:0:0:0:
448,192,658583,128,0,659057:0:0:0:0:
320,192,658899,128,0,659373:0:0:0:0:
64,192,658899,128,0,659057:0:0:0:0:
448,192,659215,128,0,659610:0:0:0:0:
192,192,659215,1,0,0:0:0:0:
64,192,659215,128,0,659610:0:0:0:0:
192,192,659531,128,0,660004:0:0:0:0:
320,192,659689,1,0,0:0:0:0:
448,192,659689,1,0,0:0:0:0:
64,192,659689,1,0,0:0:0:0:
448,192,659847,1,0,0:0:0:0:
320,192,659847,1,0,0:0:0:0:
64,192,659925,1,0,0:0:0:0:
448,192,660004,1,0,0:0:0:0:
320,192,660004,1,0,0:0:0:0:
64,192,660083,1,0,0:0:0:0:
192,192,660162,1,0,0:0:0:0:
320,192,660162,1,0,0:0:0:0:
448,192,660162,1,0,0:0:0:0:
64,192,660241,1,0,0:0:0:0:
448,192,660320,1,0,0:0:0:0:
192,192,660320,128,0,660636:0:0:0:0:
320,192,660399,1,0,0:0:0:0:
448,192,660478,1,0,0:0:0:0:
64,192,660478,128,0,660794:0:0:0:0:
320,192,660557,1,0,0:0:0:0:
448,192,660636,1,0,0:0:0:0:
320,192,660794,1,0,0:0:0:0:
192,192,660794,1,0,0:0:0:0:
192,192,660952,1,0,0:0:0:0:
64,192,660952,1,0,0:0:0:0:
448,192,661110,1,0,0:0:0:0:
320,192,661110,1,0,0:0:0:0:
64,192,661110,128,0,661465:0:0:0:0:
320,192,661268,128,0,661347:0:0:0:0:
192,192,661268,1,0,0:0:0:0:
448,192,661425,128,0,661504:0:0:0:0:
320,192,661425,128,0,661741:0:0:0:0:
192,192,661583,128,0,661662:0:0:0:0:
448,192,661583,128,0,661741:0:0:0:0:
192,192,661741,128,0,662097:0:0:0:0:
64,192,661741,1,0,0:0:0:0:
448,192,661899,1,0,0:0:0:0:
320,192,661899,1,0,0:0:0:0:
64,192,662057,128,0,662531:0:0:0:0:
320,192,662057,128,0,662452:0:0:0:0:
448,192,662057,1,0,0:0:0:0:
192,192,662215,1,0,0:0:0:0:
448,192,662215,1,0,0:0:0:0:
192,192,662373,1,0,0:0:0:0:
448,192,662373,1,0,0:0:0:0:
192,192,662531,1,0,0:0:0:0:
448,192,662531,1,0,0:0:0:0:
320,192,662570,1,0,0:0:0:0:
192,192,662610,1,0,0:0:0:0:
64,192,662649,1,0,0:0:0:0:
448,192,662689,1,0,0:0:0:0:
320,192,662728,1,0,0:0:0:0:
192,192,662768,1,0,0:0:0:0:
64,192,662807,1,0,0:0:0:0:
448,192,662847,128,0,662925:0:0:0:0:
320,192,662886,128,0,662965:0:0:0:0:
192,192,662925,128,0,663004:0:0:0:0:
64,192,662965,128,0,663044:0:0:0:0:
448,192,663004,128,0,663044:0:0:0:0:
320,192,663044,128,0,663083:0:0:0:0:
192,192,663083,128,0,663123:0:0:0:0:
64,192,663123,128,0,663162:0:0:0:0:
320,192,663162,1,0,0:0:0:0:
448,192,663162,1,0,0:0:0:0:
192,192,663320,1,0,0:0:0:0:
320,192,663320,1,0,0:0:0:0:
448,192,663320,1,0,0:0:0:0:
64,192,663636,1,0,0:0:0:0:
448,192,663636,1,0,0:0:0:0:
192,192,663636,1,0,0:0:0:0:
64,192,663952,1,0,0:0:0:0:
320,192,663952,1,0,0:0:0:0:
192,192,663952,1,0,0:0:0:0:
320,192,664268,1,0,0:0:0:0:
192,192,664268,1,0,0:0:0:0:
64,192,664268,128,0,664583:0:0:0:0:
448,192,664347,1,0,0:0:0:0:
192,192,664425,128,0,664741:0:0:0:0:
320,192,664425,1,0,0:0:0:0:
448,192,664504,1,0,0:0:0:0:
320,192,664583,128,0,664820:0:0:0:0:
64,192,664662,1,0,0:0:0:0:
448,192,664662,1,0,0:0:0:0:
448,192,664741,128,0,664899:0:0:0:0:
192,192,664820,1,0,0:0:0:0:
320,192,664899,128,0,665057:0:0:0:0:
64,192,664899,128,0,665057:0:0:0:0:
320,192,668254,1,0,0:0:0:0:
448,192,668254,1,0,0:0:0:0:
320,192,671097,1,0,0:0:0:0:
64,192,671097,1,0,0:0:0:0:
192,192,671807,1,0,0:0:0:0:
320,192,672347,1,0,0:0:0:0:
448,192,672347,1,0,0:0:0:0:
64,192,674018,1,0,0:0:0:0:
192,192,674018,1,0,0:0:0:0:
320,192,674847,1,0,0:0:0:0:
448,192,675478,1,0,0:0:0:0:
192,192,675478,1,0,0:0:0:0:
320,192,677925,1,0,0:0:0:0:
448,192,678083,1,0,0:0:0:0:
320,192,678241,1,0,0:0:0:0:
64,192,678557,1,0,0:0:0:0:
320,192,678912,1,0,0:0:0:0:
64,192,679268,1,0,0:0:0:0:
320,192,679662,1,0,0:0:0:0:
