osu file format v14

[General]
AudioFilename: Tier IV.mp3
AudioLeadIn: 0
PreviewTime: 188099
Countdown: 0
SampleSet: None
StackLeniency: 0.7
Mode: 3
LetterboxInBreaks: 0
SpecialStyle: 0
WidescreenStoryboard: 0

[Editor]
DistanceSpacing: 1.1
BeatDivisor: 4
GridSize: 8
TimelineZoom: 1

[Metadata]
Title:4K LN 2ND PHASE
TitleUnicode:4K LN 2ND PHASE
Artist:Osu! Mania 4-Key Long Note Tiers
ArtistUnicode:Osu! Mania 4-Key Long Note Tiers
Creator:arcwinolivirus
Version:Tier IV
Source:
Tags:four key master training
BeatmapID:1139923
BeatmapSetID:538030

[Difficulty]
HPDrainRate:6
CircleSize:4
OverallDifficulty:6
ApproachRate:5
SliderMultiplier:1.4
SliderTickRate:1

[Events]
//Background and Video events
0,0,"Tier IV WIDE.jpg",0,0
//Break Periods
2,110623,129494
2,297338,312456
2,429689,441144
//Storyboard Layer 0 (Background)
//Storyboard Layer 1 (Fail)
//Storyboard Layer 2 (Pass)
//Storyboard Layer 3 (Foreground)
//Storyboard Sound Samples

[TimingPoints]
12080,540.540540540541,4,2,1,20,1,0
12080,-82.2368421052632,4,2,1,20,0,0
12721,540.540540540541,4,2,1,20,1,0
12721,-81.9672131147541,4,2,1,20,0,0
130694,444.444444444444,4,2,1,20,1,0
313656,416.666666666667,4,2,1,20,1,0
313656,-106.666666666667,4,2,1,20,0,0
442344,545.454545454546,4,2,1,20,1,0
442344,-81.4995925020375,4,2,1,20,0,0

[HitObjects]
64,192,12079,5,0,0:0:0:0:
192,192,12181,1,0,0:0:0:0:
448,192,12215,128,0,14207:0:0:0:0:
320,192,12721,1,0,0:0:0:0:
64,192,12721,128,0,14207:0:0:0:0:
192,192,13261,1,0,0:0:0:0:
320,192,13261,128,0,14207:0:0:0:0:
320,192,14342,128,0,15288:0:0:0:0:
448,192,14342,128,0,16504:0:0:0:0:
64,192,14342,1,0,0:0:0:0:
192,192,14883,1,0,0:0:0:0:
320,192,15423,1,0,0:0:0:0:
192,192,15693,128,0,16099:0:0:0:0:
64,192,15693,128,0,16099:0:0:0:0:
320,192,16234,128,0,16369:0:0:0:0:
192,192,16234,128,0,16369:0:0:0:0:
64,192,16504,128,0,18261:0:0:0:0:
192,192,16538,1,0,0:0:0:0:
320,192,16572,1,0,0:0:0:0:
320,192,17045,128,0,17315:0:0:0:0:
448,192,17315,128,0,18531:0:0:0:0:
192,192,17856,128,0,19072:0:0:0:0:
320,192,18126,128,0,18802:0:0:0:0:
64,192,18396,128,0,19342:0:0:0:0:
448,192,18666,128,0,20693:0:0:0:0:
320,192,18937,1,0,0:0:0:0:
192,192,19207,1,0,0:0:0:0:
64,192,19477,1,0,0:0:0:0:
64,192,20288,1,0,0:0:0:0:
192,192,20558,1,0,0:0:0:0:
320,192,20829,1,0,0:0:0:0:
64,192,20829,128,0,21775:0:0:0:0:
448,192,20862,1,0,0:0:0:0:
320,192,21639,1,0,0:0:0:0:
64,192,21910,128,0,22856:0:0:0:0:
448,192,21910,128,0,22856:0:0:0:0:
192,192,22991,1,0,0:0:0:0:
64,192,22991,128,0,24207:0:0:0:0:
448,192,22991,128,0,25018:0:0:0:0:
320,192,24072,128,0,24207:0:0:0:0:
192,192,24342,1,0,0:0:0:0:
64,192,24342,1,0,0:0:0:0:
192,192,24883,1,0,0:0:0:0:
320,192,24883,1,0,0:0:0:0:
320,192,25153,1,0,0:0:0:0:
448,192,25153,1,0,0:0:0:0:
64,192,25153,128,0,26099:0:0:0:0:
192,192,25693,128,0,25964:0:0:0:0:
320,192,25964,128,0,26234:0:0:0:0:
448,192,26234,128,0,29342:0:0:0:0:
64,192,26234,1,0,0:0:0:0:
64,192,26504,128,0,26775:0:0:0:0:
192,192,26775,128,0,27045:0:0:0:0:
320,192,27045,128,0,29342:0:0:0:0:
192,192,27585,128,0,27653:0:0:0:0:
64,192,28126,128,0,28193:0:0:0:0:
192,192,28666,128,0,28734:0:0:0:0:
64,192,29410,1,0,0:0:0:0:
320,192,29477,1,0,0:0:0:0:
448,192,29511,128,0,31234:0:0:0:0:
64,192,30018,128,0,30693:0:0:0:0:
192,192,30288,128,0,30693:0:0:0:0:
320,192,30558,128,0,31234:0:0:0:0:
64,192,30829,128,0,31504:0:0:0:0:
192,192,30829,128,0,31504:0:0:0:0:
320,192,31369,128,0,31639:0:0:0:0:
448,192,31369,128,0,31639:0:0:0:0:
192,192,31639,1,0,0:0:0:0:
64,192,31639,128,0,32180:0:0:0:0:
192,192,31910,1,0,0:0:0:0:
448,192,32180,128,0,32721:0:0:0:0:
320,192,32180,1,0,0:0:0:0:
320,192,32721,128,0,33261:0:0:0:0:
192,192,32721,1,0,0:0:0:0:
64,192,33261,1,0,0:0:0:0:
192,192,33261,128,0,33802:0:0:0:0:
320,192,33802,1,0,0:0:0:0:
64,192,33802,1,0,0:0:0:0:
448,192,33835,1,0,0:0:0:0:
64,192,34072,128,0,35558:0:0:0:0:
192,192,34342,128,0,35288:0:0:0:0:
320,192,34612,128,0,35018:0:0:0:0:
448,192,34883,128,0,35964:0:0:0:0:
320,192,35153,1,0,0:0:0:0:
192,192,35423,1,0,0:0:0:0:
64,192,35693,1,0,0:0:0:0:
64,192,35964,128,0,37180:0:0:0:0:
192,192,36234,128,0,37450:0:0:0:0:
320,192,36504,128,0,37180:0:0:0:0:
448,192,36775,128,0,36910:0:0:0:0:
448,192,37045,128,0,37991:0:0:0:0:
320,192,37315,1,0,0:0:0:0:
64,192,37315,128,0,37721:0:0:0:0:
192,192,37585,1,0,0:0:0:0:
64,192,37856,1,0,0:0:0:0:
192,192,38126,1,0,0:0:0:0:
448,192,38126,1,0,0:0:0:0:
64,192,38396,1,0,0:0:0:0:
192,192,38666,128,0,39207:0:0:0:0:
64,192,38937,1,0,0:0:0:0:
320,192,38937,128,0,39477:0:0:0:0:
448,192,39477,128,0,39883:0:0:0:0:
64,192,39477,1,0,0:0:0:0:
448,192,40018,128,0,40153:0:0:0:0:
192,192,40018,1,0,0:0:0:0:
64,192,40254,128,0,40693:0:0:0:0:
192,192,40288,128,0,40829:0:0:0:0:
320,192,40322,1,0,0:0:0:0:
448,192,40829,128,0,41639:0:0:0:0:
320,192,40829,128,0,41234:0:0:0:0:
64,192,40829,1,0,0:0:0:0:
64,192,41369,128,0,42315:0:0:0:0:
192,192,41369,128,0,41504:0:0:0:0:
320,192,41369,1,0,0:0:0:0:
192,192,41639,1,0,0:0:0:0:
448,192,41910,128,0,42180:0:0:0:0:
320,192,42180,128,0,42450:0:0:0:0:
64,192,42450,1,0,0:0:0:0:
192,192,42450,1,0,0:0:0:0:
448,192,42450,1,0,0:0:0:0:
64,192,42721,1,0,0:0:0:0:
192,192,42991,1,0,0:0:0:0:
320,192,43261,1,0,0:0:0:0:
448,192,43531,128,0,46639:0:0:0:0:
320,192,43802,128,0,44748:0:0:0:0:
192,192,44072,128,0,45288:0:0:0:0:
64,192,44342,128,0,45829:0:0:0:0:
320,192,44883,128,0,46369:0:0:0:0:
192,192,45423,128,0,46099:0:0:0:0:
64,192,45964,1,0,0:0:0:0:
192,192,46234,1,0,0:0:0:0:
320,192,46504,1,0,0:0:0:0:
64,192,46775,1,0,0:0:0:0:
448,192,46775,1,0,0:0:0:0:
192,192,47045,1,0,0:0:0:0:
320,192,47315,1,0,0:0:0:0:
64,192,47585,1,0,0:0:0:0:
448,192,47856,128,0,49072:0:0:0:0:
320,192,48126,128,0,50693:0:0:0:0:
192,192,48396,128,0,49612:0:0:0:0:
64,192,48666,128,0,50153:0:0:0:0:
448,192,49207,128,0,51009:0:0:0:0:
192,192,49748,128,0,50423:0:0:0:0:
64,192,50288,1,0,0:0:0:0:
192,192,50558,1,0,0:0:0:0:
320,192,50829,1,0,0:0:0:0:
64,192,51099,128,0,52180:0:0:0:0:
448,192,51144,1,0,0:0:0:0:
192,192,51639,128,0,52585:0:0:0:0:
320,192,52180,128,0,53126:0:0:0:0:
192,192,52721,128,0,53802:0:0:0:0:
64,192,53216,1,0,0:0:0:0:
320,192,53261,128,0,54207:0:0:0:0:
448,192,53306,1,0,0:0:0:0:
448,192,53802,128,0,54612:0:0:0:0:
320,192,54342,128,0,55153:0:0:0:0:
64,192,54342,1,0,0:0:0:0:
192,192,54883,128,0,55423:0:0:0:0:
320,192,55423,1,0,0:0:0:0:
448,192,55423,128,0,56369:0:0:0:0:
64,192,55423,128,0,55491:0:0:0:0:
192,192,55964,128,0,56031:0:0:0:0:
192,192,56504,128,0,57450:0:0:0:0:
448,192,56504,128,0,57450:0:0:0:0:
320,192,56504,128,0,56572:0:0:0:0:
64,192,57045,128,0,57112:0:0:0:0:
448,192,57585,128,0,58531:0:0:0:0:
64,192,57585,128,0,58531:0:0:0:0:
192,192,57585,128,0,57653:0:0:0:0:
320,192,58126,128,0,58193:0:0:0:0:
64,192,58666,128,0,59612:0:0:0:0:
320,192,58666,128,0,59612:0:0:0:0:
448,192,58666,128,0,58734:0:0:0:0:
192,192,59207,128,0,59275:0:0:0:0:
192,192,59748,128,0,60423:0:0:0:0:
64,192,59748,128,0,59815:0:0:0:0:
448,192,59781,128,0,60693:0:0:0:0:
64,192,60288,1,0,0:0:0:0:
192,192,60558,1,0,0:0:0:0:
320,192,60829,128,0,61910:0:0:0:0:
448,192,60829,128,0,61504:0:0:0:0:
192,192,61099,1,0,0:0:0:0:
64,192,61369,1,0,0:0:0:0:
448,192,61639,1,0,0:0:0:0:
64,192,61910,128,0,62585:0:0:0:0:
192,192,61910,128,0,62856:0:0:0:0:
320,192,62180,1,0,0:0:0:0:
448,192,62450,1,0,0:0:0:0:
64,192,62721,1,0,0:0:0:0:
192,192,62991,128,0,64072:0:0:0:0:
320,192,62991,128,0,63937:0:0:0:0:
448,192,63261,1,0,0:0:0:0:
64,192,63531,1,0,0:0:0:0:
320,192,64072,128,0,66234:0:0:0:0:
448,192,64072,128,0,65153:0:0:0:0:
192,192,65693,128,0,65761:0:0:0:0:
64,192,66234,128,0,67180:0:0:0:0:
192,192,66234,128,0,66775:0:0:0:0:
64,192,67315,1,0,0:0:0:0:
192,192,67585,1,0,0:0:0:0:
320,192,67856,1,0,0:0:0:0:
448,192,68126,1,0,0:0:0:0:
192,192,68396,1,0,0:0:0:0:
64,192,68396,1,0,0:0:0:0:
448,192,68396,128,0,70829:0:0:0:0:
320,192,68666,1,0,0:0:0:0:
192,192,68802,1,0,0:0:0:0:
64,192,68937,128,0,69004:0:0:0:0:
64,192,69207,1,0,0:0:0:0:
320,192,69207,128,0,69275:0:0:0:0:
64,192,69342,1,0,0:0:0:0:
320,192,69477,1,0,0:0:0:0:
192,192,69477,1,0,0:0:0:0:
192,192,69748,128,0,69815:0:0:0:0:
320,192,70018,1,0,0:0:0:0:
320,192,70153,1,0,0:0:0:0:
320,192,70288,1,0,0:0:0:0:
64,192,70558,1,0,0:0:0:0:
192,192,70558,1,0,0:0:0:0:
192,192,70829,128,0,71099:0:0:0:0:
448,192,70964,1,0,0:0:0:0:
64,192,70964,1,0,0:0:0:0:
320,192,71099,128,0,71369:0:0:0:0:
64,192,71369,1,0,0:0:0:0:
192,192,71369,1,0,0:0:0:0:
448,192,71369,128,0,71504:0:0:0:0:
192,192,71639,128,0,71910:0:0:0:0:
448,192,71639,1,0,0:0:0:0:
320,192,71639,1,0,0:0:0:0:
64,192,71910,128,0,72180:0:0:0:0:
448,192,71910,1,0,0:0:0:0:
320,192,72045,1,0,0:0:0:0:
448,192,72180,128,0,72450:0:0:0:0:
320,192,72450,128,0,72721:0:0:0:0:
64,192,72450,1,0,0:0:0:0:
192,192,72450,1,0,0:0:0:0:
192,192,72721,128,0,73261:0:0:0:0:
64,192,72721,1,0,0:0:0:0:
448,192,72721,1,0,0:0:0:0:
448,192,72991,1,0,0:0:0:0:
320,192,73126,1,0,0:0:0:0:
64,192,73261,128,0,73802:0:0:0:0:
448,192,73261,128,0,73329:0:0:0:0:
192,192,73531,1,0,0:0:0:0:
320,192,73531,128,0,73599:0:0:0:0:
192,192,73666,1,0,0:0:0:0:
448,192,73802,128,0,73869:0:0:0:0:
320,192,73802,1,0,0:0:0:0:
320,192,74072,128,0,74748:0:0:0:0:
64,192,74342,1,0,0:0:0:0:
64,192,74477,1,0,0:0:0:0:
64,192,74612,1,0,0:0:0:0:
320,192,74883,1,0,0:0:0:0:
448,192,74883,1,0,0:0:0:0:
64,192,75153,128,0,75423:0:0:0:0:
448,192,75288,1,0,0:0:0:0:
320,192,75288,1,0,0:0:0:0:
192,192,75423,128,0,75693:0:0:0:0:
448,192,75693,1,0,0:0:0:0:
64,192,75693,1,0,0:0:0:0:
320,192,75693,128,0,75829:0:0:0:0:
192,192,75964,128,0,76234:0:0:0:0:
320,192,75964,1,0,0:0:0:0:
448,192,75964,1,0,0:0:0:0:
64,192,76234,128,0,76504:0:0:0:0:
448,192,76234,1,0,0:0:0:0:
320,192,76369,1,0,0:0:0:0:
320,192,76504,128,0,77045:0:0:0:0:
448,192,76504,1,0,0:0:0:0:
64,192,76775,1,0,0:0:0:0:
192,192,76775,1,0,0:0:0:0:
448,192,77045,128,0,78126:0:0:0:0:
64,192,77045,1,0,0:0:0:0:
192,192,77045,1,0,0:0:0:0:
320,192,77315,1,0,0:0:0:0:
192,192,77450,1,0,0:0:0:0:
320,192,77585,1,0,0:0:0:0:
64,192,77585,128,0,77653:0:0:0:0:
192,192,77856,128,0,77923:0:0:0:0:
320,192,77856,1,0,0:0:0:0:
320,192,77991,1,0,0:0:0:0:
192,192,78126,1,0,0:0:0:0:
64,192,78126,128,0,79072:0:0:0:0:
448,192,78666,128,0,78937:0:0:0:0:
192,192,78666,1,0,0:0:0:0:
192,192,78802,1,0,0:0:0:0:
320,192,78937,128,0,79207:0:0:0:0:
192,192,78937,1,0,0:0:0:0:
64,192,79207,128,0,80288:0:0:0:0:
448,192,79207,1,0,0:0:0:0:
448,192,79477,1,0,0:0:0:0:
320,192,79477,1,0,0:0:0:0:
192,192,79612,1,0,0:0:0:0:
192,192,80018,1,0,0:0:0:0:
320,192,80288,1,0,0:0:0:0:
448,192,80288,128,0,81234:0:0:0:0:
192,192,80558,1,0,0:0:0:0:
192,192,80693,1,0,0:0:0:0:
64,192,80829,128,0,81234:0:0:0:0:
320,192,80829,128,0,80896:0:0:0:0:
192,192,81099,1,0,0:0:0:0:
320,192,81099,1,0,0:0:0:0:
64,192,81369,1,0,0:0:0:0:
448,192,81369,1,0,0:0:0:0:
192,192,81369,128,0,81910:0:0:0:0:
448,192,81639,1,0,0:0:0:0:
448,192,81775,1,0,0:0:0:0:
320,192,81910,128,0,82180:0:0:0:0:
448,192,82180,128,0,82721:0:0:0:0:
64,192,82180,1,0,0:0:0:0:
192,192,82180,1,0,0:0:0:0:
320,192,82450,1,0,0:0:0:0:
320,192,82721,128,0,82991:0:0:0:0:
192,192,82991,128,0,83261:0:0:0:0:
448,192,82991,1,0,0:0:0:0:
448,192,83126,1,0,0:0:0:0:
320,192,83261,128,0,83396:0:0:0:0:
64,192,83261,1,0,0:0:0:0:
192,192,83531,128,0,83666:0:0:0:0:
64,192,83531,1,0,0:0:0:0:
320,192,83531,1,0,0:0:0:0:
448,192,83802,128,0,84072:0:0:0:0:
192,192,83802,1,0,0:0:0:0:
320,192,83802,1,0,0:0:0:0:
64,192,83937,1,0,0:0:0:0:
320,192,84072,128,0,84342:0:0:0:0:
192,192,84342,128,0,84477:0:0:0:0:
64,192,84342,1,0,0:0:0:0:
320,192,84477,1,0,0:0:0:0:
64,192,84612,128,0,85018:0:0:0:0:
448,192,84612,1,0,0:0:0:0:
192,192,84612,1,0,0:0:0:0:
192,192,84883,128,0,85288:0:0:0:0:
320,192,84883,1,0,0:0:0:0:
448,192,85018,1,0,0:0:0:0:
320,192,85153,128,0,85423:0:0:0:0:
64,192,85153,1,0,0:0:0:0:
448,192,85423,128,0,85603:0:0:0:0:
64,192,85423,1,0,0:0:0:0:
192,192,85423,1,0,0:0:0:0:
320,192,85558,1,0,0:0:0:0:
192,192,85693,1,0,0:0:0:0:
64,192,85693,128,0,87856:0:0:0:0:
448,192,85739,1,0,0:0:0:0:
320,192,85964,1,0,0:0:0:0:
448,192,86099,1,0,0:0:0:0:
320,192,86234,1,0,0:0:0:0:
448,192,86504,128,0,86572:0:0:0:0:
192,192,86504,1,0,0:0:0:0:
192,192,86639,1,0,0:0:0:0:
320,192,86775,1,0,0:0:0:0:
448,192,86775,1,0,0:0:0:0:
320,192,87045,128,0,87112:0:0:0:0:
448,192,87315,1,0,0:0:0:0:
448,192,87450,1,0,0:0:0:0:
448,192,87585,1,0,0:0:0:0:
192,192,87856,128,0,88666:0:0:0:0:
320,192,87856,1,0,0:0:0:0:
64,192,88126,128,0,88396:0:0:0:0:
448,192,88261,1,0,0:0:0:0:
320,192,88396,128,0,88531:0:0:0:0:
320,192,88666,128,0,89883:0:0:0:0:
448,192,88666,128,0,88802:0:0:0:0:
64,192,88666,1,0,0:0:0:0:
192,192,88937,128,0,89207:0:0:0:0:
64,192,88937,1,0,0:0:0:0:
448,192,88937,1,0,0:0:0:0:
64,192,89207,128,0,89477:0:0:0:0:
192,192,89342,1,0,0:0:0:0:
192,192,89477,128,0,89883:0:0:0:0:
448,192,89477,1,0,0:0:0:0:
64,192,89612,1,0,0:0:0:0:
448,192,89748,1,0,0:0:0:0:
64,192,89883,1,0,0:0:0:0:
448,192,90018,128,0,92045:0:0:0:0:
192,192,90018,1,0,0:0:0:0:
320,192,90018,1,0,0:0:0:0:
192,192,90288,1,0,0:0:0:0:
192,192,90423,1,0,0:0:0:0:
64,192,90558,128,0,90693:0:0:0:0:
320,192,90558,1,0,0:0:0:0:
192,192,90829,128,0,90964:0:0:0:0:
64,192,90829,1,0,0:0:0:0:
320,192,90829,1,0,0:0:0:0:
320,192,90964,1,0,0:0:0:0:
320,192,91099,128,0,91369:0:0:0:0:
64,192,91099,1,0,0:0:0:0:
192,192,91099,1,0,0:0:0:0:
192,192,91369,128,0,91639:0:0:0:0:
64,192,91639,128,0,92045:0:0:0:0:
320,192,91639,1,0,0:0:0:0:
192,192,91775,1,0,0:0:0:0:
320,192,91910,1,0,0:0:0:0:
64,192,92180,128,0,92450:0:0:0:0:
448,192,92180,128,0,92450:0:0:0:0:
192,192,92180,1,0,0:0:0:0:
320,192,92450,1,0,0:0:0:0:
64,192,92585,128,0,92856:0:0:0:0:
448,192,92585,128,0,92856:0:0:0:0:
192,192,92585,1,0,0:0:0:0:
320,192,92721,1,0,0:0:0:0:
64,192,92991,128,0,93126:0:0:0:0:
448,192,92991,128,0,93126:0:0:0:0:
192,192,92991,1,0,0:0:0:0:
320,192,93126,1,0,0:0:0:0:
64,192,93261,1,0,0:0:0:0:
192,192,93261,1,0,0:0:0:0:
448,192,93261,128,0,93666:0:0:0:0:
320,192,93531,128,0,94207:0:0:0:0:
192,192,93531,1,0,0:0:0:0:
64,192,93666,1,0,0:0:0:0:
192,192,93802,128,0,93937:0:0:0:0:
448,192,93802,1,0,0:0:0:0:
448,192,93937,1,0,0:0:0:0:
64,192,94072,128,0,94342:0:0:0:0:
192,192,94072,1,0,0:0:0:0:
448,192,94207,1,0,0:0:0:0:
192,192,94342,1,0,0:0:0:0:
448,192,94342,128,0,95964:0:0:0:0:
320,192,94342,1,0,0:0:0:0:
64,192,94612,1,0,0:0:0:0:
64,192,94748,1,0,0:0:0:0:
320,192,94883,1,0,0:0:0:0:
192,192,94883,128,0,94950:0:0:0:0:
320,192,95153,128,0,95221:0:0:0:0:
64,192,95153,1,0,0:0:0:0:
192,192,95288,1,0,0:0:0:0:
320,192,95423,1,0,0:0:0:0:
192,192,95423,1,0,0:0:0:0:
320,192,95964,128,0,96234:0:0:0:0:
64,192,95964,1,0,0:0:0:0:
64,192,96099,1,0,0:0:0:0:
192,192,96234,128,0,96504:0:0:0:0:
64,192,96234,1,0,0:0:0:0:
64,192,96504,128,0,97450:0:0:0:0:
448,192,96504,1,0,0:0:0:0:
320,192,96504,1,0,0:0:0:0:
448,192,96775,1,0,0:0:0:0:
320,192,96775,1,0,0:0:0:0:
192,192,96910,1,0,0:0:0:0:
192,192,97315,1,0,0:0:0:0:
320,192,97450,1,0,0:0:0:0:
64,192,97585,128,0,98261:0:0:0:0:
320,192,97585,1,0,0:0:0:0:
448,192,97585,128,0,97991:0:0:0:0:
192,192,97721,1,0,0:0:0:0:
320,192,97856,1,0,0:0:0:0:
192,192,97991,1,0,0:0:0:0:
320,192,98126,1,0,0:0:0:0:
448,192,98126,128,0,98531:0:0:0:0:
320,192,98261,1,0,0:0:0:0:
192,192,98396,1,0,0:0:0:0:
64,192,98396,128,0,98666:0:0:0:0:
192,192,98531,1,0,0:0:0:0:
448,192,98666,1,0,0:0:0:0:
320,192,98666,128,0,99207:0:0:0:0:
192,192,98937,1,0,0:0:0:0:
448,192,99072,1,0,0:0:0:0:
64,192,99207,128,0,99477:0:0:0:0:
192,192,99207,128,0,99275:0:0:0:0:
320,192,99477,128,0,99545:0:0:0:0:
448,192,99477,128,0,100693:0:0:0:0:
192,192,99477,1,0,0:0:0:0:
64,192,99612,1,0,0:0:0:0:
192,192,99748,1,0,0:0:0:0:
320,192,99748,1,0,0:0:0:0:
320,192,100288,1,0,0:0:0:0:
64,192,100288,128,0,101099:0:0:0:0:
320,192,100423,1,0,0:0:0:0:
320,192,100558,1,0,0:0:0:0:
448,192,100829,128,0,101504:0:0:0:0:
320,192,101099,128,0,101639:0:0:0:0:
192,192,101234,1,0,0:0:0:0:
64,192,101234,128,0,101504:0:0:0:0:
192,192,101369,128,0,101504:0:0:0:0:
448,192,101639,128,0,101775:0:0:0:0:
64,192,101639,128,0,102585:0:0:0:0:
192,192,101639,128,0,102045:0:0:0:0:
320,192,101775,1,0,0:0:0:0:
320,192,101910,128,0,102315:0:0:0:0:
448,192,101910,128,0,102923:0:0:0:0:
192,192,102180,1,0,0:0:0:0:
192,192,102315,128,0,102788:0:0:0:0:
320,192,102450,128,0,102856:0:0:0:0:
64,192,102721,128,0,102991:0:0:0:0:
192,192,102923,1,0,0:0:0:0:
320,192,102991,1,0,0:0:0:0:
448,192,103058,1,0,0:0:0:0:
320,192,104612,1,0,0:0:0:0:
192,192,104883,1,0,0:0:0:0:
64,192,105119,1,0,0:0:0:0:
320,192,105153,1,0,0:0:0:0:
448,192,105221,1,0,0:0:0:0:
320,192,106234,1,0,0:0:0:0:
64,192,107315,1,0,0:0:0:0:
192,192,107653,1,0,0:0:0:0:
320,192,107957,1,0,0:0:0:0:
448,192,108227,1,0,0:0:0:0:
64,192,108486,1,0,0:0:0:0:
192,192,108757,1,0,0:0:0:0:
320,192,109117,1,0,0:0:0:0:
448,192,109612,1,0,0:0:0:0:
192,192,110322,1,0,0:0:0:0:
320,192,110356,1,0,0:0:0:0:
448,192,110423,1,0,0:0:0:0:
64,192,130694,132,0,132138:0:0:0:0:
192,192,131582,128,0,132138:0:0:0:0:
320,192,131805,128,0,133805:0:0:0:0:
448,192,132027,128,0,133027:0:0:0:0:
192,192,132249,128,0,133805:0:0:0:0:
36,192,132249,128,0,133805:0:0:0:0:
448,192,133138,128,0,133805:0:0:0:0:
475,192,134027,1,0,0:0:0:0:
329,192,134027,1,0,0:0:0:0:
64,192,134027,128,0,136582:0:0:0:0:
192,192,134694,128,0,137027:0:0:0:0:
329,192,135360,128,0,137471:0:0:0:0:
402,192,135805,128,0,138249:0:0:0:0:
64,192,136694,128,0,138138:0:0:0:0:
192,192,137138,128,0,138249:0:0:0:0:
320,192,137582,128,0,138249:0:0:0:0:
64,192,138249,128,0,140138:0:0:0:0:
320,192,138916,128,0,140582:0:0:0:0:
182,192,139360,128,0,141027:0:0:0:0:
402,192,139805,128,0,142694:0:0:0:0:
109,192,140249,128,0,142527:0:0:0:0:
320,192,140694,128,0,142638:0:0:0:0:
182,192,141138,128,0,142582:0:0:0:0:
64,192,142749,128,0,143582:0:0:0:0:
192,192,142805,128,0,143805:0:0:0:0:
329,192,142860,128,0,144027:0:0:0:0:
402,192,142916,128,0,144249:0:0:0:0:
448,192,144694,5,0,0:0:0:0:
320,192,144694,1,0,0:0:0:0:
192,192,144916,1,0,0:0:0:0:
64,192,145138,1,0,0:0:0:0:
182,192,145360,128,0,145805:0:0:0:0:
329,192,145582,128,0,146027:0:0:0:0:
64,192,145582,1,0,0:0:0:0:
475,192,145805,128,0,146249:0:0:0:0:
182,192,146027,128,0,146471:0:0:0:0:
329,192,146249,128,0,146694:0:0:0:0:
475,192,146471,128,0,146916:0:0:0:0:
182,192,146694,128,0,147138:0:0:0:0:
329,192,146916,128,0,147360:0:0:0:0:
475,192,147138,128,0,147582:0:0:0:0:
182,192,147360,128,0,148027:0:0:0:0:
64,192,147360,1,0,0:0:0:0:
329,192,147582,128,0,148027:0:0:0:0:
475,192,147805,128,0,148027:0:0:0:0:
36,192,148027,1,0,0:0:0:0:
192,192,148249,1,0,0:0:0:0:
448,192,148249,1,0,0:0:0:0:
320,192,148471,1,0,0:0:0:0:
192,192,148693,1,0,0:0:0:0:
109,192,148916,128,0,149360:0:0:0:0:
256,192,149138,128,0,149582:0:0:0:0:
192,192,149138,1,0,0:0:0:0:
402,192,149360,128,0,149805:0:0:0:0:
109,192,149582,128,0,150027:0:0:0:0:
256,192,149805,128,0,150249:0:0:0:0:
402,192,150027,128,0,150471:0:0:0:0:
109,192,150249,128,0,150693:0:0:0:0:
256,192,150471,128,0,150916:0:0:0:0:
402,192,150693,128,0,151138:0:0:0:0:
109,192,150916,128,0,151582:0:0:0:0:
192,192,150916,1,0,0:0:0:0:
256,192,151138,128,0,151582:0:0:0:0:
448,192,151360,128,0,151582:0:0:0:0:
192,192,151582,1,0,0:0:0:0:
36,192,151805,1,0,0:0:0:0:
448,192,151805,1,0,0:0:0:0:
320,192,152027,1,0,0:0:0:0:
182,192,152249,1,0,0:0:0:0:
36,192,152471,128,0,152916:0:0:0:0:
182,192,152693,128,0,153138:0:0:0:0:
448,192,152693,1,0,0:0:0:0:
329,192,152916,128,0,153360:0:0:0:0:
36,192,153138,128,0,153582:0:0:0:0:
182,192,153360,128,0,153805:0:0:0:0:
329,192,153582,128,0,154027:0:0:0:0:
36,192,153805,128,0,154249:0:0:0:0:
182,192,154027,128,0,154471:0:0:0:0:
329,192,154249,128,0,154693:0:0:0:0:
36,192,154471,128,0,155138:0:0:0:0:
448,192,154471,1,0,0:0:0:0:
182,192,154693,128,0,155138:0:0:0:0:
329,192,154916,128,0,155138:0:0:0:0:
475,192,155138,1,0,0:0:0:0:
192,192,155360,1,0,0:0:0:0:
109,192,155360,128,0,155805:0:0:0:0:
320,192,155582,128,0,156249:0:0:0:0:
182,192,155805,128,0,156027:0:0:0:0:
448,192,156027,128,0,156249:0:0:0:0:
109,192,156249,128,0,156916:0:0:0:0:
192,192,156249,1,0,0:0:0:0:
192,192,156471,128,0,156916:0:0:0:0:
320,192,156693,128,0,156916:0:0:0:0:
402,192,156916,128,0,157582:0:0:0:0:
329,192,157138,128,0,157582:0:0:0:0:
192,192,157360,128,0,157582:0:0:0:0:
109,192,157582,128,0,158249:0:0:0:0:
182,192,157805,128,0,158249:0:0:0:0:
320,192,158027,128,0,158249:0:0:0:0:
448,192,158027,1,0,0:0:0:0:
448,192,158249,1,0,0:0:0:0:
329,192,158471,1,0,0:0:0:0:
182,192,158471,1,0,0:0:0:0:
109,192,158471,1,0,0:0:0:0:
36,192,158916,128,0,159138:0:0:0:0:
182,192,158916,128,0,159138:0:0:0:0:
329,192,158916,128,0,159138:0:0:0:0:
475,192,158916,1,0,0:0:0:0:
36,192,159249,128,0,159471:0:0:0:0:
182,192,159249,128,0,159471:0:0:0:0:
329,192,159249,128,0,159471:0:0:0:0:
36,192,159582,128,0,160138:0:0:0:0:
182,192,159582,1,0,0:0:0:0:
329,192,159582,1,0,0:0:0:0:
182,192,159805,128,0,160360:0:0:0:0:
329,192,160027,128,0,160582:0:0:0:0:
36,192,160249,128,0,160805:0:0:0:0:
182,192,160471,128,0,161027:0:0:0:0:
448,192,160471,1,0,0:0:0:0:
329,192,160693,128,0,161249:0:0:0:0:
36,192,160916,128,0,161471:0:0:0:0:
182,192,161138,128,0,161693:0:0:0:0:
329,192,161360,128,0,161916:0:0:0:0:
36,192,161582,128,0,162249:0:0:0:0:
182,192,161805,128,0,162249:0:0:0:0:
329,192,162027,128,0,162249:0:0:0:0:
448,192,162027,1,0,0:0:0:0:
402,192,162249,1,0,0:0:0:0:
192,192,162471,128,0,162693:0:0:0:0:
109,192,162471,128,0,162693:0:0:0:0:
402,192,162471,128,0,162693:0:0:0:0:
109,192,162805,128,0,163027:0:0:0:0:
192,192,162805,128,0,163027:0:0:0:0:
402,192,162805,128,0,163027:0:0:0:0:
109,192,163138,128,0,163693:0:0:0:0:
192,192,163138,1,0,0:0:0:0:
402,192,163138,1,0,0:0:0:0:
192,192,163360,128,0,163916:0:0:0:0:
402,192,163582,128,0,164138:0:0:0:0:
109,192,163805,128,0,164360:0:0:0:0:
192,192,164027,128,0,164582:0:0:0:0:
320,192,164027,1,0,0:0:0:0:
402,192,164249,128,0,164805:0:0:0:0:
109,192,164471,128,0,165027:0:0:0:0:
192,192,164693,128,0,165249:0:0:0:0:
402,192,164916,128,0,165471:0:0:0:0:
64,192,165138,128,0,165805:0:0:0:0:
192,192,165360,128,0,165805:0:0:0:0:
402,192,165582,128,0,165805:0:0:0:0:
320,192,165582,1,0,0:0:0:0:
320,192,165805,1,0,0:0:0:0:
182,192,166027,128,0,166249:0:0:0:0:
329,192,166027,128,0,166249:0:0:0:0:
475,192,166027,128,0,166249:0:0:0:0:
182,192,166360,128,0,166582:0:0:0:0:
329,192,166360,128,0,166582:0:0:0:0:
475,192,166360,128,0,166582:0:0:0:0:
329,192,166693,1,0,0:0:0:0:
475,192,166693,1,0,0:0:0:0:
182,192,166693,128,0,167249:0:0:0:0:
329,192,166916,128,0,167471:0:0:0:0:
475,192,167138,128,0,167693:0:0:0:0:
182,192,167360,128,0,167916:0:0:0:0:
329,192,167582,128,0,168138:0:0:0:0:
64,192,167582,1,0,0:0:0:0:
475,192,167805,128,0,168360:0:0:0:0:
182,192,168027,128,0,168582:0:0:0:0:
329,192,168249,128,0,168805:0:0:0:0:
64,192,168249,1,0,0:0:0:0:
475,192,168471,128,0,169027:0:0:0:0:
182,192,168693,128,0,169360:0:0:0:0:
329,192,168916,128,0,169360:0:0:0:0:
475,192,169138,128,0,169360:0:0:0:0:
64,192,169138,1,0,0:0:0:0:
36,192,169360,1,0,0:0:0:0:
109,192,169582,128,0,169805:0:0:0:0:
402,192,169582,128,0,169805:0:0:0:0:
256,192,169582,128,0,169805:0:0:0:0:
109,192,169916,128,0,170138:0:0:0:0:
256,192,169916,128,0,170138:0:0:0:0:
402,192,169916,128,0,170138:0:0:0:0:
109,192,170249,128,0,170805:0:0:0:0:
256,192,170249,1,0,0:0:0:0:
402,192,170249,1,0,0:0:0:0:
256,192,170471,128,0,171138:0:0:0:0:
402,192,170693,128,0,171138:0:0:0:0:
109,192,170916,128,0,171138:0:0:0:0:
192,192,171138,1,0,0:0:0:0:
109,192,171360,128,0,172971:0:0:0:0:
402,192,171360,128,0,172971:0:0:0:0:
256,192,171360,1,0,0:0:0:0:
192,192,171582,128,0,172138:0:0:0:0:
256,192,171805,128,0,172582:0:0:0:0:
182,192,172249,128,0,172916:0:0:0:0:
320,192,172693,128,0,172916:0:0:0:0:
256,192,173138,1,2,1:0:0:34:
64,192,173138,128,0,174805:0:0:0:0:
448,192,173138,128,0,175693:0:0:0:0:
256,192,173360,1,2,1:0:0:34:
182,192,173582,1,8,1:0:0:0:
320,192,173805,1,0,0:0:0:0:
192,192,174138,1,0,0:0:0:0:
320,192,174471,1,0,0:0:0:0:
192,192,174693,1,0,0:0:0:0:
109,192,174916,128,0,176582:0:0:0:0:
256,192,174916,1,2,1:0:0:34:
256,192,175138,1,2,1:0:0:34:
256,192,175249,1,2,1:0:0:34:
182,192,175360,1,8,1:0:0:0:
329,192,175582,1,2,1:0:0:34:
448,192,175805,128,0,177916:0:0:0:0:
192,192,175805,1,0,0:0:0:0:
320,192,175916,1,0,0:0:0:0:
192,192,176027,1,0,0:0:0:0:
320,192,176249,1,8,1:0:0:0:
192,192,176693,1,2,1:0:0:34:
109,192,176693,128,0,178360:0:0:0:0:
329,192,177138,1,8,1:0:0:0:
182,192,177138,1,8,1:0:0:0:
475,192,178027,128,0,178916:0:0:0:0:
192,192,178249,1,8,1:0:0:0:
109,192,178471,128,0,178916:0:0:0:0:
256,192,178471,1,2,1:0:0:34:
192,192,178693,1,2,1:0:0:34:
192,192,178805,1,2,1:0:0:34:
320,192,178916,1,8,1:0:0:0:
192,192,179138,1,2,1:0:0:34:
320,192,179360,128,0,182805:0:0:0:0:
64,192,179360,1,0,0:0:0:0:
192,192,179582,1,0,0:0:0:0:
448,192,179805,1,8,1:0:0:0:
64,192,179805,1,8,1:0:0:0:
448,192,180249,1,2,1:0:0:34:
192,192,180249,128,0,183693:0:0:0:0:
448,192,180471,1,2,1:0:0:34:
64,192,180693,1,8,1:0:0:0:
448,192,181027,1,0,0:0:0:0:
448,192,181360,1,0,0:0:0:0:
64,192,181582,1,0,0:0:0:0:
448,192,181805,1,0,0:0:0:0:
64,192,182027,1,2,1:0:0:34:
64,192,182249,1,2,1:0:0:34:
64,192,182360,1,2,1:0:0:34:
448,192,182471,1,8,1:0:0:0:
64,192,182693,1,2,1:0:0:34:
320,192,182916,128,0,184360:0:0:0:0:
448,192,183360,1,8,1:0:0:0:
64,192,183360,1,8,1:0:0:0:
448,192,183805,1,2,1:0:0:34:
192,192,183805,128,0,185138:0:0:0:0:
64,192,184249,1,8,1:0:0:0:
329,192,184471,128,0,185138:0:0:0:0:
448,192,184471,1,0,0:0:0:0:
64,192,184582,1,0,0:0:0:0:
448,192,185138,1,0,0:0:0:0:
64,192,185360,1,8,1:0:0:0:
475,192,185582,1,0,0:0:0:0:
320,192,185693,1,0,0:0:0:0:
475,192,185805,128,0,187693:0:0:0:0:
329,192,186027,1,0,0:0:0:0:
192,192,186138,1,0,0:0:0:0:
329,192,186249,128,0,187249:0:0:0:0:
182,192,186471,1,0,0:0:0:0:
109,192,186582,1,0,0:0:0:0:
182,192,186693,128,0,188138:0:0:0:0:
36,192,186916,1,0,0:0:0:0:
36,192,187138,128,0,188138:0:0:0:0:
329,192,187360,128,0,188582:0:0:0:0:
448,192,187805,128,0,188582:0:0:0:0:
64,192,188249,128,0,189027:0:0:0:0:
192,192,188249,128,0,189027:0:0:0:0:
320,192,188693,128,0,189027:0:0:0:0:
448,192,188693,128,0,189027:0:0:0:0:
192,192,189138,5,0,0:0:0:0:
64,192,189138,1,2,1:0:0:34:
475,192,189138,128,0,190360:0:0:0:0:
320,192,189138,1,4,0:0:0:0:
182,192,189360,1,0,0:0:0:0:
109,192,189582,1,2,1:0:0:34:
182,192,189693,1,0,0:0:0:0:
329,192,189805,128,0,190360:0:0:0:0:
109,192,189805,1,0,0:0:0:0:
192,192,190027,1,2,1:0:0:34:
109,192,190138,1,0,0:0:0:0:
192,192,190249,1,0,0:0:0:0:
64,192,190471,128,0,191360:0:0:0:0:
402,192,190471,1,2,1:0:0:34:
256,192,190582,1,0,0:0:0:0:
402,192,190693,1,0,0:0:0:0:
329,192,190916,1,2,1:0:0:34:
192,192,190916,128,0,191360:0:0:0:0:
475,192,191027,1,0,0:0:0:0:
329,192,191138,1,0,0:0:0:0:
402,192,191360,1,2,1:0:0:34:
256,192,191471,1,0,0:0:0:0:
402,192,191582,1,0,0:0:0:0:
329,192,191805,1,2,1:0:0:34:
64,192,191805,128,0,192249:0:0:0:0:
475,192,191916,1,0,0:0:0:0:
329,192,192027,1,0,0:0:0:0:
448,192,192249,128,0,193138:0:0:0:0:
182,192,192249,1,2,1:0:0:34:
320,192,192360,1,0,0:0:0:0:
182,192,192471,1,0,0:0:0:0:
320,192,192693,128,0,193138:0:0:0:0:
64,192,192693,1,2,1:0:0:34:
192,192,192805,1,0,0:0:0:0:
64,192,192916,1,0,0:0:0:0:
192,192,193138,1,2,1:0:0:34:
64,192,193249,1,0,0:0:0:0:
448,192,193360,128,0,194027:0:0:0:0:
192,192,193360,1,0,0:0:0:0:
320,192,193582,1,2,1:0:0:34:
192,192,193693,1,0,0:0:0:0:
320,192,193805,1,0,0:0:0:0:
64,192,194027,128,0,194471:0:0:0:0:
192,192,194027,1,2,1:0:0:34:
320,192,194138,1,0,0:0:0:0:
192,192,194249,1,0,0:0:0:0:
320,192,194471,128,0,194916:0:0:0:0:
448,192,194471,1,2,1:0:0:34:
192,192,194582,1,0,0:0:0:0:
64,192,194693,1,0,0:0:0:0:
109,192,194916,1,2,1:0:0:34:
448,192,194916,128,0,196027:0:0:0:0:
182,192,195027,1,0,0:0:0:0:
109,192,195138,1,0,0:0:0:0:
192,192,195360,1,2,1:0:0:34:
329,192,195360,128,0,196027:0:0:0:0:
64,192,195471,1,0,0:0:0:0:
192,192,195582,1,0,0:0:0:0:
64,192,195805,1,2,1:0:0:34:
192,192,195805,128,0,196027:0:0:0:0:
320,192,196249,1,2,1:0:0:34:
192,192,196249,1,0,0:0:0:0:
402,192,196249,1,0,0:0:0:0:
109,192,196360,1,0,0:0:0:0:
182,192,196471,1,0,0:0:0:0:
36,192,196693,128,0,197471:0:0:0:0:
329,192,196693,1,2,1:0:0:34:
192,192,196805,1,0,0:0:0:0:
329,192,196916,1,0,0:0:0:0:
448,192,197138,1,2,1:0:0:34:
329,192,197249,1,0,0:0:0:0:
448,192,197360,1,0,0:0:0:0:
64,192,197582,128,0,198471:0:0:0:0:
320,192,197582,1,2,1:0:0:34:
402,192,197693,1,0,0:0:0:0:
320,192,197805,1,0,0:0:0:0:
448,192,198027,1,2,1:0:0:34:
182,192,198027,128,0,198471:0:0:0:0:
320,192,198138,1,0,0:0:0:0:
448,192,198249,1,0,0:0:0:0:
256,192,198471,1,2,1:0:0:34:
192,192,198582,1,0,0:0:0:0:
448,192,198693,128,0,199805:0:0:0:0:
256,192,198693,1,0,0:0:0:0:
182,192,198916,1,2,1:0:0:34:
64,192,199027,1,0,0:0:0:0:
182,192,199138,1,0,0:0:0:0:
64,192,199360,1,2,1:0:0:34:
320,192,199360,128,0,199805:0:0:0:0:
192,192,199471,1,0,0:0:0:0:
64,192,199582,1,0,0:0:0:0:
192,192,199805,1,2,1:0:0:0:
64,192,199916,1,0,0:0:0:0:
320,192,200027,1,0,0:0:0:0:
192,192,200138,1,0,0:0:0:0:
320,192,200249,5,2,1:0:0:34:
109,192,200249,1,0,0:0:0:0:
448,192,200360,1,0,0:0:0:0:
192,192,200471,1,0,0:0:0:0:
64,192,200582,1,0,0:0:0:0:
448,192,200693,1,2,1:0:0:34:
320,192,200693,1,0,0:0:0:0:
192,192,200805,1,0,0:0:0:0:
448,192,200916,128,0,201138:0:0:0:0:
64,192,200916,1,0,0:0:0:0:
64,192,201138,1,2,1:0:0:34:
192,192,201138,128,0,201360:0:0:0:0:
320,192,201360,128,0,201582:0:0:0:0:
475,192,201582,128,2,203249:1:0:0:34:
64,192,201582,128,0,201805:0:0:0:0:
192,192,201805,128,0,202027:0:0:0:0:
320,192,202027,128,2,203249:1:0:0:34:
64,192,202249,128,0,202471:0:0:0:0:
192,192,202471,128,0,203249:0:0:0:0:
64,192,202916,128,0,203249:0:0:0:0:
329,192,203360,5,4,0:0:0:0:
448,192,203360,1,4,0:0:0:0:
64,192,203360,128,2,204471:1:0:0:34:
182,192,203471,1,0,0:0:0:0:
320,192,203582,1,0,0:0:0:0:
448,192,203805,1,2,1:0:0:34:
329,192,203916,1,0,0:0:0:0:
182,192,204027,128,0,204471:0:0:0:0:
402,192,204027,1,0,0:0:0:0:
329,192,204249,1,2,1:0:0:34:
402,192,204360,1,0,0:0:0:0:
320,192,204471,1,0,0:0:0:0:
182,192,204693,128,0,204916:0:0:0:0:
36,192,204693,128,0,204916:0:0:0:0:
402,192,204693,1,2,1:0:0:34:
329,192,204805,1,0,0:0:0:0:
448,192,204916,1,0,0:0:0:0:
36,192,205138,128,0,205582:0:0:0:0:
182,192,205138,128,0,205582:0:0:0:0:
329,192,205138,1,2,1:0:0:34:
402,192,205249,1,0,0:0:0:0:
320,192,205360,1,0,0:0:0:0:
402,192,205582,1,2,1:0:0:34:
329,192,205693,1,0,0:0:0:0:
192,192,205805,1,0,0:0:0:0:
320,192,206027,128,0,206693:0:0:0:0:
64,192,206027,1,2,1:0:0:34:
448,192,206138,1,0,0:0:0:0:
192,192,206249,1,0,0:0:0:0:
475,192,206471,128,0,206693:0:0:0:0:
109,192,206471,1,2,1:0:0:34:
182,192,206582,1,0,0:0:0:0:
64,192,206693,1,0,0:0:0:0:
320,192,206916,128,0,207360:0:0:0:0:
475,192,206916,128,0,207360:0:0:0:0:
192,192,206916,1,2,1:0:0:34:
109,192,207027,1,0,0:0:0:0:
182,192,207138,1,0,0:0:0:0:
64,192,207360,1,2,1:0:0:34:
182,192,207471,1,0,0:0:0:0:
320,192,207582,128,0,208693:0:0:0:0:
448,192,207805,1,2,1:0:0:34:
192,192,207916,1,0,0:0:0:0:
64,192,208027,1,0,0:0:0:0:
448,192,208249,128,0,208693:0:0:0:0:
182,192,208249,1,2,1:0:0:34:
64,192,208471,1,0,0:0:0:0:
192,192,208693,128,0,209138:0:0:0:0:
36,192,208693,1,2,1:0:0:34:
320,192,208916,1,0,0:0:0:0:
64,192,209138,128,0,209805:0:0:0:0:
448,192,209138,1,2,1:0:0:34:
320,192,209360,1,0,0:0:0:0:
192,192,209582,128,0,209805:0:0:0:0:
448,192,209582,1,2,1:0:0:34:
320,192,209805,1,0,0:0:0:0:
64,192,210027,128,0,210360:0:0:0:0:
320,192,210027,128,0,210360:0:0:0:0:
192,192,210027,128,2,210360:1:0:0:34:
448,192,210027,1,0,0:0:0:0:
320,192,210471,1,2,1:0:0:34:
64,192,210471,1,0,0:0:0:0:
192,192,210471,1,0,0:0:0:0:
448,192,210582,1,0,0:0:0:0:
64,192,210693,1,0,0:0:0:0:
192,192,210916,128,2,211805:1:0:0:34:
320,192,210916,1,0,0:0:0:0:
448,192,211027,1,0,0:0:0:0:
64,192,211138,1,0,0:0:0:0:
256,192,211360,1,2,1:0:0:34:
448,192,211471,1,0,0:0:0:0:
109,192,211582,1,0,0:0:0:0:
448,192,211805,128,0,212693:0:0:0:0:
320,192,211805,1,2,1:0:0:34:
320,192,212027,128,0,212693:0:0:0:0:
192,192,212027,1,0,0:0:0:0:
192,192,212249,128,0,212693:0:0:0:0:
64,192,212249,1,2,1:0:0:34:
64,192,212693,1,2,1:0:0:34:
192,192,212916,128,0,214805:0:0:0:0:
448,192,213138,1,2,1:0:0:34:
448,192,213360,1,0,0:0:0:0:
448,192,213582,128,0,215471:0:0:0:0:
64,192,213582,1,2,1:0:0:34:
64,192,213805,1,0,0:0:0:0:
64,192,214027,128,2,215582:1:0:0:34:
320,192,214249,1,0,0:0:0:0:
320,192,214471,1,2,1:0:0:34:
320,192,214693,128,0,215582:0:0:0:0:
192,192,214916,128,2,215249:1:0:0:34:
192,192,215360,128,2,215582:1:0:0:34:
475,192,215582,1,0,0:0:0:0:
320,192,215805,1,0,0:0:0:0:
475,192,215805,128,0,215916:0:0:0:0:
64,192,215805,128,0,217582:0:0:0:0:
192,192,215805,1,0,0:0:0:0:
475,192,216138,128,0,216249:0:0:0:0:
475,192,216471,1,0,0:0:0:0:
320,192,216693,128,0,216805:0:0:0:0:
192,192,216916,1,0,0:0:0:0:
320,192,217027,128,0,217138:0:0:0:0:
320,192,217360,1,0,0:0:0:0:
192,192,217582,128,0,217693:0:0:0:0:
192,192,217916,128,0,218027:0:0:0:0:
192,192,218249,1,0,0:0:0:0:
64,192,218471,128,0,218582:0:0:0:0:
320,192,218693,1,0,0:0:0:0:
64,192,218805,128,0,218916:0:0:0:0:
64,192,219138,1,0,0:0:0:0:
475,192,219360,128,0,219471:0:0:0:0:
320,192,219360,1,0,0:0:0:0:
182,192,219360,1,0,0:0:0:0:
475,192,219693,128,0,219805:0:0:0:0:
64,192,219805,1,0,0:0:0:0:
475,192,220027,1,0,0:0:0:0:
192,192,220027,1,0,0:0:0:0:
320,192,220249,128,0,220360:0:0:0:0:
64,192,220249,1,0,0:0:0:0:
192,192,220471,1,0,0:0:0:0:
320,192,220582,128,0,220693:0:0:0:0:
320,192,220916,1,0,0:0:0:0:
192,192,221138,128,0,221249:0:0:0:0:
448,192,221360,1,0,0:0:0:0:
192,192,221471,128,0,221582:0:0:0:0:
192,192,221805,1,0,0:0:0:0:
64,192,222027,128,0,222138:0:0:0:0:
448,192,222249,1,0,0:0:0:0:
64,192,222360,128,0,222471:0:0:0:0:
64,192,222693,1,0,0:0:0:0:
475,192,222916,128,0,223027:0:0:0:0:
192,192,222916,1,0,0:0:0:0:
64,192,222971,1,0,0:0:0:0:
192,192,223138,1,0,0:0:0:0:
475,192,223249,128,0,223360:0:0:0:0:
320,192,223360,1,0,0:0:0:0:
475,192,223582,1,0,0:0:0:0:
192,192,223582,1,0,0:0:0:0:
320,192,223805,128,0,223916:0:0:0:0:
64,192,223805,1,0,0:0:0:0:
192,192,224027,1,0,0:0:0:0:
320,192,224138,128,0,224249:0:0:0:0:
320,192,224471,1,0,0:0:0:0:
192,192,224693,128,0,224805:0:0:0:0:
448,192,224916,1,0,0:0:0:0:
192,192,225027,128,0,225138:0:0:0:0:
192,192,225360,1,0,0:0:0:0:
64,192,225582,128,0,225693:0:0:0:0:
320,192,225805,1,0,0:0:0:0:
64,192,225916,128,0,226027:0:0:0:0:
64,192,226249,1,0,0:0:0:0:
192,192,226416,1,0,0:0:0:0:
475,192,226471,128,0,226582:0:0:0:0:
320,192,226471,1,0,0:0:0:0:
64,192,226693,1,0,0:0:0:0:
475,192,226805,128,0,226916:0:0:0:0:
475,192,227138,1,0,0:0:0:0:
320,192,227360,128,0,227471:0:0:0:0:
64,192,227582,1,0,0:0:0:0:
320,192,227693,128,0,227805:0:0:0:0:
320,192,228027,1,0,0:0:0:0:
192,192,228249,128,0,228360:0:0:0:0:
448,192,228471,1,0,0:0:0:0:
192,192,228582,128,0,228693:0:0:0:0:
192,192,228916,1,0,0:0:0:0:
36,192,229138,128,0,229879:0:0:0:0:
448,192,229138,1,0,0:0:0:0:
182,192,229286,128,0,229731:0:0:0:0:
329,192,229434,128,0,229582:0:0:0:0:
475,192,229582,1,0,0:0:0:0:
329,192,229731,1,0,0:0:0:0:
182,192,229879,1,0,0:0:0:0:
36,192,230027,1,2,1:0:0:34:
448,192,230027,128,0,231693:0:0:0:0:
320,192,230027,128,0,232582:0:0:0:0:
109,192,230249,1,0,0:0:0:0:
192,192,230471,1,2,1:0:0:34:
182,192,230693,1,0,0:0:0:0:
36,192,230916,1,2,1:0:0:34:
109,192,231138,1,0,0:0:0:0:
192,192,231360,1,2,1:0:0:34:
182,192,231582,1,0,0:0:0:0:
36,192,231805,1,2,1:0:0:34:
448,192,231805,128,0,233471:0:0:0:0:
109,192,232027,1,0,0:0:0:0:
192,192,232249,1,2,1:0:0:34:
182,192,232471,1,0,0:0:0:0:
36,192,232693,1,2,1:0:0:34:
320,192,232693,128,0,234138:0:0:0:0:
109,192,232916,1,0,0:0:0:0:
192,192,233138,1,2,1:0:0:34:
182,192,233360,1,0,0:0:0:0:
36,192,233582,1,2,1:0:0:34:
448,192,233582,128,0,234693:0:0:0:0:
109,192,233805,1,0,0:0:0:0:
192,192,234027,1,0,0:0:0:0:
320,192,234249,128,0,234693:0:0:0:0:
64,192,234249,1,0,0:0:0:0:
192,192,234471,128,0,234693:0:0:0:0:
64,192,234693,128,0,235805:0:0:0:0:
448,192,234916,1,0,0:0:0:0:
329,192,235138,128,0,235360:0:0:0:0:
192,192,235360,128,0,235805:0:0:0:0:
256,192,235582,128,0,235805:0:0:0:0:
448,192,235805,128,0,240582:0:0:0:0:
182,192,236027,128,0,236249:0:0:0:0:
256,192,236249,128,0,239693:0:0:0:0:
109,192,236471,128,0,236693:0:0:0:0:
182,192,236693,128,0,237916:0:0:0:0:
64,192,236916,1,0,0:0:0:0:
64,192,237138,128,0,238805:0:0:0:0:
182,192,238027,128,0,242138:0:0:0:0:
64,192,238916,128,0,242027:0:0:0:0:
329,192,239805,128,0,242249:0:0:0:0:
402,192,240693,128,0,242360:0:0:0:0:
64,192,242138,1,0,0:0:0:0:
192,192,242249,1,0,0:0:0:0:
320,192,242360,1,0,0:0:0:0:
448,192,242471,128,0,244138:0:0:0:0:
329,192,242916,128,0,244582:0:0:0:0:
192,192,243360,128,0,245027:0:0:0:0:
109,192,243805,128,0,245471:0:0:0:0:
448,192,244249,128,0,245916:0:0:0:0:
256,192,244693,128,0,245916:0:0:0:0:
182,192,245138,128,0,245916:0:0:0:0:
109,192,245582,128,0,245916:0:0:0:0:
475,192,246027,128,0,246138:0:0:0:0:
64,192,246027,1,0,0:0:0:0:
192,192,246027,1,0,0:0:0:0:
320,192,246027,1,0,0:0:0:0:
475,192,246360,128,0,246471:0:0:0:0:
475,192,246693,1,0,0:0:0:0:
329,192,246916,128,0,247027:0:0:0:0:
329,192,247249,128,0,247360:0:0:0:0:
329,192,247582,1,0,0:0:0:0:
182,192,247805,128,0,247916:0:0:0:0:
182,192,248138,128,0,248249:0:0:0:0:
182,192,248471,1,0,0:0:0:0:
36,192,248693,128,0,248805:0:0:0:0:
36,192,249027,128,0,249138:0:0:0:0:
36,192,249360,1,0,0:0:0:0:
448,192,249582,128,0,249693:0:0:0:0:
64,192,249582,128,0,251360:0:0:0:0:
448,192,249916,128,0,250027:0:0:0:0:
448,192,250249,1,0,0:0:0:0:
320,192,250471,128,0,250582:0:0:0:0:
320,192,250805,128,0,250916:0:0:0:0:
320,192,251138,1,0,0:0:0:0:
192,192,251360,128,0,251805:0:0:0:0:
448,192,251360,128,0,251471:0:0:0:0:
448,192,251693,128,0,251805:0:0:0:0:
109,192,251805,128,0,252582:0:0:0:0:
448,192,252027,1,0,0:0:0:0:
320,192,252249,128,0,252360:0:0:0:0:
192,192,252249,128,0,252582:0:0:0:0:
320,192,252582,128,0,252693:0:0:0:0:
192,192,252693,128,0,253027:0:0:0:0:
36,192,252693,128,0,253027:0:0:0:0:
320,192,252916,1,0,0:0:0:0:
475,192,253138,128,0,253249:0:0:0:0:
64,192,253138,1,2,1:0:0:0:
192,192,253138,1,2,1:0:0:0:
475,192,253471,128,0,253582:0:0:0:0:
109,192,253471,1,2,1:0:0:0:
182,192,253471,1,2,1:0:0:0:
475,192,253805,1,0,0:0:0:0:
182,192,253805,1,2,1:0:0:0:
109,192,253805,1,2,1:0:0:0:
320,192,254027,128,0,254138:0:0:0:0:
320,192,254360,128,0,254471:0:0:0:0:
320,192,254693,1,0,0:0:0:0:
192,192,254916,128,0,255027:0:0:0:0:
192,192,255249,128,0,255360:0:0:0:0:
192,192,255582,1,0,0:0:0:0:
256,192,255805,128,0,255916:0:0:0:0:
256,192,256138,128,0,256249:0:0:0:0:
256,192,256471,1,0,0:0:0:0:
402,192,256693,128,0,256805:0:0:0:0:
182,192,256693,1,2,1:0:0:0:
109,192,256693,1,2,1:0:0:0:
402,192,257027,128,0,257138:0:0:0:0:
182,192,257027,1,2,1:0:0:0:
109,192,257027,1,2,1:0:0:0:
182,192,257360,1,2,1:0:0:0:
109,192,257360,1,2,1:0:0:0:
402,192,257360,128,0,258027:0:0:0:0:
64,192,257805,128,0,258027:0:0:0:0:
320,192,258027,128,0,258249:0:0:0:0:
192,192,258249,128,0,258471:0:0:0:0:
64,192,258471,128,2,260138:1:0:0:0:
448,192,258471,128,0,258693:0:0:0:0:
320,192,258693,128,0,258916:0:0:0:0:
192,192,258916,128,2,260138:1:0:0:0:
448,192,259138,128,0,259360:0:0:0:0:
320,192,259360,128,2,260138:1:0:0:0:
448,192,259582,1,0,0:0:0:0:
448,192,259805,128,2,260138:1:0:0:0:
36,192,260249,5,4,0:0:0:0:
320,192,260249,1,2,1:0:0:17:
448,192,260249,1,4,0:0:0:0:
182,192,260249,1,2,1:0:0:17:
329,192,260471,128,0,260693:0:0:0:0:
192,192,260471,1,0,0:0:0:0:
109,192,260693,1,2,1:0:0:17:
402,192,260693,1,2,1:0:0:17:
192,192,260805,1,0,0:0:0:0:
320,192,260916,128,0,261138:0:0:0:0:
182,192,261138,1,2,1:0:0:17:
448,192,261138,1,2,1:0:0:17:
109,192,261249,1,0,0:0:0:0:
192,192,261360,128,0,261582:0:0:0:0:
448,192,261360,1,0,0:0:0:0:
64,192,261582,1,2,1:0:0:17:
320,192,261582,1,2,1:0:0:17:
448,192,261693,1,0,0:0:0:0:
320,192,261805,128,0,262027:0:0:0:0:
402,192,262027,1,2,1:0:0:17:
109,192,262027,1,2,1:0:0:17:
192,192,262138,1,0,0:0:0:0:
64,192,262249,128,0,262471:0:0:0:0:
320,192,262249,1,0,0:0:0:0:
320,192,262471,1,2,1:0:0:17:
448,192,262471,1,2,1:0:0:17:
192,192,262582,1,0,0:0:0:0:
320,192,262693,128,0,262916:0:0:0:0:
448,192,262693,1,0,0:0:0:0:
192,192,262916,1,2,1:0:0:17:
109,192,262916,1,2,1:0:0:17:
448,192,263027,1,0,0:0:0:0:
192,192,263138,128,0,263360:0:0:0:0:
320,192,263138,1,0,0:0:0:0:
36,192,263360,1,2,1:0:0:17:
320,192,263360,1,2,1:0:0:17:
448,192,263471,1,0,0:0:0:0:
329,192,263582,128,0,263805:0:0:0:0:
64,192,263582,1,0,0:0:0:0:
402,192,263805,1,2,1:0:0:17:
192,192,263805,1,2,1:0:0:17:
64,192,263916,1,0,0:0:0:0:
192,192,264027,128,0,264249:0:0:0:0:
320,192,264027,1,0,0:0:0:0:
64,192,264249,1,2,1:0:0:17:
448,192,264249,1,2,1:0:0:17:
320,192,264360,1,0,0:0:0:0:
448,192,264471,128,0,264693:0:0:0:0:
320,192,264693,1,2,1:0:0:17:
109,192,264693,1,2,1:0:0:17:
192,192,264805,1,0,0:0:0:0:
64,192,264916,128,0,265138:0:0:0:0:
320,192,264916,1,0,0:0:0:0:
448,192,265138,1,2,1:0:0:17:
182,192,265138,1,2,1:0:0:17:
320,192,265249,1,0,0:0:0:0:
192,192,265360,128,0,265582:0:0:0:0:
64,192,265360,1,0,0:0:0:0:
320,192,265582,1,2,1:0:0:17:
448,192,265582,1,2,1:0:0:17:
64,192,265693,1,0,0:0:0:0:
320,192,265805,128,0,266027:0:0:0:0:
36,192,266027,1,2,1:0:0:17:
475,192,266027,1,2,1:0:0:17:
192,192,266138,1,0,0:0:0:0:
329,192,266249,1,0,0:0:0:0:
448,192,266249,1,0,0:0:0:0:
192,192,266360,1,0,0:0:0:0:
109,192,266471,128,2,266693:1:0:0:0:
182,192,266582,128,0,266805:0:0:0:0:
256,192,266693,128,0,266916:0:0:0:0:
448,192,266805,128,0,267027:0:0:0:0:
109,192,266916,128,0,267138:0:0:0:0:
182,192,267027,128,0,267249:0:0:0:0:
256,192,267138,128,0,267360:0:0:0:0:
448,192,267249,128,0,267360:0:0:0:0:
64,192,267360,128,0,268582:0:0:0:0:
320,192,267582,1,0,0:0:0:0:
448,192,267805,1,2,1:0:0:34:
182,192,267805,128,0,272055:0:0:0:0:
320,192,268027,1,0,0:0:0:0:
448,192,268249,1,2,1:0:0:34:
320,192,268471,1,0,0:0:0:0:
109,192,268693,128,2,269027:0:0:0:0:
448,192,268693,1,0,0:0:0:0:
329,192,268916,128,0,270805:0:0:0:0:
109,192,269138,128,2,269471:0:0:0:0:
448,192,269138,1,0,0:0:0:0:
448,192,269360,1,0,0:0:0:0:
109,192,269582,128,2,269916:0:0:0:0:
448,192,269582,1,0,0:0:0:0:
448,192,269805,128,0,270360:0:0:0:0:
109,192,270027,128,2,270360:0:0:0:0:
402,192,270471,128,0,272110:0:0:0:0:
109,192,270471,128,2,270805:0:0:0:0:
109,192,270916,128,2,271249:0:0:0:0:
320,192,270916,128,0,271471:0:0:0:0:
109,192,271360,128,2,272027:0:0:0:0:
256,192,271582,128,0,272082:0:0:0:0:
64,192,272249,128,0,272360:0:0:0:0:
192,192,272305,128,0,272416:0:0:0:0:
320,192,272360,128,0,272471:0:0:0:0:
448,192,272416,128,0,272527:0:0:0:0:
64,192,272527,128,0,272582:0:0:0:0:
192,192,272582,128,0,272638:0:0:0:0:
320,192,272638,128,0,272693:0:0:0:0:
475,192,272693,128,0,275693:0:0:0:0:
329,192,273138,128,0,274360:0:0:0:0:
182,192,273582,128,0,274805:0:0:0:0:
36,192,274027,128,0,275249:0:0:0:0:
329,192,274471,1,0,0:0:0:0:
182,192,274916,1,0,0:0:0:0:
36,192,275360,128,0,275416:0:0:0:0:
475,192,275805,128,0,275860:0:0:0:0:
182,192,276249,1,2,0:0:0:0:
320,192,276249,128,0,276305:0:0:0:0:
109,192,276249,1,2,0:0:0:0:
192,192,276693,1,0,0:0:0:0:
448,192,276916,128,0,276971:0:0:0:0:
64,192,277138,1,0,0:0:0:0:
320,192,277582,128,0,277638:0:0:0:0:
192,192,278027,1,0,0:0:0:0:
448,192,278027,128,0,278082:0:0:0:0:
64,192,278471,1,0,0:0:0:0:
192,192,278916,128,0,278971:0:0:0:0:
64,192,278916,1,0,0:0:0:0:
320,192,279360,128,0,279416:0:0:0:0:
64,192,279805,1,0,0:0:0:0:
448,192,279805,128,0,279860:0:0:0:0:
192,192,280249,1,0,0:0:0:0:
320,192,280471,128,0,280527:0:0:0:0:
192,192,280693,1,0,0:0:0:0:
64,192,281138,128,0,281193:0:0:0:0:
192,192,281527,1,0,0:0:0:0:
320,192,281582,128,0,281638:0:0:0:0:
320,192,282027,1,0,0:0:0:0:
320,192,282416,1,0,0:0:0:0:
448,192,282471,128,0,282527:0:0:0:0:
448,192,282916,1,0,0:0:0:0:
192,192,283360,1,0,0:0:0:0:
64,192,283360,1,0,0:0:0:0:
320,192,283805,128,0,283860:0:0:0:0:
192,192,284249,1,0,0:0:0:0:
64,192,284638,1,0,0:0:0:0:
192,192,284693,128,0,284749:0:0:0:0:
320,192,285082,1,0,0:0:0:0:
448,192,285138,128,0,285193:0:0:0:0:
64,192,285582,1,0,0:0:0:0:
320,192,285805,128,0,285860:0:0:0:0:
192,192,286027,1,0,0:0:0:0:
320,192,286416,1,0,0:0:0:0:
448,192,286471,128,0,286527:0:0:0:0:
192,192,286860,1,0,0:0:0:0:
320,192,286916,128,0,286971:0:0:0:0:
320,192,287582,128,0,287638:0:0:0:0:
64,192,288249,128,0,288305:0:0:0:0:
320,192,288416,1,0,0:0:0:0:
192,192,288471,128,0,288527:0:0:0:0:
448,192,288638,1,0,0:0:0:0:
320,192,288693,128,0,288749:0:0:0:0:
64,192,288693,1,0,0:0:0:0:
192,192,288916,1,0,0:0:0:0:
448,192,289082,1,0,0:0:0:0:
320,192,289138,128,0,289193:0:0:0:0:
192,192,289360,1,0,0:0:0:0:
64,192,289527,1,0,0:0:0:0:
192,192,289582,128,0,289638:0:0:0:0:
448,192,289582,1,0,0:0:0:0:
320,192,289805,1,0,0:0:0:0:
448,192,290027,128,0,290082:0:0:0:0:
192,192,290027,1,0,0:0:0:0:
64,192,290249,1,0,0:0:0:0:
320,192,290471,128,0,290527:0:0:0:0:
192,192,290471,1,0,0:0:0:0:
448,192,291138,1,0,0:0:0:0:
64,192,291138,1,0,0:0:0:0:
320,192,291805,1,0,0:0:0:0:
448,192,291805,1,0,0:0:0:0:
192,192,292249,1,0,0:0:0:0:
64,192,292249,1,0,0:0:0:0:
448,192,293138,1,0,0:0:0:0:
192,192,293138,1,0,0:0:0:0:
320,192,293582,1,0,0:0:0:0:
192,192,293582,1,0,0:0:0:0:
192,192,294027,1,0,0:0:0:0:
64,192,294027,1,0,0:0:0:0:
64,192,294916,1,0,0:0:0:0:
448,192,294916,1,0,0:0:0:0:
192,192,295360,1,0,0:0:0:0:
320,192,295805,1,0,0:0:0:0:
448,192,296249,1,0,0:0:0:0:
320,192,296693,1,0,0:0:0:0:
192,192,297138,1,0,0:0:0:0:
64,192,313656,132,0,314697:0:0:0:0:
213,192,313864,128,0,319906:0:0:0:0:
298,192,314072,128,0,319906:0:0:0:0:
448,192,314281,128,0,319906:0:0:0:0:
64,192,314906,128,0,319906:0:0:0:0:
469,192,320322,1,0,0:0:0:0:
320,192,320322,128,0,320739:0:0:0:0:
64,192,320322,128,0,323447:0:0:0:0:
128,192,320322,1,0,0:0:0:0:
192,192,320531,128,0,320739:0:0:0:0:
448,192,320739,128,0,321572:0:0:0:0:
320,192,320947,128,0,322822:0:0:0:0:
128,192,321156,1,0,0:0:0:0:
192,192,321572,128,0,322822:0:0:0:0:
469,192,321989,1,0,0:0:0:0:
469,192,322197,1,0,0:0:0:0:
448,192,322406,1,0,0:0:0:0:
469,192,322822,1,0,0:0:0:0:
192,192,323239,128,0,323656:0:0:0:0:
469,192,323239,1,0,0:0:0:0:
448,192,323551,1,0,0:0:0:0:
64,192,323656,128,0,324281:0:0:0:0:
320,192,323656,128,0,326572:0:0:0:0:
192,192,323864,1,0,0:0:0:0:
384,192,324072,1,0,0:0:0:0:
192,192,324281,128,0,326156:0:0:0:0:
384,192,324489,1,0,0:0:0:0:
64,192,324906,1,0,0:0:0:0:
448,192,324906,128,0,326156:0:0:0:0:
64,192,325114,1,0,0:0:0:0:
64,192,325322,1,0,0:0:0:0:
64,192,325531,1,0,0:0:0:0:
64,192,325739,1,0,0:0:0:0:
64,192,326156,1,0,0:0:0:0:
192,192,326572,128,0,326781:0:0:0:0:
64,192,326781,128,0,326989:0:0:0:0:
448,192,326885,1,0,0:0:0:0:
320,192,326989,128,0,330114:0:0:0:0:
192,192,326989,128,0,328447:0:0:0:0:
448,192,327197,1,0,0:0:0:0:
448,192,327406,1,0,0:0:0:0:
448,192,327614,1,0,0:0:0:0:
64,192,327822,1,0,0:0:0:0:
448,192,328031,1,0,0:0:0:0:
384,192,328239,1,0,0:0:0:0:
64,192,328447,1,0,0:0:0:0:
192,192,328656,1,0,0:0:0:0:
448,192,328656,128,0,329281:0:0:0:0:
64,192,328864,1,0,0:0:0:0:
64,192,329072,1,0,0:0:0:0:
192,192,329281,128,0,329906:0:0:0:0:
448,192,329489,1,0,0:0:0:0:
64,192,329697,1,0,0:0:0:0:
64,192,329906,128,0,330322:0:0:0:0:
448,192,330114,1,0,0:0:0:0:
192,192,330218,1,0,0:0:0:0:
448,192,330322,128,0,333447:0:0:0:0:
320,192,330322,128,0,333031:0:0:0:0:
128,192,330531,1,0,0:0:0:0:
42,192,330739,1,0,0:0:0:0:
128,192,330947,1,0,0:0:0:0:
213,192,331156,1,0,0:0:0:0:
64,192,331364,1,0,0:0:0:0:
64,192,331572,128,0,333031:0:0:0:0:
192,192,331781,1,0,0:0:0:0:
213,192,331989,1,0,0:0:0:0:
128,192,332197,1,0,0:0:0:0:
192,192,332406,1,0,0:0:0:0:
128,192,332822,1,0,0:0:0:0:
213,192,333031,1,0,0:0:0:0:
64,192,333135,1,0,0:0:0:0:
213,192,333239,1,0,0:0:0:0:
320,192,333343,1,0,0:0:0:0:
213,192,333447,1,0,0:0:0:0:
320,192,333551,1,0,0:0:0:0:
192,192,333656,128,0,334072:0:0:0:0:
64,192,333656,128,0,336572:0:0:0:0:
320,192,333864,128,0,334281:0:0:0:0:
384,192,333864,1,0,0:0:0:0:
448,192,334072,128,0,335531:0:0:0:0:
192,192,334281,128,0,334906:0:0:0:0:
320,192,334489,1,0,0:0:0:0:
320,192,334697,1,0,0:0:0:0:
320,192,334906,128,0,335531:0:0:0:0:
192,192,335114,1,0,0:0:0:0:
192,192,335322,1,0,0:0:0:0:
192,192,335531,1,0,0:0:0:0:
298,192,335739,1,0,0:0:0:0:
192,192,335739,128,0,336572:0:0:0:0:
384,192,336156,1,0,0:0:0:0:
320,192,336156,128,0,336572:0:0:0:0:
448,192,336572,128,0,336989:0:0:0:0:
64,192,336885,1,0,0:0:0:0:
320,192,336989,128,0,340114:0:0:0:0:
192,192,336989,128,0,339489:0:0:0:0:
448,192,337197,1,0,0:0:0:0:
42,192,337406,1,0,0:0:0:0:
448,192,337614,1,0,0:0:0:0:
64,192,337614,128,0,339489:0:0:0:0:
448,192,337822,1,0,0:0:0:0:
384,192,338239,1,0,0:0:0:0:
448,192,338656,1,0,0:0:0:0:
448,192,338864,1,0,0:0:0:0:
448,192,339072,1,0,0:0:0:0:
448,192,339489,1,0,0:0:0:0:
64,192,339906,128,0,340114:0:0:0:0:
448,192,340114,128,0,340947:0:0:0:0:
192,192,340218,1,0,0:0:0:0:
320,192,340322,128,0,343656:0:0:0:0:
64,192,340322,128,0,340947:0:0:0:0:
192,192,340947,128,0,341572:0:0:0:0:
469,192,341156,1,0,0:0:0:0:
448,192,341572,1,0,0:0:0:0:
64,192,341572,128,0,341989:0:0:0:0:
448,192,341989,1,0,0:0:0:0:
192,192,341989,128,0,342822:0:0:0:0:
469,192,342197,1,0,0:0:0:0:
64,192,342406,1,0,0:0:0:0:
469,192,342614,1,0,0:0:0:0:
64,192,342718,1,0,0:0:0:0:
448,192,342822,128,0,343447:0:0:0:0:
128,192,343551,1,0,0:0:0:0:
64,192,343656,128,0,346781:0:0:0:0:
384,192,343656,1,0,0:0:0:0:
298,192,344072,1,0,0:0:0:0:
192,192,344281,128,0,344906:0:0:0:0:
298,192,344489,1,0,0:0:0:0:
469,192,344489,1,0,0:0:0:0:
320,192,344906,128,0,345322:0:0:0:0:
192,192,345322,128,0,346572:0:0:0:0:
384,192,345322,1,0,0:0:0:0:
384,192,345531,1,0,0:0:0:0:
320,192,345739,1,0,0:0:0:0:
384,192,345947,1,0,0:0:0:0:
469,192,346156,1,0,0:0:0:0:
384,192,346364,1,0,0:0:0:0:
320,192,346468,1,0,0:0:0:0:
469,192,346572,1,0,0:0:0:0:
320,192,346676,1,0,0:0:0:0:
384,192,346781,1,0,0:0:0:0:
192,192,346885,1,0,0:0:0:0:
320,192,346989,128,0,347614:0:0:0:0:
469,192,346989,1,0,0:0:0:0:
64,192,346989,128,0,350322:0:0:0:0:
192,192,347197,128,0,347406:0:0:0:0:
448,192,347406,128,0,349489:0:0:0:0:
192,192,347614,128,0,348239:0:0:0:0:
298,192,347822,1,0,0:0:0:0:
320,192,348031,1,0,0:0:0:0:
320,192,348239,128,0,349489:0:0:0:0:
128,192,348447,1,0,0:0:0:0:
192,192,348656,1,0,0:0:0:0:
128,192,348864,1,0,0:0:0:0:
213,192,349072,1,0,0:0:0:0:
128,192,349489,1,0,0:0:0:0:
448,192,349906,1,0,0:0:0:0:
192,192,349906,128,0,350322:0:0:0:0:
448,192,350218,1,0,0:0:0:0:
320,192,350322,128,0,353447:0:0:0:0:
42,192,350531,1,0,0:0:0:0:
469,192,350739,1,0,0:0:0:0:
192,192,350947,128,0,351572:0:0:0:0:
64,192,350947,1,0,0:0:0:0:
469,192,351156,1,0,0:0:0:0:
42,192,351572,128,0,353031:0:0:0:0:
469,192,351781,1,0,0:0:0:0:
213,192,351989,1,0,0:0:0:0:
469,192,352197,1,0,0:0:0:0:
213,192,352406,1,0,0:0:0:0:
469,192,352614,1,0,0:0:0:0:
384,192,352822,1,0,0:0:0:0:
213,192,353031,1,0,0:0:0:0:
64,192,353239,1,0,0:0:0:0:
384,192,353239,1,0,0:0:0:0:
192,192,353239,128,0,353447:0:0:0:0:
42,192,353447,128,0,353656:0:0:0:0:
192,192,353656,128,0,360114:0:0:0:0:
448,192,353656,128,0,355114:0:0:0:0:
64,192,353864,1,0,0:0:0:0:
42,192,354072,1,0,0:0:0:0:
64,192,354281,1,0,0:0:0:0:
320,192,354489,1,0,0:0:0:0:
64,192,354697,1,0,0:0:0:0:
64,192,354906,1,0,0:0:0:0:
64,192,355114,1,0,0:0:0:0:
298,192,355322,1,0,0:0:0:0:
64,192,355322,128,0,355947:0:0:0:0:
298,192,355531,1,0,0:0:0:0:
448,192,355739,1,0,0:0:0:0:
298,192,355947,1,0,0:0:0:0:
448,192,355947,128,0,356989:0:0:0:0:
64,192,356156,1,0,0:0:0:0:
320,192,356364,1,0,0:0:0:0:
64,192,356572,128,0,356989:0:0:0:0:
320,192,356781,1,0,0:0:0:0:
320,192,356989,128,0,358656:0:0:0:0:
384,192,357197,1,0,0:0:0:0:
448,192,357406,1,0,0:0:0:0:
469,192,357614,1,0,0:0:0:0:
42,192,357822,1,0,0:0:0:0:
469,192,358031,1,0,0:0:0:0:
64,192,358239,128,0,359801:0:0:0:0:
469,192,358447,1,0,0:0:0:0:
384,192,358656,1,0,0:0:0:0:
298,192,358864,1,0,0:0:0:0:
469,192,359072,1,0,0:0:0:0:
320,192,359281,1,0,0:0:0:0:
469,192,359489,1,0,0:0:0:0:
384,192,359697,1,0,0:0:0:0:
320,192,359801,1,0,0:0:0:0:
469,192,359906,1,0,0:0:0:0:
320,192,360010,1,0,0:0:0:0:
469,192,360114,1,0,0:0:0:0:
64,192,360218,1,0,0:0:0:0:
448,192,360322,128,0,363656:0:0:0:0:
192,192,360322,128,0,360947:0:0:0:0:
298,192,360531,1,0,0:0:0:0:
42,192,360531,128,0,360739:0:0:0:0:
320,192,360739,128,0,360947:0:0:0:0:
64,192,360947,128,0,362301:0:0:0:0:
213,192,361156,1,0,0:0:0:0:
320,192,361364,1,0,0:0:0:0:
192,192,361572,1,0,0:0:0:0:
320,192,361572,128,0,362301:0:0:0:0:
128,192,361781,1,0,0:0:0:0:
192,192,361989,1,0,0:0:0:0:
128,192,362197,1,0,0:0:0:0:
192,192,362406,1,0,0:0:0:0:
42,192,362406,128,0,363239:0:0:0:0:
192,192,362822,128,0,363239:0:0:0:0:
320,192,363239,128,0,363447:0:0:0:0:
64,192,363447,1,0,0:0:0:0:
320,192,363551,1,0,0:0:0:0:
192,192,363656,128,0,366156:0:0:0:0:
64,192,363656,128,0,366989:0:0:0:0:
448,192,363864,1,0,0:0:0:0:
298,192,364072,1,0,0:0:0:0:
469,192,364281,128,0,366156:0:0:0:0:
320,192,364489,1,0,0:0:0:0:
298,192,364906,1,0,0:0:0:0:
298,192,365114,1,0,0:0:0:0:
320,192,365322,1,0,0:0:0:0:
320,192,365531,1,0,0:0:0:0:
298,192,365739,1,0,0:0:0:0:
320,192,366156,1,0,0:0:0:0:
298,192,366364,1,0,0:0:0:0:
469,192,366572,1,0,0:0:0:0:
213,192,366572,128,0,366989:0:0:0:0:
469,192,366781,1,0,0:0:0:0:
320,192,366781,128,0,366989:0:0:0:0:
448,192,366989,128,0,368656:0:0:0:0:
213,192,367197,1,0,0:0:0:0:
128,192,367406,1,0,0:0:0:0:
192,192,367614,1,0,0:0:0:0:
320,192,367614,128,0,368656:0:0:0:0:
64,192,367822,1,0,0:0:0:0:
192,192,368031,1,0,0:0:0:0:
192,192,368239,128,0,368656:0:0:0:0:
64,192,368239,1,0,0:0:0:0:
64,192,368447,1,0,0:0:0:0:
64,192,368656,128,0,369281:0:0:0:0:
192,192,368864,1,0,0:0:0:0:
320,192,369072,1,0,0:0:0:0:
128,192,369281,1,0,0:0:0:0:
384,192,369281,1,0,0:0:0:0:
298,192,369385,1,0,0:0:0:0:
469,192,369489,1,0,0:0:0:0:
192,192,369489,128,0,370218:0:0:0:0:
384,192,369697,1,0,0:0:0:0:
320,192,369906,1,0,0:0:0:0:
42,192,370114,1,0,0:0:0:0:
448,192,370218,1,0,0:0:0:0:
128,192,370322,1,0,0:0:0:0:
42,192,370322,1,0,0:0:0:0:
320,192,370322,128,0,370947:0:0:0:0:
128,192,370531,1,0,0:0:0:0:
42,192,370739,1,0,0:0:0:0:
128,192,370947,1,0,0:0:0:0:
384,192,370947,128,0,371572:0:0:0:0:
213,192,371156,1,0,0:0:0:0:
298,192,371364,1,0,0:0:0:0:
213,192,371572,1,0,0:0:0:0:
298,192,371572,128,0,373239:0:0:0:0:
469,192,371781,1,0,0:0:0:0:
64,192,371781,128,0,371989:0:0:0:0:
192,192,371989,1,0,0:0:0:0:
384,192,371989,128,0,372197:0:0:0:0:
64,192,372197,128,0,372406:0:0:0:0:
128,192,372406,1,0,0:0:0:0:
469,192,372406,128,0,372614:0:0:0:0:
42,192,372614,1,0,0:0:0:0:
192,192,372614,128,0,372822:0:0:0:0:
469,192,372822,1,0,0:0:0:0:
64,192,372822,128,0,373031:0:0:0:0:
213,192,373031,1,0,0:0:0:0:
448,192,373031,128,0,373239:0:0:0:0:
64,192,373239,1,0,0:0:0:0:
128,192,373239,128,0,373447:0:0:0:0:
298,192,373447,1,0,0:0:0:0:
469,192,373447,1,0,0:0:0:0:
469,192,373656,1,0,0:0:0:0:
192,192,373656,1,0,0:0:0:0:
64,192,373656,128,0,374697:0:0:0:0:
320,192,373656,1,0,0:0:0:0:
128,192,373864,1,0,0:0:0:0:
128,192,374072,1,0,0:0:0:0:
469,192,374072,1,0,0:0:0:0:
298,192,374072,128,0,374489:0:0:0:0:
384,192,374281,1,0,0:0:0:0:
192,192,374489,128,0,374906:0:0:0:0:
469,192,374489,1,0,0:0:0:0:
320,192,374697,128,0,375114:0:0:0:0:
64,192,374906,1,0,0:0:0:0:
448,192,374906,128,0,376156:0:0:0:0:
64,192,375114,128,0,376156:0:0:0:0:
128,192,375322,1,0,0:0:0:0:
128,192,375739,1,0,0:0:0:0:
320,192,376156,128,0,376572:0:0:0:0:
128,192,376156,128,0,378239:0:0:0:0:
448,192,376572,128,0,376989:0:0:0:0:
64,192,376572,128,0,378447:0:0:0:0:
320,192,376989,128,0,378031:0:0:0:0:
448,192,377197,1,0,0:0:0:0:
448,192,377406,1,0,0:0:0:0:
448,192,377614,1,0,0:0:0:0:
448,192,377822,1,0,0:0:0:0:
384,192,378031,128,0,379281:0:0:0:0:
298,192,378239,128,0,379281:0:0:0:0:
213,192,378447,128,0,379281:0:0:0:0:
42,192,378656,1,0,0:0:0:0:
42,192,378864,1,0,0:0:0:0:
64,192,379072,1,0,0:0:0:0:
192,192,379489,1,0,0:0:0:0:
384,192,379489,1,0,0:0:0:0:
42,192,379489,128,0,381572:0:0:0:0:
298,192,379906,1,0,0:0:0:0:
448,192,379906,128,0,380322:0:0:0:0:
320,192,380322,128,0,380531:0:0:0:0:
192,192,380322,128,0,381572:0:0:0:0:
448,192,380531,128,0,380739:0:0:0:0:
320,192,380739,128,0,380947:0:0:0:0:
384,192,380947,128,0,381572:0:0:0:0:
320,192,381572,128,0,381989:0:0:0:0:
64,192,381781,128,0,382822:0:0:0:0:
384,192,381989,1,0,0:0:0:0:
192,192,381989,128,0,382614:0:0:0:0:
320,192,382406,1,0,0:0:0:0:
448,192,382822,128,0,383239:0:0:0:0:
192,192,382822,128,0,383239:0:0:0:0:
320,192,383239,128,0,385739:0:0:0:0:
64,192,383239,128,0,383656:0:0:0:0:
448,192,383656,128,0,384489:0:0:0:0:
213,192,383656,128,0,383864:0:0:0:0:
64,192,383864,128,0,384072:0:0:0:0:
192,192,384072,128,0,384489:0:0:0:0:
64,192,384281,128,0,384489:0:0:0:0:
128,192,384906,128,0,385010:0:0:0:0:
128,192,385114,128,0,385218:0:0:0:0:
469,192,385322,128,0,385739:0:0:0:0:
213,192,385322,128,0,386989:0:0:0:0:
42,192,385322,128,0,386989:0:0:0:0:
384,192,385947,128,0,386156:0:0:0:0:
320,192,386156,1,0,0:0:0:0:
320,192,386364,128,0,386572:0:0:0:0:
448,192,386572,1,0,0:0:0:0:
448,192,386989,128,0,387197:0:0:0:0:
320,192,386989,128,0,388239:0:0:0:0:
192,192,387197,128,0,387406:0:0:0:0:
64,192,387406,128,0,387614:0:0:0:0:
213,192,387614,128,0,388031:0:0:0:0:
469,192,387822,1,0,0:0:0:0:
42,192,388239,1,0,0:0:0:0:
448,192,388239,1,0,0:0:0:0:
192,192,388239,128,0,389281:0:0:0:0:
64,192,388447,1,0,0:0:0:0:
320,192,388447,128,0,389281:0:0:0:0:
448,192,388656,1,0,0:0:0:0:
42,192,389072,128,0,389489:0:0:0:0:
469,192,389072,128,0,389489:0:0:0:0:
192,192,389489,128,0,390114:0:0:0:0:
320,192,389489,128,0,390114:0:0:0:0:
448,192,389697,128,0,389906:0:0:0:0:
64,192,389906,128,0,390114:0:0:0:0:
448,192,390114,128,0,390322:0:0:0:0:
320,192,390322,128,0,390531:0:0:0:0:
42,192,390322,1,0,0:0:0:0:
192,192,390322,128,0,391156:0:0:0:0:
42,192,390531,128,0,391156:0:0:0:0:
298,192,390739,128,0,390947:0:0:0:0:
469,192,390947,128,0,391364:0:0:0:0:
298,192,391156,128,0,391364:0:0:0:0:
469,192,391572,1,0,0:0:0:0:
320,192,391572,128,0,392614:0:0:0:0:
469,192,391781,1,0,0:0:0:0:
192,192,391781,128,0,392822:0:0:0:0:
64,192,391989,128,0,392197:0:0:0:0:
448,192,392197,128,0,392406:0:0:0:0:
64,192,392406,128,0,392614:0:0:0:0:
384,192,392614,128,0,392822:0:0:0:0:
64,192,392822,128,0,393031:0:0:0:0:
320,192,392822,128,0,393239:0:0:0:0:
384,192,393031,128,0,393656:0:0:0:0:
128,192,393031,128,0,393447:0:0:0:0:
64,192,393239,128,0,393656:0:0:0:0:
320,192,393447,1,0,0:0:0:0:
192,192,393656,128,0,395947:0:0:0:0:
320,192,393656,128,0,394906:0:0:0:0:
64,192,393864,128,0,394072:0:0:0:0:
384,192,394072,128,0,394281:0:0:0:0:
64,192,394281,128,0,394489:0:0:0:0:
448,192,394489,128,0,395322:0:0:0:0:
64,192,394906,128,0,396156:0:0:0:0:
320,192,395322,128,0,395739:0:0:0:0:
448,192,395739,1,0,0:0:0:0:
192,192,396156,1,0,0:0:0:0:
448,192,396156,1,0,0:0:0:0:
320,192,396156,1,0,0:0:0:0:
42,192,396572,1,0,0:0:0:0:
192,192,396572,128,0,396781:0:0:0:0:
448,192,396781,1,0,0:0:0:0:
320,192,396781,128,0,396989:0:0:0:0:
192,192,396989,128,0,398031:0:0:0:0:
42,192,396989,128,0,400114:0:0:0:0:
448,192,396989,128,0,398239:0:0:0:0:
320,192,397406,1,0,0:0:0:0:
298,192,397822,1,0,0:0:0:0:
320,192,398239,1,0,0:0:0:0:
192,192,398239,128,0,398447:0:0:0:0:
320,192,398447,128,0,398656:0:0:0:0:
192,192,398656,128,0,400114:0:0:0:0:
448,192,398656,128,0,400114:0:0:0:0:
320,192,399489,5,0,0:0:0:0:
320,192,399801,1,0,0:0:0:0:
320,192,399906,1,0,0:0:0:0:
320,192,400114,1,0,0:0:0:0:
298,192,400322,128,0,400531:0:0:0:0:
469,192,400322,128,0,400531:0:0:0:0:
128,192,400322,128,0,400531:0:0:0:0:
64,192,400322,128,0,400531:0:0:0:0:
64,192,400739,128,0,401260:0:0:0:0:
448,192,400739,128,0,401260:0:0:0:0:
192,192,400739,128,0,401051:0:0:0:0:
320,192,400739,128,0,401051:0:0:0:0:
192,192,401156,128,0,401468:0:0:0:0:
320,192,401156,128,0,401468:0:0:0:0:
448,192,401364,128,0,401676:0:0:0:0:
64,192,401364,128,0,401676:0:0:0:0:
320,192,401572,128,0,403135:0:0:0:0:
192,192,401572,128,0,402718:0:0:0:0:
448,192,401781,128,0,402718:0:0:0:0:
64,192,401781,128,0,403135:0:0:0:0:
192,192,402822,128,0,404801:0:0:0:0:
448,192,402822,128,0,403551:0:0:0:0:
64,192,403239,128,0,405010:0:0:0:0:
320,192,403239,128,0,404593:0:0:0:0:
448,192,403656,128,0,406885:0:0:0:0:
320,192,404697,128,0,408135:0:0:0:0:
192,192,404906,128,0,406468:0:0:0:0:
64,192,405114,128,0,406051:0:0:0:0:
64,192,406156,128,0,408135:0:0:0:0:
192,192,406572,128,0,408343:0:0:0:0:
448,192,406989,128,0,408551:0:0:0:0:
64,192,408239,128,0,408551:0:0:0:0:
320,192,408239,128,0,409801:0:0:0:0:
192,192,408447,128,0,409385:0:0:0:0:
64,192,408656,128,0,409801:0:0:0:0:
448,192,408656,128,0,409385:0:0:0:0:
192,192,409489,128,0,410218:0:0:0:0:
448,192,409489,128,0,411989:0:0:0:0:
64,192,409906,128,0,410218:0:0:0:0:
320,192,409906,128,0,410218:0:0:0:0:
192,192,410322,128,0,411989:0:0:0:0:
64,192,410322,128,0,410426:0:0:0:0:
320,192,410322,128,0,411989:0:0:0:0:
64,192,410531,1,0,0:0:0:0:
64,192,410739,128,0,410843:0:0:0:0:
64,192,410947,1,0,0:0:0:0:
64,192,411572,128,0,411676:0:0:0:0:
64,192,411781,128,0,411885:0:0:0:0:
64,192,411989,128,0,416051:0:0:0:0:
192,192,412406,128,0,412614:0:0:0:0:
448,192,412614,128,0,413031:0:0:0:0:
320,192,413031,128,0,413447:0:0:0:0:
320,192,413656,128,0,413760:0:0:0:0:
448,192,413656,128,0,415010:0:0:0:0:
192,192,413656,128,0,416260:0:0:0:0:
320,192,413864,1,0,0:0:0:0:
320,192,414072,128,0,414176:0:0:0:0:
320,192,414281,1,0,0:0:0:0:
320,192,414906,128,0,416051:0:0:0:0:
448,192,415114,128,0,416260:0:0:0:0:
64,192,416156,128,0,416885:0:0:0:0:
320,192,416156,128,0,416468:0:0:0:0:
448,192,416364,128,0,416468:0:0:0:0:
192,192,416364,128,0,416676:0:0:0:0:
320,192,416572,128,0,416885:0:0:0:0:
448,192,416572,128,0,416885:0:0:0:0:
192,192,416781,128,0,418135:0:0:0:0:
448,192,416989,128,0,417093:0:0:0:0:
320,192,416989,128,0,418343:0:0:0:0:
64,192,416989,128,0,418343:0:0:0:0:
469,192,417197,1,0,0:0:0:0:
469,192,417406,128,0,417510:0:0:0:0:
469,192,417614,1,0,0:0:0:0:
192,192,418239,128,0,419593:0:0:0:0:
64,192,418447,128,0,419593:0:0:0:0:
320,192,418447,128,0,419801:0:0:0:0:
64,192,419697,128,0,421468:0:0:0:0:
192,192,419697,128,0,419801:0:0:0:0:
320,192,419906,128,0,420010:0:0:0:0:
192,192,419906,128,0,420218:0:0:0:0:
448,192,420114,128,0,420218:0:0:0:0:
320,192,420114,128,0,421051:0:0:0:0:
192,192,420322,128,0,420426:0:0:0:0:
448,192,420322,128,0,421051:0:0:0:0:
192,192,420531,1,0,0:0:0:0:
192,192,420739,128,0,420843:0:0:0:0:
192,192,420947,1,0,0:0:0:0:
448,192,421156,128,0,422926:0:0:0:0:
320,192,421156,128,0,422718:0:0:0:0:
64,192,421572,128,0,423135:0:0:0:0:
192,192,421572,128,0,422926:0:0:0:0:
320,192,422822,128,0,423135:0:0:0:0:
192,192,423031,128,0,423343:0:0:0:0:
448,192,423031,128,0,423551:0:0:0:0:
64,192,423239,128,0,424801:0:0:0:0:
320,192,423239,128,0,423551:0:0:0:0:
192,192,423447,128,0,429489:0:0:0:0:
320,192,423656,128,0,429489:0:0:0:0:
448,192,423656,128,0,426885:0:0:0:0:
42,192,424906,128,0,425010:0:0:0:0:
42,192,425114,128,0,425218:0:0:0:0:
469,192,426989,128,0,427093:0:0:0:0:
469,192,427197,128,0,427301:0:0:0:0:
448,192,442344,5,0,0:0:0:0:
64,192,442344,128,0,442889:0:0:0:0:
192,192,442344,1,0,0:0:0:0:
192,192,442616,1,0,0:0:0:0:
320,192,442753,1,0,0:0:0:0:
448,192,442889,128,0,443162:0:0:0:0:
192,192,442889,1,0,0:0:0:0:
320,192,443162,128,0,443434:0:0:0:0:
64,192,443162,1,0,0:0:0:0:
192,192,443162,1,0,0:0:0:0:
448,192,443434,1,0,0:0:0:0:
192,192,443707,128,0,443980:0:0:0:0:
64,192,443707,1,0,0:0:0:0:
320,192,443980,1,0,0:0:0:0:
448,192,443980,1,0,0:0:0:0:
64,192,444253,128,0,445344:0:0:0:0:
192,192,444253,1,0,0:0:0:0:
448,192,444525,1,0,0:0:0:0:
192,192,444525,1,0,0:0:0:0:
320,192,444798,1,0,0:0:0:0:
448,192,444934,1,0,0:0:0:0:
320,192,445071,1,0,0:0:0:0:
192,192,445344,128,0,445889:0:0:0:0:
448,192,445344,1,0,0:0:0:0:
320,192,445344,1,0,0:0:0:0:
448,192,445616,1,0,0:0:0:0:
64,192,445889,128,0,446707:0:0:0:0:
320,192,445889,1,0,0:0:0:0:
448,192,446162,1,0,0:0:0:0:
320,192,446162,1,0,0:0:0:0:
192,192,446434,1,0,0:0:0:0:
448,192,446707,128,0,447253:0:0:0:0:
320,192,446707,1,0,0:0:0:0:
192,192,446707,1,0,0:0:0:0:
192,192,446980,1,0,0:0:0:0:
320,192,447116,1,0,0:0:0:0:
64,192,447253,128,0,447525:0:0:0:0:
192,192,447253,1,0,0:0:0:0:
192,192,447525,128,0,447798:0:0:0:0:
320,192,447525,1,0,0:0:0:0:
448,192,447525,1,0,0:0:0:0:
64,192,447798,1,0,0:0:0:0:
320,192,448071,128,0,448344:0:0:0:0:
448,192,448071,1,0,0:0:0:0:
64,192,448344,1,0,0:0:0:0:
192,192,448344,1,0,0:0:0:0:
448,192,448616,128,0,448753:0:0:0:0:
192,192,448616,1,0,0:0:0:0:
320,192,448753,128,0,448889:0:0:0:0:
448,192,448889,128,0,451071:0:0:0:0:
64,192,448889,1,0,0:0:0:0:
192,192,448889,1,0,0:0:0:0:
192,192,449162,1,0,0:0:0:0:
64,192,449298,1,0,0:0:0:0:
192,192,449434,1,0,0:0:0:0:
64,192,449707,128,0,450525:0:0:0:0:
192,192,449707,1,0,0:0:0:0:
320,192,449707,1,0,0:0:0:0:
192,192,449980,1,0,0:0:0:0:
320,192,450253,1,0,0:0:0:0:
192,192,450525,128,0,451071:0:0:0:0:
320,192,450525,1,0,0:0:0:0:
64,192,450798,1,0,0:0:0:0:
64,192,451071,128,0,451616:0:0:0:0:
320,192,451071,1,0,0:0:0:0:
320,192,451344,1,0,0:0:0:0:
192,192,451480,1,0,0:0:0:0:
448,192,451616,128,0,451889:0:0:0:0:
320,192,451616,1,0,0:0:0:0:
320,192,451889,128,0,452162:0:0:0:0:
64,192,451889,1,0,0:0:0:0:
192,192,451889,1,0,0:0:0:0:
448,192,452162,1,0,0:0:0:0:
192,192,452434,128,0,452707:0:0:0:0:
64,192,452434,1,0,0:0:0:0:
320,192,452707,1,0,0:0:0:0:
448,192,452707,1,0,0:0:0:0:
64,192,452980,128,0,454616:0:0:0:0:
192,192,452980,1,0,0:0:0:0:
320,192,453253,1,0,0:0:0:0:
448,192,453253,1,0,0:0:0:0:
448,192,453525,1,0,0:0:0:0:
320,192,453662,1,0,0:0:0:0:
448,192,453798,1,0,0:0:0:0:
192,192,454071,1,0,0:0:0:0:
320,192,454071,1,0,0:0:0:0:
320,192,454344,1,0,0:0:0:0:
320,192,454616,128,0,454753:0:0:0:0:
448,192,454616,1,0,0:0:0:0:
192,192,454753,128,0,454889:0:0:0:0:
64,192,454889,128,0,455162:0:0:0:0:
320,192,454889,1,0,0:0:0:0:
448,192,454889,1,0,0:0:0:0:
192,192,455162,128,0,455434:0:0:0:0:
320,192,455162,1,0,0:0:0:0:
448,192,455434,128,0,455980:0:0:0:0:
64,192,455434,1,0,0:0:0:0:
320,192,455434,1,0,0:0:0:0:
192,192,455707,1,0,0:0:0:0:
320,192,455844,1,0,0:0:0:0:
64,192,455980,128,0,456253:0:0:0:0:
192,192,455980,1,0,0:0:0:0:
192,192,456253,128,0,456525:0:0:0:0:
320,192,456253,1,0,0:0:0:0:
448,192,456253,1,0,0:0:0:0:
64,192,456525,1,0,0:0:0:0:
320,192,456798,128,0,457071:0:0:0:0:
448,192,456798,1,0,0:0:0:0:
64,192,457071,1,0,0:0:0:0:
192,192,457071,1,0,0:0:0:0:
448,192,457344,128,0,457889:0:0:0:0:
320,192,457344,1,0,0:0:0:0:
64,192,457616,1,0,0:0:0:0:
320,192,457616,1,0,0:0:0:0:
192,192,457753,1,0,0:0:0:0:
320,192,457889,128,0,458162:0:0:0:0:
64,192,457889,1,0,0:0:0:0:
192,192,458025,1,0,0:0:0:0:
448,192,458162,128,0,458434:0:0:0:0:
64,192,458162,1,0,0:0:0:0:
192,192,458298,1,0,0:0:0:0:
64,192,458434,1,0,0:0:0:0:
320,192,458434,1,0,0:0:0:0:
192,192,458571,1,0,0:0:0:0:
64,192,458707,1,0,0:0:0:0:
448,192,458707,1,0,0:0:0:0:
192,192,458844,1,0,0:0:0:0:
320,192,458844,1,0,0:0:0:0:
64,192,458980,1,0,0:0:0:0:
448,192,458980,1,0,0:0:0:0:
192,192,459116,1,0,0:0:0:0:
320,192,459116,1,0,0:0:0:0:
64,192,459253,1,0,0:0:0:0:
448,192,459253,1,0,0:0:0:0:
64,192,459389,1,0,0:0:0:0:
320,192,459389,1,0,0:0:0:0:
448,192,459525,1,0,0:0:0:0:
192,192,459525,1,0,0:0:0:0:
64,192,459662,1,0,0:0:0:0:
448,192,459662,1,0,0:0:0:0:
320,192,459798,1,0,0:0:0:0:
192,192,459798,1,0,0:0:0:0:
64,192,460071,128,0,460207:0:0:0:0:
192,192,460207,128,0,460344:0:0:0:0:
320,192,460344,1,0,0:0:0:0:
448,192,460344,128,0,460480:0:0:0:0:
192,192,460480,1,0,0:0:0:0:
320,192,460616,1,0,0:0:0:0:
64,192,460616,128,0,460753:0:0:0:0:
192,192,460753,1,0,0:0:0:0:
320,192,460889,1,0,0:0:0:0:
448,192,460889,128,0,461025:0:0:0:0:
192,192,461162,1,0,0:0:0:0:
64,192,461162,128,0,461298:0:0:0:0:
192,192,461434,1,0,0:0:0:0:
448,192,461434,128,0,461980:0:0:0:0:
320,192,461571,1,0,0:0:0:0:
192,192,461707,1,0,0:0:0:0:
320,192,461844,1,0,0:0:0:0:
64,192,461980,1,0,0:0:0:0:
192,192,461980,1,0,0:0:0:0:
64,192,462253,1,0,0:0:0:0:
320,192,462253,128,0,462389:0:0:0:0:
192,192,462389,1,0,0:0:0:0:
448,192,462389,128,0,462525:0:0:0:0:
64,192,462525,1,0,0:0:0:0:
320,192,462525,128,0,462662:0:0:0:0:
192,192,462662,1,0,0:0:0:0:
448,192,462798,1,0,0:0:0:0:
64,192,462798,128,0,462934:0:0:0:0:
320,192,463071,1,0,0:0:0:0:
448,192,463071,128,0,463207:0:0:0:0:
192,192,463344,1,0,0:0:0:0:
320,192,463344,128,0,463480:0:0:0:0:
64,192,463616,1,0,0:0:0:0:
192,192,463616,128,0,463753:0:0:0:0:
448,192,463889,1,0,0:0:0:0:
64,192,463889,128,0,464025:0:0:0:0:
448,192,464025,1,0,0:0:0:0:
64,192,464162,1,0,0:0:0:0:
320,192,464162,1,0,0:0:0:0:
64,192,464434,128,0,464571:0:0:0:0:
192,192,464571,128,0,464707:0:0:0:0:
320,192,464707,1,0,0:0:0:0:
448,192,464707,128,0,464844:0:0:0:0:
192,192,464844,1,0,0:0:0:0:
320,192,464980,1,0,0:0:0:0:
64,192,464980,128,0,465116:0:0:0:0:
192,192,465116,1,0,0:0:0:0:
320,192,465253,1,0,0:0:0:0:
448,192,465253,128,0,465389:0:0:0:0:
192,192,465525,1,0,0:0:0:0:
64,192,465525,128,0,465662:0:0:0:0:
448,192,465798,1,0,0:0:0:0:
192,192,465798,128,0,465934:0:0:0:0:
448,192,466071,1,0,0:0:0:0:
320,192,466071,128,0,466616:0:0:0:0:
64,192,466344,1,0,0:0:0:0:
192,192,466344,1,0,0:0:0:0:
448,192,466616,128,0,466753:0:0:0:0:
192,192,466616,1,0,0:0:0:0:
64,192,466753,1,0,0:0:0:0:
320,192,466889,128,0,467025:0:0:0:0:
192,192,466889,1,0,0:0:0:0:
448,192,466889,1,0,0:0:0:0:
64,192,467025,1,0,0:0:0:0:
448,192,467162,128,0,467298:0:0:0:0:
320,192,467162,1,0,0:0:0:0:
192,192,467298,1,0,0:0:0:0:
64,192,467434,128,0,467571:0:0:0:0:
320,192,467434,1,0,0:0:0:0:
448,192,467571,1,0,0:0:0:0:
192,192,467707,128,0,467844:0:0:0:0:
320,192,467707,1,0,0:0:0:0:
448,192,467844,1,0,0:0:0:0:
320,192,467980,128,0,468116:0:0:0:0:
64,192,467980,1,0,0:0:0:0:
192,192,468116,1,0,0:0:0:0:
448,192,468253,128,0,468389:0:0:0:0:
64,192,468253,1,0,0:0:0:0:
192,192,468389,1,0,0:0:0:0:
64,192,468525,1,0,0:0:0:0:
320,192,468525,1,0,0:0:0:0:
448,192,468525,1,0,0:0:0:0:
64,192,468798,128,0,468934:0:0:0:0:
192,192,468934,128,0,469071:0:0:0:0:
320,192,469071,1,0,0:0:0:0:
448,192,469071,128,0,469207:0:0:0:0:
192,192,469207,1,0,0:0:0:0:
320,192,469344,1,0,0:0:0:0:
64,192,469344,128,0,469480:0:0:0:0:
192,192,469480,1,0,0:0:0:0:
320,192,469616,1,0,0:0:0:0:
448,192,469616,128,0,469753:0:0:0:0:
192,192,469889,1,0,0:0:0:0:
64,192,469889,128,0,470025:0:0:0:0:
192,192,470162,1,0,0:0:0:0:
448,192,470162,128,0,470707:0:0:0:0:
320,192,470298,1,0,0:0:0:0:
192,192,470434,1,0,0:0:0:0:
320,192,470571,1,0,0:0:0:0:
192,192,470707,1,0,0:0:0:0:
64,192,470707,1,0,0:0:0:0:
448,192,470980,1,0,0:0:0:0:
192,192,470980,128,0,471116:0:0:0:0:
320,192,471116,128,0,471253:0:0:0:0:
448,192,471253,128,0,471389:0:0:0:0:
192,192,471253,1,0,0:0:0:0:
64,192,471253,1,0,0:0:0:0:
320,192,471389,128,0,471525:0:0:0:0:
192,192,471525,128,0,471662:0:0:0:0:
448,192,471525,1,0,0:0:0:0:
64,192,471662,128,0,471798:0:0:0:0:
448,192,471798,128,0,471934:0:0:0:0:
192,192,471798,1,0,0:0:0:0:
320,192,471934,128,0,472071:0:0:0:0:
192,192,472071,128,0,472207:0:0:0:0:
448,192,472071,1,0,0:0:0:0:
64,192,472207,128,0,472344:0:0:0:0:
448,192,472344,128,0,472480:0:0:0:0:
192,192,472344,1,0,0:0:0:0:
320,192,472480,128,0,472616:0:0:0:0:
192,192,472616,128,0,472753:0:0:0:0:
448,192,472616,1,0,0:0:0:0:
64,192,472753,128,0,472889:0:0:0:0:
320,192,472753,1,0,0:0:0:0:
192,192,472889,1,0,0:0:0:0:
448,192,472889,1,0,0:0:0:0:
64,192,473162,128,0,473298:0:0:0:0:
192,192,473298,128,0,473434:0:0:0:0:
320,192,473434,1,0,0:0:0:0:
448,192,473434,128,0,473571:0:0:0:0:
192,192,473571,1,0,0:0:0:0:
320,192,473707,1,0,0:0:0:0:
64,192,473707,128,0,473844:0:0:0:0:
192,192,473844,1,0,0:0:0:0:
320,192,473980,1,0,0:0:0:0:
448,192,473980,128,0,474116:0:0:0:0:
192,192,474253,1,0,0:0:0:0:
64,192,474253,128,0,474389:0:0:0:0:
448,192,474525,1,0,0:0:0:0:
192,192,474525,128,0,474662:0:0:0:0:
448,192,474798,1,0,0:0:0:0:
320,192,474798,128,0,475344:0:0:0:0:
192,192,475071,1,0,0:0:0:0:
64,192,475071,1,0,0:0:0:0:
192,192,475344,128,0,475480:0:0:0:0:
448,192,475344,1,0,0:0:0:0:
64,192,475480,1,0,0:0:0:0:
192,192,475616,1,0,0:0:0:0:
448,192,475616,128,0,475753:0:0:0:0:
320,192,475616,1,0,0:0:0:0:
64,192,475753,1,0,0:0:0:0:
320,192,475889,128,0,476025:0:0:0:0:
448,192,475889,1,0,0:0:0:0:
192,192,476025,1,0,0:0:0:0:
448,192,476162,128,0,476298:0:0:0:0:
320,192,476162,1,0,0:0:0:0:
64,192,476298,1,0,0:0:0:0:
320,192,476434,128,0,476571:0:0:0:0:
192,192,476434,1,0,0:0:0:0:
448,192,476571,1,0,0:0:0:0:
64,192,476707,1,0,0:0:0:0:
192,192,476707,128,0,476844:0:0:0:0:
320,192,476844,1,0,0:0:0:0:
64,192,476980,128,0,477116:0:0:0:0:
448,192,476980,1,0,0:0:0:0:
320,192,477116,1,0,0:0:0:0:
448,192,477116,1,0,0:0:0:0:
64,192,477253,128,0,477389:0:0:0:0:
192,192,477253,1,0,0:0:0:0:
320,192,477525,128,0,477662:0:0:0:0:
192,192,477662,1,0,0:0:0:0:
448,192,477798,128,0,477934:0:0:0:0:
320,192,477798,1,0,0:0:0:0:
64,192,477798,1,0,0:0:0:0:
320,192,478071,128,0,478207:0:0:0:0:
192,192,478207,128,0,478344:0:0:0:0:
448,192,478344,128,0,478480:0:0:0:0:
64,192,478344,1,0,0:0:0:0:
192,192,478480,128,0,478616:0:0:0:0:
320,192,478616,1,0,0:0:0:0:
448,192,478616,1,0,0:0:0:0:
192,192,478753,128,0,478889:0:0:0:0:
448,192,478889,128,0,479025:0:0:0:0:
64,192,478889,1,0,0:0:0:0:
320,192,478889,1,0,0:0:0:0:
192,192,479162,128,0,479298:0:0:0:0:
320,192,479298,128,0,479434:0:0:0:0:
64,192,479434,128,0,479571:0:0:0:0:
448,192,479434,1,0,0:0:0:0:
320,192,479707,128,0,479844:0:0:0:0:
192,192,479844,128,0,479980:0:0:0:0:
64,192,479980,128,0,480116:0:0:0:0:
320,192,479980,1,0,0:0:0:0:
448,192,479980,1,0,0:0:0:0:
192,192,480253,1,0,0:0:0:0:
320,192,480389,128,0,480525:0:0:0:0:
64,192,480525,128,0,480662:0:0:0:0:
448,192,480525,1,0,0:0:0:0:
320,192,480662,128,0,480798:0:0:0:0:
192,192,480798,1,0,0:0:0:0:
64,192,480798,1,0,0:0:0:0:
64,192,481071,128,0,481207:0:0:0:0:
448,192,481071,1,0,0:0:0:0:
320,192,481071,1,0,0:0:0:0:
320,192,481344,128,0,481616:0:0:0:0:
192,192,481480,1,0,0:0:0:0:
448,192,481616,128,0,481753:0:0:0:0:
64,192,481616,1,0,0:0:0:0:
64,192,481889,1,0,0:0:0:0:
192,192,482025,1,0,0:0:0:0:
448,192,482162,128,0,482298:0:0:0:0:
64,192,482162,1,0,0:0:0:0:
320,192,482162,1,0,0:0:0:0:
192,192,482434,128,0,482571:0:0:0:0:
320,192,482571,128,0,482707:0:0:0:0:
448,192,482707,128,0,482844:0:0:0:0:
64,192,482707,1,0,0:0:0:0:
192,192,482844,1,0,0:0:0:0:
320,192,482980,1,0,0:0:0:0:
448,192,482980,1,0,0:0:0:0:
448,192,483253,128,0,483389:0:0:0:0:
320,192,483253,1,0,0:0:0:0:
64,192,483253,128,0,483389:0:0:0:0:
192,192,483389,128,0,483525:0:0:0:0:
320,192,483525,128,0,483662:0:0:0:0:
64,192,483662,128,0,483798:0:0:0:0:
192,192,483798,1,0,0:0:0:0:
448,192,483798,128,0,483934:0:0:0:0:
64,192,483934,1,0,0:0:0:0:
320,192,483934,1,0,0:0:0:0:
192,192,484071,1,0,0:0:0:0:
448,192,484071,1,0,0:0:0:0:
64,192,484207,1,0,0:0:0:0:
320,192,484207,1,0,0:0:0:0:
192,192,484344,1,0,0:0:0:0:
448,192,484344,128,0,484480:0:0:0:0:
64,192,484480,1,0,0:0:0:0:
320,192,484616,1,0,0:0:0:0:
448,192,484753,1,0,0:0:0:0:
320,192,484889,1,0,0:0:0:0:
64,192,484889,128,0,485025:0:0:0:0:
192,192,485025,1,0,0:0:0:0:
448,192,485025,1,0,0:0:0:0:
320,192,485162,1,0,0:0:0:0:
64,192,485162,1,0,0:0:0:0:
192,192,485298,1,0,0:0:0:0:
448,192,485298,1,0,0:0:0:0:
320,192,485434,1,0,0:0:0:0:
64,192,485434,128,0,485571:0:0:0:0:
448,192,485571,1,0,0:0:0:0:
192,192,485707,1,0,0:0:0:0:
448,192,485844,1,0,0:0:0:0:
320,192,485980,1,0,0:0:0:0:
192,192,485980,1,0,0:0:0:0:
64,192,485980,128,0,486116:0:0:0:0:
448,192,486116,1,0,0:0:0:0:
320,192,486253,1,0,0:0:0:0:
192,192,486389,1,0,0:0:0:0:
64,192,486525,1,0,0:0:0:0:
320,192,486525,1,0,0:0:0:0:
448,192,486525,128,0,486662:0:0:0:0:
192,192,486662,1,0,0:0:0:0:
320,192,486798,1,0,0:0:0:0:
448,192,486934,1,0,0:0:0:0:
320,192,487071,1,0,0:0:0:0:
64,192,487071,128,0,487207:0:0:0:0:
448,192,487207,1,0,0:0:0:0:
320,192,487344,1,0,0:0:0:0:
192,192,487480,1,0,0:0:0:0:
64,192,487616,1,0,0:0:0:0:
320,192,487616,1,0,0:0:0:0:
448,192,487616,128,0,487753:0:0:0:0:
192,192,487753,1,0,0:0:0:0:
320,192,487889,1,0,0:0:0:0:
192,192,488025,1,0,0:0:0:0:
320,192,488162,1,0,0:0:0:0:
64,192,488162,128,0,488298:0:0:0:0:
192,192,488298,1,0,0:0:0:0:
320,192,488434,1,0,0:0:0:0:
448,192,488571,1,0,0:0:0:0:
64,192,488707,1,0,0:0:0:0:
320,192,488707,1,0,0:0:0:0:
448,192,488707,128,0,488844:0:0:0:0:
192,192,488844,1,0,0:0:0:0:
320,192,488980,1,0,0:0:0:0:
448,192,489116,1,0,0:0:0:0:
192,192,489253,1,0,0:0:0:0:
64,192,489253,128,0,489389:0:0:0:0:
320,192,489389,1,0,0:0:0:0:
192,192,489525,1,0,0:0:0:0:
64,192,489662,1,0,0:0:0:0:
320,192,489798,1,0,0:0:0:0:
192,192,489798,1,0,0:0:0:0:
448,192,489798,128,0,489934:0:0:0:0:
64,192,489934,1,0,0:0:0:0:
320,192,490071,1,0,0:0:0:0:
192,192,490207,1,0,0:0:0:0:
448,192,490344,1,0,0:0:0:0:
64,192,490344,128,0,490480:0:0:0:0:
320,192,490480,1,0,0:0:0:0:
448,192,490616,1,0,0:0:0:0:
192,192,490753,1,0,0:0:0:0:
64,192,490889,1,0,0:0:0:0:
320,192,490889,1,0,0:0:0:0:
448,192,490889,128,0,491025:0:0:0:0:
192,192,491025,1,0,0:0:0:0:
320,192,491162,1,0,0:0:0:0:
192,192,491298,1,0,0:0:0:0:
448,192,491434,1,0,0:0:0:0:
64,192,491434,128,0,491571:0:0:0:0:
320,192,491571,1,0,0:0:0:0:
448,192,491707,1,0,0:0:0:0:
192,192,491844,1,0,0:0:0:0:
64,192,491980,1,0,0:0:0:0:
320,192,491980,1,0,0:0:0:0:
448,192,491980,128,0,492116:0:0:0:0:
192,192,492116,1,0,0:0:0:0:
320,192,492253,1,0,0:0:0:0:
448,192,492389,1,0,0:0:0:0:
320,192,492525,1,0,0:0:0:0:
64,192,492525,128,0,492662:0:0:0:0:
192,192,492662,1,0,0:0:0:0:
448,192,492798,1,0,0:0:0:0:
320,192,492934,1,0,0:0:0:0:
64,192,493071,1,0,0:0:0:0:
192,192,493071,1,0,0:0:0:0:
448,192,493071,128,0,493207:0:0:0:0:
320,192,493207,1,0,0:0:0:0:
448,192,493344,1,0,0:0:0:0:
320,192,493480,1,0,0:0:0:0:
192,192,493616,1,0,0:0:0:0:
448,192,493616,1,0,0:0:0:0:
64,192,493753,1,0,0:0:0:0:
320,192,493889,1,0,0:0:0:0:
192,192,493889,128,0,494162:0:0:0:0:
448,192,494025,1,0,0:0:0:0:
320,192,494094,1,0,0:0:0:0:
448,192,494162,1,0,0:0:0:0:
64,192,494162,128,0,494434:0:0:0:0:
320,192,494298,1,0,0:0:0:0:
192,192,494434,128,0,494707:0:0:0:0:
448,192,494434,1,0,0:0:0:0:
64,192,494571,1,0,0:0:0:0:
448,192,494707,128,0,495798:0:0:0:0:
320,192,494707,128,0,494844:0:0:0:0:
64,192,494980,1,0,0:0:0:0:
192,192,495116,1,0,0:0:0:0:
64,192,495253,1,0,0:0:0:0:
320,192,495253,128,0,495389:0:0:0:0:
320,192,495525,1,0,0:0:0:0:
64,192,495662,1,0,0:0:0:0:
192,192,495798,128,0,496344:0:0:0:0:
320,192,495798,128,0,495934:0:0:0:0:
448,192,496071,1,0,0:0:0:0:
64,192,496344,128,0,496889:0:0:0:0:
448,192,496344,1,0,0:0:0:0:
320,192,496344,128,0,496480:0:0:0:0:
192,192,496616,1,0,0:0:0:0:
320,192,496753,1,0,0:0:0:0:
192,192,496889,128,0,497980:0:0:0:0:
448,192,496889,128,0,497025:0:0:0:0:
448,192,497162,1,0,0:0:0:0:
320,192,497298,1,0,0:0:0:0:
64,192,497434,1,0,0:0:0:0:
448,192,497434,128,0,497571:0:0:0:0:
320,192,497707,1,0,0:0:0:0:
64,192,497844,1,0,0:0:0:0:
320,192,497980,128,0,498525:0:0:0:0:
448,192,497980,128,0,498116:0:0:0:0:
192,192,498253,1,0,0:0:0:0:
448,192,498525,128,0,499071:0:0:0:0:
192,192,498525,1,0,0:0:0:0:
64,192,498525,128,0,498662:0:0:0:0:
192,192,498798,1,0,0:0:0:0:
320,192,498934,1,0,0:0:0:0:
64,192,499071,128,0,500162:0:0:0:0:
192,192,499071,128,0,499207:0:0:0:0:
320,192,499344,1,0,0:0:0:0:
448,192,499480,1,0,0:0:0:0:
320,192,499616,1,0,0:0:0:0:
192,192,499616,128,0,499753:0:0:0:0:
320,192,499889,1,0,0:0:0:0:
448,192,500025,1,0,0:0:0:0:
192,192,500162,128,0,500707:0:0:0:0:
320,192,500162,128,0,500298:0:0:0:0:
64,192,500434,1,0,0:0:0:0:
448,192,500707,128,0,501253:0:0:0:0:
64,192,500707,1,0,0:0:0:0:
320,192,500707,128,0,500844:0:0:0:0:
192,192,500980,1,0,0:0:0:0:
64,192,501116,1,0,0:0:0:0:
320,192,501253,128,0,502344:0:0:0:0:
192,192,501253,128,0,501389:0:0:0:0:
192,192,501525,1,0,0:0:0:0:
64,192,501662,1,0,0:0:0:0:
448,192,501798,1,0,0:0:0:0:
192,192,501798,128,0,501934:0:0:0:0:
448,192,502071,1,0,0:0:0:0:
64,192,502207,1,0,0:0:0:0:
192,192,502344,128,0,502889:0:0:0:0:
448,192,502344,128,0,502480:0:0:0:0:
64,192,502480,1,0,0:0:0:0:
320,192,502616,1,0,0:0:0:0:
64,192,502889,128,0,503434:0:0:0:0:
320,192,502889,1,0,0:0:0:0:
448,192,502889,128,0,503025:0:0:0:0:
320,192,503162,1,0,0:0:0:0:
192,192,503298,1,0,0:0:0:0:
448,192,503434,128,0,504525:0:0:0:0:
320,192,503434,128,0,503571:0:0:0:0:
192,192,503434,1,0,0:0:0:0:
64,192,503707,1,0,0:0:0:0:
192,192,503844,1,0,0:0:0:0:
64,192,503980,1,0,0:0:0:0:
320,192,503980,128,0,504116:0:0:0:0:
64,192,504253,1,0,0:0:0:0:
192,192,504389,1,0,0:0:0:0:
320,192,504525,128,0,505071:0:0:0:0:
64,192,504525,128,0,504662:0:0:0:0:
448,192,504798,1,0,0:0:0:0:
192,192,505071,128,0,505616:0:0:0:0:
448,192,505071,1,0,0:0:0:0:
64,192,505071,128,0,505207:0:0:0:0:
448,192,505344,1,0,0:0:0:0:
320,192,505480,1,0,0:0:0:0:
64,192,505616,128,0,506707:0:0:0:0:
448,192,505616,128,0,505753:0:0:0:0:
448,192,505889,1,0,0:0:0:0:
320,192,506025,1,0,0:0:0:0:
448,192,506162,1,0,0:0:0:0:
192,192,506162,128,0,506298:0:0:0:0:
448,192,506434,1,0,0:0:0:0:
320,192,506571,1,0,0:0:0:0:
192,192,506707,128,0,507253:0:0:0:0:
448,192,506707,128,0,506844:0:0:0:0:
64,192,506980,1,0,0:0:0:0:
320,192,507253,128,0,507798:0:0:0:0:
64,192,507253,1,0,0:0:0:0:
448,192,507253,128,0,507389:0:0:0:0:
192,192,507525,1,0,0:0:0:0:
64,192,507662,1,0,0:0:0:0:
192,192,507798,128,0,509434:0:0:0:0:
448,192,507798,128,0,507934:0:0:0:0:
64,192,508071,1,0,0:0:0:0:
320,192,508207,1,0,0:0:0:0:
448,192,508344,1,0,0:0:0:0:
64,192,508344,128,0,508480:0:0:0:0:
448,192,508616,1,0,0:0:0:0:
320,192,508753,1,0,0:0:0:0:
448,192,508889,1,0,0:0:0:0:
64,192,508889,128,0,509025:0:0:0:0:
448,192,509162,1,0,0:0:0:0:
320,192,509298,1,0,0:0:0:0:
448,192,509434,1,0,0:0:0:0:
64,192,509434,128,0,509571:0:0:0:0:
192,192,509707,128,0,509844:0:0:0:0:
320,192,509707,1,0,0:0:0:0:
448,192,509980,128,0,510116:0:0:0:0:
64,192,509980,1,0,0:0:0:0:
64,192,510253,128,0,510389:0:0:0:0:
320,192,510253,1,0,0:0:0:0:
192,192,510389,128,0,510525:0:0:0:0:
448,192,510389,1,0,0:0:0:0:
320,192,510525,128,0,510662:0:0:0:0:
64,192,510525,1,0,0:0:0:0:
448,192,510662,1,0,0:0:0:0:
192,192,510798,128,0,510934:0:0:0:0:
64,192,510798,1,0,0:0:0:0:
448,192,511071,128,0,511207:0:0:0:0:
320,192,511071,1,0,0:0:0:0:
64,192,511207,1,0,0:0:0:0:
320,192,511344,128,0,511480:0:0:0:0:
192,192,511344,1,0,0:0:0:0:
192,192,511616,128,0,511753:0:0:0:0:
64,192,511616,1,0,0:0:0:0:
320,192,511889,128,0,512025:0:0:0:0:
448,192,511889,1,0,0:0:0:0:
