osu file format v14

[General]
AudioFilename: Tier II.mp3
AudioLeadIn: 0
PreviewTime: 356419
Countdown: 0
SampleSet: Soft
StackLeniency: 0.7
Mode: 3
LetterboxInBreaks: 0
SpecialStyle: 0
WidescreenStoryboard: 0

[Editor]
DistanceSpacing: 1.1
BeatDivisor: 4
GridSize: 8
TimelineZoom: 1.4

[Metadata]
Title:4K LN 1ST PHASE
TitleUnicode:4K LN 1ST PHASE
Artist:Osu! Mania 4-Key Long Note Tiers
ArtistUnicode:Osu! Mania 4-Key Long Note Tiers
Creator:arcwinolivirus
Version:Tier II
Source:
Tags:four key master training
BeatmapID:1224804
BeatmapSetID:578471

[Difficulty]
HPDrainRate:6
CircleSize:4
OverallDifficulty:6
ApproachRate:5
SliderMultiplier:1.4
SliderTickRate:1

[Events]
//Background and Video events
0,0,"Tier II WIDE.jpg",0,0
//Break Periods
2,108781,120637
2,210390,221480
2,310523,323727
//Storyboard Layer 0 (Background)
//Storyboard Layer 1 (Fail)
//Storyboard Layer 2 (Pass)
//Storyboard Layer 3 (Foreground)
//Storyboard Sound Samples

[TimingPoints]
12906,540.540540540541,4,2,1,30,1,0
121837,365.853658536585,4,2,1,30,1,0
121837,-147.492625368732,4,2,1,30,0,0
222680,314.13612565445,4,2,1,30,1,0
222680,-172.413793103448,4,2,1,30,0,0
324927,461.538461538462,4,2,1,30,1,0
324927,-117.233294255569,4,2,1,30,0,0

[HitObjects]
320,192,12905,5,0,0:0:0:0:
448,192,12905,128,0,13176:0:0:0:0:
192,192,13176,1,0,0:0:0:0:
320,192,13176,128,0,13446:0:0:0:0:
64,192,13446,1,0,0:0:0:0:
192,192,13446,128,0,13716:0:0:0:0:
448,192,13716,1,0,0:0:0:0:
64,192,13716,128,0,13987:0:0:0:0:
192,192,13987,1,0,0:0:0:0:
320,192,14122,1,0,0:0:0:0:
448,192,14257,1,0,0:0:0:0:
192,192,14257,128,0,14527:0:0:0:0:
64,192,14527,1,0,0:0:0:0:
320,192,14527,128,0,14797:0:0:0:0:
64,192,14797,1,0,0:0:0:0:
448,192,14797,128,0,15608:0:0:0:0:
192,192,15068,1,0,0:0:0:0:
320,192,15338,1,0,0:0:0:0:
64,192,15338,1,0,0:0:0:0:
192,192,15608,1,0,0:0:0:0:
320,192,15878,128,0,16149:0:0:0:0:
64,192,16149,1,0,0:0:0:0:
192,192,16284,1,0,0:0:0:0:
448,192,16419,1,0,0:0:0:0:
320,192,16419,128,0,16689:0:0:0:0:
64,192,16689,1,0,0:0:0:0:
192,192,16689,128,0,16960:0:0:0:0:
448,192,16960,1,0,0:0:0:0:
64,192,16960,128,0,17230:0:0:0:0:
192,192,17230,128,0,17500:0:0:0:0:
320,192,17230,1,0,0:0:0:0:
448,192,17500,128,0,17770:0:0:0:0:
64,192,17500,1,0,0:0:0:0:
320,192,17770,128,0,18041:0:0:0:0:
192,192,17770,1,0,0:0:0:0:
64,192,18041,1,0,0:0:0:0:
448,192,18041,1,0,0:0:0:0:
320,192,18311,1,0,0:0:0:0:
192,192,18581,1,0,0:0:0:0:
320,192,18851,1,0,0:0:0:0:
448,192,19122,1,0,0:0:0:0:
64,192,19122,1,0,0:0:0:0:
192,192,19392,1,0,0:0:0:0:
320,192,19662,1,0,0:0:0:0:
64,192,19662,1,0,0:0:0:0:
192,192,19933,1,0,0:0:0:0:
64,192,20203,1,0,0:0:0:0:
320,192,20473,1,0,0:0:0:0:
448,192,20473,1,0,0:0:0:0:
448,192,20743,1,0,0:0:0:0:
320,192,20743,1,0,0:0:0:0:
192,192,21014,1,0,0:0:0:0:
64,192,21014,1,0,0:0:0:0:
192,192,21284,1,0,0:0:0:0:
64,192,21284,1,0,0:0:0:0:
448,192,21554,128,0,21824:0:0:0:0:
64,192,21824,1,0,0:0:0:0:
192,192,21824,128,0,22095:0:0:0:0:
320,192,22095,128,0,22365:0:0:0:0:
192,192,22365,1,0,0:0:0:0:
448,192,22365,128,0,22635:0:0:0:0:
320,192,22635,128,0,22906:0:0:0:0:
64,192,22635,1,0,0:0:0:0:
192,192,22906,128,0,23176:0:0:0:0:
448,192,22906,1,0,0:0:0:0:
64,192,23176,128,0,23987:0:0:0:0:
320,192,23176,128,0,23446:0:0:0:0:
448,192,23446,128,0,23716:0:0:0:0:
192,192,23716,128,0,23987:0:0:0:0:
448,192,23987,1,0,0:0:0:0:
320,192,23987,128,0,24257:0:0:0:0:
64,192,24257,128,0,24527:0:0:0:0:
448,192,24527,128,0,24797:0:0:0:0:
320,192,24527,1,0,0:0:0:0:
320,192,24797,128,0,25068:0:0:0:0:
192,192,24797,1,0,0:0:0:0:
192,192,25068,128,0,25338:0:0:0:0:
64,192,25068,1,0,0:0:0:0:
64,192,25338,128,0,26149:0:0:0:0:
448,192,25338,128,0,25608:0:0:0:0:
320,192,25608,128,0,25878:0:0:0:0:
192,192,25878,128,0,26149:0:0:0:0:
448,192,26149,1,0,0:0:0:0:
320,192,26149,128,0,26689:0:0:0:0:
192,192,26419,1,0,0:0:0:0:
448,192,26689,1,0,0:0:0:0:
64,192,26689,128,0,26960:0:0:0:0:
192,192,26960,128,0,27230:0:0:0:0:
320,192,26960,1,0,0:0:0:0:
320,192,27230,128,0,27500:0:0:0:0:
64,192,27230,1,0,0:0:0:0:
448,192,27500,128,0,28311:0:0:0:0:
192,192,27500,128,0,27770:0:0:0:0:
64,192,27770,128,0,28041:0:0:0:0:
320,192,28041,128,0,28311:0:0:0:0:
64,192,28311,1,0,0:0:0:0:
192,192,28311,128,0,28581:0:0:0:0:
448,192,28581,128,0,28851:0:0:0:0:
320,192,28851,1,0,0:0:0:0:
64,192,28851,128,0,29122:0:0:0:0:
192,192,29122,128,0,29392:0:0:0:0:
448,192,29122,1,0,0:0:0:0:
320,192,29392,128,0,29662:0:0:0:0:
64,192,29392,1,0,0:0:0:0:
448,192,29662,128,0,30473:0:0:0:0:
192,192,29662,128,0,29933:0:0:0:0:
64,192,29933,128,0,30203:0:0:0:0:
192,192,30203,128,0,30473:0:0:0:0:
320,192,30473,1,0,0:0:0:0:
64,192,30473,1,0,0:0:0:0:
192,192,30743,1,0,0:0:0:0:
320,192,31014,1,0,0:0:0:0:
448,192,31014,128,0,31284:0:0:0:0:
320,192,31284,128,0,31554:0:0:0:0:
192,192,31284,1,0,0:0:0:0:
192,192,31554,128,0,31824:0:0:0:0:
64,192,31554,1,0,0:0:0:0:
64,192,31824,128,0,32635:0:0:0:0:
448,192,31824,128,0,32095:0:0:0:0:
320,192,32095,128,0,32365:0:0:0:0:
192,192,32365,1,0,0:0:0:0:
448,192,32635,1,0,0:0:0:0:
320,192,32635,128,0,32906:0:0:0:0:
192,192,32906,128,0,33176:0:0:0:0:
320,192,33176,1,0,0:0:0:0:
448,192,33176,128,0,33446:0:0:0:0:
320,192,33446,128,0,33716:0:0:0:0:
64,192,33446,1,0,0:0:0:0:
192,192,33716,128,0,33987:0:0:0:0:
448,192,33716,1,0,0:0:0:0:
64,192,33987,128,0,34797:0:0:0:0:
320,192,33987,128,0,34257:0:0:0:0:
448,192,34257,128,0,34797:0:0:0:0:
192,192,34527,1,0,0:0:0:0:
320,192,34797,1,0,0:0:0:0:
192,192,35068,1,0,0:0:0:0:
64,192,35338,1,0,0:0:0:0:
448,192,35338,128,0,35608:0:0:0:0:
192,192,35608,1,0,0:0:0:0:
320,192,35878,128,0,36149:0:0:0:0:
192,192,36149,128,0,36419:0:0:0:0:
448,192,36419,1,0,0:0:0:0:
64,192,36419,128,0,36689:0:0:0:0:
320,192,36689,128,0,36960:0:0:0:0:
192,192,36960,128,0,37230:0:0:0:0:
448,192,37230,128,0,37500:0:0:0:0:
64,192,37500,1,0,0:0:0:0:
192,192,37500,128,0,37770:0:0:0:0:
320,192,37770,1,0,0:0:0:0:
448,192,38041,1,0,0:0:0:0:
64,192,38041,128,0,38311:0:0:0:0:
192,192,38311,1,0,0:0:0:0:
448,192,38581,1,0,0:0:0:0:
320,192,38581,128,0,38851:0:0:0:0:
64,192,38851,1,0,0:0:0:0:
448,192,39122,1,0,0:0:0:0:
192,192,39122,128,0,39392:0:0:0:0:
320,192,39392,1,0,0:0:0:0:
64,192,39392,1,0,0:0:0:0:
64,192,39662,1,0,0:0:0:0:
448,192,39662,128,0,39933:0:0:0:0:
192,192,39933,128,0,40203:0:0:0:0:
320,192,39933,1,0,0:0:0:0:
320,192,40203,128,0,40473:0:0:0:0:
448,192,40203,1,0,0:0:0:0:
64,192,40473,128,0,41284:0:0:0:0:
192,192,40473,128,0,40743:0:0:0:0:
448,192,40743,128,0,41014:0:0:0:0:
192,192,41014,128,0,41284:0:0:0:0:
448,192,41284,1,0,0:0:0:0:
320,192,41284,128,0,41554:0:0:0:0:
64,192,41554,128,0,41824:0:0:0:0:
448,192,41824,128,0,42095:0:0:0:0:
320,192,41824,1,0,0:0:0:0:
192,192,42095,128,0,42365:0:0:0:0:
64,192,42095,1,0,0:0:0:0:
448,192,42365,1,0,0:0:0:0:
320,192,42365,128,0,42635:0:0:0:0:
64,192,42635,128,0,43446:0:0:0:0:
192,192,42635,128,0,42906:0:0:0:0:
448,192,42906,128,0,43446:0:0:0:0:
320,192,43176,128,0,43446:0:0:0:0:
192,192,43446,128,0,43716:0:0:0:0:
320,192,43716,128,0,43987:0:0:0:0:
448,192,43987,1,0,0:0:0:0:
64,192,43987,128,0,46149:0:0:0:0:
320,192,44257,128,0,44527:0:0:0:0:
192,192,44257,1,0,0:0:0:0:
192,192,44527,128,0,44797:0:0:0:0:
448,192,44527,1,0,0:0:0:0:
320,192,44797,1,0,0:0:0:0:
448,192,44797,128,0,45338:0:0:0:0:
192,192,45068,1,0,0:0:0:0:
192,192,45338,1,0,0:0:0:0:
448,192,45608,1,0,0:0:0:0:
320,192,45608,1,0,0:0:0:0:
320,192,45878,1,0,0:0:0:0:
192,192,46149,128,0,46419:0:0:0:0:
448,192,46149,1,0,0:0:0:0:
320,192,46419,128,0,46689:0:0:0:0:
64,192,46689,128,0,46960:0:0:0:0:
192,192,46689,1,0,0:0:0:0:
448,192,46960,128,0,47770:0:0:0:0:
320,192,46960,128,0,47230:0:0:0:0:
64,192,47230,128,0,47770:0:0:0:0:
192,192,47500,1,0,0:0:0:0:
320,192,47770,1,0,0:0:0:0:
192,192,48041,1,0,0:0:0:0:
448,192,48311,128,0,50473:0:0:0:0:
64,192,48311,128,0,48581:0:0:0:0:
320,192,48581,1,0,0:0:0:0:
192,192,48581,128,0,48851:0:0:0:0:
64,192,48851,1,0,0:0:0:0:
320,192,48851,128,0,49122:0:0:0:0:
64,192,49122,128,0,49662:0:0:0:0:
192,192,49122,1,0,0:0:0:0:
320,192,49392,1,0,0:0:0:0:
320,192,49662,1,0,0:0:0:0:
192,192,49933,1,0,0:0:0:0:
64,192,49933,1,0,0:0:0:0:
192,192,50203,1,0,0:0:0:0:
64,192,50473,1,0,0:0:0:0:
320,192,50473,128,0,50743:0:0:0:0:
192,192,50743,128,0,51014:0:0:0:0:
320,192,51014,1,0,0:0:0:0:
448,192,51014,128,0,51284:0:0:0:0:
64,192,51284,128,0,52095:0:0:0:0:
192,192,51284,128,0,51554:0:0:0:0:
448,192,51554,128,0,52095:0:0:0:0:
320,192,51824,1,0,0:0:0:0:
192,192,51960,1,0,0:0:0:0:
320,192,52095,1,0,0:0:0:0:
192,192,52365,1,0,0:0:0:0:
448,192,52635,1,0,0:0:0:0:
64,192,52635,128,0,52906:0:0:0:0:
320,192,52906,128,0,53176:0:0:0:0:
192,192,53176,128,0,53446:0:0:0:0:
64,192,53446,1,0,0:0:0:0:
448,192,53446,128,0,53716:0:0:0:0:
64,192,53716,1,0,0:0:0:0:
320,192,53716,128,0,53987:0:0:0:0:
192,192,53987,128,0,54257:0:0:0:0:
320,192,54257,1,0,0:0:0:0:
64,192,54257,128,0,54527:0:0:0:0:
192,192,54527,1,0,0:0:0:0:
448,192,54527,128,0,54797:0:0:0:0:
192,192,54797,1,0,0:0:0:0:
320,192,54797,128,0,55068:0:0:0:0:
448,192,55068,1,0,0:0:0:0:
64,192,55068,1,0,0:0:0:0:
320,192,55338,1,0,0:0:0:0:
192,192,55338,128,0,55608:0:0:0:0:
64,192,55608,1,0,0:0:0:0:
448,192,55608,1,0,0:0:0:0:
192,192,55878,1,0,0:0:0:0:
448,192,55878,128,0,56149:0:0:0:0:
320,192,56149,1,0,0:0:0:0:
64,192,56149,128,0,56419:0:0:0:0:
448,192,56419,1,0,0:0:0:0:
320,192,56419,128,0,56689:0:0:0:0:
64,192,56689,1,0,0:0:0:0:
192,192,56689,128,0,56960:0:0:0:0:
448,192,56960,1,0,0:0:0:0:
64,192,56960,128,0,58041:0:0:0:0:
320,192,57230,1,0,0:0:0:0:
192,192,57500,1,0,0:0:0:0:
448,192,57500,1,0,0:0:0:0:
320,192,57770,1,0,0:0:0:0:
192,192,58041,128,0,59122:0:0:0:0:
448,192,58041,128,0,58311:0:0:0:0:
64,192,58311,1,0,0:0:0:0:
448,192,58581,1,0,0:0:0:0:
320,192,58581,128,0,58851:0:0:0:0:
64,192,58851,1,0,0:0:0:0:
448,192,59122,128,0,60203:0:0:0:0:
320,192,59122,1,0,0:0:0:0:
64,192,59392,1,0,0:0:0:0:
192,192,59662,1,0,0:0:0:0:
320,192,59662,1,0,0:0:0:0:
64,192,59933,1,0,0:0:0:0:
320,192,60203,128,0,60473:0:0:0:0:
192,192,60203,1,0,0:0:0:0:
192,192,60473,128,0,60743:0:0:0:0:
64,192,60473,1,0,0:0:0:0:
320,192,60743,128,0,61014:0:0:0:0:
448,192,60743,1,0,0:0:0:0:
448,192,61014,128,0,61284:0:0:0:0:
64,192,61014,1,0,0:0:0:0:
192,192,61284,128,0,62365:0:0:0:0:
64,192,61284,1,0,0:0:0:0:
320,192,61554,1,0,0:0:0:0:
448,192,61824,1,0,0:0:0:0:
64,192,61824,1,0,0:0:0:0:
320,192,62095,1,0,0:0:0:0:
320,192,62365,128,0,62635:0:0:0:0:
448,192,62365,1,0,0:0:0:0:
64,192,62635,128,0,62906:0:0:0:0:
192,192,62635,1,0,0:0:0:0:
448,192,62906,128,0,63176:0:0:0:0:
320,192,62906,1,0,0:0:0:0:
192,192,63176,128,0,63446:0:0:0:0:
320,192,63176,1,0,0:0:0:0:
448,192,63446,1,0,0:0:0:0:
64,192,63446,128,0,63716:0:0:0:0:
448,192,63716,1,0,0:0:0:0:
320,192,63987,1,0,0:0:0:0:
192,192,63987,128,0,64257:0:0:0:0:
64,192,64257,1,0,0:0:0:0:
448,192,64257,1,0,0:0:0:0:
192,192,64527,1,0,0:0:0:0:
320,192,64527,128,0,64797:0:0:0:0:
448,192,64797,1,0,0:0:0:0:
64,192,65068,1,0,0:0:0:0:
192,192,65068,128,0,65338:0:0:0:0:
320,192,65338,1,0,0:0:0:0:
64,192,65608,1,0,0:0:0:0:
448,192,65608,128,0,66689:0:0:0:0:
192,192,65878,1,0,0:0:0:0:
320,192,66149,1,0,0:0:0:0:
64,192,66149,1,0,0:0:0:0:
192,192,66419,1,0,0:0:0:0:
320,192,66689,128,0,66960:0:0:0:0:
64,192,66689,1,0,0:0:0:0:
64,192,66960,128,0,67230:0:0:0:0:
448,192,66960,1,0,0:0:0:0:
448,192,67230,128,0,67500:0:0:0:0:
192,192,67230,1,0,0:0:0:0:
192,192,67500,128,0,67770:0:0:0:0:
320,192,67500,1,0,0:0:0:0:
320,192,67770,128,0,68851:0:0:0:0:
448,192,67770,1,0,0:0:0:0:
64,192,68041,1,0,0:0:0:0:
192,192,68311,1,0,0:0:0:0:
448,192,68311,1,0,0:0:0:0:
64,192,68581,1,0,0:0:0:0:
192,192,68851,128,0,69122:0:0:0:0:
448,192,68851,1,0,0:0:0:0:
448,192,69122,128,0,69392:0:0:0:0:
320,192,69122,1,0,0:0:0:0:
64,192,69392,128,0,69662:0:0:0:0:
192,192,69392,1,0,0:0:0:0:
448,192,69662,128,0,69933:0:0:0:0:
320,192,69662,1,0,0:0:0:0:
192,192,69797,1,0,0:0:0:0:
64,192,69933,128,0,71014:0:0:0:0:
320,192,69933,1,0,0:0:0:0:
192,192,70203,1,0,0:0:0:0:
448,192,70203,1,0,0:0:0:0:
320,192,70473,1,0,0:0:0:0:
448,192,70473,1,0,0:0:0:0:
192,192,70743,1,0,0:0:0:0:
320,192,70743,1,0,0:0:0:0:
448,192,71014,128,0,72095:0:0:0:0:
192,192,71014,1,0,0:0:0:0:
64,192,71284,1,0,0:0:0:0:
320,192,71284,1,0,0:0:0:0:
192,192,71554,1,0,0:0:0:0:
64,192,71554,1,0,0:0:0:0:
192,192,71824,1,0,0:0:0:0:
320,192,71824,1,0,0:0:0:0:
64,192,72095,1,0,0:0:0:0:
320,192,72095,1,0,0:0:0:0:
192,192,72365,1,0,0:0:0:0:
448,192,72365,1,0,0:0:0:0:
448,192,72635,1,0,0:0:0:0:
192,192,72635,128,0,72906:0:0:0:0:
320,192,72906,1,0,0:0:0:0:
64,192,72906,1,0,0:0:0:0:
64,192,73176,1,0,0:0:0:0:
320,192,73176,128,0,73446:0:0:0:0:
192,192,73446,1,0,0:0:0:0:
448,192,73446,1,0,0:0:0:0:
64,192,73581,1,0,0:0:0:0:
320,192,73581,1,0,0:0:0:0:
448,192,73716,1,0,0:0:0:0:
192,192,73716,128,0,73987:0:0:0:0:
64,192,73987,1,0,0:0:0:0:
320,192,73987,128,0,74257:0:0:0:0:
192,192,74257,1,0,0:0:0:0:
448,192,74257,128,0,74527:0:0:0:0:
320,192,74527,1,0,0:0:0:0:
448,192,74797,1,0,0:0:0:0:
192,192,74797,128,0,75068:0:0:0:0:
320,192,75068,1,0,0:0:0:0:
448,192,75338,1,0,0:0:0:0:
64,192,75338,128,0,75608:0:0:0:0:
320,192,75608,128,0,75878:0:0:0:0:
192,192,75878,128,0,76149:0:0:0:0:
64,192,75878,1,0,0:0:0:0:
448,192,76149,128,0,76419:0:0:0:0:
320,192,76419,1,0,0:0:0:0:
64,192,76419,1,0,0:0:0:0:
192,192,76689,128,0,76960:0:0:0:0:
448,192,76689,1,0,0:0:0:0:
320,192,76960,1,0,0:0:0:0:
64,192,76960,1,0,0:0:0:0:
192,192,77230,1,0,0:0:0:0:
448,192,77230,128,0,77500:0:0:0:0:
320,192,77500,128,0,77770:0:0:0:0:
64,192,77500,1,0,0:0:0:0:
64,192,77770,128,0,78041:0:0:0:0:
448,192,77770,1,0,0:0:0:0:
192,192,78041,128,0,78311:0:0:0:0:
320,192,78041,1,0,0:0:0:0:
64,192,78311,1,0,0:0:0:0:
320,192,78581,1,0,0:0:0:0:
448,192,78581,128,0,80743:0:0:0:0:
64,192,78851,1,0,0:0:0:0:
320,192,78987,1,0,0:0:0:0:
192,192,79122,1,0,0:0:0:0:
64,192,79122,1,0,0:0:0:0:
320,192,79392,1,0,0:0:0:0:
192,192,79662,1,0,0:0:0:0:
64,192,79662,1,0,0:0:0:0:
192,192,79933,1,0,0:0:0:0:
320,192,80203,1,0,0:0:0:0:
64,192,80203,1,0,0:0:0:0:
192,192,80473,128,0,80743:0:0:0:0:
320,192,80743,1,0,0:0:0:0:
64,192,80743,1,0,0:0:0:0:
192,192,81014,1,0,0:0:0:0:
320,192,81149,1,0,0:0:0:0:
64,192,81284,1,0,0:0:0:0:
448,192,81284,1,0,0:0:0:0:
320,192,81554,1,0,0:0:0:0:
448,192,81824,1,0,0:0:0:0:
64,192,81824,1,0,0:0:0:0:
192,192,82095,1,0,0:0:0:0:
448,192,82365,1,0,0:0:0:0:
64,192,82365,1,0,0:0:0:0:
320,192,82635,128,0,82906:0:0:0:0:
64,192,82906,128,0,83176:0:0:0:0:
448,192,82906,1,0,0:0:0:0:
192,192,83176,1,0,0:0:0:0:
448,192,83446,1,0,0:0:0:0:
64,192,83446,1,0,0:0:0:0:
320,192,83446,128,0,83716:0:0:0:0:
192,192,83716,1,0,0:0:0:0:
64,192,83987,1,0,0:0:0:0:
448,192,83987,128,0,84257:0:0:0:0:
192,192,84257,1,0,0:0:0:0:
320,192,84527,128,0,84797:0:0:0:0:
448,192,84527,1,0,0:0:0:0:
64,192,84797,128,0,85068:0:0:0:0:
448,192,85068,1,0,0:0:0:0:
192,192,85068,1,0,0:0:0:0:
64,192,85338,1,0,0:0:0:0:
320,192,85338,128,0,85608:0:0:0:0:
192,192,85608,1,0,0:0:0:0:
448,192,85608,128,0,85878:0:0:0:0:
64,192,85878,128,0,86149:0:0:0:0:
320,192,85878,1,0,0:0:0:0:
192,192,86149,128,0,86419:0:0:0:0:
448,192,86149,1,0,0:0:0:0:
448,192,86419,128,0,86689:0:0:0:0:
64,192,86419,1,0,0:0:0:0:
64,192,86689,1,0,0:0:0:0:
320,192,86689,128,0,86960:0:0:0:0:
192,192,86960,128,0,87230:0:0:0:0:
64,192,87230,128,0,89392:0:0:0:0:
320,192,87230,1,0,0:0:0:0:
448,192,87500,1,0,0:0:0:0:
192,192,87635,1,0,0:0:0:0:
448,192,87770,1,0,0:0:0:0:
320,192,87770,1,0,0:0:0:0:
192,192,88041,1,0,0:0:0:0:
320,192,88311,1,0,0:0:0:0:
448,192,88311,1,0,0:0:0:0:
320,192,88581,1,0,0:0:0:0:
448,192,88851,1,0,0:0:0:0:
192,192,88851,1,0,0:0:0:0:
320,192,89122,128,0,89392:0:0:0:0:
448,192,89392,1,0,0:0:0:0:
192,192,89392,1,0,0:0:0:0:
320,192,89662,1,0,0:0:0:0:
64,192,89662,1,0,0:0:0:0:
64,192,89933,1,0,0:0:0:0:
320,192,89933,1,0,0:0:0:0:
192,192,90203,1,0,0:0:0:0:
448,192,90203,1,0,0:0:0:0:
192,192,90473,1,0,0:0:0:0:
448,192,90473,1,0,0:0:0:0:
320,192,90743,1,0,0:0:0:0:
64,192,90743,1,0,0:0:0:0:
448,192,90878,1,0,0:0:0:0:
64,192,91014,1,0,0:0:0:0:
192,192,91014,128,0,91284:0:0:0:0:
448,192,91284,1,0,0:0:0:0:
320,192,91284,128,0,91554:0:0:0:0:
64,192,91554,128,0,91824:0:0:0:0:
192,192,91554,1,0,0:0:0:0:
448,192,91824,1,0,0:0:0:0:
320,192,92095,128,0,92365:0:0:0:0:
64,192,92095,1,0,0:0:0:0:
192,192,92365,1,0,0:0:0:0:
320,192,92635,1,0,0:0:0:0:
64,192,92635,128,0,92906:0:0:0:0:
448,192,92635,1,0,0:0:0:0:
192,192,92906,128,0,93176:0:0:0:0:
64,192,93176,1,0,0:0:0:0:
320,192,93176,128,0,93446:0:0:0:0:
448,192,93446,128,0,93716:0:0:0:0:
192,192,93716,1,0,0:0:0:0:
64,192,93716,1,0,0:0:0:0:
320,192,93987,128,0,94257:0:0:0:0:
64,192,93987,1,0,0:0:0:0:
192,192,94257,1,0,0:0:0:0:
448,192,94257,1,0,0:0:0:0:
320,192,94527,1,0,0:0:0:0:
64,192,94527,128,0,94797:0:0:0:0:
448,192,94797,1,0,0:0:0:0:
192,192,94797,128,0,95068:0:0:0:0:
64,192,95068,1,0,0:0:0:0:
448,192,95068,128,0,95338:0:0:0:0:
320,192,95338,128,0,95608:0:0:0:0:
64,192,95338,1,0,0:0:0:0:
448,192,95608,1,0,0:0:0:0:
192,192,95608,128,0,95878:0:0:0:0:
320,192,95878,1,0,0:0:0:0:
64,192,95878,128,0,98041:0:0:0:0:
192,192,96149,1,0,0:0:0:0:
448,192,96284,1,0,0:0:0:0:
320,192,96419,1,0,0:0:0:0:
192,192,96419,1,0,0:0:0:0:
448,192,96689,1,0,0:0:0:0:
192,192,96960,1,0,0:0:0:0:
320,192,96960,1,0,0:0:0:0:
320,192,97230,1,0,0:0:0:0:
192,192,97500,1,0,0:0:0:0:
448,192,97500,1,0,0:0:0:0:
320,192,97770,128,0,98041:0:0:0:0:
192,192,98041,1,0,0:0:0:0:
448,192,98041,128,0,98311:0:0:0:0:
320,192,98311,1,0,0:0:0:0:
192,192,98446,1,0,0:0:0:0:
448,192,98581,1,0,0:0:0:0:
64,192,98581,128,0,98851:0:0:0:0:
192,192,98851,128,0,99122:0:0:0:0:
64,192,99122,1,0,0:0:0:0:
448,192,99122,128,0,99392:0:0:0:0:
320,192,99392,128,0,99662:0:0:0:0:
448,192,99662,1,0,0:0:0:0:
64,192,99662,128,0,99933:0:0:0:0:
192,192,99933,128,0,100203:0:0:0:0:
64,192,100203,1,0,0:0:0:0:
448,192,100203,128,0,100743:0:0:0:0:
192,192,100473,1,0,0:0:0:0:
320,192,100743,128,0,101284:0:0:0:0:
64,192,100743,1,0,0:0:0:0:
192,192,101014,1,0,0:0:0:0:
448,192,101284,1,0,0:0:0:0:
64,192,101284,128,0,101554:0:0:0:0:
320,192,101554,1,0,0:0:0:0:
448,192,101824,1,0,0:0:0:0:
64,192,101824,128,0,102095:0:0:0:0:
192,192,102095,128,0,102365:0:0:0:0:
320,192,102095,1,0,0:0:0:0:
448,192,102365,1,0,0:0:0:0:
64,192,102365,1,0,0:0:0:0:
320,192,102635,128,0,102906:0:0:0:0:
192,192,102906,128,0,103176:0:0:0:0:
64,192,102906,1,0,0:0:0:0:
320,192,103176,1,0,0:0:0:0:
448,192,103176,128,0,103446:0:0:0:0:
64,192,103446,128,0,103716:0:0:0:0:
320,192,103446,1,0,0:0:0:0:
192,192,103716,128,0,103987:0:0:0:0:
448,192,103716,1,0,0:0:0:0:
320,192,103987,128,0,104257:0:0:0:0:
64,192,103987,1,0,0:0:0:0:
448,192,104257,128,0,104527:0:0:0:0:
192,192,104257,1,0,0:0:0:0:
320,192,104527,1,0,0:0:0:0:
64,192,104527,128,0,106689:0:0:0:0:
448,192,104797,1,0,0:0:0:0:
320,192,105068,1,0,0:0:0:0:
192,192,105068,1,0,0:0:0:0:
448,192,105338,1,0,0:0:0:0:
192,192,105608,1,0,0:0:0:0:
320,192,105608,1,0,0:0:0:0:
320,192,105878,1,0,0:0:0:0:
448,192,106149,1,0,0:0:0:0:
192,192,106149,1,0,0:0:0:0:
320,192,106419,1,0,0:0:0:0:
448,192,106419,1,0,0:0:0:0:
192,192,106689,1,0,0:0:0:0:
448,192,106960,1,0,0:0:0:0:
64,192,106960,1,0,0:0:0:0:
192,192,107230,1,0,0:0:0:0:
320,192,107230,1,0,0:0:0:0:
64,192,107500,1,0,0:0:0:0:
448,192,107500,1,0,0:0:0:0:
64,192,107770,1,0,0:0:0:0:
320,192,107770,1,0,0:0:0:0:
448,192,108041,1,0,0:0:0:0:
192,192,108041,1,0,0:0:0:0:
64,192,108311,1,0,0:0:0:0:
320,192,108311,128,0,108581:0:0:0:0:
192,192,108581,1,0,0:0:0:0:
64,192,121837,132,0,124397:0:0:0:0:
320,192,122385,128,0,124215:0:0:0:0:
448,192,124215,128,0,126227:0:0:0:0:
320,192,124397,128,0,126044:0:0:0:0:
192,192,125861,1,0,0:0:0:0:
64,192,126044,128,0,127690:0:0:0:0:
192,192,126227,128,0,126958:0:0:0:0:
320,192,126410,1,0,0:0:0:0:
448,192,126776,1,0,0:0:0:0:
192,192,127141,128,0,127690:0:0:0:0:
320,192,127324,128,0,128605:0:0:0:0:
448,192,127324,128,0,128605:0:0:0:0:
192,192,127873,1,0,0:0:0:0:
64,192,127873,1,0,0:0:0:0:
192,192,128788,128,0,130617:0:0:0:0:
320,192,128788,128,0,130068:0:0:0:0:
448,192,129336,1,0,0:0:0:0:
64,192,129336,1,0,0:0:0:0:
64,192,130251,128,0,132080:0:0:0:0:
320,192,130251,128,0,132080:0:0:0:0:
192,192,130800,1,0,0:0:0:0:
448,192,130800,1,0,0:0:0:0:
192,192,131715,128,0,133178:0:0:0:0:
448,192,131715,128,0,132995:0:0:0:0:
320,192,132263,1,0,0:0:0:0:
64,192,132263,1,0,0:0:0:0:
448,192,133178,128,0,135190:0:0:0:0:
64,192,133178,1,0,0:0:0:0:
64,192,133727,128,0,136105:0:0:0:0:
320,192,134641,1,0,0:0:0:0:
192,192,135190,1,0,0:0:0:0:
448,192,136105,128,0,138300:0:0:0:0:
320,192,136105,1,0,0:0:0:0:
64,192,136654,128,0,139032:0:0:0:0:
192,192,137202,1,0,0:0:0:0:
320,192,138300,1,0,0:0:0:0:
192,192,138666,128,0,139032:0:0:0:0:
448,192,139032,128,0,141044:0:0:0:0:
320,192,139032,1,0,0:0:0:0:
320,192,139580,128,0,140495:0:0:0:0:
192,192,140495,128,0,141958:0:0:0:0:
64,192,141044,128,0,141958:0:0:0:0:
320,192,141958,128,0,142507:0:0:0:0:
448,192,141958,1,0,0:0:0:0:
64,192,142507,128,0,143422:0:0:0:0:
320,192,142690,128,0,143422:0:0:0:0:
448,192,143422,128,0,143605:0:0:0:0:
320,192,143605,128,0,143788:0:0:0:0:
192,192,143788,128,0,143971:0:0:0:0:
64,192,143971,128,0,144885:0:0:0:0:
192,192,144336,128,0,144519:0:0:0:0:
320,192,144519,128,0,144702:0:0:0:0:
448,192,144702,128,0,144885:0:0:0:0:
192,192,144885,128,0,146166:0:0:0:0:
320,192,144885,1,0,0:0:0:0:
64,192,145434,128,0,146715:0:0:0:0:
192,192,146349,128,0,147446:0:0:0:0:
448,192,146349,1,0,0:0:0:0:
64,192,146897,128,0,147812:0:0:0:0:
320,192,147812,128,0,149093:0:0:0:0:
192,192,147812,1,0,0:0:0:0:
448,192,148361,128,0,149641:0:0:0:0:
320,192,149276,128,0,150739:0:0:0:0:
64,192,149276,1,0,0:0:0:0:
448,192,149824,128,0,150739:0:0:0:0:
192,192,150739,128,0,152751:0:0:0:0:
64,192,150739,1,0,0:0:0:0:
448,192,151288,128,0,152751:0:0:0:0:
64,192,152202,128,0,153666:0:0:0:0:
320,192,152751,128,0,154215:0:0:0:0:
448,192,153666,128,0,155861:0:0:0:0:
192,192,154215,128,0,155129:0:0:0:0:
64,192,155129,128,0,155861:0:0:0:0:
192,192,155495,128,0,156044:0:0:0:0:
320,192,155861,128,0,156227:0:0:0:0:
448,192,156227,128,0,156410:0:0:0:0:
64,192,156593,128,0,158056:0:0:0:0:
192,192,156593,1,0,0:0:0:0:
448,192,156958,1,0,0:0:0:0:
320,192,157324,128,0,158788:0:0:0:0:
192,192,157690,1,0,0:0:0:0:
448,192,158056,128,0,159519:0:0:0:0:
64,192,158422,1,0,0:0:0:0:
192,192,158788,128,0,159519:0:0:0:0:
320,192,159154,1,0,0:0:0:0:
64,192,159519,128,0,160251:0:0:0:0:
320,192,159885,128,0,160251:0:0:0:0:
192,192,160251,128,0,160983:0:0:0:0:
448,192,160617,128,0,160983:0:0:0:0:
320,192,160983,128,0,161715:0:0:0:0:
64,192,161349,128,0,161715:0:0:0:0:
192,192,161715,128,0,162446:0:0:0:0:
448,192,162080,128,0,162446:0:0:0:0:
64,192,162446,128,0,163178:0:0:0:0:
448,192,162812,128,0,163178:0:0:0:0:
320,192,163178,128,0,163910:0:0:0:0:
64,192,163544,128,0,163910:0:0:0:0:
192,192,163910,128,0,164641:0:0:0:0:
448,192,164276,128,0,164641:0:0:0:0:
64,192,164641,128,0,165373:0:0:0:0:
320,192,165007,128,0,165373:0:0:0:0:
448,192,165373,128,0,167202:0:0:0:0:
192,192,165739,128,0,166654:0:0:0:0:
320,192,166105,128,0,166836:0:0:0:0:
64,192,166471,128,0,167202:0:0:0:0:
192,192,166836,128,0,169032:0:0:0:0:
320,192,167019,128,0,169032:0:0:0:0:
64,192,167385,128,0,169032:0:0:0:0:
448,192,167385,128,0,169032:0:0:0:0:
64,192,169397,128,0,170861:0:0:0:0:
192,192,169763,128,0,170312:0:0:0:0:
320,192,170129,1,0,0:0:0:0:
448,192,170129,1,0,0:0:0:0:
192,192,170495,128,0,170861:0:0:0:0:
320,192,170861,128,0,171044:0:0:0:0:
448,192,170861,128,0,172324:0:0:0:0:
320,192,171227,128,0,171776:0:0:0:0:
192,192,171593,1,0,0:0:0:0:
64,192,171593,1,0,0:0:0:0:
320,192,171958,128,0,172324:0:0:0:0:
192,192,172324,128,0,173056:0:0:0:0:
64,192,172324,128,0,172690:0:0:0:0:
448,192,172690,128,0,173056:0:0:0:0:
320,192,173056,128,0,173422:0:0:0:0:
64,192,173056,128,0,173422:0:0:0:0:
448,192,173422,128,0,174154:0:0:0:0:
320,192,173788,128,0,175251:0:0:0:0:
192,192,173788,1,0,0:0:0:0:
64,192,174154,128,0,174519:0:0:0:0:
192,192,174519,128,0,174885:0:0:0:0:
448,192,174519,1,0,0:0:0:0:
64,192,174885,1,0,0:0:0:0:
448,192,175251,128,0,175983:0:0:0:0:
192,192,175251,1,0,0:0:0:0:
320,192,175617,128,0,175983:0:0:0:0:
192,192,175983,128,0,176349:0:0:0:0:
64,192,175983,128,0,176715:0:0:0:0:
448,192,176349,128,0,176715:0:0:0:0:
320,192,176715,128,0,177080:0:0:0:0:
192,192,176715,128,0,177812:0:0:0:0:
64,192,177080,128,0,177446:0:0:0:0:
320,192,177446,128,0,177812:0:0:0:0:
448,192,177446,128,0,177812:0:0:0:0:
64,192,177812,128,0,178544:0:0:0:0:
192,192,178178,128,0,178910:0:0:0:0:
320,192,178178,128,0,178544:0:0:0:0:
448,192,178544,128,0,178910:0:0:0:0:
320,192,178910,128,0,179276:0:0:0:0:
64,192,178910,128,0,179641:0:0:0:0:
192,192,179276,128,0,180007:0:0:0:0:
320,192,179641,128,0,180373:0:0:0:0:
448,192,179641,128,0,180007:0:0:0:0:
64,192,180007,128,0,180373:0:0:0:0:
192,192,180373,128,0,181836:0:0:0:0:
448,192,180373,128,0,180739:0:0:0:0:
320,192,180739,128,0,181105:0:0:0:0:
448,192,181105,128,0,181471:0:0:0:0:
64,192,181105,128,0,182202:0:0:0:0:
320,192,181471,128,0,182568:0:0:0:0:
448,192,181836,128,0,182934:0:0:0:0:
192,192,182202,128,0,183300:0:0:0:0:
64,192,182568,128,0,183666:0:0:0:0:
320,192,182934,128,0,184763:0:0:0:0:
448,192,183300,128,0,184032:0:0:0:0:
192,192,183666,128,0,185129:0:0:0:0:
64,192,184032,128,0,184397:0:0:0:0:
448,192,184397,128,0,186227:0:0:0:0:
64,192,184763,128,0,185678:0:0:0:0:
320,192,185129,128,0,186044:0:0:0:0:
192,192,185495,128,0,185861:0:0:0:0:
64,192,185861,128,0,186410:0:0:0:0:
192,192,186044,128,0,186593:0:0:0:0:
320,192,186227,128,0,186776:0:0:0:0:
448,192,186410,128,0,186958:0:0:0:0:
64,192,186593,1,0,0:0:0:0:
192,192,186776,1,0,0:0:0:0:
320,192,186958,1,0,0:0:0:0:
448,192,187141,1,0,0:0:0:0:
192,192,187324,128,0,188056:0:0:0:0:
64,192,187324,1,0,0:0:0:0:
448,192,187690,128,0,188422:0:0:0:0:
64,192,188056,128,0,189154:0:0:0:0:
320,192,188056,128,0,188422:0:0:0:0:
192,192,188422,128,0,188788:0:0:0:0:
320,192,188788,128,0,189154:0:0:0:0:
448,192,188788,128,0,189519:0:0:0:0:
192,192,189154,128,0,189519:0:0:0:0:
64,192,189519,128,0,189885:0:0:0:0:
320,192,189519,128,0,190251:0:0:0:0:
448,192,189885,128,0,190251:0:0:0:0:
64,192,190251,128,0,190983:0:0:0:0:
192,192,190251,128,0,190983:0:0:0:0:
320,192,190617,128,0,191349:0:0:0:0:
448,192,190983,128,0,191349:0:0:0:0:
192,192,191349,128,0,192080:0:0:0:0:
320,192,191715,128,0,192080:0:0:0:0:
448,192,191715,128,0,192446:0:0:0:0:
64,192,192080,128,0,192812:0:0:0:0:
192,192,192446,128,0,193178:0:0:0:0:
320,192,192812,128,0,193178:0:0:0:0:
448,192,193178,128,0,193544:0:0:0:0:
64,192,193178,128,0,193544:0:0:0:0:
192,192,193544,128,0,193910:0:0:0:0:
64,192,193910,128,0,194641:0:0:0:0:
448,192,193910,128,0,194641:0:0:0:0:
320,192,194276,1,0,0:0:0:0:
192,192,194641,128,0,195007:0:0:0:0:
320,192,194641,128,0,195007:0:0:0:0:
448,192,195007,128,0,195373:0:0:0:0:
192,192,195373,128,0,195739:0:0:0:0:
320,192,195373,128,0,196836:0:0:0:0:
64,192,195739,128,0,196105:0:0:0:0:
192,192,196105,128,0,196471:0:0:0:0:
448,192,196105,128,0,196471:0:0:0:0:
64,192,196471,128,0,197202:0:0:0:0:
192,192,196836,128,0,198300:0:0:0:0:
448,192,196836,128,0,197202:0:0:0:0:
320,192,197202,1,0,0:0:0:0:
64,192,197568,128,0,197934:0:0:0:0:
320,192,197568,128,0,197934:0:0:0:0:
448,192,197934,128,0,198849:0:0:0:0:
64,192,198300,128,0,199397:0:0:0:0:
320,192,198300,128,0,199032:0:0:0:0:
192,192,198666,128,0,199215:0:0:0:0:
448,192,199032,128,0,199763:0:0:0:0:
320,192,199215,128,0,199763:0:0:0:0:
192,192,199397,128,0,200129:0:0:0:0:
64,192,199580,128,0,200129:0:0:0:0:
320,192,199946,128,0,201044:0:0:0:0:
448,192,199946,128,0,201044:0:0:0:0:
192,192,200312,128,0,201044:0:0:0:0:
64,192,200312,128,0,201044:0:0:0:0:
64,192,201776,128,0,203056:0:0:0:0:
192,192,201958,128,0,203056:0:0:0:0:
320,192,202324,128,0,202690:0:0:0:0:
448,192,202507,128,0,202690:0:0:0:0:
320,192,202873,128,0,203971:0:0:0:0:
448,192,202873,128,0,204336:0:0:0:0:
192,192,203239,128,0,203971:0:0:0:0:
64,192,203239,128,0,204336:0:0:0:0:
192,192,204154,128,0,204702:0:0:0:0:
320,192,204154,128,0,206349:0:0:0:0:
448,192,204519,128,0,204885:0:0:0:0:
64,192,204519,128,0,207995:0:0:0:0:
192,192,204885,1,0,0:0:0:0:
448,192,205251,128,0,206166:0:0:0:0:
192,192,205434,128,0,206532:0:0:0:0:
448,192,206349,128,0,206715:0:0:0:0:
320,192,206532,128,0,207263:0:0:0:0:
192,192,206715,128,0,207080:0:0:0:0:
448,192,206897,128,0,207629:0:0:0:0:
192,192,207263,128,0,207446:0:0:0:0:
320,192,207446,128,0,209276:0:0:0:0:
192,192,207629,128,0,209458:0:0:0:0:
448,192,207812,128,0,208178:0:0:0:0:
64,192,208178,128,0,209641:0:0:0:0:
448,192,208361,128,0,209093:0:0:0:0:
448,192,209276,128,0,210190:0:0:0:0:
320,192,209458,128,0,210190:0:0:0:0:
192,192,209641,128,0,210190:0:0:0:0:
64,192,209824,128,0,210190:0:0:0:0:
448,192,222680,132,0,223936:0:0:0:0:
64,192,222680,128,0,223308:0:0:0:0:
192,192,223308,128,0,223936:0:0:0:0:
320,192,223936,128,0,224564:0:0:0:0:
64,192,223936,128,0,225193:0:0:0:0:
448,192,224564,128,0,225193:0:0:0:0:
320,192,225193,128,0,225585:0:0:0:0:
192,192,225193,128,0,226292:0:0:0:0:
64,192,225585,128,0,225978:0:0:0:0:
448,192,225978,128,0,226135:0:0:0:0:
320,192,226135,128,0,226292:0:0:0:0:
448,192,226292,128,0,227077:0:0:0:0:
64,192,226292,128,0,227077:0:0:0:0:
320,192,227077,1,0,0:0:0:0:
192,192,227077,128,0,227706:0:0:0:0:
448,192,227234,128,0,227706:0:0:0:0:
320,192,227706,1,0,0:0:0:0:
64,192,227706,128,0,227863:0:0:0:0:
448,192,227863,128,0,228020:0:0:0:0:
192,192,228020,128,0,228177:0:0:0:0:
320,192,228177,128,0,228334:0:0:0:0:
64,192,228334,128,0,228491:0:0:0:0:
192,192,228491,128,0,228648:0:0:0:0:
320,192,228648,128,0,228805:0:0:0:0:
448,192,228805,128,0,228962:0:0:0:0:
192,192,228962,1,0,0:0:0:0:
64,192,228962,128,0,229119:0:0:0:0:
320,192,229119,128,0,229276:0:0:0:0:
192,192,229276,128,0,229433:0:0:0:0:
448,192,229433,128,0,229590:0:0:0:0:
64,192,229590,128,0,229748:0:0:0:0:
192,192,229748,128,0,229905:0:0:0:0:
320,192,229905,128,0,230062:0:0:0:0:
448,192,230062,128,0,230219:0:0:0:0:
64,192,230219,128,0,230376:0:0:0:0:
192,192,230376,128,0,230533:0:0:0:0:
448,192,230533,128,0,230690:0:0:0:0:
320,192,230690,128,0,230847:0:0:0:0:
64,192,230847,128,0,231161:0:0:0:0:
192,192,231004,128,0,231318:0:0:0:0:
320,192,231161,128,0,231318:0:0:0:0:
448,192,231318,1,0,0:0:0:0:
64,192,231318,1,0,0:0:0:0:
64,192,232732,1,0,0:0:0:0:
448,192,232732,1,0,0:0:0:0:
320,192,232889,128,0,233046:0:0:0:0:
64,192,233046,128,0,233203:0:0:0:0:
448,192,233203,1,0,0:0:0:0:
192,192,233360,128,0,233517:0:0:0:0:
320,192,233517,128,0,233674:0:0:0:0:
64,192,233674,1,0,0:0:0:0:
320,192,233831,128,0,233988:0:0:0:0:
64,192,233988,128,0,234145:0:0:0:0:
448,192,234145,1,0,0:0:0:0:
320,192,234303,128,0,234460:0:0:0:0:
192,192,234460,128,0,234617:0:0:0:0:
64,192,234617,1,0,0:0:0:0:
320,192,234774,128,0,234931:0:0:0:0:
192,192,234931,1,0,0:0:0:0:
448,192,235088,128,0,235245:0:0:0:0:
64,192,235245,1,0,0:0:0:0:
320,192,235402,128,0,235559:0:0:0:0:
64,192,235559,128,0,235716:0:0:0:0:
448,192,235716,1,0,0:0:0:0:
192,192,235873,128,0,236030:0:0:0:0:
320,192,236030,128,0,236187:0:0:0:0:
64,192,236187,128,0,237444:0:0:0:0:
448,192,236187,1,0,0:0:0:0:
320,192,236344,128,0,236501:0:0:0:0:
192,192,236501,128,0,236659:0:0:0:0:
320,192,236659,1,0,0:0:0:0:
448,192,236816,128,0,236973:0:0:0:0:
192,192,236973,128,0,237130:0:0:0:0:
320,192,237287,1,0,0:0:0:0:
448,192,237444,1,0,0:0:0:0:
192,192,237444,1,0,0:0:0:0:
448,192,237758,128,0,239486:0:0:0:0:
64,192,237758,1,0,0:0:0:0:
192,192,237915,128,0,238072:0:0:0:0:
320,192,238072,128,0,238229:0:0:0:0:
192,192,238229,1,0,0:0:0:0:
64,192,238386,128,0,238543:0:0:0:0:
320,192,238543,128,0,238700:0:0:0:0:
192,192,238700,1,0,0:0:0:0:
320,192,238858,128,0,239015:0:0:0:0:
64,192,239015,128,0,239172:0:0:0:0:
192,192,239172,1,0,0:0:0:0:
320,192,239329,128,0,239486:0:0:0:0:
192,192,239486,128,0,239643:0:0:0:0:
448,192,239643,128,0,239800:0:0:0:0:
64,192,239800,128,0,239957:0:0:0:0:
320,192,239957,128,0,240114:0:0:0:0:
448,192,240114,128,0,240271:0:0:0:0:
64,192,240114,128,0,241999:0:0:0:0:
192,192,240271,1,0,0:0:0:0:
320,192,240428,128,0,240585:0:0:0:0:
448,192,240585,128,0,240742:0:0:0:0:
192,192,240742,1,0,0:0:0:0:
448,192,240899,128,0,241056:0:0:0:0:
192,192,241056,128,0,241214:0:0:0:0:
320,192,241214,1,0,0:0:0:0:
192,192,241371,128,0,241528:0:0:0:0:
448,192,241528,128,0,241685:0:0:0:0:
192,192,241685,1,0,0:0:0:0:
320,192,241842,128,0,241999:0:0:0:0:
192,192,241999,128,0,242156:0:0:0:0:
320,192,242156,128,0,242313:0:0:0:0:
448,192,242313,128,0,242470:0:0:0:0:
192,192,242470,128,0,242627:0:0:0:0:
320,192,242627,128,0,244512:0:0:0:0:
64,192,242627,128,0,242784:0:0:0:0:
448,192,242784,1,0,0:0:0:0:
64,192,242941,128,0,243098:0:0:0:0:
192,192,243098,128,0,243255:0:0:0:0:
448,192,243255,1,0,0:0:0:0:
192,192,243412,128,0,243570:0:0:0:0:
448,192,243570,128,0,243727:0:0:0:0:
64,192,243727,1,0,0:0:0:0:
192,192,243884,128,0,244041:0:0:0:0:
64,192,244041,128,0,244198:0:0:0:0:
448,192,244198,1,0,0:0:0:0:
192,192,244355,128,0,244512:0:0:0:0:
448,192,244512,128,0,244669:0:0:0:0:
64,192,244669,128,0,244826:0:0:0:0:
320,192,244826,128,0,244983:0:0:0:0:
64,192,244983,128,0,245140:0:0:0:0:
448,192,245140,128,0,245297:0:0:0:0:
192,192,245140,128,0,246240:0:0:0:0:
320,192,245297,1,0,0:0:0:0:
64,192,245454,128,0,245611:0:0:0:0:
448,192,245611,128,0,245769:0:0:0:0:
320,192,245769,1,0,0:0:0:0:
64,192,245926,128,0,246083:0:0:0:0:
320,192,246083,128,0,246240:0:0:0:0:
448,192,246240,1,0,0:0:0:0:
64,192,246240,1,0,0:0:0:0:
448,192,246397,1,0,0:0:0:0:
192,192,246397,1,0,0:0:0:0:
64,192,246711,1,0,0:0:0:0:
320,192,246711,1,0,0:0:0:0:
320,192,247025,1,0,0:0:0:0:
192,192,247025,1,0,0:0:0:0:
320,192,247339,128,0,247810:0:0:0:0:
192,192,247339,128,0,247810:0:0:0:0:
448,192,247810,128,0,249067:0:0:0:0:
64,192,247810,1,0,0:0:0:0:
320,192,247967,1,0,0:0:0:0:
192,192,248125,1,0,0:0:0:0:
320,192,248282,1,0,0:0:0:0:
64,192,248439,1,0,0:0:0:0:
192,192,248596,1,0,0:0:0:0:
320,192,248753,1,0,0:0:0:0:
192,192,248910,1,0,0:0:0:0:
320,192,249067,1,0,0:0:0:0:
64,192,249067,128,0,250323:0:0:0:0:
192,192,249224,1,0,0:0:0:0:
448,192,249381,1,0,0:0:0:0:
320,192,249538,1,0,0:0:0:0:
448,192,249695,1,0,0:0:0:0:
192,192,249852,1,0,0:0:0:0:
320,192,250009,1,0,0:0:0:0:
448,192,250166,1,0,0:0:0:0:
192,192,250323,1,0,0:0:0:0:
320,192,250481,1,0,0:0:0:0:
64,192,250638,1,0,0:0:0:0:
320,192,250795,1,0,0:0:0:0:
192,192,250952,128,0,251266:0:0:0:0:
448,192,251109,1,0,0:0:0:0:
320,192,251266,1,0,0:0:0:0:
448,192,251423,128,0,251737:0:0:0:0:
64,192,251580,1,0,0:0:0:0:
192,192,251737,1,0,0:0:0:0:
64,192,251894,128,0,252208:0:0:0:0:
448,192,252051,1,0,0:0:0:0:
320,192,252208,128,0,252522:0:0:0:0:
192,192,252365,1,0,0:0:0:0:
64,192,252522,1,0,0:0:0:0:
192,192,252679,1,0,0:0:0:0:
448,192,252837,128,0,253151:0:0:0:0:
192,192,252994,1,0,0:0:0:0:
64,192,253151,1,0,0:0:0:0:
320,192,253151,1,0,0:0:0:0:
192,192,253308,128,0,253779:0:0:0:0:
448,192,253465,1,0,0:0:0:0:
64,192,253465,1,0,0:0:0:0:
320,192,253622,1,0,0:0:0:0:
64,192,253779,128,0,253936:0:0:0:0:
448,192,253936,128,0,254093:0:0:0:0:
192,192,254093,1,0,0:0:0:0:
64,192,254093,1,0,0:0:0:0:
320,192,254250,128,0,254407:0:0:0:0:
448,192,254407,1,0,0:0:0:0:
64,192,254407,1,0,0:0:0:0:
192,192,254564,128,0,254721:0:0:0:0:
320,192,254721,128,0,254878:0:0:0:0:
192,192,254878,128,0,255036:0:0:0:0:
320,192,255036,1,0,0:0:0:0:
448,192,255036,1,0,0:0:0:0:
64,192,255193,1,0,0:0:0:0:
192,192,255350,128,0,255664:0:0:0:0:
320,192,255507,1,0,0:0:0:0:
64,192,255664,1,0,0:0:0:0:
448,192,255821,1,0,0:0:0:0:
192,192,255978,1,0,0:0:0:0:
320,192,256135,1,0,0:0:0:0:
64,192,256292,1,0,0:0:0:0:
192,192,256449,128,0,256763:0:0:0:0:
320,192,256449,1,0,0:0:0:0:
320,192,256763,128,0,256920:0:0:0:0:
448,192,256920,128,0,257549:0:0:0:0:
64,192,256920,1,0,0:0:0:0:
192,192,257234,1,0,0:0:0:0:
192,192,257549,1,0,0:0:0:0:
64,192,257549,1,0,0:0:0:0:
320,192,257627,1,0,0:0:0:0:
64,192,257706,1,0,0:0:0:0:
192,192,257784,1,0,0:0:0:0:
320,192,257863,1,0,0:0:0:0:
448,192,257863,1,0,0:0:0:0:
192,192,258020,128,0,258177:0:0:0:0:
64,192,258177,128,0,258334:0:0:0:0:
320,192,258334,1,0,0:0:0:0:
448,192,258491,128,0,258648:0:0:0:0:
64,192,258648,128,0,258805:0:0:0:0:
192,192,258805,1,0,0:0:0:0:
320,192,258962,128,0,259119:0:0:0:0:
448,192,259119,1,0,0:0:0:0:
192,192,259276,1,0,0:0:0:0:
448,192,259433,128,0,259590:0:0:0:0:
64,192,259590,128,0,259748:0:0:0:0:
320,192,259748,128,0,259905:0:0:0:0:
192,192,259905,128,0,260062:0:0:0:0:
64,192,260062,128,0,260219:0:0:0:0:
448,192,260219,128,0,260376:0:0:0:0:
320,192,260376,128,0,260533:0:0:0:0:
192,192,260533,128,0,260690:0:0:0:0:
448,192,260690,128,0,260847:0:0:0:0:
320,192,260847,1,0,0:0:0:0:
64,192,261004,128,0,261161:0:0:0:0:
192,192,261161,128,0,261318:0:0:0:0:
320,192,261318,1,0,0:0:0:0:
448,192,261475,128,0,261632:0:0:0:0:
64,192,261632,1,0,0:0:0:0:
192,192,261789,1,0,0:0:0:0:
320,192,261789,1,0,0:0:0:0:
64,192,261947,1,0,0:0:0:0:
448,192,261947,1,0,0:0:0:0:
192,192,262104,1,0,0:0:0:0:
320,192,262261,128,0,262418:0:0:0:0:
192,192,262418,128,0,262575:0:0:0:0:
448,192,262575,128,0,262889:0:0:0:0:
64,192,262575,1,0,0:0:0:0:
64,192,262889,128,0,263203:0:0:0:0:
192,192,263046,1,0,0:0:0:0:
320,192,263203,1,0,0:0:0:0:
192,192,263360,1,0,0:0:0:0:
448,192,263360,128,0,263831:0:0:0:0:
64,192,263517,1,0,0:0:0:0:
320,192,263674,1,0,0:0:0:0:
192,192,263831,128,0,263988:0:0:0:0:
64,192,263988,1,0,0:0:0:0:
320,192,264145,1,0,0:0:0:0:
448,192,264303,128,0,264460:0:0:0:0:
64,192,264460,1,0,0:0:0:0:
320,192,264617,128,0,264774:0:0:0:0:
64,192,264774,128,0,264931:0:0:0:0:
448,192,264774,1,0,0:0:0:0:
192,192,264931,128,0,265088:0:0:0:0:
448,192,265088,128,0,265245:0:0:0:0:
64,192,265245,128,0,265402:0:0:0:0:
320,192,265402,128,0,265716:0:0:0:0:
192,192,265559,1,0,0:0:0:0:
448,192,265716,128,0,266030:0:0:0:0:
320,192,265873,1,0,0:0:0:0:
64,192,266030,1,0,0:0:0:0:
192,192,266187,1,0,0:0:0:0:
320,192,266344,1,0,0:0:0:0:
64,192,266501,128,0,266816:0:0:0:0:
448,192,266501,1,0,0:0:0:0:
320,192,266816,1,0,0:0:0:0:
192,192,266816,1,0,0:0:0:0:
320,192,266973,128,0,267287:0:0:0:0:
192,192,266973,1,0,0:0:0:0:
448,192,267287,1,0,0:0:0:0:
64,192,267287,1,0,0:0:0:0:
320,192,267444,1,0,0:0:0:0:
192,192,267601,1,0,0:0:0:0:
64,192,267601,1,0,0:0:0:0:
448,192,267915,128,0,268151:0:0:0:0:
320,192,267915,1,0,0:0:0:0:
192,192,268072,128,0,268229:0:0:0:0:
320,192,268229,128,0,268543:0:0:0:0:
64,192,268386,128,0,268543:0:0:0:0:
448,192,268543,128,0,268858:0:0:0:0:
192,192,268700,128,0,268858:0:0:0:0:
320,192,268858,128,0,269172:0:0:0:0:
64,192,269015,128,0,269172:0:0:0:0:
448,192,269172,1,0,0:0:0:0:
192,192,269329,1,0,0:0:0:0:
320,192,269486,128,0,269643:0:0:0:0:
192,192,269643,1,0,0:0:0:0:
320,192,269800,1,0,0:0:0:0:
64,192,269800,128,0,270114:0:0:0:0:
192,192,269957,128,0,270114:0:0:0:0:
320,192,270114,128,0,270428:0:0:0:0:
448,192,270271,128,0,270428:0:0:0:0:
64,192,270428,128,0,270821:0:0:0:0:
320,192,270585,128,0,270742:0:0:0:0:
192,192,270742,128,0,271056:0:0:0:0:
448,192,270899,128,0,271056:0:0:0:0:
64,192,271056,128,0,271371:0:0:0:0:
320,192,271214,128,0,271371:0:0:0:0:
192,192,271371,128,0,271685:0:0:0:0:
448,192,271528,128,0,271685:0:0:0:0:
320,192,271685,128,0,271999:0:0:0:0:
64,192,271842,1,0,0:0:0:0:
192,192,271999,128,0,272313:0:0:0:0:
448,192,272156,1,0,0:0:0:0:
64,192,272313,1,0,0:0:0:0:
320,192,272313,128,0,272627:0:0:0:0:
448,192,272470,1,0,0:0:0:0:
64,192,272627,128,0,272784:0:0:0:0:
192,192,272784,128,0,272941:0:0:0:0:
448,192,272941,128,0,273255:0:0:0:0:
192,192,273098,128,0,273412:0:0:0:0:
320,192,273255,128,0,273412:0:0:0:0:
64,192,273412,128,0,273570:0:0:0:0:
320,192,273570,128,0,273884:0:0:0:0:
192,192,273727,128,0,273884:0:0:0:0:
448,192,273884,128,0,274041:0:0:0:0:
64,192,274041,128,0,274198:0:0:0:0:
448,192,274198,1,0,0:0:0:0:
192,192,274198,1,0,0:0:0:0:
64,192,274355,1,0,0:0:0:0:
320,192,274355,128,0,274512:0:0:0:0:
192,192,274512,128,0,274669:0:0:0:0:
448,192,274669,128,0,274983:0:0:0:0:
64,192,274826,128,0,275140:0:0:0:0:
320,192,274983,128,0,275297:0:0:0:0:
192,192,275140,128,0,275297:0:0:0:0:
448,192,275297,128,0,275454:0:0:0:0:
192,192,275454,1,0,0:0:0:0:
64,192,275454,1,0,0:0:0:0:
64,192,275611,1,0,0:0:0:0:
192,192,275611,1,0,0:0:0:0:
448,192,275926,1,0,0:0:0:0:
320,192,275926,1,0,0:0:0:0:
448,192,276083,1,0,0:0:0:0:
320,192,276083,1,0,0:0:0:0:
448,192,276397,1,0,0:0:0:0:
64,192,276397,1,0,0:0:0:0:
64,192,276554,1,0,0:0:0:0:
448,192,276554,1,0,0:0:0:0:
448,192,277967,1,0,0:0:0:0:
320,192,277967,1,0,0:0:0:0:
448,192,278125,128,0,278439:0:0:0:0:
320,192,278125,1,0,0:0:0:0:
192,192,278439,1,0,0:0:0:0:
64,192,278439,1,0,0:0:0:0:
64,192,278596,128,0,278910:0:0:0:0:
192,192,278596,1,0,0:0:0:0:
320,192,278910,1,0,0:0:0:0:
192,192,278910,1,0,0:0:0:0:
320,192,279067,128,0,280166:0:0:0:0:
192,192,279067,1,0,0:0:0:0:
192,192,280166,128,0,280481:0:0:0:0:
448,192,280481,128,0,281423:0:0:0:0:
64,192,280481,128,0,281737:0:0:0:0:
320,192,280638,1,0,0:0:0:0:
192,192,280795,1,0,0:0:0:0:
192,192,281109,1,0,0:0:0:0:
320,192,281423,128,0,281580:0:0:0:0:
192,192,281580,128,0,282365:0:0:0:0:
448,192,281737,128,0,282994:0:0:0:0:
320,192,281894,1,0,0:0:0:0:
64,192,282051,1,0,0:0:0:0:
320,192,282365,1,0,0:0:0:0:
192,192,282522,1,0,0:0:0:0:
64,192,282679,128,0,282994:0:0:0:0:
320,192,282994,128,0,283308:0:0:0:0:
192,192,282994,128,0,284250:0:0:0:0:
448,192,283308,128,0,283465:0:0:0:0:
64,192,283465,128,0,283622:0:0:0:0:
320,192,283622,1,0,0:0:0:0:
448,192,283779,128,0,284093:0:0:0:0:
320,192,283936,1,0,0:0:0:0:
64,192,284093,128,0,284407:0:0:0:0:
320,192,284250,128,0,285507:0:0:0:0:
448,192,284407,128,0,284564:0:0:0:0:
192,192,284564,128,0,284721:0:0:0:0:
64,192,284721,1,0,0:0:0:0:
448,192,284878,1,0,0:0:0:0:
192,192,285036,128,0,285193:0:0:0:0:
64,192,285193,128,0,285350:0:0:0:0:
448,192,285350,128,0,285507:0:0:0:0:
64,192,285507,1,0,0:0:0:0:
192,192,285664,1,0,0:0:0:0:
320,192,285821,1,0,0:0:0:0:
192,192,285978,128,0,286135:0:0:0:0:
448,192,286135,128,0,286292:0:0:0:0:
64,192,286135,1,0,0:0:0:0:
320,192,286292,128,0,286449:0:0:0:0:
192,192,286449,128,0,286606:0:0:0:0:
448,192,286449,1,0,0:0:0:0:
64,192,286606,128,0,286763:0:0:0:0:
320,192,286606,1,0,0:0:0:0:
192,192,286763,1,0,0:0:0:0:
448,192,286763,1,0,0:0:0:0:
320,192,286920,128,0,287077:0:0:0:0:
448,192,287077,1,0,0:0:0:0:
64,192,287077,1,0,0:0:0:0:
320,192,287234,1,0,0:0:0:0:
64,192,287392,128,0,287549:0:0:0:0:
448,192,287392,1,0,0:0:0:0:
192,192,287549,128,0,287706:0:0:0:0:
320,192,287706,128,0,287863:0:0:0:0:
64,192,287706,1,0,0:0:0:0:
192,192,287863,1,0,0:0:0:0:
448,192,287863,128,0,288020:0:0:0:0:
320,192,288020,1,0,0:0:0:0:
192,192,288177,128,0,288334:0:0:0:0:
448,192,288334,1,0,0:0:0:0:
64,192,288334,1,0,0:0:0:0:
320,192,288491,128,0,288648:0:0:0:0:
448,192,288648,1,0,0:0:0:0:
192,192,288648,128,0,288805:0:0:0:0:
320,192,288805,1,0,0:0:0:0:
64,192,288805,128,0,288962:0:0:0:0:
192,192,288962,1,0,0:0:0:0:
320,192,289119,128,0,289433:0:0:0:0:
448,192,289119,1,0,0:0:0:0:
64,192,289433,1,0,0:0:0:0:
192,192,289433,1,0,0:0:0:0:
448,192,289590,128,0,289905:0:0:0:0:
320,192,289590,1,0,0:0:0:0:
64,192,289905,128,0,290062:0:0:0:0:
320,192,290062,128,0,290219:0:0:0:0:
192,192,290219,128,0,290376:0:0:0:0:
448,192,290376,128,0,290533:0:0:0:0:
192,192,290533,128,0,290690:0:0:0:0:
64,192,290533,128,0,291789:0:0:0:0:
448,192,290690,128,0,290847:0:0:0:0:
320,192,290847,128,0,291004:0:0:0:0:
448,192,291004,128,0,291161:0:0:0:0:
192,192,291161,128,0,291318:0:0:0:0:
320,192,291318,128,0,291475:0:0:0:0:
448,192,291475,128,0,291632:0:0:0:0:
320,192,291632,128,0,291789:0:0:0:0:
448,192,291789,128,0,291947:0:0:0:0:
192,192,291789,128,0,293046:0:0:0:0:
64,192,291947,128,0,292104:0:0:0:0:
320,192,292104,128,0,292261:0:0:0:0:
64,192,292261,128,0,292418:0:0:0:0:
448,192,292418,128,0,292575:0:0:0:0:
320,192,292575,128,0,292732:0:0:0:0:
64,192,292732,128,0,292889:0:0:0:0:
448,192,292889,128,0,293046:0:0:0:0:
64,192,293046,128,0,293203:0:0:0:0:
320,192,293046,128,0,293831:0:0:0:0:
448,192,293203,128,0,293360:0:0:0:0:
192,192,293360,128,0,293517:0:0:0:0:
448,192,293517,128,0,293674:0:0:0:0:
64,192,293674,128,0,293831:0:0:0:0:
192,192,293831,128,0,294145:0:0:0:0:
64,192,294145,128,0,294460:0:0:0:0:
448,192,294145,128,0,295559:0:0:0:0:
192,192,294460,128,0,294617:0:0:0:0:
320,192,294617,128,0,294774:0:0:0:0:
64,192,294931,128,0,295402:0:0:0:0:
192,192,295088,128,0,295245:0:0:0:0:
320,192,295245,128,0,295559:0:0:0:0:
192,192,295402,128,0,295559:0:0:0:0:
64,192,295559,128,0,296816:0:0:0:0:
192,192,295716,1,0,0:0:0:0:
448,192,295873,128,0,296030:0:0:0:0:
320,192,296030,128,0,296187:0:0:0:0:
192,192,296187,128,0,296344:0:0:0:0:
320,192,296344,128,0,296501:0:0:0:0:
448,192,296501,128,0,296659:0:0:0:0:
320,192,296659,128,0,296816:0:0:0:0:
192,192,296816,1,0,0:0:0:0:
448,192,296816,128,0,298072:0:0:0:0:
320,192,296973,1,0,0:0:0:0:
64,192,297130,1,0,0:0:0:0:
192,192,297130,1,0,0:0:0:0:
320,192,297287,1,0,0:0:0:0:
64,192,297444,128,0,297601:0:0:0:0:
192,192,297601,128,0,297758:0:0:0:0:
320,192,297758,128,0,297915:0:0:0:0:
192,192,297915,128,0,298072:0:0:0:0:
320,192,298072,1,0,0:0:0:0:
64,192,298072,128,0,299172:0:0:0:0:
192,192,298229,1,0,0:0:0:0:
448,192,298386,1,0,0:0:0:0:
320,192,298386,1,0,0:0:0:0:
192,192,298543,1,0,0:0:0:0:
448,192,298700,1,0,0:0:0:0:
320,192,298858,1,0,0:0:0:0:
192,192,299015,1,0,0:0:0:0:
448,192,299172,128,0,300271:0:0:0:0:
320,192,299172,1,0,0:0:0:0:
192,192,300271,128,0,300585:0:0:0:0:
320,192,300271,1,0,0:0:0:0:
448,192,300585,128,0,301842:0:0:0:0:
64,192,300585,1,0,0:0:0:0:
192,192,300742,1,0,0:0:0:0:
320,192,300899,1,0,0:0:0:0:
192,192,301056,1,0,0:0:0:0:
64,192,301214,128,0,301842:0:0:0:0:
320,192,301371,1,0,0:0:0:0:
192,192,301528,1,0,0:0:0:0:
320,192,301685,1,0,0:0:0:0:
192,192,301842,128,0,302470:0:0:0:0:
320,192,301999,128,0,302156:0:0:0:0:
64,192,302156,128,0,302313:0:0:0:0:
448,192,302313,128,0,302470:0:0:0:0:
320,192,302470,128,0,303098:0:0:0:0:
192,192,302627,128,0,302784:0:0:0:0:
64,192,302784,128,0,302941:0:0:0:0:
448,192,302941,128,0,303098:0:0:0:0:
192,192,303098,128,0,303255:0:0:0:0:
448,192,303255,128,0,303412:0:0:0:0:
64,192,303412,128,0,303570:0:0:0:0:
320,192,303570,128,0,303727:0:0:0:0:
192,192,303727,128,0,303884:0:0:0:0:
448,192,303727,128,0,304355:0:0:0:0:
320,192,303884,128,0,304041:0:0:0:0:
192,192,304041,128,0,304198:0:0:0:0:
64,192,304198,128,0,304355:0:0:0:0:
320,192,304355,128,0,304983:0:0:0:0:
192,192,304512,128,0,304669:0:0:0:0:
448,192,304669,128,0,304826:0:0:0:0:
64,192,304826,128,0,304983:0:0:0:0:
448,192,304983,128,0,305140:0:0:0:0:
192,192,304983,128,0,305611:0:0:0:0:
320,192,305140,128,0,305297:0:0:0:0:
64,192,305297,128,0,305454:0:0:0:0:
320,192,305454,128,0,305611:0:0:0:0:
448,192,305611,128,0,305769:0:0:0:0:
192,192,305769,128,0,305926:0:0:0:0:
320,192,305926,128,0,306083:0:0:0:0:
64,192,306083,128,0,306240:0:0:0:0:
192,192,306240,128,0,306397:0:0:0:0:
448,192,306240,128,0,306868:0:0:0:0:
320,192,306397,128,0,306711:0:0:0:0:
64,192,306554,1,0,0:0:0:0:
192,192,306711,128,0,307025:0:0:0:0:
64,192,306868,128,0,307496:0:0:0:0:
448,192,307025,128,0,307182:0:0:0:0:
192,192,307182,128,0,307339:0:0:0:0:
320,192,307339,128,0,307967:0:0:0:0:
448,192,307496,128,0,308125:0:0:0:0:
192,192,307653,1,0,0:0:0:0:
64,192,307810,1,0,0:0:0:0:
192,192,307967,128,0,308282:0:0:0:0:
320,192,308125,1,0,0:0:0:0:
64,192,308282,128,0,308439:0:0:0:0:
448,192,308439,128,0,308596:0:0:0:0:
320,192,308439,128,0,308753:0:0:0:0:
192,192,308596,128,0,308753:0:0:0:0:
64,192,308753,128,0,308910:0:0:0:0:
320,192,308910,128,0,309067:0:0:0:0:
448,192,308910,1,0,0:0:0:0:
192,192,309067,128,0,309224:0:0:0:0:
448,192,309224,128,0,309381:0:0:0:0:
64,192,309224,1,0,0:0:0:0:
320,192,309381,128,0,309538:0:0:0:0:
64,192,309538,128,0,309695:0:0:0:0:
448,192,309538,1,0,0:0:0:0:
192,192,309695,128,0,309852:0:0:0:0:
448,192,309852,128,0,310323:0:0:0:0:
320,192,309852,128,0,310323:0:0:0:0:
64,192,309852,128,0,310323:0:0:0:0:
448,192,324927,132,0,325157:0:0:0:0:
64,192,324927,128,0,325157:0:0:0:0:
320,192,325157,1,0,0:0:0:0:
64,192,325388,1,0,0:0:0:0:
448,192,325388,1,0,0:0:0:0:
192,192,325503,1,0,0:0:0:0:
320,192,325619,1,0,0:0:0:0:
64,192,325850,1,0,0:0:0:0:
448,192,325850,1,0,0:0:0:0:
320,192,326080,1,0,0:0:0:0:
192,192,326196,1,0,0:0:0:0:
448,192,326311,1,0,0:0:0:0:
320,192,326311,1,0,0:0:0:0:
64,192,326427,1,0,0:0:0:0:
192,192,326542,1,0,0:0:0:0:
64,192,326773,128,0,327003:0:0:0:0:
448,192,326773,128,0,327003:0:0:0:0:
192,192,327003,1,0,0:0:0:0:
448,192,327234,1,0,0:0:0:0:
64,192,327234,1,0,0:0:0:0:
320,192,327350,1,0,0:0:0:0:
192,192,327465,1,0,0:0:0:0:
448,192,327696,1,0,0:0:0:0:
64,192,327696,1,0,0:0:0:0:
192,192,327927,1,0,0:0:0:0:
320,192,328042,1,0,0:0:0:0:
64,192,328157,1,0,0:0:0:0:
192,192,328157,1,0,0:0:0:0:
448,192,328273,1,0,0:0:0:0:
320,192,328388,1,0,0:0:0:0:
448,192,328619,128,0,328850:0:0:0:0:
192,192,328619,1,0,0:0:0:0:
320,192,328850,1,0,0:0:0:0:
64,192,328850,128,0,329080:0:0:0:0:
192,192,329080,1,0,0:0:0:0:
320,192,329080,128,0,329311:0:0:0:0:
448,192,329311,1,0,0:0:0:0:
192,192,329311,128,0,329542:0:0:0:0:
64,192,329542,1,0,0:0:0:0:
448,192,329542,128,0,329773:0:0:0:0:
320,192,329773,1,0,0:0:0:0:
192,192,329888,1,0,0:0:0:0:
64,192,330003,1,0,0:0:0:0:
448,192,330003,1,0,0:0:0:0:
320,192,330119,1,0,0:0:0:0:
192,192,330234,1,0,0:0:0:0:
64,192,330465,128,0,330696:0:0:0:0:
320,192,330465,1,0,0:0:0:0:
192,192,330696,1,0,0:0:0:0:
448,192,330696,128,0,330927:0:0:0:0:
320,192,330927,1,0,0:0:0:0:
192,192,330927,128,0,331157:0:0:0:0:
64,192,331157,1,0,0:0:0:0:
320,192,331157,128,0,331388:0:0:0:0:
448,192,331388,1,0,0:0:0:0:
64,192,331388,128,0,331619:0:0:0:0:
320,192,331619,1,0,0:0:0:0:
192,192,331734,1,0,0:0:0:0:
448,192,331850,1,0,0:0:0:0:
320,192,331850,1,0,0:0:0:0:
64,192,331965,1,0,0:0:0:0:
192,192,332080,1,0,0:0:0:0:
64,192,332311,128,0,332542:0:0:0:0:
448,192,332311,128,0,332542:0:0:0:0:
192,192,332542,1,0,0:0:0:0:
448,192,332773,1,0,0:0:0:0:
64,192,332773,1,0,0:0:0:0:
320,192,332888,1,0,0:0:0:0:
192,192,333003,1,0,0:0:0:0:
448,192,333234,1,0,0:0:0:0:
64,192,333234,1,0,0:0:0:0:
192,192,333465,1,0,0:0:0:0:
320,192,333580,1,0,0:0:0:0:
64,192,333696,1,0,0:0:0:0:
192,192,333696,1,0,0:0:0:0:
448,192,333811,1,0,0:0:0:0:
64,192,333927,1,0,0:0:0:0:
192,192,334157,128,0,334388:0:0:0:0:
320,192,334157,128,0,334388:0:0:0:0:
64,192,334388,1,0,0:0:0:0:
320,192,334619,1,0,0:0:0:0:
448,192,334619,1,0,0:0:0:0:
192,192,334734,1,0,0:0:0:0:
320,192,334850,1,0,0:0:0:0:
64,192,335080,1,0,0:0:0:0:
448,192,335080,1,0,0:0:0:0:
192,192,335311,1,0,0:0:0:0:
320,192,335427,1,0,0:0:0:0:
448,192,335542,1,0,0:0:0:0:
64,192,335542,1,0,0:0:0:0:
192,192,335657,1,0,0:0:0:0:
320,192,335773,1,0,0:0:0:0:
64,192,336003,128,0,336234:0:0:0:0:
448,192,336003,1,0,0:0:0:0:
192,192,336234,1,0,0:0:0:0:
448,192,336234,128,0,336465:0:0:0:0:
320,192,336465,1,0,0:0:0:0:
192,192,336465,128,0,336696:0:0:0:0:
64,192,336696,1,0,0:0:0:0:
320,192,336696,128,0,336927:0:0:0:0:
448,192,336927,1,0,0:0:0:0:
64,192,336927,128,0,337157:0:0:0:0:
192,192,337157,1,0,0:0:0:0:
320,192,337273,1,0,0:0:0:0:
448,192,337388,1,0,0:0:0:0:
64,192,337388,1,0,0:0:0:0:
192,192,337503,1,0,0:0:0:0:
320,192,337619,1,0,0:0:0:0:
448,192,337850,128,0,338080:0:0:0:0:
192,192,337850,1,0,0:0:0:0:
320,192,338080,1,0,0:0:0:0:
64,192,338080,128,0,338311:0:0:0:0:
192,192,338311,1,0,0:0:0:0:
320,192,338311,128,0,338542:0:0:0:0:
448,192,338542,1,0,0:0:0:0:
192,192,338542,128,0,338773:0:0:0:0:
64,192,338773,1,0,0:0:0:0:
448,192,338773,128,0,339003:0:0:0:0:
64,192,339003,1,0,0:0:0:0:
192,192,339119,1,0,0:0:0:0:
448,192,339234,1,0,0:0:0:0:
320,192,339234,1,0,0:0:0:0:
64,192,339350,1,0,0:0:0:0:
192,192,339465,1,0,0:0:0:0:
320,192,339696,128,0,341542:0:0:0:0:
192,192,340850,128,0,341542:0:0:0:0:
448,192,341542,128,0,341773:0:0:0:0:
64,192,341542,1,0,0:0:0:0:
320,192,341773,1,0,0:0:0:0:
192,192,341888,1,0,0:0:0:0:
64,192,342003,128,0,342234:0:0:0:0:
448,192,342003,1,0,0:0:0:0:
320,192,342234,1,0,0:0:0:0:
192,192,342465,1,0,0:0:0:0:
448,192,342580,1,0,0:0:0:0:
64,192,342696,128,0,342927:0:0:0:0:
192,192,342696,1,0,0:0:0:0:
320,192,342927,1,0,0:0:0:0:
448,192,342927,1,0,0:0:0:0:
64,192,343157,1,0,0:0:0:0:
192,192,343157,1,0,0:0:0:0:
448,192,343388,1,0,0:0:0:0:
64,192,343388,1,0,0:0:0:0:
320,192,343619,1,0,0:0:0:0:
192,192,343734,1,0,0:0:0:0:
448,192,343850,128,0,344080:0:0:0:0:
64,192,343850,1,0,0:0:0:0:
320,192,344080,128,0,344311:0:0:0:0:
192,192,344311,1,0,0:0:0:0:
448,192,344427,1,0,0:0:0:0:
64,192,344542,128,0,344773:0:0:0:0:
192,192,344542,1,0,0:0:0:0:
320,192,344773,128,0,345003:0:0:0:0:
448,192,344773,1,0,0:0:0:0:
192,192,345003,128,0,345234:0:0:0:0:
64,192,345003,1,0,0:0:0:0:
64,192,345234,1,0,0:0:0:0:
448,192,345234,1,0,0:0:0:0:
192,192,345465,1,0,0:0:0:0:
320,192,345465,128,0,345696:0:0:0:0:
448,192,345696,1,0,0:0:0:0:
192,192,345696,128,0,345927:0:0:0:0:
64,192,345927,1,0,0:0:0:0:
448,192,345927,128,0,346157:0:0:0:0:
320,192,346157,1,0,0:0:0:0:
64,192,346157,128,0,346388:0:0:0:0:
192,192,346388,1,0,0:0:0:0:
448,192,346503,1,0,0:0:0:0:
64,192,346619,1,0,0:0:0:0:
320,192,346619,128,0,346850:0:0:0:0:
448,192,346850,1,0,0:0:0:0:
192,192,346850,128,0,347080:0:0:0:0:
64,192,347080,1,0,0:0:0:0:
448,192,347080,1,0,0:0:0:0:
192,192,347311,1,0,0:0:0:0:
320,192,347311,128,0,347542:0:0:0:0:
448,192,347542,1,0,0:0:0:0:
192,192,347542,128,0,347773:0:0:0:0:
64,192,347773,1,0,0:0:0:0:
448,192,347773,128,0,348003:0:0:0:0:
320,192,348003,1,0,0:0:0:0:
64,192,348003,128,0,348234:0:0:0:0:
192,192,348234,1,0,0:0:0:0:
448,192,348350,1,0,0:0:0:0:
64,192,348465,1,0,0:0:0:0:
320,192,348465,128,0,348696:0:0:0:0:
448,192,348696,1,0,0:0:0:0:
192,192,348696,128,0,348927:0:0:0:0:
64,192,348927,1,0,0:0:0:0:
448,192,348927,1,0,0:0:0:0:
192,192,349157,1,0,0:0:0:0:
320,192,349273,1,0,0:0:0:0:
448,192,349388,128,0,349619:0:0:0:0:
64,192,349388,1,0,0:0:0:0:
192,192,349619,1,0,0:0:0:0:
320,192,349850,1,0,0:0:0:0:
64,192,349965,1,0,0:0:0:0:
448,192,350080,128,0,350311:0:0:0:0:
320,192,350080,1,0,0:0:0:0:
192,192,350311,1,0,0:0:0:0:
64,192,350311,1,0,0:0:0:0:
448,192,350542,1,0,0:0:0:0:
320,192,350542,1,0,0:0:0:0:
64,192,350773,1,0,0:0:0:0:
448,192,350773,1,0,0:0:0:0:
192,192,351003,1,0,0:0:0:0:
320,192,351119,1,0,0:0:0:0:
64,192,351234,128,0,351465:0:0:0:0:
448,192,351234,1,0,0:0:0:0:
192,192,351465,128,0,351696:0:0:0:0:
320,192,351696,1,0,0:0:0:0:
64,192,351811,1,0,0:0:0:0:
448,192,351927,128,0,352157:0:0:0:0:
320,192,351927,1,0,0:0:0:0:
64,192,352157,128,0,352388:0:0:0:0:
192,192,352157,1,0,0:0:0:0:
320,192,352388,128,0,352619:0:0:0:0:
448,192,352388,1,0,0:0:0:0:
448,192,352619,1,0,0:0:0:0:
64,192,352619,1,0,0:0:0:0:
320,192,352850,1,0,0:0:0:0:
192,192,352850,128,0,353080:0:0:0:0:
64,192,353080,1,0,0:0:0:0:
320,192,353080,128,0,353311:0:0:0:0:
448,192,353311,1,0,0:0:0:0:
64,192,353311,128,0,353542:0:0:0:0:
192,192,353542,1,0,0:0:0:0:
448,192,353542,128,0,353773:0:0:0:0:
320,192,353773,1,0,0:0:0:0:
64,192,353888,1,0,0:0:0:0:
448,192,354003,1,0,0:0:0:0:
192,192,354003,128,0,354234:0:0:0:0:
64,192,354234,1,0,0:0:0:0:
320,192,354234,128,0,354465:0:0:0:0:
192,192,354465,128,0,354696:0:0:0:0:
448,192,354465,1,0,0:0:0:0:
320,192,354811,128,0,355042:0:0:0:0:
64,192,354811,1,0,0:0:0:0:
192,192,355157,128,0,355388:0:0:0:0:
448,192,355157,1,0,0:0:0:0:
448,192,355388,1,0,0:0:0:0:
64,192,355503,1,0,0:0:0:0:
320,192,355619,1,0,0:0:0:0:
192,192,355734,1,0,0:0:0:0:
448,192,355850,1,0,0:0:0:0:
64,192,355965,1,0,0:0:0:0:
320,192,356080,1,0,0:0:0:0:
192,192,356196,1,0,0:0:0:0:
64,192,356311,1,0,0:0:0:0:
448,192,356311,128,0,358157:0:0:0:0:
320,192,356311,1,0,0:0:0:0:
192,192,357234,128,0,358157:0:0:0:0:
320,192,358157,128,0,360003:0:0:0:0:
64,192,359080,128,0,360003:0:0:0:0:
448,192,360003,128,0,361850:0:0:0:0:
64,192,360927,128,0,361850:0:0:0:0:
320,192,361850,128,0,363696:0:0:0:0:
192,192,362773,128,0,363696:0:0:0:0:
448,192,363696,1,0,0:0:0:0:
64,192,363696,1,0,0:0:0:0:
320,192,363927,128,0,364157:0:0:0:0:
192,192,364157,128,0,364388:0:0:0:0:
64,192,364157,1,0,0:0:0:0:
448,192,364388,128,0,364619:0:0:0:0:
320,192,364503,1,0,0:0:0:0:
64,192,364619,1,0,0:0:0:0:
192,192,364734,1,0,0:0:0:0:
320,192,364850,128,0,365080:0:0:0:0:
64,192,365080,128,0,365311:0:0:0:0:
448,192,365080,1,0,0:0:0:0:
192,192,365311,128,0,365542:0:0:0:0:
320,192,365427,1,0,0:0:0:0:
448,192,365542,1,0,0:0:0:0:
64,192,365542,1,0,0:0:0:0:
448,192,365773,128,0,366003:0:0:0:0:
64,192,365888,1,0,0:0:0:0:
320,192,366003,128,0,366234:0:0:0:0:
192,192,366119,1,0,0:0:0:0:
64,192,366234,128,0,366465:0:0:0:0:
448,192,366350,1,0,0:0:0:0:
192,192,366465,128,0,366696:0:0:0:0:
320,192,366465,1,0,0:0:0:0:
448,192,366696,128,0,366927:0:0:0:0:
64,192,366927,128,0,367157:0:0:0:0:
192,192,367042,1,0,0:0:0:0:
320,192,367157,128,0,367388:0:0:0:0:
448,192,367273,1,0,0:0:0:0:
64,192,367388,1,0,0:0:0:0:
192,192,367388,1,0,0:0:0:0:
192,192,367619,1,0,0:0:0:0:
448,192,367734,1,0,0:0:0:0:
64,192,367850,128,0,368080:0:0:0:0:
320,192,367965,1,0,0:0:0:0:
192,192,368080,1,0,0:0:0:0:
448,192,368196,1,0,0:0:0:0:
320,192,368311,1,0,0:0:0:0:
64,192,368311,128,0,368542:0:0:0:0:
192,192,368427,1,0,0:0:0:0:
448,192,368542,1,0,0:0:0:0:
192,192,368773,128,0,369003:0:0:0:0:
64,192,368773,1,0,0:0:0:0:
448,192,368888,1,0,0:0:0:0:
320,192,369003,1,0,0:0:0:0:
64,192,369119,1,0,0:0:0:0:
448,192,369234,1,0,0:0:0:0:
192,192,369234,1,0,0:0:0:0:
192,192,369465,1,0,0:0:0:0:
320,192,369580,1,0,0:0:0:0:
448,192,369696,128,0,370157:0:0:0:0:
64,192,369811,1,0,0:0:0:0:
192,192,369927,1,0,0:0:0:0:
320,192,370042,1,0,0:0:0:0:
64,192,370157,128,0,371080:0:0:0:0:
192,192,370273,1,0,0:0:0:0:
448,192,370388,1,0,0:0:0:0:
320,192,370503,1,0,0:0:0:0:
192,192,370619,1,0,0:0:0:0:
448,192,370734,1,0,0:0:0:0:
192,192,370850,1,0,0:0:0:0:
320,192,370965,1,0,0:0:0:0:
448,192,371080,1,0,0:0:0:0:
192,192,371080,1,0,0:0:0:0:
448,192,371427,1,0,0:0:0:0:
192,192,371427,1,0,0:0:0:0:
64,192,371773,1,0,0:0:0:0:
320,192,371773,1,0,0:0:0:0:
192,192,372003,1,0,0:0:0:0:
448,192,372003,1,0,0:0:0:0:
64,192,372234,128,0,372465:0:0:0:0:
320,192,372465,128,0,372696:0:0:0:0:
192,192,372696,128,0,372927:0:0:0:0:
448,192,372927,128,0,373157:0:0:0:0:
64,192,372927,1,0,0:0:0:0:
192,192,373157,1,0,0:0:0:0:
64,192,373388,1,0,0:0:0:0:
320,192,373388,128,0,373619:0:0:0:0:
192,192,373619,1,0,0:0:0:0:
448,192,373734,1,0,0:0:0:0:
64,192,373850,1,0,0:0:0:0:
192,192,373850,128,0,374080:0:0:0:0:
320,192,373965,1,0,0:0:0:0:
448,192,374080,1,0,0:0:0:0:
64,192,374311,1,0,0:0:0:0:
320,192,374311,1,0,0:0:0:0:
448,192,374427,1,0,0:0:0:0:
192,192,374542,1,0,0:0:0:0:
64,192,374542,128,0,375003:0:0:0:0:
448,192,374773,1,0,0:0:0:0:
192,192,374773,1,0,0:0:0:0:
448,192,375003,1,0,0:0:0:0:
320,192,375003,128,0,375234:0:0:0:0:
64,192,375234,1,0,0:0:0:0:
192,192,375234,128,0,375465:0:0:0:0:
320,192,375465,1,0,0:0:0:0:
448,192,375465,128,0,375696:0:0:0:0:
192,192,375696,1,0,0:0:0:0:
64,192,375696,128,0,375927:0:0:0:0:
320,192,375811,1,0,0:0:0:0:
448,192,375927,1,0,0:0:0:0:
64,192,376157,1,0,0:0:0:0:
192,192,376157,128,0,376388:0:0:0:0:
448,192,376388,1,0,0:0:0:0:
320,192,376388,128,0,376619:0:0:0:0:
64,192,376619,1,0,0:0:0:0:
192,192,376619,128,0,376850:0:0:0:0:
320,192,376850,1,0,0:0:0:0:
192,192,377080,1,0,0:0:0:0:
448,192,377080,128,0,377311:0:0:0:0:
320,192,377311,1,0,0:0:0:0:
64,192,377311,128,0,377542:0:0:0:0:
192,192,377542,1,0,0:0:0:0:
448,192,377542,128,0,377773:0:0:0:0:
320,192,377773,1,0,0:0:0:0:
448,192,378003,1,0,0:0:0:0:
64,192,378003,128,0,378234:0:0:0:0:
320,192,378234,1,0,0:0:0:0:
192,192,378234,128,0,378465:0:0:0:0:
64,192,378465,1,0,0:0:0:0:
448,192,378465,128,0,378696:0:0:0:0:
192,192,378696,1,0,0:0:0:0:
320,192,378696,128,0,378927:0:0:0:0:
64,192,378927,1,0,0:0:0:0:
192,192,378927,128,0,379157:0:0:0:0:
448,192,379042,1,0,0:0:0:0:
320,192,379157,1,0,0:0:0:0:
64,192,379157,128,0,379388:0:0:0:0:
192,192,379388,1,0,0:0:0:0:
448,192,379388,128,0,379619:0:0:0:0:
320,192,379619,1,0,0:0:0:0:
64,192,379619,128,0,379850:0:0:0:0:
192,192,379734,1,0,0:0:0:0:
448,192,379850,1,0,0:0:0:0:
320,192,379850,128,0,380080:0:0:0:0:
192,192,380080,128,0,380311:0:0:0:0:
64,192,380080,1,0,0:0:0:0:
448,192,380311,128,0,380542:0:0:0:0:
320,192,380311,1,0,0:0:0:0:
192,192,380542,1,0,0:0:0:0:
64,192,380773,1,0,0:0:0:0:
320,192,380773,128,0,381003:0:0:0:0:
192,192,381003,1,0,0:0:0:0:
448,192,381119,1,0,0:0:0:0:
64,192,381234,1,0,0:0:0:0:
192,192,381234,128,0,381465:0:0:0:0:
320,192,381350,1,0,0:0:0:0:
448,192,381465,1,0,0:0:0:0:
64,192,381696,1,0,0:0:0:0:
320,192,381696,1,0,0:0:0:0:
192,192,381811,1,0,0:0:0:0:
448,192,381927,1,0,0:0:0:0:
64,192,381927,128,0,382388:0:0:0:0:
320,192,382157,1,0,0:0:0:0:
192,192,382157,1,0,0:0:0:0:
448,192,382388,1,0,0:0:0:0:
320,192,382388,128,0,382619:0:0:0:0:
64,192,382619,1,0,0:0:0:0:
192,192,382619,128,0,382850:0:0:0:0:
320,192,382850,1,0,0:0:0:0:
448,192,382850,128,0,383080:0:0:0:0:
192,192,383080,1,0,0:0:0:0:
64,192,383080,128,0,383311:0:0:0:0:
320,192,383196,1,0,0:0:0:0:
448,192,383311,1,0,0:0:0:0:
64,192,383542,1,0,0:0:0:0:
192,192,383542,128,0,383773:0:0:0:0:
320,192,383773,1,0,0:0:0:0:
448,192,383773,128,0,384003:0:0:0:0:
192,192,384003,1,0,0:0:0:0:
64,192,384003,128,0,384234:0:0:0:0:
448,192,384234,1,0,0:0:0:0:
320,192,384234,128,0,384465:0:0:0:0:
64,192,384465,1,0,0:0:0:0:
448,192,384465,128,0,384696:0:0:0:0:
192,192,384580,1,0,0:0:0:0:
320,192,384696,1,0,0:0:0:0:
64,192,384696,128,0,384927:0:0:0:0:
192,192,384927,1,0,0:0:0:0:
448,192,384927,128,0,385157:0:0:0:0:
320,192,385042,1,0,0:0:0:0:
192,192,385157,1,0,0:0:0:0:
64,192,385388,1,0,0:0:0:0:
448,192,385388,128,0,385619:0:0:0:0:
320,192,385619,1,0,0:0:0:0:
192,192,385619,128,0,385850:0:0:0:0:
448,192,385850,1,0,0:0:0:0:
64,192,385850,128,0,386080:0:0:0:0:
192,192,386080,1,0,0:0:0:0:
320,192,386080,128,0,386311:0:0:0:0:
64,192,386311,1,0,0:0:0:0:
192,192,386311,128,0,386542:0:0:0:0:
448,192,386427,1,0,0:0:0:0:
64,192,386542,1,0,0:0:0:0:
320,192,386542,128,0,386773:0:0:0:0:
192,192,386773,1,0,0:0:0:0:
448,192,386773,128,0,387234:0:0:0:0:
320,192,387003,1,0,0:0:0:0:
192,192,387234,1,0,0:0:0:0:
64,192,387234,128,0,387696:0:0:0:0:
320,192,387350,1,0,0:0:0:0:
448,192,387465,1,0,0:0:0:0:
320,192,387696,128,0,387811:0:0:0:0:
192,192,387696,128,0,387811:0:0:0:0:
64,192,387927,128,0,388042:0:0:0:0:
320,192,388157,128,0,388273:0:0:0:0:
192,192,388388,128,0,388503:0:0:0:0:
448,192,388619,128,0,388734:0:0:0:0:
64,192,388850,1,0,0:0:0:0:
192,192,388965,1,0,0:0:0:0:
448,192,389080,128,0,389196:0:0:0:0:
320,192,389196,128,0,389311:0:0:0:0:
192,192,389311,128,0,389427:0:0:0:0:
64,192,389427,128,0,389542:0:0:0:0:
320,192,389542,128,0,389657:0:0:0:0:
448,192,389542,128,0,389657:0:0:0:0:
64,192,389773,128,0,389888:0:0:0:0:
192,192,390003,128,0,390119:0:0:0:0:
448,192,390234,128,0,390350:0:0:0:0:
320,192,390465,128,0,390580:0:0:0:0:
192,192,390696,1,0,0:0:0:0:
448,192,390811,1,0,0:0:0:0:
64,192,390927,128,0,391042:0:0:0:0:
192,192,391042,128,0,391157:0:0:0:0:
320,192,391157,128,0,391273:0:0:0:0:
448,192,391273,128,0,391388:0:0:0:0:
192,192,391388,128,0,391503:0:0:0:0:
64,192,391388,128,0,391503:0:0:0:0:
448,192,391619,128,0,391734:0:0:0:0:
192,192,391850,128,0,391965:0:0:0:0:
320,192,392080,128,0,392196:0:0:0:0:
64,192,392311,128,0,392427:0:0:0:0:
448,192,392542,1,0,0:0:0:0:
320,192,392657,1,0,0:0:0:0:
192,192,392773,128,0,392888:0:0:0:0:
448,192,392888,128,0,393003:0:0:0:0:
64,192,393003,128,0,393119:0:0:0:0:
320,192,393119,128,0,393234:0:0:0:0:
192,192,393234,128,0,393350:0:0:0:0:
448,192,393234,128,0,393350:0:0:0:0:
64,192,393465,128,0,393580:0:0:0:0:
320,192,393696,128,0,393811:0:0:0:0:
192,192,393927,128,0,394042:0:0:0:0:
448,192,394157,128,0,394273:0:0:0:0:
64,192,394388,1,0,0:0:0:0:
192,192,394503,1,0,0:0:0:0:
320,192,394619,128,0,394734:0:0:0:0:
64,192,394734,128,0,394850:0:0:0:0:
448,192,394850,128,0,394965:0:0:0:0:
192,192,394965,128,0,395080:0:0:0:0:
320,192,395080,128,0,395196:0:0:0:0:
64,192,395080,128,0,395196:0:0:0:0:
192,192,395311,128,0,395427:0:0:0:0:
320,192,395542,128,0,395657:0:0:0:0:
64,192,395542,1,0,0:0:0:0:
448,192,395773,128,0,395888:0:0:0:0:
320,192,396003,128,0,396119:0:0:0:0:
192,192,396003,1,0,0:0:0:0:
64,192,396234,1,0,0:0:0:0:
448,192,396350,1,0,0:0:0:0:
64,192,396465,128,0,396580:0:0:0:0:
448,192,396580,128,0,396696:0:0:0:0:
320,192,396696,128,0,396811:0:0:0:0:
192,192,396811,128,0,396927:0:0:0:0:
448,192,396927,128,0,397042:0:0:0:0:
64,192,396927,1,0,0:0:0:0:
320,192,397157,128,0,397273:0:0:0:0:
448,192,397157,1,0,0:0:0:0:
192,192,397388,128,0,397503:0:0:0:0:
64,192,397388,1,0,0:0:0:0:
64,192,397619,128,0,397734:0:0:0:0:
448,192,397619,1,0,0:0:0:0:
192,192,397850,128,0,397965:0:0:0:0:
320,192,397850,1,0,0:0:0:0:
448,192,398080,1,0,0:0:0:0:
64,192,398196,1,0,0:0:0:0:
320,192,398311,128,0,398427:0:0:0:0:
448,192,398311,1,0,0:0:0:0:
192,192,398427,128,0,398542:0:0:0:0:
64,192,398542,128,0,398657:0:0:0:0:
448,192,398657,128,0,398773:0:0:0:0:
192,192,398773,1,0,0:0:0:0:
320,192,398773,1,0,0:0:0:0:
64,192,399003,128,0,399234:0:0:0:0:
448,192,399003,1,0,0:0:0:0:
448,192,399234,1,0,0:0:0:0:
320,192,399234,128,0,399465:0:0:0:0:
64,192,399465,1,0,0:0:0:0:
192,192,399465,128,0,399696:0:0:0:0:
320,192,399696,1,0,0:0:0:0:
448,192,399696,128,0,399927:0:0:0:0:
320,192,399927,1,0,0:0:0:0:
64,192,399927,1,0,0:0:0:0:
192,192,400042,128,0,400273:0:0:0:0:
64,192,400273,1,0,0:0:0:0:
448,192,400273,1,0,0:0:0:0:
320,192,400388,128,0,400619:0:0:0:0:
192,192,400619,1,0,0:0:0:0:
448,192,400619,1,0,0:0:0:0:
448,192,400850,128,0,401080:0:0:0:0:
64,192,400850,1,0,0:0:0:0:
320,192,401080,1,0,0:0:0:0:
192,192,401080,128,0,401311:0:0:0:0:
64,192,401311,1,0,0:0:0:0:
320,192,401311,128,0,401542:0:0:0:0:
448,192,401542,1,0,0:0:0:0:
64,192,401542,128,0,401773:0:0:0:0:
192,192,401773,1,0,0:0:0:0:
448,192,401773,1,0,0:0:0:0:
320,192,401888,128,0,402119:0:0:0:0:
448,192,402119,1,0,0:0:0:0:
64,192,402119,1,0,0:0:0:0:
192,192,402234,128,0,402465:0:0:0:0:
448,192,402465,128,0,402696:0:0:0:0:
320,192,402465,1,0,0:0:0:0:
192,192,402696,1,0,0:0:0:0:
64,192,402696,1,0,0:0:0:0:
320,192,402927,128,0,403157:0:0:0:0:
448,192,402927,1,0,0:0:0:0:
64,192,403157,1,0,0:0:0:0:
448,192,403157,1,0,0:0:0:0:
192,192,403388,128,0,403619:0:0:0:0:
320,192,403388,1,0,0:0:0:0:
448,192,403619,1,0,0:0:0:0:
320,192,403734,1,0,0:0:0:0:
64,192,403850,1,0,0:0:0:0:
192,192,403965,1,0,0:0:0:0:
64,192,404080,128,0,404311:0:0:0:0:
320,192,404080,1,0,0:0:0:0:
448,192,404196,1,0,0:0:0:0:
192,192,404311,128,0,404542:0:0:0:0:
320,192,404311,1,0,0:0:0:0:
448,192,404542,128,0,404773:0:0:0:0:
64,192,404542,1,0,0:0:0:0:
320,192,404773,128,0,405003:0:0:0:0:
192,192,404773,1,0,0:0:0:0:
64,192,405003,128,0,405234:0:0:0:0:
448,192,405003,1,0,0:0:0:0:
192,192,405234,1,0,0:0:0:0:
320,192,405234,1,0,0:0:0:0:
448,192,405465,1,0,0:0:0:0:
64,192,405580,1,0,0:0:0:0:
320,192,405696,1,0,0:0:0:0:
448,192,405696,1,0,0:0:0:0:
192,192,405811,1,0,0:0:0:0:
64,192,405927,1,0,0:0:0:0:
448,192,406042,1,0,0:0:0:0:
320,192,406157,128,0,406273:0:0:0:0:
192,192,406157,128,0,406273:0:0:0:0:
64,192,406388,128,0,406619:0:0:0:0:
448,192,406388,1,0,0:0:0:0:
320,192,406619,1,0,0:0:0:0:
448,192,406619,128,0,406850:0:0:0:0:
64,192,406850,1,0,0:0:0:0:
192,192,406850,128,0,407080:0:0:0:0:
448,192,407080,1,0,0:0:0:0:
320,192,407080,128,0,407311:0:0:0:0:
448,192,407311,1,0,0:0:0:0:
64,192,407311,1,0,0:0:0:0:
192,192,407427,128,0,407657:0:0:0:0:
64,192,407657,1,0,0:0:0:0:
448,192,407657,1,0,0:0:0:0:
320,192,407773,128,0,408003:0:0:0:0:
192,192,408003,128,0,408119:0:0:0:0:
448,192,408003,128,0,408119:0:0:0:0:
64,192,408234,128,0,408465:0:0:0:0:
320,192,408234,1,0,0:0:0:0:
448,192,408465,1,0,0:0:0:0:
192,192,408465,128,0,408696:0:0:0:0:
64,192,408696,1,0,0:0:0:0:
448,192,408696,128,0,408927:0:0:0:0:
192,192,408927,1,0,0:0:0:0:
320,192,408927,128,0,409157:0:0:0:0:
64,192,409157,1,0,0:0:0:0:
448,192,409157,1,0,0:0:0:0:
192,192,409273,128,0,409503:0:0:0:0:
448,192,409503,1,0,0:0:0:0:
64,192,409503,1,0,0:0:0:0:
320,192,409619,128,0,409850:0:0:0:0:
64,192,409850,1,0,0:0:0:0:
448,192,409850,1,0,0:0:0:0:
