osu file format v14

[General]
AudioFilename: audio.mp3
AudioLeadIn: 0
PreviewTime: -1
Countdown: 0
SampleSet: Soft
StackLeniency: 0.7
Mode: 3
LetterboxInBreaks: 0
SpecialStyle: 1
WidescreenStoryboard: 0

[Editor]
DistanceSpacing: 0.8
BeatDivisor: 4
GridSize: 32
TimelineZoom: 6.899995

[Metadata]
Title:Uvuvwevwevwe
TitleUnicode:Uvuvwevwevwe
Artist:Ossas
ArtistUnicode:Ossas
Creator:Alvin69-
Version:IN
Source:Eka Gustiwana [EGP Remix]
Tags:
BeatmapID:1221144
BeatmapSetID:576874

[Difficulty]
HPDrainRate:8
CircleSize:4
OverallDifficulty:8
ApproachRate:5
SliderMultiplier:1.60000000596046
SliderTickRate:1

[Events]
//Background and Video events
0,0,"[EGP Remix] ossas.jpg",0,0
Video,0,"[EGP Remix] ossas.mp4"
//Break Periods
//Storyboard Layer 0 (Background)
//Storyboard Layer 1 (Fail)
//Storyboard Layer 2 (Pass)
//Storyboard Layer 3 (Foreground)
//Storyboard Sound Samples

[TimingPoints]
1668,428.571428571429,4,2,0,10,1,0

[HitObjects]
448,192,1668,5,0,0:0:0:0:
192,192,1989,1,0,0:0:0:0:
448,192,2096,1,0,0:0:0:0:
320,192,2096,1,0,0:0:0:0:
192,192,2310,1,0,0:0:0:0:
448,192,2525,1,0,0:0:0:0:
320,192,2525,1,0,0:0:0:0:
192,192,2632,1,0,0:0:0:0:
192,192,2846,1,0,0:0:0:0:
320,192,2953,1,0,0:0:0:0:
448,192,2953,1,0,0:0:0:0:
320,192,3168,1,0,0:0:0:0:
192,192,3275,1,0,0:0:0:0:
64,192,3382,1,0,0:0:0:0:
320,192,3382,1,0,0:0:0:0:
448,192,3382,1,0,0:0:0:0:
320,192,3703,1,0,0:0:0:0:
64,192,3810,1,0,0:0:0:0:
192,192,3810,1,0,0:0:0:0:
320,192,4025,1,0,0:0:0:0:
64,192,4239,1,0,0:0:0:0:
192,192,4239,1,0,0:0:0:0:
320,192,4346,1,0,0:0:0:0:
320,192,4560,1,0,0:0:0:0:
192,192,4668,1,0,0:0:0:0:
64,192,4668,1,0,0:0:0:0:
320,192,4882,1,0,0:0:0:0:
192,192,4989,1,0,0:0:0:0:
448,192,5096,1,0,0:0:0:0:
64,192,5096,1,0,0:0:0:0:
320,192,5096,1,0,0:0:0:0:
192,192,5203,1,0,0:0:0:0:
64,192,5364,1,0,0:0:0:0:
192,192,5418,1,0,0:0:0:0:
320,192,5471,1,0,0:0:0:0:
64,192,5525,1,0,0:0:0:0:
192,192,5551,1,0,0:0:0:0:
320,192,5578,1,0,0:0:0:0:
448,192,5605,1,0,0:0:0:0:
64,192,5632,1,0,0:0:0:0:
192,192,5659,1,0,0:0:0:0:
320,192,5685,1,0,0:0:0:0:
448,192,5712,1,0,0:0:0:0:
64,192,5739,1,0,0:0:0:0:
192,192,5793,1,0,0:0:0:0:
320,192,5846,1,0,0:0:0:0:
64,192,5953,1,0,0:0:0:0:
192,192,5953,1,0,0:0:0:0:
320,192,6060,1,0,0:0:0:0:
448,192,6168,1,0,0:0:0:0:
320,192,6275,1,0,0:0:0:0:
192,192,6328,1,0,0:0:0:0:
448,192,6382,1,0,0:0:0:0:
320,192,6409,1,0,0:0:0:0:
192,192,6435,1,0,0:0:0:0:
64,192,6462,1,0,0:0:0:0:
448,192,6489,1,0,0:0:0:0:
320,192,6516,1,0,0:0:0:0:
192,192,6543,1,0,0:0:0:0:
64,192,6569,1,0,0:0:0:0:
448,192,6596,1,0,0:0:0:0:
320,192,6650,1,0,0:0:0:0:
192,192,6703,1,0,0:0:0:0:
320,192,6810,1,0,0:0:0:0:
448,192,6810,1,0,0:0:0:0:
192,192,6918,1,0,0:0:0:0:
192,192,7025,1,0,0:0:0:0:
320,192,7132,1,0,0:0:0:0:
448,192,7239,1,0,0:0:0:0:
64,192,7239,1,0,0:0:0:0:
192,192,7346,1,0,0:0:0:0:
320,192,7453,1,0,0:0:0:0:
192,192,7560,1,0,0:0:0:0:
448,192,7668,1,0,0:0:0:0:
64,192,7668,1,0,0:0:0:0:
320,192,7668,1,0,0:0:0:0:
320,192,8096,1,0,0:0:0:0:
64,192,8203,1,0,0:0:0:0:
448,192,8310,1,0,0:0:0:0:
320,192,8310,1,0,0:0:0:0:
192,192,8418,1,0,0:0:0:0:
320,192,8525,1,0,0:0:0:0:
448,192,8525,1,0,0:0:0:0:
64,192,8525,1,0,0:0:0:0:
192,192,8632,1,0,0:0:0:0:
320,192,8739,1,0,0:0:0:0:
448,192,8846,1,0,0:0:0:0:
64,192,8953,1,0,0:0:0:0:
192,192,8953,1,0,0:0:0:0:
448,192,9060,1,0,0:0:0:0:
320,192,9168,1,0,0:0:0:0:
192,192,9275,1,0,0:0:0:0:
448,192,9382,1,0,0:0:0:0:
64,192,9382,1,0,0:0:0:0:
320,192,9382,1,0,0:0:0:0:
192,192,9489,1,0,0:0:0:0:
320,192,9596,1,0,0:0:0:0:
320,192,9703,1,0,0:0:0:0:
64,192,9810,1,0,0:0:0:0:
192,192,9918,1,0,0:0:0:0:
448,192,10025,1,0,0:0:0:0:
320,192,10025,1,0,0:0:0:0:
192,192,10132,1,0,0:0:0:0:
448,192,10239,1,0,0:0:0:0:
192,192,10239,1,0,0:0:0:0:
64,192,10239,1,0,0:0:0:0:
448,192,10346,1,0,0:0:0:0:
320,192,10453,1,0,0:0:0:0:
192,192,10560,1,0,0:0:0:0:
64,192,10668,1,0,0:0:0:0:
448,192,10668,1,0,0:0:0:0:
320,192,10668,1,0,0:0:0:0:
192,192,10775,1,0,0:0:0:0:
448,192,10882,1,0,0:0:0:0:
192,192,10989,1,0,0:0:0:0:
448,192,11096,1,0,0:0:0:0:
64,192,11096,1,0,0:0:0:0:
320,192,11096,1,0,0:0:0:0:
192,192,11203,1,0,0:0:0:0:
320,192,11310,1,0,0:0:0:0:
448,192,11418,1,0,0:0:0:0:
192,192,11525,1,0,0:0:0:0:
64,192,11632,1,0,0:0:0:0:
320,192,11739,1,0,0:0:0:0:
448,192,11739,1,0,0:0:0:0:
64,192,11846,1,0,0:0:0:0:
192,192,11953,1,0,0:0:0:0:
448,192,11953,1,0,0:0:0:0:
320,192,11953,1,0,0:0:0:0:
448,192,12060,1,0,0:0:0:0:
64,192,12168,1,0,0:0:0:0:
320,192,12275,1,0,0:0:0:0:
192,192,12382,1,0,0:0:0:0:
448,192,12382,1,0,0:0:0:0:
64,192,12489,1,0,0:0:0:0:
320,192,12596,1,0,0:0:0:0:
192,192,12703,1,0,0:0:0:0:
448,192,12810,1,0,0:0:0:0:
192,192,12918,1,0,0:0:0:0:
448,192,13025,1,0,0:0:0:0:
320,192,13025,1,0,0:0:0:0:
192,192,13132,1,0,0:0:0:0:
64,192,13239,1,0,0:0:0:0:
320,192,13346,1,0,0:0:0:0:
192,192,13453,1,0,0:0:0:0:
64,192,13453,1,0,0:0:0:0:
448,192,13560,1,0,0:0:0:0:
448,192,13668,1,0,0:0:0:0:
320,192,13668,1,0,0:0:0:0:
192,192,13668,1,0,0:0:0:0:
64,192,13775,1,0,0:0:0:0:
448,192,13882,1,0,0:0:0:0:
320,192,13989,1,0,0:0:0:0:
64,192,14096,1,0,0:0:0:0:
448,192,14096,1,0,0:0:0:0:
192,192,14203,1,0,0:0:0:0:
320,192,14310,1,0,0:0:0:0:
448,192,14310,1,0,0:0:0:0:
192,192,14418,1,0,0:0:0:0:
320,192,14525,1,0,0:0:0:0:
448,192,14525,1,0,0:0:0:0:
64,192,14525,1,0,0:0:0:0:
320,192,14632,1,0,0:0:0:0:
448,192,14632,1,0,0:0:0:0:
64,192,14632,1,0,0:0:0:0:
64,192,14739,1,0,0:0:0:0:
448,192,14739,1,0,0:0:0:0:
320,192,14739,1,0,0:0:0:0:
64,192,14846,1,0,0:0:0:0:
448,192,14846,1,0,0:0:0:0:
320,192,14846,1,0,0:0:0:0:
320,192,14953,1,0,0:0:0:0:
64,192,14953,1,0,0:0:0:0:
448,192,14953,1,0,0:0:0:0:
192,192,15168,1,0,0:0:0:0:
320,192,15168,1,0,0:0:0:0:
192,192,15382,1,0,0:0:0:0:
448,192,15382,1,0,0:0:0:0:
64,192,15382,1,0,0:0:0:0:
320,192,15596,1,0,0:0:0:0:
64,192,15703,1,0,0:0:0:0:
448,192,15810,1,0,0:0:0:0:
320,192,15810,1,0,0:0:0:0:
64,192,15918,1,0,0:0:0:0:
192,192,16025,1,0,0:0:0:0:
320,192,16132,1,0,0:0:0:0:
448,192,16239,1,0,0:0:0:0:
64,192,16239,1,0,0:0:0:0:
192,192,16239,1,0,0:0:0:0:
320,192,16346,1,0,0:0:0:0:
192,192,16453,1,0,0:0:0:0:
192,192,16560,1,0,0:0:0:0:
448,192,16668,1,0,0:0:0:0:
320,192,16775,1,0,0:0:0:0:
64,192,16882,1,0,0:0:0:0:
192,192,16882,1,0,0:0:0:0:
320,192,16989,1,0,0:0:0:0:
448,192,17096,1,0,0:0:0:0:
64,192,17096,1,0,0:0:0:0:
320,192,17096,1,0,0:0:0:0:
64,192,17203,1,0,0:0:0:0:
192,192,17310,1,0,0:0:0:0:
320,192,17418,1,0,0:0:0:0:
64,192,17525,1,0,0:0:0:0:
448,192,17525,1,0,0:0:0:0:
192,192,17525,1,0,0:0:0:0:
448,192,17632,1,0,0:0:0:0:
192,192,17739,1,0,0:0:0:0:
320,192,17846,1,0,0:0:0:0:
448,192,17953,1,0,0:0:0:0:
64,192,17953,1,0,0:0:0:0:
192,192,17953,1,0,0:0:0:0:
320,192,18060,1,0,0:0:0:0:
192,192,18168,1,0,0:0:0:0:
64,192,18275,1,0,0:0:0:0:
320,192,18382,1,0,0:0:0:0:
448,192,18489,1,0,0:0:0:0:
192,192,18596,1,0,0:0:0:0:
64,192,18596,1,0,0:0:0:0:
448,192,18703,1,0,0:0:0:0:
64,192,18810,1,0,0:0:0:0:
320,192,18810,1,0,0:0:0:0:
192,192,18810,1,0,0:0:0:0:
64,192,18918,1,0,0:0:0:0:
448,192,19025,1,0,0:0:0:0:
192,192,19132,1,0,0:0:0:0:
64,192,19239,1,0,0:0:0:0:
320,192,19239,1,0,0:0:0:0:
448,192,19346,1,0,0:0:0:0:
192,192,19453,1,0,0:0:0:0:
320,192,19560,1,0,0:0:0:0:
64,192,19668,1,0,0:0:0:0:
320,192,19775,1,0,0:0:0:0:
192,192,19882,1,0,0:0:0:0:
64,192,19882,1,0,0:0:0:0:
320,192,19989,1,0,0:0:0:0:
448,192,20096,1,0,0:0:0:0:
192,192,20203,1,0,0:0:0:0:
448,192,20310,1,0,0:0:0:0:
320,192,20310,1,0,0:0:0:0:
64,192,20418,1,0,0:0:0:0:
320,192,20525,1,0,0:0:0:0:
192,192,20525,1,0,0:0:0:0:
64,192,20525,1,0,0:0:0:0:
448,192,20632,1,0,0:0:0:0:
64,192,20739,1,0,0:0:0:0:
192,192,20846,1,0,0:0:0:0:
64,192,20953,1,0,0:0:0:0:
448,192,20953,1,0,0:0:0:0:
320,192,21060,1,0,0:0:0:0:
64,192,21168,1,0,0:0:0:0:
192,192,21168,1,0,0:0:0:0:
320,192,21275,1,0,0:0:0:0:
448,192,21382,1,0,0:0:0:0:
64,192,21382,1,0,0:0:0:0:
192,192,21382,1,0,0:0:0:0:
448,192,21489,1,0,0:0:0:0:
192,192,21489,1,0,0:0:0:0:
64,192,21489,1,0,0:0:0:0:
64,192,21596,1,0,0:0:0:0:
448,192,21596,1,0,0:0:0:0:
192,192,21596,1,0,0:0:0:0:
192,192,21703,1,0,0:0:0:0:
64,192,21703,1,0,0:0:0:0:
448,192,21703,1,0,0:0:0:0:
192,192,21810,1,0,0:0:0:0:
64,192,21810,1,0,0:0:0:0:
448,192,21810,1,0,0:0:0:0:
192,192,22025,1,0,0:0:0:0:
320,192,22025,1,0,0:0:0:0:
64,192,22239,1,0,0:0:0:0:
448,192,22239,1,0,0:0:0:0:
192,192,22239,128,0,23953:0:0:0:0:
448,192,22453,1,0,0:0:0:0:
320,192,22453,1,0,0:0:0:0:
64,192,22560,1,0,0:0:0:0:
320,192,22668,1,0,0:0:0:0:
448,192,22668,1,0,0:0:0:0:
64,192,22775,1,0,0:0:0:0:
320,192,22882,1,0,0:0:0:0:
448,192,22882,1,0,0:0:0:0:
320,192,23096,1,0,0:0:0:0:
64,192,23096,1,0,0:0:0:0:
448,192,23203,1,0,0:0:0:0:
320,192,23310,1,0,0:0:0:0:
320,192,23418,1,0,0:0:0:0:
64,192,23525,1,0,0:0:0:0:
64,192,23632,1,0,0:0:0:0:
448,192,23739,1,0,0:0:0:0:
320,192,23739,1,0,0:0:0:0:
320,192,23953,128,0,24382:0:0:0:0:
448,192,23953,1,0,0:0:0:0:
64,192,23953,1,0,0:0:0:0:
64,192,24168,1,0,0:0:0:0:
192,192,24275,1,0,0:0:0:0:
448,192,24382,128,0,25025:0:0:0:0:
64,192,24382,1,0,0:0:0:0:
64,192,24489,1,0,0:0:0:0:
320,192,24596,1,0,0:0:0:0:
192,192,24596,1,0,0:0:0:0:
192,192,24810,1,0,0:0:0:0:
64,192,24810,1,0,0:0:0:0:
192,192,25025,128,0,25239:0:0:0:0:
320,192,25025,1,0,0:0:0:0:
64,192,25132,1,0,0:0:0:0:
64,192,25239,128,0,26953:0:0:0:0:
320,192,25239,1,0,0:0:0:0:
448,192,25346,1,0,0:0:0:0:
192,192,25453,1,0,0:0:0:0:
320,192,25453,1,0,0:0:0:0:
192,192,25668,1,0,0:0:0:0:
448,192,25668,1,0,0:0:0:0:
320,192,25668,1,0,0:0:0:0:
192,192,25882,1,0,0:0:0:0:
320,192,25989,1,0,0:0:0:0:
192,192,26096,1,0,0:0:0:0:
448,192,26096,1,0,0:0:0:0:
320,192,26203,1,0,0:0:0:0:
448,192,26310,1,0,0:0:0:0:
192,192,26418,1,0,0:0:0:0:
320,192,26525,1,0,0:0:0:0:
448,192,26525,1,0,0:0:0:0:
192,192,26739,1,0,0:0:0:0:
320,192,26846,1,0,0:0:0:0:
448,192,26953,1,0,0:0:0:0:
320,192,27060,1,0,0:0:0:0:
192,192,27168,1,0,0:0:0:0:
64,192,27168,1,0,0:0:0:0:
448,192,27275,1,0,0:0:0:0:
448,192,27382,1,0,0:0:0:0:
320,192,27382,1,0,0:0:0:0:
192,192,27382,1,0,0:0:0:0:
64,192,27489,1,0,0:0:0:0:
448,192,27596,1,0,0:0:0:0:
320,192,27703,1,0,0:0:0:0:
192,192,27810,1,0,0:0:0:0:
64,192,27810,1,0,0:0:0:0:
320,192,27918,1,0,0:0:0:0:
448,192,28025,1,0,0:0:0:0:
64,192,28025,1,0,0:0:0:0:
192,192,28132,1,0,0:0:0:0:
320,192,28239,1,0,0:0:0:0:
64,192,28239,1,0,0:0:0:0:
448,192,28239,1,0,0:0:0:0:
448,192,28346,1,0,0:0:0:0:
320,192,28346,1,0,0:0:0:0:
64,192,28346,1,0,0:0:0:0:
64,192,28453,1,0,0:0:0:0:
320,192,28453,1,0,0:0:0:0:
448,192,28453,1,0,0:0:0:0:
448,192,28560,1,0,0:0:0:0:
320,192,28560,1,0,0:0:0:0:
64,192,28560,1,0,0:0:0:0:
320,192,28668,1,0,0:0:0:0:
64,192,28668,1,0,0:0:0:0:
448,192,28668,1,0,0:0:0:0:
192,192,28882,1,0,0:0:0:0:
320,192,29096,128,0,30810:0:0:0:0:
64,192,29096,1,0,0:0:0:0:
448,192,29096,1,0,0:0:0:0:
192,192,29310,1,0,0:0:0:0:
64,192,29418,1,0,0:0:0:0:
192,192,29525,1,0,0:0:0:0:
448,192,29632,1,0,0:0:0:0:
192,192,29739,1,0,0:0:0:0:
64,192,29739,1,0,0:0:0:0:
192,192,29953,1,0,0:0:0:0:
448,192,29953,1,0,0:0:0:0:
64,192,30060,1,0,0:0:0:0:
192,192,30168,1,0,0:0:0:0:
192,192,30275,1,0,0:0:0:0:
448,192,30382,1,0,0:0:0:0:
448,192,30489,1,0,0:0:0:0:
192,192,30596,1,0,0:0:0:0:
64,192,30596,1,0,0:0:0:0:
64,192,30810,1,0,0:0:0:0:
448,192,30810,1,0,0:0:0:0:
192,192,30810,128,0,31239:0:0:0:0:
448,192,31025,1,0,0:0:0:0:
320,192,31132,1,0,0:0:0:0:
320,192,31239,1,0,0:0:0:0:
64,192,31239,128,0,31882:0:0:0:0:
448,192,31239,1,0,0:0:0:0:
448,192,31346,1,0,0:0:0:0:
320,192,31453,1,0,0:0:0:0:
192,192,31560,1,0,0:0:0:0:
320,192,31668,1,0,0:0:0:0:
448,192,31668,1,0,0:0:0:0:
320,192,31882,128,0,32096:0:0:0:0:
192,192,31882,1,0,0:0:0:0:
448,192,32096,128,0,32953:0:0:0:0:
64,192,32203,1,0,0:0:0:0:
192,192,32310,1,0,0:0:0:0:
320,192,32310,1,0,0:0:0:0:
64,192,32525,1,0,0:0:0:0:
320,192,32525,1,0,0:0:0:0:
192,192,32525,1,0,0:0:0:0:
64,192,32739,1,0,0:0:0:0:
192,192,32846,1,0,0:0:0:0:
320,192,32953,1,0,0:0:0:0:
64,192,32953,128,0,33168:0:0:0:0:
192,192,33060,1,0,0:0:0:0:
448,192,33168,128,0,33810:0:0:0:0:
320,192,33168,1,0,0:0:0:0:
192,192,33275,1,0,0:0:0:0:
320,192,33382,1,0,0:0:0:0:
64,192,33382,1,0,0:0:0:0:
320,192,33596,1,0,0:0:0:0:
192,192,33703,1,0,0:0:0:0:
64,192,33810,1,0,0:0:0:0:
192,192,33918,1,0,0:0:0:0:
448,192,34025,1,0,0:0:0:0:
320,192,34025,1,0,0:0:0:0:
192,192,34239,1,0,0:0:0:0:
64,192,34239,1,0,0:0:0:0:
320,192,34239,1,0,0:0:0:0:
320,192,34453,1,0,0:0:0:0:
448,192,34453,1,0,0:0:0:0:
192,192,34560,1,0,0:0:0:0:
448,192,34668,1,0,0:0:0:0:
320,192,34775,1,0,0:0:0:0:
64,192,34882,1,0,0:0:0:0:
192,192,34882,1,0,0:0:0:0:
320,192,35096,1,0,0:0:0:0:
448,192,35096,1,0,0:0:0:0:
192,192,35203,1,0,0:0:0:0:
64,192,35203,1,0,0:0:0:0:
320,192,35310,1,0,0:0:0:0:
448,192,35310,1,0,0:0:0:0:
64,192,35418,1,0,0:0:0:0:
192,192,35418,1,0,0:0:0:0:
320,192,35525,1,0,0:0:0:0:
448,192,35525,1,0,0:0:0:0:
192,192,35739,1,0,0:0:0:0:
320,192,35739,1,0,0:0:0:0:
320,192,35953,1,0,0:0:0:0:
448,192,35953,1,0,0:0:0:0:
64,192,35953,1,0,0:0:0:0:
192,192,35953,1,0,0:0:0:0:
