osu file format v14

[General]
AudioFilename: audio.mp3
AudioLeadIn: 0
PreviewTime: 63552
Countdown: 0
SampleSet: Soft
StackLeniency: 0.7
Mode: 2
LetterboxInBreaks: 0
WidescreenStoryboard: 0

[Editor]
Bookmarks: 29267
DistanceSpacing: 1
BeatDivisor: 4
GridSize: 4
TimelineZoom: 1.9

[Metadata]
Title:Fjarlaegur (Cypix Remix)
TitleUnicode:Fjarlægur (Cypix Remix)
Artist:Oskar Schuster
ArtistUnicode:Oskar Schuster
Creator:Jusenkyo
Version:Salad
Source:
Tags:Caelum-EP FutureGarage neo-classical classic ambient piano waltz liquid chill cut short version JBHyperion
BeatmapID:1033666
BeatmapSetID:477718

[Difficulty]
HPDrainRate:4
CircleSize:3
OverallDifficulty:6
ApproachRate:6
SliderMultiplier:1.2
SliderTickRate:1

[Events]
//Background and Video events
0,0,"background.jpg",0,0
//Break Periods
//Storyboard Layer 0 (Background)
//Storyboard Layer 1 (Fail)
//Storyboard Layer 2 (Pass)
//Storyboard Layer 3 (Foreground)
//Storyboard Sound Samples

[TimingPoints]
6410,317.460317460317,3,2,1,60,1,0
63552,-100,3,2,1,80,0,1
66251,-100,3,2,1,40,0,1
66410,-100,3,2,1,80,0,1
68156,-100,3,2,1,40,0,1
68315,-100,3,2,1,80,0,1
69108,-100,3,2,1,40,0,1
69267,-100,3,2,1,80,0,1
70378,-100,3,2,1,40,0,1
70537,-100,3,2,1,80,0,1
77679,-100,3,2,1,40,0,1
77838,-100,3,2,1,80,0,1
79584,-100,3,2,1,40,0,1
79743,-100,3,2,1,80,0,1
80536,-100,3,2,1,40,0,1
80695,-100,3,2,1,80,0,1
81806,-100,3,2,1,40,0,1
81965,-100,3,2,1,80,0,1
86409,-100,3,2,1,60,0,0
86727,-100,3,2,1,30,0,0
87362,-100,3,2,1,25,0,0
88314,-100,3,2,1,20,0,0
89267,-100,3,2,1,15,0,0
90219,-100,3,2,1,10,0,0

[Colours]
Combo1 : 45,39,39
Combo2 : 129,127,112
Combo3 : 216,216,177
Combo4 : 122,122,122

[HitObjects]
96,192,6409,5,2,0:0:0:0:
192,192,6727,2,0,L|312:192,1,120,0|0,0:0|0:0,0:0:0:0:
456,192,7362,2,0,L|328:192,1,120,0|0,0:0|0:0,0:0:0:0:
224,192,7997,1,0,0:0:0:0:
468,192,8314,5,2,0:0:0:0:
344,192,8632,2,0,L|224:192,1,120
404,192,9267,2,0,L|404:72,1,120,0|0,0:0|0:0,0:0:0:0:
336,192,9902,1,0,0:0:0:0:
288,192,10060,1,2,0:0:0:0:
204,192,10219,5,2,0:0:0:0:
104,192,10536,2,0,L|104:72,1,120,0|0,0:0|0:0,0:0:0:0:
248,192,11171,2,0,L|384:192,1,120,0|0,0:0|0:0,0:0:0:0:
196,192,11806,1,0,0:0:0:0:
448,192,12124,6,0,L|320:192,1,120,2|0,0:0|0:0,0:0:0:0:
408,280,12759,1,0,0:0:0:0:
224,192,13076,2,0,L|352:192,1,120,0|0,0:0|0:0,0:0:0:0:
440,192,13711,1,0,0:0:0:0:
488,192,13870,1,2,0:0:0:0:
404,192,14029,5,2,0:0:0:0:
308,192,14346,2,0,L|180:192,1,120,0|0,0:0|0:0,0:0:0:0:
44,192,14981,2,0,L|44:72,1,120,0|0,0:0|0:0,0:0:0:0:
140,192,15616,1,0,0:0:0:0:
284,192,15933,6,0,L|284:320,1,120,2|0,0:0|0:0,0:0:0:0:
380,192,16568,1,0,0:0:0:0:
236,192,16886,2,0,L|116:192,1,120,0|0,0:0|0:0,0:0:0:0:
212,192,17521,1,0,0:0:0:0:
472,192,17838,6,0,L|353:193,1,120,2|0,0:0|0:0,0:0:0:0:
460,192,18473,1,0,0:0:0:0:
326,191,18790,2,0,L|206:191,1,120,0|0,0:0|0:0,0:0:0:0:
116,194,19425,1,0,0:0:0:0:
288,192,19743,6,0,L|424:192,1,120
322,189,20378,1,0,0:0:0:0:
189,192,20695,2,0,L|189:72,1,120,0|0,0:0|0:0,0:0:0:0:
93,192,21330,1,0,0:0:0:0:
45,192,21489,1,2,0:0:0:0:
129,192,21648,5,2,0:0:0:0:
225,192,21965,2,0,L|353:192,1,120,0|0,0:0|0:0,0:0:0:0:
489,192,22600,2,0,L|369:192,1,120,0|0,0:0|0:0,0:0:0:0:
224,192,23235,1,0,0:0:0:0:
40,192,23552,6,0,L|23:65,1,120,2|0,0:0|0:0,0:0:0:0:
118,192,24187,1,0,0:0:0:0:
281,192,24505,2,0,L|281:72,1,120,0|0,0:0|0:0,0:0:0:0:
377,192,25140,1,0,0:0:0:0:
329,192,25298,1,2,0:0:0:0:
245,192,25457,5,2,0:0:0:0:
101,192,25775,2,0,L|101:64,1,120,0|0,0:0|0:0,0:0:0:0:
197,192,26409,1,2,0:0:0:0:
341,192,26727,2,0,L|469:192,1,120,0|0,0:0|0:0,0:0:0:0:
317,192,27362,6,0,L|189:192,1,120,2|0,0:0|0:0,0:0:0:0:
101,192,27997,1,0,0:0:0:0:
269,192,28314,2,0,L|397:192,1,120,2|0,0:0|0:0,0:0:0:0:
293,192,28949,1,0,0:0:0:0:
56,192,29267,6,0,L|11:72,1,120,10|0,0:0|0:0,0:0:0:0:
34,79,29743,2,0,L|213:79,1,180,8|4,0:0|0:0,0:0:0:0:
377,192,30536,1,0,0:0:0:0:
473,192,30854,1,0,0:0:0:0:
252,188,31171,6,0,L|115:172,1,120,8|0,0:0|0:0,0:0:0:0:
109,174,31648,2,0,L|284:124,1,180,8|4,0:0|0:0,0:0:0:0:
468,192,32441,1,0,0:0:0:0:
372,192,32759,1,0,0:0:0:0:
148,188,33076,6,0,L|276:188,1,120,10|0,0:0|0:0,0:0:0:0:
216,132,33552,2,0,L|28:132,1,180,8|4,0:0|0:0,0:0:0:0:
188,192,34346,1,0,0:0:0:0:
104,192,34663,1,0,0:0:0:0:
328,192,34981,6,0,L|456:152,1,120,8|0,0:0|0:0,0:0:0:0:
442,156,35457,2,0,L|262:128,1,180,8|4,0:0|0:0,0:0:0:0:
140,192,36251,1,2,0:0:0:0:
24,192,36568,1,0,0:0:0:0:
244,188,36886,6,0,L|364:188,1,120,10|0,0:0|0:0,0:0:0:0:
364,188,37362,2,0,L|204:100,1,180,8|4,0:0|0:0,0:0:0:0:
111,188,38156,1,0,0:0:0:0:
252,192,38473,1,0,0:0:0:0:
448,192,38790,6,0,L|512:64,1,120,8|0,0:0|0:0,0:0:0:0:
502,85,39267,2,0,L|310:85,1,180,8|4,0:0|0:0,0:0:0:0:
187,192,40060,1,2,0:0:0:0:
91,192,40378,1,2,0:0:0:0:
331,193,40695,6,0,L|499:193,1,120
307,192,41330,2,0,L|227:192,2,60,0|0|4,0:0|0:0|0:0,0:0:0:0:
403,192,41965,1,0,0:0:0:0:
307,192,42283,1,0,0:0:0:0:
124,193,42600,6,0,L|124:65,1,120,4|0,0:0|0:0,0:0:0:0:
235,192,43235,1,0,0:0:0:0:
283,192,43394,1,0,0:0:0:0:
331,192,43552,2,0,L|459:192,1,120,4|0,0:0|0:0,0:0:0:0:
355,192,44187,1,0,0:0:0:0:
307,192,44346,1,2,0:0:0:0:
223,192,44505,5,4,0:0:0:0:
127,192,44822,2,0,L|47:88,1,120,0|0,0:0|0:0,0:0:0:0:
292,192,45457,2,0,L|172:192,1,120,4|0,0:0|0:0,0:0:0:0:
336,192,46092,1,0,0:0:0:0:
162,192,46409,6,0,L|36:192,1,120,4|0,0:0|0:0,0:0:0:0:
205,192,47044,2,0,L|269:192,2,60,0|0|4,0:0|0:0|0:0,0:0:0:0:
61,192,47679,1,0,0:0:0:0:
168,192,47997,1,0,0:0:0:0:
416,192,48314,6,0,L|285:192,1,120,4|0,0:0|0:0,0:0:0:0:
368,192,48949,1,0,0:0:0:0:
178,192,49267,2,0,L|50:192,1,120,4|0,0:0|0:0,0:0:0:0:
154,192,49902,1,0,0:0:0:0:
298,192,50219,6,0,L|426:192,1,120,4|0,0:0|0:0,0:0:0:0:
322,192,50854,2,0,L|250:192,2,60,0|0|4,0:0|0:0|0:0,0:0:0:0:
418,192,51489,1,0,0:0:0:0:
236,192,51806,1,0,0:0:0:0:
490,192,52124,6,0,L|354:192,1,120,10|0,0:0|0:0,0:0:0:0:
250,192,52759,2,0,L|178:192,2,60,2|0|4,0:0|0:0|0:0,0:0:0:0:
370,192,53394,2,0,L|506:192,1,120
264,276,54029,2,0,L|400:276,1,120
484,280,54663,1,0,0:0:0:0:
280,192,54981,6,0,L|160:192,1,120,4|0,0:0|0:0,0:0:0:0:
316,196,55616,1,0,0:0:0:0:
84,196,55933,6,0,L|204:196,1,120,8|0,0:0|0:0,0:0:0:0:
312,160,56568,1,2,0:0:0:0:
252,160,56726,1,0,0:0:0:0:
192,160,56885,1,4,0:0:0:0:
57,192,57203,1,0,0:0:0:0:
153,192,57521,1,0,0:0:0:0:
320,192,57838,6,0,L|192:192,1,120,8|0,0:0|0:0,0:0:0:0:
98,192,58473,1,0,0:0:0:0:
242,192,58790,2,0,L|402:192,1,120,4|0,0:0|0:0,0:0:0:0:
476,192,59425,1,0,0:0:0:0:
260,192,59743,6,0,L|380:192,1,120,8|0,0:0|0:0,0:0:0:0:
224,280,60378,1,2,0:0:0:0:
164,280,60536,1,0,0:0:0:0:
104,280,60695,1,4,0:0:0:0:
243,196,61013,1,0,0:0:0:0:
339,196,61330,1,0,0:0:0:0:
171,192,61648,6,0,P|91:192|59:164,1,120,8|0,0:0|0:0,0:0:0:0:
159,196,62283,1,0,0:0:0:0:
303,196,62600,2,0,P|411:196|435:216,1,120,4|0,0:0|0:0,0:0:0:0:
320,200,63235,1,0,0:0:0:0:
84,172,63552,5,10,0:0:0:0:
30,151,63710,1,0,0:0:0:0:
19,95,63869,1,0,0:0:0:0:
61,57,64028,1,0,0:0:0:0:
124,56,64187,1,0,0:0:0:0:
184,56,64345,1,0,0:0:0:0:
124,56,64504,1,0,0:0:0:0:
40,188,64981,5,0,0:0:0:0:
100,188,65139,1,2,0:0:0:0:
160,188,65298,1,0,0:0:0:0:
340,192,65457,2,0,P|404:192|404:144,1,120
360,128,65933,1,0,0:0:0:0:
306,128,66092,1,0,0:0:0:0:
228,192,66409,2,0,L|100:192,2,120,4|2|2,0:0|0:0|0:0,0:0:0:0:
480,192,67362,5,8,0:0:0:0:
364,192,67679,1,0,0:0:0:0:
256,192,67997,1,0,0:0:0:0:
56,192,68314,6,0,L|176:192,1,120,4|0,0:0|0:0,0:0:0:0:
300,188,68949,1,0,0:0:0:0:
496,191,69267,2,0,L|375:192,1,120,8|0,0:0|0:0,0:0:0:0:
256,196,69902,1,0,0:0:0:0:
464,200,70219,6,0,L|344:200,1,120,4|2,0:0|0:0,0:0:0:0:
240,196,70854,1,2,0:0:0:0:
32,188,71171,2,0,L|103:88,1,120,8|0,0:0|0:0,0:0:0:0:
208,196,71806,1,0,0:0:0:0:
440,200,72124,6,0,L|320:200,1,120,4|0,0:0|0:0,0:0:0:0:
228,192,72759,1,0,0:0:0:0:
24,192,73076,2,0,L|88:81,1,120,8|0,0:0|0:0,0:0:0:0:
163,196,73711,1,0,0:0:0:0:
368,192,74029,6,0,L|272:108,2,120,6|2|2,0:0|0:0|0:0,0:0:0:0:
104,192,74981,1,8,0:0:0:0:
232,192,75298,1,0,0:0:0:0:
164,192,75616,1,0,0:0:0:0:
332,199,75933,6,0,L|460:199,1,120,4|0,0:0|0:0,0:0:0:0:
368,199,76568,1,2,0:0:0:0:
140,200,76886,2,0,L|40:112,1,120,8|0,0:0|0:0,0:0:0:0:
190,200,77521,1,0,0:0:0:0:
400,192,77838,6,0,L|256:192,1,120,6|2,0:0|0:0,0:0:0:0:
175,190,78473,1,2,0:0:0:0:
384,80,78790,6,0,L|252:80,1,120,8|0,0:0|0:0,0:0:0:0:
452,188,79425,1,0,0:0:0:0:
300,188,79743,6,0,L|156:192,1,120,4|0,0:0|0:0,0:0:0:0:
300,188,80378,1,0,0:0:0:0:
484,192,80695,2,0,L|362:192,1,120,8|0,0:0|0:0,0:0:0:0:
272,187,81330,1,0,0:0:0:0:
104,224,81648,2,0,L|44:336,2,120,6|2|2,0:0|0:0|0:0,0:0:0:0:
300,204,82600,5,8,0:0:0:0:
204,200,82917,1,0,0:0:0:0:
108,201,83235,1,0,0:0:0:0:
303,188,83552,6,0,P|383:184|399:140,1,120,4|0,0:0|0:0,0:0:0:0:
254,192,84187,1,0,0:0:0:0:
48,192,84505,2,0,L|173:192,1,120,8|0,0:0|0:0,0:0:0:0:
276,189,85140,1,0,0:0:0:0:
482,195,85457,2,2,L|362:195,1,120,6|0,0:0|0:0,0:0:0:0:
216,190,86092,5,4,0:0:0:0:
452,192,86409,1,2,0:0:0:0:
256,192,86727,12,4,90219,0:0:0:0:
