osu file format v14

[General]
AudioFilename: audio.mp3
AudioLeadIn: 0
PreviewTime: 63552
Countdown: 0
SampleSet: Soft
StackLeniency: 0.7
Mode: 2
LetterboxInBreaks: 0
WidescreenStoryboard: 0

[Editor]
DistanceSpacing: 1
BeatDivisor: 4
GridSize: 4
TimelineZoom: 1

[Metadata]
Title:Fjarlaegur (Cypix Remix)
TitleUnicode:Fjarlægur (Cypix Remix)
Artist:Oskar Schuster
ArtistUnicode:Oskar Schuster
Creator:Jusenkyo
Version:Hyperion's Rain
Source:
Tags:Caelum-EP FutureGarage neo-classical classic ambient piano waltz liquid chill cut short version JBHyperion
BeatmapID:1023582
BeatmapSetID:477718

[Difficulty]
HPDrainRate:6
CircleSize:4.3
OverallDifficulty:8
ApproachRate:8
SliderMultiplier:1.8
SliderTickRate:1

[Events]
//Background and Video events
0,0,"background.jpg",0,0
//Break Periods
//Storyboard Layer 0 (Background)
//Storyboard Layer 1 (Fail)
//Storyboard Layer 2 (Pass)
//Storyboard Layer 3 (Foreground)
//Storyboard Sound Samples

[TimingPoints]
6410,317.460317460317,3,2,1,60,1,0
6886,-100,3,2,1,20,0,0
7044,-100,3,2,1,60,0,0
7203,-100,3,2,1,20,0,0
7362,-100,3,2,1,60,0,0
7838,-100,3,2,1,20,0,0
7996,-100,3,2,1,60,0,0
8155,-100,3,2,1,20,0,0
8314,-100,3,2,1,60,0,0
8790,-100,3,2,1,20,0,0
8948,-100,3,2,1,60,0,0
9107,-100,3,2,1,20,0,0
9266,-100,3,2,1,60,0,0
10060,-100,3,2,1,40,0,0
10219,-100,3,2,1,60,0,0
11648,-100,3,2,1,20,0,0
11807,-100,3,2,1,60,0,0
12600,-100,3,2,1,20,0,0
12758,-100,3,2,1,60,0,0
12917,-100,3,2,1,20,0,0
13076,-100,3,2,1,60,0,0
13552,-100,3,2,1,20,0,0
13710,-100,3,2,1,60,0,0
13869,-100,3,2,1,40,0,0
14028,-100,3,2,1,60,0,0
15457,-100,3,2,1,20,0,0
15615,-100,3,2,1,60,0,0
15774,-100,3,2,1,20,0,0
15933,-100,3,2,1,60,0,0
17362,-100,3,2,1,20,0,0
17520,-100,3,2,1,60,0,0
17679,-100,3,2,1,20,0,0
17838,-100,3,2,1,60,0,0
18314,-100,3,2,1,20,0,0
18472,-100,3,2,1,60,0,0
18631,-100,3,2,1,20,0,0
18790,-100,3,2,1,60,0,0
19267,-100,3,2,1,20,0,0
19425,-100,3,2,1,60,0,0
19584,-100,3,2,1,20,0,0
19743,-100,3,2,1,60,0,0
20219,-100,3,2,1,20,0,0
20377,-100,3,2,1,60,0,0
20536,-100,3,2,1,20,0,0
20695,-100,3,2,1,60,0,0
21489,-100,3,2,1,40,0,0
21648,-100,3,2,1,60,0,0
23076,-100,3,2,1,20,0,0
23235,-100,3,2,1,60,0,0
23394,-100,3,2,1,20,0,0
23553,-100,3,2,1,60,0,0
24029,-100,3,2,1,20,0,0
24188,-100,3,2,1,60,0,0
24347,-100,3,2,1,20,0,0
24506,-100,3,2,1,60,0,0
24981,-100,3,2,1,20,0,0
25139,-100,3,2,1,60,0,0
25298,-100,3,2,1,40,0,0
25457,-100,3,2,1,60,0,0
26409,-100,3,2,1,60,0,0
26727,-100,3,2,1,60,0,0
28314,-100,3,2,1,60,0,0
28631,-100,3,2,1,60,0,0
29267,-100,3,2,1,60,0,0
29584,-100,3,2,1,20,0,0
29742,-100,3,2,1,60,0,0
31965,-100,3,2,1,20,0,0
32123,-100,3,2,1,60,0,0
32600,-100,3,2,1,20,0,0
32758,-100,3,2,1,60,0,0
33076,-100,3,2,1,60,0,0
34505,-100,3,2,1,20,0,0
34663,-100,3,2,1,60,0,0
34822,-100,3,2,1,20,0,0
34980,-100,3,2,1,60,0,0
35775,-100,3,2,1,20,0,0
35933,-100,3,2,1,60,0,0
36251,-100,3,2,1,60,0,0
36568,-100,3,2,1,40,0,0
36727,-100,3,2,1,60,0,0
36886,-100,3,2,1,60,0,0
37679,-100,3,2,1,20,0,0
37837,-100,3,2,1,60,0,0
38314,-100,3,2,1,20,0,0
38472,-100,3,2,1,60,0,0
38632,-100,3,2,1,20,0,0
38790,-100,3,2,1,60,0,0
39108,-100,3,2,1,20,0,0
39266,-100,3,2,1,60,0,0
39584,-100,3,2,1,20,0,0
39742,-100,3,2,1,60,0,0
40060,-100,3,2,1,40,0,0
40695,-100,3,2,1,70,0,0
41171,-100,3,2,1,30,0,0
41330,-100,3,2,1,70,0,0
43076,-100,3,2,1,30,0,0
43235,-100,3,2,1,70,0,0
44981,-100,3,2,1,30,0,0
45140,-100,3,2,1,70,0,0
45298,-100,3,2,1,30,0,0
45457,-100,3,2,1,70,0,0
46886,-100,3,2,1,30,0,0
47045,-100,3,2,1,70,0,0
48790,-100,3,2,1,30,0,0
48949,-100,3,2,1,70,0,0
49108,-100,3,2,1,30,0,0
49267,-100,3,2,1,70,0,0
50695,-100,3,2,1,30,0,0
50854,-100,3,2,1,70,0,0
51013,-100,3,2,1,30,0,0
51172,-100,3,2,1,70,0,0
51648,-100,3,2,1,30,0,0
51807,-100,3,2,1,70,0,0
55457,-100,3,2,1,30,0,0
55616,-100,3,2,1,80,0,0
55775,-100,3,2,1,60,0,0
55933,-100,3,2,1,80,0,0
58314,-100,3,2,1,40,0,0
58473,-100,3,2,1,80,0,0
59267,-100,3,2,1,40,0,0
59426,-100,3,2,1,80,0,0
59584,-100,3,2,1,60,0,0
59743,-100,3,2,1,80,0,0
59902,-100,3,2,1,40,0,0
60061,-100,3,2,1,80,0,0
62124,-100,3,2,1,40,0,0
62283,-100,3,2,1,80,0,0
63552,-100,3,2,1,80,0,1
66251,-100,3,2,1,40,0,1
66410,-100,3,2,1,80,0,1
68156,-100,3,2,1,40,0,1
68315,-100,3,2,1,80,0,1
69108,-100,3,2,1,40,0,1
69267,-100,3,2,1,80,0,1
70378,-100,3,2,1,40,0,1
70537,-100,3,2,1,80,0,1
77679,-100,3,2,1,40,0,1
77838,-100,3,2,1,80,0,1
79584,-100,3,2,1,40,0,1
79743,-100,3,2,1,80,0,1
80536,-100,3,2,1,40,0,1
80695,-100,3,2,1,80,0,1
81806,-100,3,2,1,40,0,1
81965,-100,3,2,1,80,0,1
86409,-100,3,2,1,60,0,0
86727,-100,3,2,1,30,0,0
87362,-100,3,2,1,25,0,0
88314,-100,3,2,1,20,0,0
89267,-100,3,2,1,15,0,0
90219,-100,3,2,1,10,0,0

[Colours]
Combo1 : 45,39,39
Combo2 : 129,127,112
Combo3 : 216,216,177
Combo4 : 122,122,122

[HitObjects]
280,184,6409,5,2,0:0:0:0:
144,184,6727,2,0,L|136:88,1,90,0|0,0:0|0:0,0:0:0:0:
228,96,7044,2,0,L|236:4,1,90,0|0,0:0|0:0,0:0:0:0:
400,184,7362,1,0,0:0:0:0:
264,184,7679,2,0,L|256:280,1,90,0|0,0:0|0:0,0:0:0:0:
348,272,7997,2,0,L|356:364,1,90,0|0,0:0|0:0,0:0:0:0:
192,276,8314,5,2,0:0:0:0:
56,276,8632,2,0,L|139:228,1,90,0|0,0:0|0:0,0:0:0:0:
204,188,8949,2,0,L|287:140,1,90,0|0,0:0|0:0,0:0:0:0:
120,144,9267,1,0,0:0:0:0:
256,148,9584,1,0,0:0:0:0:
392,148,9902,1,0,0:0:0:0:
260,148,10060,1,2,0:0:0:0:
492,80,10219,5,2,0:0:0:0:
348,80,10536,1,0,0:0:0:0:
204,80,10854,1,0,0:0:0:0:
456,192,11171,1,0,0:0:0:0:
312,192,11489,2,0,L|300:284,1,90,0|0,0:0|0:0,0:0:0:0:
392,280,11806,1,0,0:0:0:0:
124,280,12124,5,2,0:0:0:0:
276,192,12441,2,0,L|196:140,1,90
288,120,12759,2,0,L|208:68,1,90,0|0,0:0|0:0,0:0:0:0:
76,72,13076,1,0,0:0:0:0:
213,71,13394,2,0,L|217:163,1,90,0|0,0:0|0:0,0:0:0:0:
129,159,13711,1,0,0:0:0:0:
265,159,13870,1,2,0:0:0:0:
32,160,14029,5,2,0:0:0:0:
201,160,14346,1,0,0:0:0:0:
372,160,14663,1,0,0:0:0:0:
136,160,14981,1,0,0:0:0:0:
272,160,15298,2,0,L|252:248,1,90,0|0,0:0|0:0,0:0:0:0:
160,252,15616,2,0,L|180:340,1,90,0|0,0:0|0:0,0:0:0:0:
344,340,15933,5,2,0:0:0:0:
200,340,16251,1,0,0:0:0:0:
56,340,16568,1,0,0:0:0:0:
308,340,16886,1,0,0:0:0:0:
164,268,17203,2,0,L|244:216,1,90,0|0,0:0|0:0,0:0:0:0:
152,196,17521,2,0,L|232:144,1,90,0|0,0:0|0:0,0:0:0:0:
464,148,17838,5,2,0:0:0:0:
320,148,18156,2,0,L|308:48,1,90,0|0,0:0|0:0,0:0:0:0:
420,96,18473,2,0,L|408:-4,1,90,0|0,0:0|0:0,0:0:0:0:
244,8,18790,1,0,0:0:0:0:
409,6,19108,2,0,L|420:96,1,90,0|0,0:0|0:0,0:0:0:0:
309,58,19425,2,0,L|320:148,1,90,0|0,0:0|0:0,0:0:0:0:
484,192,19743,5,2,0:0:0:0:
304,192,20060,2,0,L|221:240,1,90,0|0,0:0|0:0,0:0:0:0:
156,280,20377,2,0,L|73:328,1,90,0|0,0:0|0:0,0:0:0:0:
240,324,20695,1,0,0:0:0:0:
64,192,21013,1,0,0:0:0:0:
216,192,21331,1,0,0:0:0:0:
360,192,21489,1,2,0:0:0:0:
128,192,21648,5,2,0:0:0:0:
272,192,21965,1,0,0:0:0:0:
416,192,22283,1,0,0:0:0:0:
148,80,22600,1,0,0:0:0:0:
284,80,22917,2,0,L|356:152,1,90,0|0,0:0|0:0,0:0:0:0:
248,144,23235,2,0,L|176:216,1,90,0|0,0:0|0:0,0:0:0:0:
356,208,23552,5,2,0:0:0:0:
196,208,23870,2,0,L|188:308,1,90,0|0,0:0|0:0,0:0:0:0:
88,264,24187,2,0,L|80:364,1,90,0|0,0:0|0:0,0:0:0:0:
228,352,24505,1,0,0:0:0:0:
64,352,24822,2,0,L|72:263,1,90,0|0,0:0|0:0,0:0:0:0:
172,263,25140,1,0,0:0:0:0:
24,264,25298,1,2,0:0:0:0:
256,264,25457,5,2,0:0:0:0:
420,264,25775,1,0,0:0:0:0:
296,264,26092,1,0,0:0:0:0:
116,192,26409,1,2,0:0:0:0:
268,192,26727,1,0,0:0:0:0:
108,192,27044,1,0,0:0:0:0:
380,192,27362,5,2,0:0:0:0:
236,192,27679,1,0,0:0:0:0:
92,192,27997,1,0,0:0:0:0:
344,116,28314,1,2,0:0:0:0:
200,116,28632,1,0,0:0:0:0:
400,116,28949,1,0,0:0:0:0:
12,116,29267,6,0,L|12:304,1,180,10|0,0:0|0:0,0:0:0:0:
148,296,29743,2,0,L|148:112,1,180,8|0,0:0|0:0,0:0:0:0:
368,156,30219,1,4,0:0:0:0:
208,156,30536,1,0,0:0:0:0:
44,156,30854,1,0,0:0:0:0:
276,68,31171,6,0,P|356:104|348:184,1,180,8|0,0:0|0:0,0:0:0:0:
204,180,31648,1,8,0:0:0:0:
112,180,31806,2,0,L|28:220,1,90
256,260,32124,1,4,0:0:0:0:
112,260,32441,2,0,L|172:192,1,90,0|0,0:0|0:0,0:0:0:0:
264,192,32759,1,0,0:0:0:0:
128,192,32917,1,2,0:0:0:0:
356,192,33076,6,0,P|408:124|352:64,1,180,10|0,0:0|0:0,0:0:0:0:
220,192,33552,2,0,P|168:260|224:320,1,180,8|0,0:0|0:0,0:0:0:0:
444,316,34028,1,4,0:0:0:0:
288,316,34346,2,0,L|256:232,1,90,0|0,0:0|0:0,0:0:0:0:
384,232,34663,2,0,L|416:148,1,90,0|0,0:0|0:0,0:0:0:0:
255,231,34981,6,0,L|80:192,1,180,8|0,0:0|0:0,0:0:0:0:
224,144,35458,1,8,0:0:0:0:
312,144,35616,2,0,L|392:104,1,90
148,64,35934,1,4,0:0:0:0:
292,64,36251,1,0,0:0:0:0:
204,64,36409,1,0,0:0:0:0:
292,144,36569,1,2,0:0:0:0:
184,144,36727,1,0,0:0:0:0:
444,120,36886,6,0,P|500:180|444:240,1,180,10|0,0:0|0:0,0:0:0:0:
300,240,37363,1,8,0:0:0:0:
192,240,37521,2,0,L|268:192,1,90,0|0,0:0|0:0,0:0:0:0:
40,192,37839,1,4,0:0:0:0:
220,240,38156,2,0,L|160:172,1,90,0|0,0:0|0:0,0:0:0:0:
52,172,38473,2,0,L|112:104,1,90
276,104,38790,6,0,P|364:120|408:192,1,180,8|0,0:0|0:0,0:0:0:0:
244,192,39267,2,0,P|168:204|112:284,1,180,8|0,0:0|0:0,0:0:0:0:
340,288,39743,1,4,0:0:0:0:
192,288,40060,1,2,0:0:0:0:
48,284,40378,1,2,0:0:0:0:
440,280,40695,6,0,L|468:192,1,90,8|0,0:0|0:0,0:0:0:0:
360,192,41013,2,0,L|388:104,1,90,0|0,0:0|0:0,0:0:0:0:
280,104,41330,1,0,0:0:0:0:
172,104,41489,1,0,0:0:0:0:
404,36,41648,1,4,0:0:0:0:
224,32,41965,2,0,L|128:32,1,90,0|0,0:0|0:0,0:0:0:0:
44,108,42283,2,0,L|140:108,1,90,0|0,0:0|0:0,0:0:0:0:
296,108,42600,6,0,L|260:192,1,90,8|0,0:0|0:0,0:0:0:0:
172,192,42917,2,0,L|208:276,1,90,0|0,0:0|0:0,0:0:0:0:
300,276,43235,1,0,0:0:0:0:
207,274,43394,1,0,0:0:0:0:
440,276,43552,2,0,L|444:168,1,90,4|0,0:0|0:0,0:0:0:0:
352,188,43870,2,0,L|272:144,2,90
488,188,44346,1,2,0:0:0:0:
216,188,44505,6,0,L|120:188,1,90,8|0,0:0|0:0,0:0:0:0:
16,188,44822,2,0,L|102:138,1,90,0|0,0:0|0:0,0:0:0:0:
184,144,45140,2,0,L|134:57,1,90,0|0,0:0|0:0,0:0:0:0:
372,64,45457,1,4,0:0:0:0:
229,66,45775,2,0,L|129:66,1,90,0|0,0:0|0:0,0:0:0:0:
248,140,46092,2,0,L|148:140,1,90,0|0,0:0|0:0,0:0:0:0:
4,144,46409,6,0,L|4:244,1,90,8|0,0:0|0:0,0:0:0:0:
96,236,46727,2,0,L|132:320,1,90,0|0,0:0|0:0,0:0:0:0:
224,320,47044,1,0,0:0:0:0:
317,318,47203,1,0,0:0:0:0:
84,320,47362,1,4,0:0:0:0:
228,192,47679,1,0,0:0:0:0:
136,192,47838,1,0,0:0:0:0:
228,192,47997,1,0,0:0:0:0:
120,192,48155,1,2,0:0:0:0:
356,192,48314,6,0,L|452:192,1,90,8|0,0:0|0:0,0:0:0:0:
336,112,48632,2,0,L|232:112,1,90
140,112,48949,2,0,L|180:16,1,90,0|0,0:0|0:0,0:0:0:0:
408,28,49267,1,4,0:0:0:0:
264,28,49584,1,0,0:0:0:0:
372,28,49743,1,0,0:0:0:0:
280,28,49902,1,0,0:0:0:0:
352,28,50060,1,0,0:0:0:0:
188,104,50219,6,0,L|92:104,1,90,8|0,0:0|0:0,0:0:0:0:
8,192,50536,2,0,L|94:242,1,90,0|0,0:0|0:0,0:0:0:0:
168,236,50854,2,0,L|254:286,1,90,0|0,0:0|0:0,0:0:0:0:
476,280,51171,2,0,L|398:234,1,90,4|0,0:0|0:0,0:0:0:0:
272,240,51489,2,0,L|349:194,1,90,0|0,0:0|0:0,0:0:0:0:
504,196,51806,2,0,L|408:196,1,90,0|0,0:0|0:0,0:0:0:0:
140,196,52124,6,0,P|88:184|136:104,1,180,12|0,0:0|0:0,0:0:0:0:
244,104,52600,1,0,0:0:0:0:
100,32,52759,2,0,L|4:32,1,90,2|0,0:0|0:0,0:0:0:0:
264,32,53076,2,0,P|312:76|268:176,1,180,4|0,0:0|0:0,0:0:0:0:
188,172,53552,1,0,0:0:0:0:
276,172,53711,1,0,0:0:0:0:
404,172,53870,1,0,0:0:0:0:
240,256,54029,6,0,P|165:251|188:172,1,180,8|0,0:0|0:0,0:0:0:0:
348,172,54663,2,0,L|432:136,1,90,0|2,0:0|0:0,0:0:0:0:
212,104,54981,1,4,0:0:0:0:
356,104,55298,2,0,L|332:12,1,90
244,104,55616,1,0,0:0:0:0:
352,188,55775,1,2,0:0:0:0:
128,192,55933,6,0,L|32:192,1,90,8|0,0:0|0:0,0:0:0:0:
156,280,56251,1,0,0:0:0:0:
56,280,56409,1,0,0:0:0:0:
168,280,56568,1,2,0:0:0:0:
68,280,56727,1,0,0:0:0:0:
304,280,56886,2,0,B|392:280|392:280|428:192,1,180,4|0,0:0|0:0,0:0:0:0:
248,192,57521,2,0,L|340:192,1,90,0|0,0:0|0:0,0:0:0:0:
176,192,57838,6,0,L|88:148,1,90,8|0,0:0|0:0,0:0:0:0:
188,112,58156,2,0,L|133:29,1,90,0|0,0:0|0:0,0:0:0:0:
228,36,58473,1,0,0:0:0:0:
100,36,58632,1,2,0:0:0:0:
316,36,58790,1,4,0:0:0:0:
136,116,59108,2,0,L|88:192,1,90,0|0,0:0|0:0,0:0:0:0:
176,192,59425,1,0,0:0:0:0:
68,192,59584,1,2,0:0:0:0:
320,192,59743,6,0,L|416:192,1,90,8|0,0:0|0:0,0:0:0:0:
300,276,60060,1,0,0:0:0:0:
392,276,60219,1,0,0:0:0:0:
236,276,60378,2,0,L|152:324,1,90,2|0,0:0|0:0,0:0:0:0:
384,356,60695,1,4,0:0:0:0:
240,356,61013,2,0,L|204:272,1,90
304,276,61330,1,0,0:0:0:0:
200,276,61489,1,2,0:0:0:0:
364,276,61648,6,0,P|420:224|356:168,1,180,8|0,0:0|0:0,0:0:0:0:
268,168,62124,1,0,0:0:0:0:
356,92,62283,1,0,0:0:0:0:
248,92,62441,1,2,0:0:0:0:
468,92,62600,1,4,0:0:0:0:
288,92,62917,2,0,L|196:92,1,90,0|0,0:0|0:0,0:0:0:0:
108,92,63235,2,0,L|12:92,1,90
264,192,63552,6,0,L|368:192,2,90,12|0|0,0:0|0:0|0:0,0:0:0:0:
156,192,64029,1,0,0:0:0:0:
300,264,64187,2,0,L|383:312,1,90,0|0,0:0|0:0,0:0:0:0:
140,264,64505,2,0,L|36:264,1,90,4|0,0:0|0:0,0:0:0:0:
192,264,64822,1,0,0:0:0:0:
76,192,64981,1,0,0:0:0:0:
240,192,65140,2,0,L|336:192,1,90,2|0,0:0|0:0,0:0:0:0:
92,108,65457,6,0,L|172:56,2,90,8|0|0,0:0|0:0|0:0,0:0:0:0:
228,104,65933,1,0,0:0:0:0:
120,108,66092,2,0,L|88:192,1,90,0|0,0:0|0:0,0:0:0:0:
320,192,66409,2,0,L|368:275,1,90,4|0,0:0|0:0,0:0:0:0:
116,192,66727,2,0,L|32:239,1,90,2|0,0:0|0:0,0:0:0:0:
308,340,67044,2,0,L|400:340,1,90,2|0,0:0|0:0,0:0:0:0:
140,336,67362,6,0,L|63:291,2,90,8|0|0,0:0|0:0|0:0,0:0:0:0:
248,336,67838,1,8,0:0:0:0:
104,340,67997,2,0,L|24:296,1,90,0|0,0:0|0:0,0:0:0:0:
256,236,68314,2,0,L|178:191,2,90,4|0|0,0:0|0:0|0:0,0:0:0:0:
148,232,68790,1,8,0:0:0:0:
292,236,68949,2,0,L|372:192,1,90,0|0,0:0|0:0,0:0:0:0:
208,192,69267,5,10,0:0:0:0:
128,192,69425,1,0,0:0:0:0:
48,192,69584,1,0,0:0:0:0:
192,116,69743,1,8,0:0:0:0:
104,116,69901,1,0,0:0:0:0:
12,116,70060,1,0,0:0:0:0:
236,116,70219,2,0,L|312:168,1,90,4|0,0:0|0:0,0:0:0:0:
140,176,70536,2,0,L|56:215,1,90,2|0,0:0|0:0,0:0:0:0:
228,224,70854,2,0,L|318:224,1,90,2|0,0:0|0:0,0:0:0:0:
84,224,71171,6,0,L|184:224,1,90,8|0,0:0|0:0,0:0:0:0:
264,280,71489,1,0,0:0:0:0:
428,280,71648,2,0,L|508:320,2,90,8|0|0,0:0|0:0|0:0,0:0:0:0:
192,360,72124,2,0,L|92:360,1,90,4|0,0:0|0:0,0:0:0:0:
208,280,72441,1,0,0:0:0:0:
100,280,72600,1,2,0:0:0:0:
244,280,72759,1,0,0:0:0:0:
352,280,72917,1,0,0:0:0:0:
192,192,73076,6,0,L|288:192,2,90,8|0|0,0:0|0:0|0:0,0:0:0:0:
348,108,73552,2,0,L|444:108,2,90,8|0|0,0:0|0:0|0:0,0:0:0:0:
100,108,74029,2,0,L|26:169,1,90,6|0,0:0|0:0,0:0:0:0:
284,164,74346,2,0,L|368:194,1,90,2|0,0:0|0:0,0:0:0:0:
96,236,74663,2,0,L|4:236,1,90,2|0,0:0|0:0,0:0:0:0:
278,194,74981,6,0,L|382:194,2,90,12|0|0,0:0|0:0|0:0,0:0:0:0:
170,194,75458,1,8,0:0:0:0:
332,268,75616,2,0,L|249:316,1,90
16,312,75934,2,0,L|106:312,1,90,4|0,0:0|0:0,0:0:0:0:
196,312,76251,1,0,0:0:0:0:
88,240,76410,1,0,0:0:0:0:
232,240,76568,2,0,L|156:192,1,90,2|0,0:0|0:0,0:0:0:0:
392,80,76886,6,0,L|312:28,2,90,8|0|0,0:0|0:0|0:0,0:0:0:0:
272,76,77362,1,8,0:0:0:0:
380,80,77521,2,0,L|412:164,1,90,0|0,0:0|0:0,0:0:0:0:
180,164,77838,2,0,L|228:247,1,90,6|0,0:0|0:0,0:0:0:0:
460,236,78156,2,0,L|376:283,1,90,2|0,0:0|0:0,0:0:0:0:
148,336,78473,2,0,L|240:336,1,90,2|0,0:0|0:0,0:0:0:0:
464,164,78790,6,0,L|387:119,2,90,8|0|0,0:0|0:0|0:0,0:0:0:0:
300,120,79267,2,0,L|223:75,2,90,8|0|0,0:0|0:0|0:0,0:0:0:0:
68,192,79742,2,0,L|146:147,2,90,4|0|0,0:0|0:0|0:0,0:0:0:0:
232,272,80219,2,0,L|154:227,2,90,8|0|0,0:0|0:0|0:0,0:0:0:0:
464,192,80695,5,10,0:0:0:0:
376,192,80853,1,0,0:0:0:0:
284,192,81012,1,0,0:0:0:0:
132,272,81171,1,8,0:0:0:0:
220,272,81329,1,0,0:0:0:0:
312,272,81488,1,0,0:0:0:0:
76,272,81647,2,0,L|128:196,1,90,6|0,0:0|0:0,0:0:0:0:
240,200,81965,2,0,L|156:161,1,90,2|0,0:0|0:0,0:0:0:0:
44,164,82283,2,0,L|134:164,1,90,2|0,0:0|0:0,0:0:0:0:
388,192,82600,6,0,L|480:192,1,90,8|0,0:0|0:0,0:0:0:0:
316,112,82918,2,0,L|396:72,3,90,0|8|0|0,0:0|0:0|0:0|0:0,0:0:0:0:
152,72,83553,2,0,L|48:72,1,90,4|0,0:0|0:0,0:0:0:0:
160,152,83870,1,0,0:0:0:0:
60,152,84029,1,2,0:0:0:0:
176,152,84188,1,0,0:0:0:0:
76,152,84346,1,0,0:0:0:0:
324,152,84505,6,0,L|420:152,2,90,8|0|0,0:0|0:0|0:0,0:0:0:0:
160,240,84981,2,0,L|64:240,2,90,8|0|0,0:0|0:0|0:0,0:0:0:0:
396,240,85457,2,0,L|470:179,1,90,6|0,0:0|0:0,0:0:0:0:
212,172,85775,2,0,L|128:142,1,90
400,112,86092,2,0,L|492:112,1,90,2|0,0:0|0:0,0:0:0:0:
84,112,86409,5,6,0:0:0:0:
256,192,86568,12,0,90219,0:0:0:0:
