osu file format v14

[General]
AudioFilename: audio.mp3
AudioLeadIn: 0
PreviewTime: -1
Countdown: 0
SampleSet: Normal
StackLeniency: 0.2
Mode: 0
LetterboxInBreaks: 0
WidescreenStoryboard: 0

[Editor]
DistanceSpacing: 1.2
BeatDivisor: 6
GridSize: 4
TimelineZoom: 1

[Metadata]
Title:Fjarlaegur (Cypix Remix)
TitleUnicode:Fjarlaegur (Cypix Remix)
Artist:Oskar Schuster
ArtistUnicode:Oskar Schuster
Creator:Epiphronn
Version:Insane
Source:
Tags:
BeatmapID:1070438
BeatmapSetID:503030

[Difficulty]
HPDrainRate:6
CircleSize:5
OverallDifficulty:8.2
ApproachRate:8.8
SliderMultiplier:3.1
SliderTickRate:1

[Events]
//Background and Video events
0,0,"1920x1080.jpg",0,0
//Break Periods
//Storyboard Layer 0 (Background)
//Storyboard Layer 1 (Fail)
//Storyboard Layer 2 (Pass)
//Storyboard Layer 3 (Foreground)
//Storyboard Sound Samples

[TimingPoints]
6410,952.380952380952,4,1,0,100,1,0
17838,-100,4,1,0,100,0,0
29267,-100,4,1,0,100,0,0
40695,-100,4,1,0,100,0,0
52124,-100,4,1,0,100,0,0
63552,-100,4,1,0,100,0,0
74981,-100,4,1,0,100,0,0

[HitObjects]
244,148,6410,5,0,0:0:0:0:
232,160,6726,2,0,P|268:164|312:156,1,51.6666666666667
228,84,7044,2,0,P|192:80|148:88,1,51.6666666666667
184,240,7362,5,0,0:0:0:0:
192,248,7679,2,0,P|220:208|224:184,1,51.6666666666667
120,240,7997,2,0,P|92:280|88:304,1,51.6666666666667
216,320,8314,5,0,0:0:0:0:
220,328,8632,2,0,L|288:336,1,51.6666666666667
344,272,8949,2,0,L|276:264,1,51.6666666666667
408,340,9267,2,0,L|424:212,2,103.333333333333
344,272,10060,1,0,0:0:0:0:
416,156,10219,5,0,0:0:0:0:
408,168,10536,2,0,P|443:175|482:170,1,51.6666666666667
372,100,10854,2,0,P|348:125|332:162,1,51.6666666666667
292,265,11171,5,0,0:0:0:0:
280,272,11490,2,0,L|292:212,1,51.6666666666667
368,320,11807,2,0,L|310:339,1,51.6666666666667
360,220,12124,2,0,P|404:240|480:216,2,103.333333333333
412,172,13076,2,0,L|422:293,2,103.333333333333
484,140,13871,1,0,0:0:0:0:
352,48,14029,5,0,0:0:0:0:
344,64,14346,2,0,P|384:56|408:40,1,51.6666666666667
280,24,14663,2,0,L|272:80,1,51.6666666666667
148,152,14981,5,0,0:0:0:0:
160,152,15298,2,0,L|168:96,1,51.6666666666667
112,228,15615,2,0,P|148:232|200:216,1,51.6666666666667
240,168,15933,2,0,P|288:192|296:272,2,103.333333333333
324,184,16886,2,0,L|220:240,2,103.333333333333
372,136,17838,5,0,0:0:0:0:
216,248,18156,2,0,P|196:208|192:188,1,51.6666666666667
248,64,18473,2,0,P|268:104|272:124,1,51.6666666666667
216,248,18790,2,0,L|104:224,1,103.333333333333
76,148,19267,1,0,0:0:0:0:
176,80,19425,2,0,L|160:140,1,51.6666666666667
112,288,19743,5,0,0:0:0:0:
288,184,20060,2,0,P|308:224|312:244,1,51.6666666666667
256,368,20377,2,0,P|236:328|232:308,1,51.6666666666667
416,252,20695,2,0,L|304:230,2,103.333333333333
360,316,21489,1,0,0:0:0:0:
416,96,21648,5,0,0:0:0:0:
240,160,21965,2,0,P|228:132|232:96,1,51.6666666666667
332,28,22283,2,0,P|344:56|340:92,1,51.6666666666667
296,192,22600,2,0,P|256:224|184:188,1,103.333333333333
227,111,23076,1,0,0:0:0:0:
56,148,23235,2,0,P|84:128|104:124,1,51.6666666666667
204,284,23552,5,0,0:0:0:0:
400,216,23870,2,0,P|412:244|408:280,1,51.6666666666667
308,348,24188,2,0,P|296:320|300:284,1,51.6666666666667
392,152,24505,2,0,P|456:184|456:248,2,103.333333333333
400,256,25298,1,0,0:0:0:0:
328,52,25457,5,0,0:0:0:0:
204,176,25775,2,0,P|176:164|156:136,1,51.6666666666667
236,20,26092,2,0,P|239:50|225:81,1,51.6666666666667
66,165,26409,2,0,P|108:173|164:145,1,103.333333333333
100,72,26886,1,0,0:0:0:0:
224,128,27044,2,0,P|227:158|213:189,1,51.6666666666667
64,240,27362,5,0,0:0:0:0:
248,264,27679,2,0,P|260:291|255:325,1,51.6666666666667
118,356,27996,2,0,P|135:331|167:318,1,51.6666666666667
336,336,28314,2,0,P|336:268|304:216,2,103.333333333333
444,160,29267,6,0,P|416:144|336:164,1,103.333333333333
392,244,29743,1,0,0:0:0:0:
304,112,29902,2,0,P|288:136|288:168,1,51.6666666666667
468,96,30219,1,0,0:0:0:0:
460,88,30536,2,0,L|396:80,1,51.6666666666667
285,158,30854,2,0,L|349:166,1,51.6666666666667
274,62,31171,6,0,P|263:92|296:167,1,103.333333333333
368,96,31648,1,0,0:0:0:0:
216,180,31806,2,0,P|236:212|268:224,1,51.6666666666667
274,62,32124,2,0,L|170:94,2,103.333333333333
268,144,32918,1,0,0:0:0:0:
120,64,33076,6,0,P|112:112|156:156,1,103.333333333333
268,144,33552,1,0,0:0:0:0:
156,29,33711,2,0,P|136:41|116:73,1,51.6666666666667
140,216,34029,1,0,0:0:0:0:
144,224,34345,2,0,P|172:224|212:232,1,51.6666666666667
232,320,34663,2,0,P|204:320|164:312,1,51.6666666666667
296,208,34981,6,0,P|348:224|364:276,1,103.333333333333
232,320,35457,1,0,0:0:0:0:
256,156,35616,2,0,P|284:144|320:148,1,51.6666666666667
472,260,35933,2,0,L|344:264,2,103.333333333333
416,336,36727,1,0,0:0:0:0:
408,168,36886,5,0,0:0:0:0:
400,160,37203,2,0,P|372:164|344:160,1,51.6666666666667
264,56,37521,2,0,P|292:52|320:56,1,51.6666666666667
216,184,37838,2,0,P|168:168|136:120,1,103.333333333333
216,104,38314,1,0,0:0:0:0:
264,228,38473,2,0,P|224:248|184:244,1,51.6666666666667
288,144,38790,6,0,P|320:156|348:232,1,103.333333333333
217,248,39267,1,0,0:0:0:0:
120,144,39425,2,0,P|152:140|184:152,1,51.6666666666667
