osu file format v14

[General]
AudioFilename: audio.mp3
AudioLeadIn: 0
PreviewTime: 63556
Countdown: 0
SampleSet: Normal
StackLeniency: 0.7
Mode: 0
LetterboxInBreaks: 0
WidescreenStoryboard: 1

[Editor]
Bookmarks: 52128,70779
DistanceSpacing: 1
BeatDivisor: 4
GridSize: 4
TimelineZoom: 1.5

[Metadata]
Title:Fjarlaegur (Cypix Remix)
TitleUnicode:Fjarlaegur (Cypix Remix)
Artist:Oskar Schuster
ArtistUnicode:Oskar Schuster
Creator:Aka
Version:Insane
Source:
Tags:
BeatmapID:1086605
BeatmapSetID:486469

[Difficulty]
HPDrainRate:6
CircleSize:4
OverallDifficulty:6
ApproachRate:9
SliderMultiplier:1.6
SliderTickRate:1

[Events]
//Background and Video events
0,0,"543543.jpg",0,0
//Break Periods
//Storyboard Layer 0 (Background)
//Storyboard Layer 1 (Fail)
//Storyboard Layer 2 (Pass)
//Storyboard Layer 3 (Foreground)
//Storyboard Sound Samples

[TimingPoints]
6414,317.460317460317,3,2,1,30,1,0
6414,-200,3,2,0,30,0,0
29271,-125,3,2,1,30,0,0
30382,-125,3,2,0,10,0,0
30540,-125,3,2,1,30,0,0
30699,-125,3,2,0,10,0,0
30779,-125,3,2,1,30,0,0
31810,-125,3,2,0,10,0,0
31969,-125,3,2,1,30,0,0
33874,-125,3,2,0,10,0,0
34033,-125,3,2,1,30,0,0
34191,-125,3,2,0,10,0,0
34350,-125,3,2,1,30,0,0
35620,-125,3,2,0,10,0,0
35779,-125,3,2,1,30,0,0
36096,-125,3,2,0,10,0,0
36255,-125,3,2,1,30,0,0
36572,-125,3,2,3,30,0,0
36890,-125,3,2,1,30,0,0
37048,-125,3,2,0,10,0,0
37128,-125,3,2,1,30,0,0
37525,-125,3,2,0,10,0,0
37604,-125,3,2,1,30,0,0
40699,-117.647058823529,3,1,1,30,0,0
52128,-105.263157894737,3,2,1,30,0,0
52445,-105.263157894737,3,2,0,30,0,0
53080,-105.263157894737,3,2,1,30,0,0
53874,-105.263157894737,3,2,0,30,0,0
54033,-105.263157894737,3,2,1,30,0,0
54826,-105.263157894737,3,2,0,30,0,0
54906,-105.263157894737,3,2,1,30,0,0
55779,-105.263157894737,3,2,0,30,0,0
55937,-105.263157894737,3,2,1,30,0,0
56255,-105.263157894737,3,2,0,30,0,0
56890,-105.263157894737,3,2,1,30,0,0
57683,-105.263157894737,3,2,0,30,0,0
57842,-105.263157894737,3,2,1,30,0,0
58636,-105.263157894737,3,2,0,30,0,0
58794,-105.263157894737,3,2,1,30,0,0
59588,-105.263157894737,3,2,0,30,0,0
59747,-105.263157894737,3,2,1,30,0,0
60064,-105.263157894737,3,2,0,30,0,0
60699,-105.263157894737,3,2,1,30,0,0
61493,-105.263157894737,3,2,0,30,0,0
61652,-105.263157894737,3,2,1,30,0,0
62445,-105.263157894737,3,2,0,30,0,0
62604,-105.263157894737,3,2,1,30,0,0
63556,-100,3,1,1,50,0,1
74826,-100,3,1,1,50,0,0
74985,-100,3,1,1,50,0,1
85779,-100,3,2,0,50,0,1
85937,-100,3,1,1,50,0,1
86413,-200,3,2,1,30,0,0
86731,-200,3,2,0,30,0,0
91175,-200,3,2,0,25,0,0
92445,-200,3,2,0,22,0,0
92763,-200,3,2,0,20,0,0
93080,-200,3,2,0,18,0,0
93398,-200,3,2,0,15,0,0
93715,-200,3,2,1,13,0,0
94033,-200,3,2,0,11,0,0

[Colours]
Combo1 : 159,130,215
Combo2 : 164,188,90
Combo3 : 217,141,108
Combo4 : 138,191,181
Combo5 : 157,159,183
Combo6 : 155,213,85
Combo7 : 232,123,57
Combo8 : 68,204,164

[HitObjects]
54,177,6413,5,2,0:0:0:0:
153,134,6731,1,0,0:0:0:0:
153,134,7048,1,0,0:0:0:0:
271,274,7366,5,0,0:0:0:0:
373,260,7683,1,0,0:0:0:0:
373,260,8001,1,0,0:0:0:0:
455,95,8318,5,2,0:0:0:0:
351,81,8636,1,0,0:0:0:0:
351,81,8953,1,0,0:0:0:0:
264,249,9271,5,0,0:0:0:0:
191,216,9588,1,0,0:0:0:0:
122,257,9906,2,0,P|115:278|113:290,1,26.6666666666667
25,176,10223,69,2,0:0:0:0:
97,142,10540,1,0,0:0:0:0:
123,66,10858,1,0,0:0:0:0:
219,200,11175,5,0,0:0:0:0:
291,235,11493,1,0,0:0:0:0:
360,195,11810,1,0,0:0:0:0:
477,35,12128,5,2,0:0:0:0:
473,114,12445,1,0,0:0:0:0:
468,194,12763,1,0,0:0:0:0:
229,127,13080,5,0,0:0:0:0:
233,206,13397,1,0,0:0:0:0:
239,285,13715,2,0,L|241:329,1,40,0|0,0:0|0:0,0:0:0:0:
154,261,14033,69,2,0:0:0:0:
113,159,14350,1,0,0:0:0:0:
37,181,14667,1,0,0:0:0:0:
283,191,14985,5,0,0:0:0:0:
375,136,15302,1,0,0:0:0:0:
361,57,15620,1,0,0:0:0:0:
395,262,15937,5,2,0:0:0:0:
276,296,16255,1,0,0:0:0:0:
276,296,16572,1,0,0:0:0:0:
112,177,16890,5,0,0:0:0:0:
224,189,17207,1,0,0:0:0:0:
224,189,17525,1,0,0:0:0:0:
307,6,17842,69,2,0:0:0:0:
346,137,18160,1,0,0:0:0:0:
269,159,18477,1,0,0:0:0:0:
71,48,18794,5,0,0:0:0:0:
91,182,19112,1,0,0:0:0:0:
166,155,19429,1,0,0:0:0:0:
285,268,19747,5,2,0:0:0:0:
206,280,20064,1,0,0:0:0:0:
179,355,20382,1,0,0:0:0:0:
470,315,20699,5,0,0:0:0:0:
449,237,21016,1,0,0:0:0:0:
372,214,21334,2,0,L|375:264,1,40,0|0,0:0|0:0,0:0:0:0:
296,164,21652,69,2,0:0:0:0:
164,158,21969,1,0,0:0:0:0:
164,158,22287,1,0,0:0:0:0:
379,47,22604,5,0,0:0:0:0:
402,174,22921,1,0,0:0:0:0:
402,174,23239,1,0,0:0:0:0:
246,82,23556,5,2,0:0:0:0:
166,87,23874,1,0,0:0:0:0:
86,92,24191,1,0,0:0:0:0:
272,248,24509,5,0,0:0:0:0:
192,243,24826,1,0,0:0:0:0:
112,238,25144,2,0,L|115:286,1,40,0|0,0:0|0:0,0:0:0:0:
160,158,25461,69,2,0:0:0:0:
224,110,25779,1,0,0:0:0:0:
301,131,26096,1,0,0:0:0:0:
512,288,26413,5,0,0:0:0:0:
435,267,26730,1,0,0:0:0:0:
371,315,27048,1,0,0:0:0:0:
145,217,27366,5,0,0:0:0:0:
309,168,27684,1,0,0:0:0:0:
212,152,28001,1,0,0:0:0:0:
252,298,28318,5,0,0:0:0:0:
395,233,28636,1,0,0:0:0:0:
350,307,28953,1,0,0:0:0:0:
74,249,29271,70,0,P|117:240|211:236,1,128,8|0,0:0|0:0,0:0:0:0:
342,135,29747,2,0,P|299:144|205:148,1,128,8|0,0:0|0:0,0:0:0:0:
423,26,30223,2,0,P|412:72|412:115,1,64,2|0,0:0|2:0,0:0:0:0:
446,184,30540,2,0,P|457:230|457:273,1,64,0|0,0:0|2:0,0:0:0:0:
429,345,30858,1,0,0:0:0:0:
154,202,31175,6,0,P|200:197|275:133,1,128,8|0,0:0|0:0,0:0:0:0:
100,306,31652,2,0,P|62:318|23:339,1,64,8|0,0:0|0:0,0:0:0:0:
51,211,31969,1,0,0:0:0:0:
194,288,32128,2,0,P|259:290|338:315,1,128,2|0,0:0|0:0,0:0:0:0:
472,135,32763,2,0,P|432:151|398:176,1,64,0|0,0:0|0:0,0:0:0:0:
173,223,33080,6,0,P|118:215|49:165,1,128,8|0,0:0|0:0,0:0:0:0:
58,175,33556,1,8,0:0:0:0:
44,308,33715,2,0,P|64:353|70:379,1,64,0|0,0:0|0:0,0:0:0:0:
245,257,34033,2,0,P|254:226|268:197,1,64,6|0,0:0|0:0,0:0:0:0:
110,97,34350,1,0,0:0:0:0:
306,40,34667,1,0,0:0:0:0:
110,97,34985,6,0,P|83:128|96:231,1,128,8|0,0:0|0:0,0:0:0:0:
290,156,35461,2,0,P|249:161|209:166,1,64,8|0,0:0|0:0,0:0:0:0:
226,163,35779,1,0,0:0:0:0:
346,294,35937,2,0,P|426:312|502:313,1,128,2|0,0:0|0:0,0:0:0:0:
262,197,36572,1,2,0:0:0:0:
129,298,36731,1,2,0:0:0:0:
282,384,36890,70,0,P|274:338|263:303,1,64,8|0,0:0|2:0,0:0:0:0:
133,204,37207,1,0,0:0:0:0:
133,204,37366,2,0,L|60:210,1,64,8|0,0:0|0:0,0:0:0:0:
157,112,37683,1,0,0:0:0:0:
320,201,37842,2,0,P|382:179|413:119,2,128,2|0|0,0:0|0:0|0:0,0:0:0:0:
66,26,38794,6,0,P|110:55|116:138,1,128,8|0,0:0|0:0,0:0:0:0:
43,314,39271,2,0,P|80:264|142:258,1,128,8|0,0:0|0:0,0:0:0:0:
324,255,39747,1,2,0:0:0:0:
118,148,40064,1,0,0:0:0:0:
249,5,40382,1,0,0:0:0:0:
249,5,40699,6,0,P|250:55|286:166,1,136.000002593994,8|0,0:2|0:0,0:0:0:0:
149,130,41175,1,0,0:0:0:0:
363,78,41334,2,0,P|407:76|446:76,1,68.0000012969971,0|0,0:0|0:0,0:0:0:0:
483,235,41652,2,0,P|454:232|416:222,1,68.0000012969971,2|0,0:2|0:0,0:0:0:0:
316,288,41969,2,0,P|284:290|245:296,1,68.0000012969971,0|0,0:0|0:0,0:0:0:0:
155,215,42287,2,0,P|122:204|89:196,1,68.0000012969971,0|0,0:0|0:0,0:0:0:0:
340,35,42604,6,0,P|329:83|242:138,1,136.000002593994,8|0,0:2|0:0,0:0:0:0:
145,99,43080,1,0,0:0:0:0:
327,202,43239,2,0,P|367:210|405:231,1,68.0000012969971,0|0,0:0|0:0,0:0:0:0:
255,350,43556,2,0,L|266:267,1,68.0000012969971,2|0,0:2|0:0,0:0:0:0:
148,212,43874,2,0,L|156:279,1,68.0000012969971,0|0,0:0|0:0,0:0:0:0:
377,302,44191,1,0,0:0:0:0:
262,193,44350,1,0,0:0:0:0:
140,371,44509,70,0,P|86:376|11:306,1,136.000002593994,8|0,0:2|0:0,0:0:0:0:
77,118,44985,1,0,0:0:0:0:
165,159,45144,2,0,P|159:211|148:241,1,68.0000012969971,0|0,0:0|0:0,0:0:0:0:
293,53,45461,2,0,L|365:40,1,68.0000012969971,2|0,0:2|0:0,0:0:0:0:
347,149,45779,2,0,L|432:160,1,68.0000012969971,0|0,0:0|0:0,0:0:0:0:
314,256,46096,2,0,L|391:288,1,68.0000012969971,0|0,0:0|0:0,0:0:0:0:
136,138,46413,6,0,P|177:127|263:183,1,136.000002593994,8|0,0:2|0:0,0:0:0:0:
213,358,46890,1,0,0:0:0:0:
115,317,47048,2,0,P|125:262|134:230,1,68.0000012969971,0|0,0:0|0:0,0:0:0:0:
337,113,47366,2,0,P|344:146|350:179,1,68.0000012969971,2|0,0:2|0:0,0:0:0:0:
121,55,47683,2,0,P|154:62|187:68,1,68.0000012969971,0|0,0:0|0:0,0:0:0:0:
273,238,48001,1,0,0:0:0:0:
164,162,48160,1,0,0:0:0:0:
11,269,48318,6,0,P|19:324|84:386,1,136.000002593994,8|0,0:2|0:0,0:0:0:0:
283,308,48794,1,0,0:0:0:0:
283,308,48953,2,0,P|249:305|216:304,1,68.0000012969971,0|0,0:0|0:0,0:0:0:0:
352,150,49271,2,0,P|400:183|434:194,1,68.0000012969971,2|0,0:2|0:0,0:0:0:0:
196,201,49588,2,0,P|138:209|103:204,1,68.0000012969971,0|0,0:0|0:0,0:0:0:0:
239,59,49906,1,0,0:0:0:0:
239,59,50223,6,0,L|225:197,1,136.000002593994,8|0,0:2|0:0,0:0:0:0:
327,88,50699,1,0,0:0:0:0:
133,33,50858,2,0,P|137:86|141:120,1,68.0000012969971,0|0,0:0|0:0,0:0:0:0:
298,268,51175,2,0,P|307:215|315:182,1,68.0000012969971,2|0,0:2|0:0,0:0:0:0:
106,309,51493,2,0,P|126:340|142:366,1,68.0000012969971,0|0,0:0|0:0,0:0:0:0:
361,343,51810,1,0,0:0:0:0:
361,343,52128,70,0,P|405:337|446:322,1,75.9999979705811,4|0,0:1|0:0,0:0:0:0:
414,111,52445,1,2,0:0:0:0:
313,208,52604,1,0,0:0:0:0:
498,187,52763,1,2,0:0:0:0:
498,187,52921,1,0,0:0:0:0:
285,103,53080,2,0,P|228:108|117:97,1,151.999995941162,2|0,0:0|0:0,0:0:0:0:
133,100,53556,1,0,0:0:0:0:
126,282,53715,2,0,L|117:206,1,75.9999979705811,0|2,0:0|0:0,0:0:0:0:
311,298,54033,6,0,P|357:292|397:294,1,75.9999979705811,8|0,0:0|0:0,0:0:0:0:
183,378,54350,2,0,P|145:378|107:372,1,75.9999979705811,0|0,0:0|0:0,0:0:0:0:
212,144,54667,1,0,0:0:0:0:
308,217,54826,1,2,0:0:0:0:
308,217,54985,2,0,L|299:300,1,75.9999979705811,2|0,0:0|0:0,0:0:0:0:
266,55,55302,2,0,P|304:53|349:46,1,75.9999979705811,0|0,0:0|0:0,0:0:0:0:
478,133,55620,1,0,0:0:0:0:
341,47,55779,1,2,0:0:0:0:
210,163,55937,6,0,P|147:170|73:98,1,151.999995941162,8|2,0:0|0:0,0:0:0:0:
80,117,56413,1,0,0:0:0:0:
261,76,56572,1,2,0:0:0:0:
250,231,56731,1,0,0:0:0:0:
66,301,56890,2,0,P|70:258|78:218,1,75.9999979705811,2|0,0:0|0:0,0:0:0:0:
243,333,57207,2,0,L|318:322,1,75.9999979705811,0|0,0:0|0:0,0:0:0:0:
469,202,57525,1,0,0:0:0:0:
339,159,57683,1,2,0:0:0:0:
439,356,57842,6,0,P|429:316|403:266,1,75.9999979705811,8|0,0:0|0:0,0:0:0:0:
225,194,58160,2,0,P|209:228|200:265,1,75.9999979705811,0|0,0:0|0:0,0:0:0:0:
419,148,58477,1,0,0:0:0:0:
339,56,58636,1,2,0:0:0:0:
160,124,58794,2,0,P|109:127|80:130,1,75.9999979705811,2|0,0:0|0:0,0:0:0:0:
307,215,59112,2,0,P|344:216|382:220,1,75.9999979705811,0|0,0:0|0:0,0:0:0:0:
159,224,59429,1,0,0:0:0:0:
107,360,59588,1,2,0:0:0:0:
330,347,59747,70,0,P|288:324|245:309,1,75.9999979705811,8|0,0:0|0:0,0:0:0:0:
66,137,60064,1,2,0:0:0:0:
108,275,60223,1,0,0:0:0:0:
207,200,60382,1,2,0:0:0:0:
17,206,60540,1,0,0:0:0:0:
228,96,60699,2,0,P|291:92|393:59,1,151.999995941162,2|0,0:0|0:0,0:0:0:0:
304,184,61175,1,0,0:0:0:0:
450,124,61334,2,0,L|438:222,1,75.9999979705811,0|2,0:0|0:0,0:0:0:0:
301,380,61652,6,0,P|295:341|284:302,1,75.9999979705811,8|0,0:0|0:0,0:0:0:0:
134,193,61969,1,0,0:0:0:0:
56,308,62128,1,0,0:0:0:0:
56,308,62287,2,0,P|100:322|134:329,1,75.9999979705811,0|2,0:0|0:0,0:0:0:0:
333,103,62604,2,0,P|295:111|259:123,1,75.9999979705811,2|0,0:0|0:0,0:0:0:0:
345,267,62921,2,0,P|382:275|418:287,1,75.9999979705811,0|0,0:0|0:0,0:0:0:0:
195,198,63239,2,0,P|158:209|121:218,1,75.9999979705811,0|0,0:0|0:0,0:0:0:0:
472,28,63556,38,0,P|454:80|333:127,1,160,4|0,0:1|0:0,0:0:0:0:
228,84,64033,1,8,0:2:0:0:
200,274,64191,1,0,0:0:0:0:
341,204,64350,1,0,0:0:0:0:
143,140,64509,6,0,P|88:148|42:149,1,80,2|0,0:2|0:0,0:0:0:0:
115,334,64826,1,0,0:0:0:0:
285,221,64985,1,0,0:0:0:0:
88,241,65144,1,0,0:0:0:0:
88,241,65302,1,0,0:0:0:0:
265,366,65461,6,0,P|342:347|391:253,1,160,8|0,0:2|0:0,0:0:0:0:
264,99,65937,1,8,0:2:0:0:
397,153,66096,2,0,P|448:167|479:171,1,80,0|0,0:0|0:0,0:0:0:0:
219,271,66413,6,0,P|212:231|201:193,1,80,2|0,0:2|0:0,0:0:0:0:
397,65,66731,2,0,P|436:58|474:47,1,80,0|0,0:0|0:0,0:0:0:0:
379,240,67048,2,0,P|417:251|456:257,1,80,0|0,0:0|0:0,0:0:0:0:
235,103,67366,69,4,0:1:0:0:
145,247,67525,1,0,0:0:0:0:
302,186,67683,1,0,0:0:0:0:
97,125,67842,1,8,0:2:0:0:
42,304,68001,2,0,P|49:358|62:398,1,80,0|0,0:0|0:0,0:0:0:0:
271,267,68318,6,0,P|281:228|285:188,1,80,2|0,0:2|0:0,0:0:0:0:
185,71,68636,1,0,0:0:0:0:
46,184,68794,1,0,0:0:0:0:
188,285,68953,1,0,0:0:0:0:
188,285,69112,1,0,0:0:0:0:
5,282,69271,5,8,0:2:0:0:
180,149,69429,1,0,0:0:0:0:
20,96,69588,1,0,0:0:0:0:
104,244,69747,1,8,0:2:0:0:
296,151,69906,1,0,0:0:0:0:
137,30,70064,1,0,0:0:0:0:
137,30,70223,6,0,P|96:37|54:40,1,80,2|0,0:2|0:0,0:0:0:0:
333,57,70540,2,0,P|372:60|412:66,1,80,0|0,0:0|0:0,0:0:0:0:
195,252,70858,2,0,P|208:179|212:157,1,80,0|0,0:0|0:0,0:0:0:0:
446,244,71175,70,0,P|388:239|324:332,1,160,4|0,0:1|0:0,0:0:0:0:
324,309,71652,1,8,0:2:0:0:
508,307,71810,1,0,0:0:0:0:
394,379,71969,1,0,0:0:0:0:
217,295,72128,6,0,P|165:302|132:311,1,80,2|0,0:2|0:0,0:0:0:0:
197,114,72445,1,0,0:0:0:0:
342,247,72604,1,0,0:0:0:0:
156,202,72763,1,0,0:0:0:0:
322,95,72921,1,0,0:0:0:0:
454,220,73080,6,0,P|445:272|440:302,1,80,8|0,0:2|0:0,0:0:0:0:
225,214,73398,1,0,0:0:0:0:
225,214,73556,2,0,P|234:266|239:296,1,80,8|0,0:2|0:0,0:0:0:0:
370,133,73874,1,0,0:0:0:0:
148,97,74033,6,0,L|240:81,1,80,2|0,0:2|0:0,0:0:0:0:
105,350,74350,2,0,L|13:334,1,80
316,240,74667,2,0,L|405:235,1,80
74,188,74985,69,4,0:1:0:0:
74,188,75144,2,0,P|33:158|36:52,1,160,0|8,0:0|0:2,0:0:0:0:
312,73,75620,1,0,0:0:0:0:
183,153,75779,1,0,0:0:0:0:
158,18,75937,5,2,0:2:0:0:
345,171,76096,2,0,P|387:169|444:160,1,80,0|0,0:0|0:0,0:0:0:0:
216,86,76413,1,0,0:0:0:0:
196,288,76572,1,0,0:0:0:0:
264,184,76731,1,0,0:0:0:0:
79,87,76890,6,0,P|25:103|-7:112,1,80,8|0,0:2|0:0,0:0:0:0:
272,188,77207,1,0,0:0:0:0:
272,188,77366,2,0,P|326:204|358:213,1,80,8|0,0:2|0:0,0:0:0:0:
187,338,77683,1,0,0:0:0:0:
72,261,77842,6,0,P|86:213|97:169,1,80,2|0,0:2|0:0,0:0:0:0:
316,51,78160,2,0,P|326:89|337:128,1,80,0|0,0:0|0:0,0:0:0:0:
278,341,78477,2,0,P|239:330|200:319,1,80,0|0,0:0|0:0,0:0:0:0:
407,226,78794,69,4,0:1:0:0:
255,123,78953,1,0,0:0:0:0:
169,237,79112,1,0,0:0:0:0:
362,156,79271,1,8,0:2:0:0:
412,327,79429,1,0,0:0:0:0:
412,327,79588,1,0,0:0:0:0:
203,321,79747,6,0,L|300:303,1,80,2|0,0:2|0:0,0:0:0:0:
161,151,80064,1,0,0:0:0:0:
24,249,80223,1,0,0:0:0:0:
235,240,80382,1,0,0:0:0:0:
235,240,80540,1,0,0:0:0:0:
35,124,80699,6,0,P|48:78|54:35,1,80,8|0,0:2|0:0,0:0:0:0:
322,102,81017,1,0,0:0:0:0:
221,169,81175,2,0,P|151:163|126:164,1,80,8|0,0:2|0:0,0:0:0:0:
280,288,81493,1,0,0:0:0:0:
427,207,81652,5,2,0:2:0:0:
122,65,81969,1,0,0:0:0:0:
105,208,82128,1,0,0:0:0:0:
286,274,82287,1,0,0:0:0:0:
269,131,82446,1,0,0:0:0:0:
0,217,82604,70,0,L|25:388,1,160,4|0,0:1|0:0,0:0:0:0:
23,375,83080,1,8,0:2:0:0:
235,262,83239,2,0,L|251:155,1,80,0|0,0:0|0:0,0:0:0:0:
44,56,83556,2,0,P|47:96|56:135,1,80,2|0,0:2|0:0,0:0:0:0:
299,73,83874,1,0,0:0:0:0:
381,208,84033,1,0,0:0:0:0:
192,152,84191,1,0,0:0:0:0:
192,152,84350,1,0,0:0:0:0:
404,70,84509,6,0,P|463:64|507:57,1,80,8|0,0:2|0:0,0:0:0:0:
303,206,84826,1,0,0:0:0:0:
373,296,84985,2,0,P|412:312|471:318,1,80,8|0,0:2|0:0,0:0:0:0:
287,108,85302,1,0,0:0:0:0:
175,247,85461,5,2,0:2:0:0:
361,203,85620,1,0,0:0:0:0:
177,110,85779,1,2,0:0:0:0:
265,309,85937,1,0,0:0:0:0:
57,236,86096,1,2,0:2:0:0:
250,162,86255,1,0,0:0:0:0:
343,367,86413,21,2,0:0:0:0:
403,314,86731,1,2,0:0:0:0:
478,317,87048,1,2,0:0:0:0:
241,195,87366,5,0,0:0:0:0:
191,132,87683,1,2,0:0:0:0:
217,56,88001,1,2,0:0:0:0:
505,164,88318,5,0,0:0:0:0:
424,162,88636,1,2,0:0:0:0:
344,161,88953,1,2,0:0:0:0:
198,310,89271,5,0,0:0:0:0:
118,311,89588,1,2,0:0:0:0:
37,313,89906,2,0,L|34:259,1,40,0|0,0:0|0:0,0:0:0:0:
94,71,90223,69,2,0:0:0:0:
189,44,90540,1,0,0:0:0:0:
189,44,90858,1,0,0:0:0:0:
227,251,91175,5,0,0:0:0:0:
328,267,91493,1,0,0:0:0:0:
328,267,91810,1,0,0:0:0:0:
468,83,92128,5,2,0:0:0:0:
407,62,92445,1,0,0:0:0:0:
349,89,92763,1,0,0:0:0:0:
335,324,93080,5,0,0:0:0:0:
309,282,93398,1,0,0:0:0:0:
271,252,93715,2,0,P|244:256|226:263,1,40,2|0,0:0|0:0,0:0:0:0:
165,312,94033,5,4,0:1:0:0:
