osu file format v14

[General]
AudioFilename: audio.mp3
AudioLeadIn: 0
PreviewTime: 63556
Countdown: 0
SampleSet: Normal
StackLeniency: 0.7
Mode: 0
LetterboxInBreaks: 0
WidescreenStoryboard: 1

[Editor]
Bookmarks: 52128,70779
DistanceSpacing: 1.1
BeatDivisor: 4
GridSize: 4
TimelineZoom: 1.5

[Metadata]
Title:Fjarlaegur (Cypix Remix)
TitleUnicode:Fjarlaegur (Cypix Remix)
Artist:Oskar Schuster
ArtistUnicode:Oskar Schuster
Creator:Aka
Version:Hard
Source:
Tags:
BeatmapID:1087347
BeatmapSetID:486469

[Difficulty]
HPDrainRate:5
CircleSize:4
OverallDifficulty:5
ApproachRate:8
SliderMultiplier:1.4
SliderTickRate:1

[Events]
//Background and Video events
0,0,"543543.jpg",0,0
//Break Periods
2,14233,28521
//Storyboard Layer 0 (Background)
//Storyboard Layer 1 (Fail)
//Storyboard Layer 2 (Pass)
//Storyboard Layer 3 (Foreground)
//Storyboard Sound Samples

[TimingPoints]
6414,317.460317460317,3,2,1,30,1,0
6414,-200,3,2,0,30,0,0
29271,-125,3,2,1,30,0,0
30382,-125,3,2,0,10,0,0
30540,-125,3,2,1,30,0,0
30699,-125,3,2,0,10,0,0
30779,-125,3,2,1,30,0,0
31810,-125,3,2,0,10,0,0
31969,-125,3,2,1,30,0,0
33239,-125,3,2,1,10,0,0
33398,-125,3,2,1,30,0,0
33715,-125,3,2,1,10,0,0
33874,-125,3,2,0,25,0,0
34033,-125,3,2,1,30,0,0
34191,-125,3,2,0,10,0,0
34350,-125,3,2,1,30,0,0
35620,-125,3,2,0,10,0,0
35779,-125,3,2,1,30,0,0
36572,-125,3,2,3,30,0,0
36890,-125,3,2,1,30,0,0
37048,-125,3,2,0,10,0,0
37128,-125,3,2,1,30,0,0
37525,-125,3,2,0,10,0,0
37604,-125,3,2,1,30,0,0
40699,-117.647058823529,3,1,1,30,0,0
52128,-105.263157894737,3,2,1,30,0,0
52445,-105.263157894737,3,2,0,30,0,0
53080,-105.263157894737,3,2,1,30,0,0
53874,-105.263157894737,3,2,0,30,0,0
54033,-105.263157894737,3,2,1,30,0,0
54826,-105.263157894737,3,2,0,30,0,0
54906,-105.263157894737,3,2,1,30,0,0
55779,-105.263157894737,3,2,0,30,0,0
55937,-105.263157894737,3,2,1,30,0,0
56255,-105.263157894737,3,2,0,30,0,0
56890,-105.263157894737,3,2,1,30,0,0
57683,-105.263157894737,3,2,0,30,0,0
57842,-105.263157894737,3,2,1,30,0,0
58636,-105.263157894737,3,2,0,30,0,0
58794,-105.263157894737,3,2,1,30,0,0
59588,-105.263157894737,3,2,0,30,0,0
59747,-105.263157894737,3,2,1,30,0,0
60064,-105.263157894737,3,2,0,30,0,0
60699,-105.263157894737,3,2,1,30,0,0
61493,-105.263157894737,3,2,0,30,0,0
61652,-105.263157894737,3,2,1,30,0,0
62445,-105.263157894737,3,2,0,30,0,0
62604,-105.263157894737,3,2,1,30,0,0
63556,-100,3,1,1,50,0,1
74826,-100,3,1,1,50,0,0
74985,-100,3,1,1,50,0,1
85779,-100,3,2,0,50,0,1
85937,-100,3,1,1,50,0,1
86413,-200,3,2,1,30,0,0
86731,-200,3,2,0,30,0,0
91175,-200,3,2,0,25,0,0
92445,-200,3,2,0,22,0,0
92763,-200,3,2,0,20,0,0
93080,-200,3,2,0,18,0,0
93398,-200,3,2,0,15,0,0
93715,-200,3,2,1,13,0,0
94033,-200,3,2,0,11,0,0

[Colours]
Combo1 : 159,130,215
Combo2 : 164,188,90
Combo3 : 217,141,108
Combo4 : 138,191,181
Combo5 : 157,159,183
Combo6 : 155,213,85
Combo7 : 232,123,57
Combo8 : 68,204,164

[HitObjects]
329,140,6413,5,2,0:0:0:0:
348,236,6731,1,2,0:0:0:0:
348,236,7048,1,2,0:0:0:0:
230,191,7366,5,0,0:0:0:0:
134,207,7683,1,2,0:0:0:0:
134,207,8001,1,2,0:0:0:0:
190,338,8318,5,0,0:0:0:0:
287,318,8636,1,2,0:0:0:0:
287,318,8953,1,2,0:0:0:0:
406,200,9271,5,0,0:0:0:0:
406,200,9588,1,2,0:0:0:0:
401,297,9906,2,0,L|354:293,1,35,0|0,0:0|0:0,0:0:0:0:
271,255,10223,5,2,0:0:0:0:
219,198,10540,1,0,0:0:0:0:
232,121,10858,1,0,0:0:0:0:
365,55,11175,5,0,0:0:0:0:
288,47,11493,1,0,0:0:0:0:
211,40,11810,1,0,0:0:0:0:
21,123,12128,5,2,0:0:0:0:
94,101,12445,1,0,0:0:0:0:
129,32,12763,1,0,0:0:0:0:
217,129,13080,5,0,0:0:0:0:
229,205,13398,1,0,0:0:0:0:
208,279,13715,2,0,P|172:282|157:282,1,35,2|0,0:0|0:0,0:0:0:0:
289,313,14033,5,4,0:1:0:0:
33,255,29271,6,0,P|69:273|161:273,1,112,8|0,0:0|0:0,0:0:0:0:
183,199,29747,2,0,L|171:79,1,112,8|0,0:0|0:0,0:0:0:0:
92,129,30223,1,2,0:0:0:0:
253,51,30540,1,0,0:0:0:0:
295,225,30858,1,0,0:0:0:0:
295,225,31175,6,0,P|298:261|320:358,1,112,8|0,0:0|0:0,0:0:0:0:
402,321,31652,2,0,P|414:266|415:245,1,56,8|0,0:0|0:0,0:0:0:0:
421,177,31969,1,0,0:0:0:0:
305,132,32128,2,0,P|248:140|174:149,1,112,2|0,0:0|0:0,0:0:0:0:
194,147,32763,1,0,0:0:0:0:
146,222,32921,1,0,0:0:0:0:
285,222,33080,6,0,P|335:217|364:213,1,56,8|0,0:0|0:0,0:0:0:0:
383,136,33398,1,0,0:0:0:0:
383,136,33556,2,0,P|333:131|263:116,1,112,8|0,0:0|0:0,0:0:0:0:
153,134,34033,2,0,P|102:158|30:145,2,112,6|0|0,0:0|0:0|0:0,0:0:0:0:
31,266,34985,6,0,P|10:321|-1:383,1,112,8|0,0:0|0:0,0:0:0:0:
87,351,35461,2,0,P|124:340|154:337,1,56,8|0,0:0|0:0,0:0:0:0:
243,361,35779,1,0,0:0:0:0:
243,361,35937,2,0,P|289:368|357:342,1,112,2|0,0:0|0:0,0:0:0:0:
416,141,36572,1,2,0:0:0:0:
354,206,36731,1,2,0:0:0:0:
452,279,36890,70,0,L|444:213,1,56,8|0,0:0|2:0,0:0:0:0:
354,206,37207,1,0,0:0:0:0:
354,206,37366,2,0,L|280:209,1,56,8|0,0:0|0:0,0:0:0:0:
225,155,37683,1,0,0:0:0:0:
330,89,37842,2,0,P|370:94|456:131,2,112,2|0|0,0:0|0:0|0:0,0:0:0:0:
152,155,38794,6,0,L|143:277,1,112,8|0,0:0|0:0,0:0:0:0:
59,233,39271,2,0,L|67:121,1,112,8|0,0:0|0:0,0:0:0:0:
192,83,39747,1,2,0:0:0:0:
200,81,40064,1,0,0:0:0:0:
208,78,40382,1,0,0:0:0:0:
219,75,40699,6,0,P|266:85|355:84,1,119.000002269745,8|0,0:2|0:0,0:0:0:0:
385,168,41175,1,0,0:0:0:0:
385,168,41334,2,0,P|412:180|459:184,1,59.5000011348725,0|0,0:0|0:0,0:0:0:0:
297,164,41652,2,0,P|262:175|235:190,1,59.5000011348725,2|0,0:2|0:0,0:0:0:0:
331,232,41969,2,0,P|306:259|291:286,1,59.5000011348725,0|0,0:0|0:0,0:0:0:0:
396,268,42287,2,0,P|385:303|382:333,1,59.5000011348725,0|0,0:0|0:0,0:0:0:0:
213,289,42604,6,0,L|89:299,1,119.000002269745,8|0,0:2|0:0,0:0:0:0:
125,208,43080,1,0,0:0:0:0:
125,208,43239,2,0,L|197:203,1,59.5000011348725,0|0,0:0|0:0,0:0:0:0:
265,133,43556,2,0,P|283:109|298:74,1,59.5000011348725,2|0,0:2|0:0,0:0:0:0:
367,145,43874,2,0,P|358:173|355:202,1,59.5000011348725,0|0,0:0|0:0,0:0:0:0:
422,269,44191,1,0,0:0:0:0:
354,202,44350,1,0,0:0:0:0:
281,286,44509,70,0,P|241:296|158:303,1,119.000002269745,8|0,0:2|0:0,0:0:0:0:
93,238,44985,1,0,0:0:0:0:
93,238,45144,2,0,L|85:175,1,59.5000011348725,0|0,0:0|0:0,0:0:0:0:
170,116,45461,2,0,P|180:76|185:42,1,59.5000011348725,2|0,0:2|0:0,0:0:0:0:
277,43,45779,2,0,P|286:71|293:100,1,59.5000011348725,0|0,0:0|0:0,0:0:0:0:
366,161,46096,2,0,P|371:131|379:103,1,59.5000011348725,0|0,0:0|0:0,0:0:0:0:
277,192,46413,6,0,P|239:204|179:271,1,119.000002269745,8|0,0:2|0:0,0:0:0:0:
92,229,46890,1,0,0:0:0:0:
92,229,47048,2,0,P|80:273|79:300,1,59.5000011348725,0|0,0:0|0:0,0:0:0:0:
168,357,47366,2,0,P|216:349|240:351,1,59.5000011348725,2|0,0:2|0:0,0:0:0:0:
301,290,47683,2,0,P|345:300|374:302,1,59.5000011348725,0|0,0:0|0:0,0:0:0:0:
451,274,48001,1,0,0:0:0:0:
359,301,48160,1,0,0:0:0:0:
389,191,48318,6,0,L|373:74,1,119.000002269745,8|0,0:2|0:0,0:0:0:0:
461,37,48794,1,0,0:0:0:0:
461,37,48953,2,0,P|459:81|457:110,1,59.5000011348725,0|0,0:0|0:0,0:0:0:0:
351,146,49271,2,0,P|307:144|278:142,1,59.5000011348725,2|0,0:2|0:0,0:0:0:0:
203,105,49588,2,0,P|164:114|129:131,1,59.5000011348725,0|0,0:0|0:0,0:0:0:0:
70,179,49906,1,0,0:0:0:0:
199,318,50223,6,0,P|194:277|176:195,1,119.000002269745,8|0,0:2|0:0,0:0:0:0:
298,168,50699,1,0,0:0:0:0:
298,168,50858,2,0,P|285:210|280:238,1,59.5000011348725,0|0,0:0|0:0,0:0:0:0:
216,127,51175,2,0,P|209:97|199:69,1,59.5000011348725,2|0,0:2|0:0,0:0:0:0:
294,56,51493,2,0,P|348:57|380:53,1,59.5000011348725,0|0,0:0|0:0,0:0:0:0:
414,129,51810,1,0,0:0:0:0:
414,129,52128,70,0,P|379:158|274:170,1,132.999996448517,4|2,0:1|0:0,0:0:0:0:
193,140,52604,1,0,0:0:0:0:
100,192,52763,2,0,P|88:233|88:263,1,66.4999982242585,2|0,0:0|0:0,0:0:0:0:
187,329,53080,2,0,L|345:320,1,132.999996448517,2|0,0:0|0:0,0:0:0:0:
450,153,53715,2,0,L|375:157,1,66.4999982242585,0|2,0:0|0:0,0:0:0:0:
284,212,54033,6,0,P|226:236|132:220,1,132.999996448517,8|0,0:0|0:0,0:0:0:0:
91,146,54509,1,0,0:0:0:0:
91,146,54667,2,0,P|97:106|102:71,1,66.4999982242585,0|2,0:0|0:0,0:0:0:0:
28,224,54985,2,0,P|37:295|44:383,1,132.999996448517,2|0,0:0|0:0,0:0:0:0:
43,357,55620,1,0,0:0:0:0:
141,315,55779,1,2,0:0:0:0:
252,372,55937,6,0,P|335:341|350:276,1,132.999996448517,8|2,0:0|0:0,0:0:0:0:
327,200,56413,1,0,0:0:0:0:
220,190,56572,1,2,0:0:0:0:
245,293,56731,1,0,0:0:0:0:
360,332,56890,2,0,L|450:335,1,66.4999982242585,2|0,0:0|0:0,0:0:0:0:
473,238,57207,2,0,L|406:235,1,66.4999982242585,0|0,0:0|0:0,0:0:0:0:
305,270,57525,2,0,P|265:279|232:284,1,66.4999982242585,0|2,0:0|0:0,0:0:0:0:
125,229,57842,6,0,P|71:242|23:307,1,132.999996448517,8|0,0:0|0:0,0:0:0:0:
24,300,58318,1,0,0:0:0:0:
35,181,58477,2,0,P|29:140|21:113,1,66.4999982242585,0|2,0:0|0:0,0:0:0:0:
149,129,58794,2,0,L|227:121,1,66.4999982242585,2|0,0:0|0:0,0:0:0:0:
279,207,59112,2,0,L|345:213,1,66.4999982242585,0|0,0:0|0:0,0:0:0:0:
417,135,59429,1,0,0:0:0:0:
311,121,59588,1,2,0:0:0:0:
190,215,59747,70,0,P|160:271|152:346,1,132.999996448517,8|2,0:0|0:0,0:0:0:0:
71,268,60223,1,0,0:0:0:0:
71,268,60382,2,0,P|59:229|44:200,1,66.4999982242585,2|0,0:0|0:0,0:0:0:0:
176,203,60699,2,0,P|233:196|311:148,1,132.999996448517,2|0,0:0|0:0,0:0:0:0:
353,68,61175,1,0,0:0:0:0:
353,68,61334,2,0,P|370:106|379:140,1,66.4999982242585,0|2,0:0|0:0,0:0:0:0:
326,248,61652,6,0,P|380:237|412:233,1,66.4999982242585,8|0,0:0|0:0,0:0:0:0:
266,304,61969,2,0,P|233:298|200:291,1,66.4999982242585,0|0,0:0|0:0,0:0:0:0:
344,320,62287,2,0,P|374:332|404:346,1,66.4999982242585,0|2,0:0|0:0,0:0:0:0:
255,226,62604,2,0,P|240:196|227:165,1,66.4999982242585,2|0,0:0|0:0,0:0:0:0:
175,72,62921,2,0,P|162:102|147:132,1,66.4999982242585,0|0,0:0|0:0,0:0:0:0:
96,237,63239,2,0,P|125:222|156:209,1,66.4999982242585,0|0,0:0|0:0,0:0:0:0:
346,244,63556,38,0,L|493:253,1,140,4|0,0:1|0:0,0:0:0:0:
335,157,64033,1,8,0:2:0:0:
335,157,64191,2,0,P|286:173|246:178,1,70,0|0,0:0|0:0,0:0:0:0:
328,60,64509,2,0,P|375:82|461:88,1,140,2|0,0:2|0:0,0:0:0:0:
256,99,64985,1,0,0:0:0:0:
256,99,65144,2,0,P|210:90|168:72,1,70,0|0,0:0|0:0,0:0:0:0:
60,168,65461,6,0,L|78:308,1,140,8|0,0:2|0:0,0:0:0:0:
181,264,65937,1,8,0:2:0:0:
181,264,66096,2,0,L|169:180,1,70,0|0,0:0|0:0,0:0:0:0:
234,339,66413,2,0,P|194:346|153:353,1,70,2|0,0:2|0:0,0:0:0:0:
322,301,66731,2,0,P|356:307|390:312,1,70,0|0,0:0|0:0,0:0:0:0:
261,241,67048,2,0,P|266:206|272:172,1,70,0|0,0:0|0:0,0:0:0:0:
419,99,67366,5,4,0:1:0:0:
456,204,67525,1,0,0:0:0:0:
456,204,67683,1,0,0:0:0:0:
348,173,67842,2,0,P|297:173|199:200,1,140,8|0,0:2|0:0,0:0:0:0:
179,86,68318,2,0,P|216:92|255:105,1,70,2|0,0:2|0:0,0:0:0:0:
110,180,68636,1,0,0:0:0:0:
65,77,68794,1,0,0:0:0:0:
65,77,68953,2,0,L|75:7,1,70,0|0,0:0|0:0,0:0:0:0:
13,163,69271,6,0,P|19:216|102:288,1,140,8|0,0:2|0:0,0:0:0:0:
183,248,69747,1,8,0:2:0:0:
183,248,69906,2,0,P|221:239|265:235,1,70,0|0,0:0|0:0,0:0:0:0:
384,333,70223,2,0,P|348:306|320:275,1,70,2|0,0:2|0:0,0:0:0:0:
367,163,70540,2,0,P|340:199|309:227,1,70,0|0,0:0|0:0,0:0:0:0:
196,330,70858,2,0,P|237:312|278:303,1,70,0|0,0:0|0:0,0:0:0:0:
429,232,71175,70,0,P|450:154|439:65,1,140,4|0,0:1|0:0,0:0:0:0:
446,95,71652,1,8,0:2:0:0:
340,62,71810,1,0,0:0:0:0:
340,62,71969,1,0,0:0:0:0:
248,127,72128,2,0,P|209:140|161:144,1,70,2|0,0:2|0:0,0:0:0:0:
90,211,72445,1,0,0:0:0:0:
90,211,72604,2,0,P|124:216|157:227,1,70,0|0,0:0|0:0,0:0:0:0:
240,302,72921,1,0,0:0:0:0:
363,195,73080,6,0,P|328:200|295:211,1,70,8|0,0:2|0:0,0:0:0:0:
240,302,73398,1,0,0:0:0:0:
387,350,73556,2,0,P|363:306|337:284,1,70,8|0,0:2|0:0,0:0:0:0:
240,302,73874,1,0,0:0:0:0:
168,197,74033,2,0,L|178:122,1,70,2|0,0:2|0:0,0:0:0:0:
257,39,74350,2,0,P|264:75|266:108,1,70,0|0,0:0|0:0,0:0:0:0:
103,99,74667,2,0,P|105:64|112:29,1,70,0|0,0:0|0:0,0:0:0:0:
242,182,74985,6,0,P|304:214|387:189,1,140,4|0,0:1|0:0,0:0:0:0:
370,200,75461,1,8,0:2:0:0:
315,298,75620,2,0,P|268:319|240:323,1,70,0|0,0:0|0:0,0:0:0:0:
131,265,75937,2,0,P|52:275|10:317,1,140,2|0,0:2|0:0,0:0:0:0:
10,315,76413,1,0,0:0:0:0:
56,184,76572,2,0,L|49:113,1,70,0|0,0:0|0:0,0:0:0:0:
194,128,76890,6,0,P|139:88|115:-1,1,140,8|0,0:2|0:0,0:0:0:0:
114,22,77366,1,8,0:2:0:0:
224,41,77525,2,0,L|313:31,1,70,0|0,0:0|0:0,0:0:0:0:
403,141,77842,2,0,P|356:134|322:119,1,70,2|0,0:2|0:0,0:0:0:0:
256,206,78160,2,0,P|222:217|188:221,1,70,0|0,0:0|0:0,0:0:0:0:
358,232,78477,2,0,P|387:250|412:275,1,70,0|0,0:0|0:0,0:0:0:0:
283,348,78794,6,0,L|293:276,2,70,4|0|0,0:1|0:0|0:0,0:0:0:0:
179,302,79271,2,0,P|123:282|95:284,2,70,8|0|0,0:2|0:0|0:0,0:0:0:0:
219,197,79747,2,0,P|223:162|239:131,2,70,2|0|0,0:2|0:0|0:0,0:0:0:0:
294,279,80223,1,0,0:0:0:0:
396,232,80382,2,0,P|440:218|476:217,1,70,0|0,0:0|0:0,0:0:0:0:
437,357,80699,6,0,P|402:353|369:341,1,70,8|0,0:2|0:0,0:0:0:0:
295,256,81017,1,0,0:0:0:0:
295,256,81175,2,0,L|303:156,1,70,8|0,0:2|0:0,0:0:0:0:
313,74,81493,1,0,0:0:0:0:
422,47,81652,1,2,0:2:0:0:
198,61,81969,2,0,L|127:54,1,70,0|0,0:0|0:0,0:0:0:0:
162,161,82287,2,0,L|92:167,1,70,0|0,0:0|0:0,0:0:0:0:
205,260,82604,6,0,L|52:254,1,140,4|0,0:1|0:0,0:0:0:0:
65,254,83080,1,8,0:2:0:0:
144,334,83239,2,0,P|183:348|223:351,1,70,0|0,0:0|0:0,0:0:0:0:
332,298,83556,2,0,P|358:332|473:347,1,140,2|0,0:2|0:0,0:0:0:0:
448,355,84033,1,0,0:0:0:0:
475,247,84191,2,0,P|461:189|456:171,1,70,0|0,0:0|0:0,0:0:0:0:
325,89,84509,6,0,L|394:82,1,70,8|0,0:2|0:0,0:0:0:0:
337,178,84826,1,0,0:0:0:0:
337,178,84985,2,0,L|268:171,1,70,8|0,0:2|0:0,0:0:0:0:
155,157,85302,1,0,0:0:0:0:
193,262,85461,1,2,0:2:0:0:
195,37,85779,2,0,P|250:29|274:26,1,70,2|0,0:0|0:0,0:0:0:0:
96,77,86096,2,0,P|41:69|17:66,1,70,2|0,0:2|0:0,0:0:0:0:
182,124,86413,5,2,0:0:0:0:
163,220,86731,1,2,0:0:0:0:
163,220,87048,1,2,0:0:0:0:
281,175,87366,5,0,0:0:0:0:
377,191,87683,1,2,0:0:0:0:
377,191,88001,1,2,0:0:0:0:
321,322,88318,5,0,0:0:0:0:
224,302,88636,1,2,0:0:0:0:
224,302,88953,1,2,0:0:0:0:
105,184,89271,5,0,0:0:0:0:
105,184,89588,1,2,0:0:0:0:
110,281,89906,2,0,L|157:277,1,35,0|0,0:0|0:0,0:0:0:0:
240,239,90223,5,2,0:0:0:0:
292,182,90540,1,0,0:0:0:0:
279,105,90858,1,0,0:0:0:0:
146,39,91175,5,0,0:0:0:0:
222,32,91493,1,0,0:0:0:0:
298,27,91810,1,0,0:0:0:0:
439,158,92128,5,2,0:0:0:0:
371,139,92445,1,0,0:0:0:0:
331,80,92763,1,0,0:0:0:0:
250,181,93080,5,0,0:0:0:0:
247,244,93398,1,0,0:0:0:0:
291,288,93715,2,0,P|327:291|342:291,1,35,2|0,0:0|0:0,0:0:0:0:
399,258,94033,5,4,0:1:0:0:
