osu file format v14

[General]
AudioFilename: audio.mp3
AudioLeadIn: 0
PreviewTime: 543
Countdown: 0
SampleSet: Soft
StackLeniency: 0.7
Mode: 0
LetterboxInBreaks: 0
WidescreenStoryboard: 1

[Editor]
Bookmarks: 9340,24590,39825,47214,55076,85560,92945,96040
DistanceSpacing: 1
BeatDivisor: 4
GridSize: 32
TimelineZoom: 1.500001

[Metadata]
Title:Brand New Wings
TitleUnicode:Brand New Wings
Artist:Oshio Kotaro
ArtistUnicode:押尾コータロー
Creator:jasontime12345
Version:Xahlt's Normal
Source:おはよう朝日です
Tags:Xahlt Some Hero Mayflower Yuhdj hero_ic jasontime instrumental pop j-pop jpop ABCテレビ asahi television broadcasting corporation Ohayou Asahi Desu 押尾 光太郎 Hand to Hand Greven D Herringbone Custom C# G E F# B E acoustic fingerstyle guitar cut version ver vrs theme song intro
BeatmapID:2460840
BeatmapSetID:1178838

[Difficulty]
HPDrainRate:4
CircleSize:3.8
OverallDifficulty:5
ApproachRate:5
SliderMultiplier:1.2
SliderTickRate:1

[Events]
//Background and Video events
0,0,"wp5220959-guitar-anime-wallpapers.jpg",0,0
//Break Periods
//Storyboard Layer 0 (Background)
//Storyboard Layer 1 (Fail)
//Storyboard Layer 2 (Pass)
//Storyboard Layer 3 (Foreground)
//Storyboard Layer 4 (Overlay)
//Storyboard Sound Samples

[TimingPoints]
782,476.190476190476,4,2,1,75,1,0
782,-100,4,2,1,75,0,0
1734,-100,4,2,1,75,0,0
5533,458.015267175572,4,2,1,75,1,0
5533,-100,4,2,1,75,0,0
6001,476.190476190476,4,2,1,75,1,0
6001,-100,4,2,1,75,0,0
8381,483.870967741935,4,2,1,75,1,0
8381,-100,4,2,1,60,0,0
8864,476.190476190476,4,2,1,60,1,0
8864,-100,4,2,1,60,0,0
9340,-100,4,2,1,60,0,0
11244,517.241379310345,4,2,1,60,1,0
11502,441.176470588235,4,2,1,60,1,0
11721,483.870967741935,4,2,1,60,1,0
11721,-100,4,2,1,60,0,0
12204,476.190476190476,4,2,1,60,1,0
12204,-100,4,2,1,60,0,0
12918,495.867768595041,4,2,1,60,1,0
13165,476.190476190476,4,2,1,60,1,0
14117,458.015267175572,4,2,1,60,1,0
14575,476.190476190476,4,2,1,60,1,0
15051,517.241379310345,4,2,1,60,1,0
15527,508.474576271186,4,2,1,60,1,0
16035,447.761194029851,4,2,1,60,1,0
16489,504.201680672269,4,2,1,60,1,0
16489,-100,4,2,1,60,0,0
16993,461.538461538461,4,2,1,60,1,0
16993,-100,4,2,1,60,0,0
17930,476.190476190476,4,2,1,60,1,0
17930,-100,4,2,1,60,0,0
20775,468.75,4,2,1,60,1,0
20775,-100,4,2,1,60,0,0
21243,476.190476190476,4,2,1,60,1,0
21243,-100,4,2,1,60,0,0
23623,483.870967741935,4,2,1,60,1,0
23623,-100,4,2,1,60,0,0
24590,476.190476190476,4,2,1,60,1,0
24590,-100,4,2,1,60,0,0
25542,458.015267175572,4,2,1,60,1,0
25542,-100,4,2,1,60,0,0
26000,476.190476190476,4,2,1,60,1,0
26000,-100,4,2,1,60,0,0
26476,461.538461538461,4,2,1,60,1,0
26476,-100,4,2,1,60,0,0
26937,487.80487804878,4,2,1,60,1,0
26937,-100,4,2,1,60,0,0
28400,476.190476190476,4,2,1,60,1,0
28400,-100,4,2,1,60,0,0
31733,491.803278688524,4,2,1,60,1,0
31733,-100,4,2,1,60,0,0
32224,476.190476190476,4,2,1,60,1,0
32224,-100,4,2,1,60,0,0
33652,465.116279069767,4,2,1,60,1,0
33652,-100,4,2,1,60,0,0
34117,476.190476190476,4,2,1,60,1,0
34117,-100,4,2,1,60,0,0
35542,468.75,4,2,1,60,1,0
35542,-100,4,2,1,60,0,0
36010,451.127819548872,4,2,1,60,1,0
36010,-100,4,2,1,60,0,0
36461,483.870967741935,4,2,1,60,1,0
36461,-100,4,2,1,60,0,0
39353,472.44094488189,4,2,1,60,1,0
39353,-100,4,2,1,60,0,0
39825,476.190476190476,4,2,1,50,1,0
39825,-99.9999999999999,4,2,1,50,0,0
40777,483.870967741935,4,2,1,50,1,0
40777,-100,4,2,1,50,0,0
41260,521.739130434783,4,2,1,50,1,0
41520,447.761194029851,4,2,1,50,1,0
41744,483.870967741936,4,2,1,50,1,0
41744,-100,4,2,1,50,0,0
42688,461.538461538461,4,2,1,50,1,0
42688,-100,4,2,1,50,0,0
43149,476.190476190476,4,2,1,50,1,0
43149,-100,4,2,1,50,0,0
45557,476.190476190476,4,2,1,50,1,0
45557,-100,4,2,1,50,0,0
46033,472.44094488189,4,2,1,50,1,0
46033,-100,4,2,1,50,0,0
47214,-99.9999999999999,4,2,1,60,0,0
47450,476.190476190476,4,2,1,60,1,0
47450,-100,4,2,1,60,0,0
47926,491.803278688524,4,2,1,60,1,0
47926,-100,4,2,1,60,0,0
48417,444.444444444444,4,2,1,60,1,0
48417,-100,4,2,1,60,0,0
49305,512.820512820513,4,2,1,60,1,0
49305,-100,4,2,1,60,0,0
49817,476.190476190476,4,2,1,60,1,0
49817,-100,4,2,1,60,0,0
51245,517.241379310345,4,2,1,60,1,0
51245,-100,4,2,1,60,0,0
51503,468.75,4,2,1,60,1,0
51503,-100,4,2,1,60,0,0
52205,517.241379310345,4,2,1,60,1,0
52205,-100,4,2,1,60,0,0
52463,465.116279069767,4,2,1,60,1,0
52695,483.870967741935,4,2,1,60,1,0
53157,491.803278688524,4,2,1,60,1,0
53157,-100,4,2,1,60,0,0
53648,476.190476190476,4,2,1,60,1,0
53648,-100,4,2,1,60,0,0
54600,-99.9999999999999,4,2,1,70,0,0
55076,476.190476190476,4,2,1,75,1,1
55076,-90.9090909090909,4,2,1,75,0,1
55552,-90.9090909090909,4,2,1,75,0,0
56496,461.538461538461,4,2,1,75,1,0
56496,-100,4,2,1,75,0,0
56957,476.190476190476,4,2,1,75,1,0
56957,-90.9090909090909,4,2,1,75,0,0
58385,500,4,2,1,75,1,0
58385,-100,4,2,1,75,0,0
58885,476.190476190476,4,2,1,75,1,0
58885,-90.9090909090909,4,2,1,75,0,0
59837,461.538461538461,4,2,1,75,1,0
59837,-90.9090909090909,4,2,1,75,0,0
60298,476.190476190476,4,2,1,75,1,0
60298,-90.9090909090909,4,2,1,75,0,0
62678,491.803278688524,4,2,1,75,1,1
62678,-90.9090909090909,4,2,1,75,0,1
63169,517.241379310344,4,2,1,75,1,0
63169,-90.9090909090909,4,2,1,75,0,0
63427,465.116279069767,4,2,1,75,1,0
63659,476.190476190476,4,2,1,75,1,0
63659,-90.9090909090909,4,2,1,75,0,0
64016,517.241379310345,4,2,1,75,1,0
64403,434.782608695652,4,2,1,75,1,0
64403,-90.9090909090909,4,2,1,75,0,0
64620,476.190476190476,4,2,1,75,1,0
64620,-90.9090909090909,4,2,1,75,0,0
67477,444.444444444444,4,2,1,75,1,0
67477,-90.9090909090909,4,2,1,75,0,0
67921,476.190476190476,4,2,1,75,1,0
67921,-90.9090909090909,4,2,1,75,0,0
70301,476.190476190476,4,2,1,75,1,1
70301,-90.9090909090909,4,2,1,75,0,1
70778,468.75,4,2,1,75,1,0
70778,-90.9090909090909,4,2,1,75,0,0
71246,476.190476190476,4,2,1,75,1,0
71246,-90.9090909090909,4,2,1,75,0,0
71484,451.127819548872,4,2,1,75,1,0
71709,476.190476190476,4,2,1,75,1,0
72423,504.201680672269,4,2,1,75,1,0
72675,476.190476190476,4,2,1,75,1,0
72913,-90.9090909090909,4,2,1,75,0,0
76960,483.870967741935,4,2,1,75,1,0
76960,-100,4,2,1,75,0,0
77927,476.190476190476,4,2,1,75,1,1
77927,-90.9090909090909,4,2,1,75,0,1
78403,-90.9090909090909,4,2,1,75,0,0
82927,447.761194029851,4,2,1,75,1,0
83150,508.474576271186,4,2,1,75,1,0
83404,476.190476190476,4,2,1,75,1,0
83404,-90.9090909090909,4,2,1,75,0,0
85069,491.803278688524,4,2,1,75,1,0
85069,-100,4,2,1,75,0,0
85560,476.190476190476,4,2,1,75,1,0
85560,-100,4,2,1,75,0,0
86988,461.538461538461,4,2,1,75,1,0
86988,-100,4,2,1,75,0,0
87449,476.190476190476,4,2,1,75,1,0
87449,-100,4,2,1,75,0,0
88879,458.015267175572,4,2,1,75,1,0
88879,-100,4,2,1,75,0,0
89337,476.190476190476,4,2,1,75,1,0
89337,-100,4,2,1,75,0,0
91241,504.201680672269,4,2,1,75,1,0
91241,-100,4,2,1,75,0,0
91745,476.190476190476,4,2,1,75,1,0
91745,-100,4,2,1,75,0,0
92945,476.190476190476,4,2,1,50,1,0
92945,-125,4,2,1,50,0,0
96040,-125,4,2,1,5,0,0

[Colours]
Combo1 : 172,203,227
Combo2 : 193,159,198
Combo3 : 244,199,91

[HitObjects]
56,61,1734,6,0,B|96:51|98:24|98:24|109:48|173:43,1,120,2|10,0:0|0:0,0:0:0:0:
258,97,2686,1,8,1:0:0:0:
301,137,2924,2,0,L|290:212,1,60,2|2,0:0|0:0,0:0:0:0:
234,212,3401,6,0,P|266:284|275:351,1,120,10|0,1:2|0:0,0:0:0:0:
284,383,4115,1,8,0:1:0:0:
369,298,4591,1,0,0:0:0:0:
404,346,4829,2,0,L|475:340,1,60,0|8,0:0|1:0,0:0:0:0:
485,284,5305,6,0,P|503:234|457:174,1,115,10|2,1:2|0:0,0:0:0:0:
418,160,6001,2,0,L|427:78,1,60,2|0,3:0|0:0,0:0:0:0:
442,42,6477,2,0,L|513:33,2,60,10|0|8,0:0|0:0|1:0,0:0:0:0:
390,10,7191,1,2,3:0:0:0:
318,106,7667,1,2,0:0:0:0:
269,71,7905,2,0,B|157:82|214:15|90:20,1,181,2|2,1:0|0:0,0:0:0:0:
53,55,8864,1,2,0:0:0:0:
51,174,9340,6,0,P|115:196|178:156,1,120,2|8,0:0|0:0,0:0:0:0:
217,152,10054,1,2,0:0:0:0:
217,152,10292,2,0,P|206:207|196:279,1,120,2|8,1:2|0:0,0:0:0:0:
165,321,11006,2,0,B|197:301|197:301|286:315,1,125,2|2,0:0|0:0,0:0:0:0:
380,376,11962,1,2,0:0:0:0:
423,334,12204,6,0,L|538:325,2,90,10|2|2,1:2|0:0|0:0,0:0:0:0:
377,295,13165,2,0,L|235:283,1,120,2|8,0:0|0:0,0:0:0:0:
197,277,13879,1,2,0:0:0:0:
137,270,14117,1,2,3:0:0:0:
19,318,14575,6,0,P|-1:267|28:207,1,120,2|8,3:1|1:0,0:0:0:0:
84,183,15309,1,2,0:0:0:0:
21,94,15781,2,0,L|36:21,1,60,2|2,0:0|0:0,0:0:0:0:
92,7,16258,1,0,0:0:0:0:
125,60,16489,1,2,0:0:0:0:
245,48,16993,6,0,B|297:43|297:43|312:53|312:53|383:48,1,120,2|8,0:0|0:0,0:0:0:0:
419,48,17685,2,0,P|448:59|392:153,1,187.5,2|8,0:0|0:0,0:0:0:0:
336,154,18644,2,0,P|356:229|363:290,1,120,2|0,0:0|0:0,0:0:0:0:
391,374,19596,1,2,0:0:0:0:
438,337,19834,6,0,P|444:297|465:234,2,90,2|2|2,0:0|1:2|0:0,0:0:0:0:
391,374,20775,2,0,P|345:384|294:361,1,90,2|2,0:0|0:0,0:0:0:0:
215,373,21481,2,0,B|202:311|133:297|133:297|202:287|216:209,1,240,2|8,0:0|3:1,0:0:0:0:
54,135,23147,5,2,1:0:0:0:
182,8,23864,2,0,P|194:40|202:80,1,60,2|2,0:0|0:0,0:0:0:0:
217,183,24590,6,0,P|256:163|309:233,1,120,2|8,0:0|0:0,0:0:0:0:
309,268,25304,1,2,0:0:0:0:
309,268,25542,2,0,L|450:251,1,120,2|8,1:2|0:0,0:0:0:0:
487,242,26238,2,0,L|506:167,1,60,2|0,0:0|1:0,0:0:0:0:
475,129,26706,1,0,0:0:0:0:
369,177,27180,1,2,0:0:0:0:
378,117,27424,6,0,L|391:28,2,90,2|2|2,1:2|0:0|0:0,0:0:0:0:
369,177,28400,2,0,B|265:176|308:100|185:110,1,180,2|2,1:2|0:0,0:0:0:0:
149,110,29352,1,2,1:2:0:0:
145,229,29828,2,0,P|193:251|260:223,1,120,2|8,1:0|1:0,0:0:0:0:
303,196,30542,5,2,0:0:0:0:
397,270,31019,2,0,B|410:320|410:320|353:378,1,120,2|2,0:0|0:0,0:0:0:0:
256,316,31978,1,2,0:0:0:0:
211,358,32224,6,0,L|99:347,1,90,2|2,0:0|0:0,0:0:0:0:
54,288,32938,2,0,P|107:259|113:189,1,120,2|0,0:0|0:0,0:0:0:0:
20,132,33884,1,2,0:0:0:0:
65,94,34117,6,0,P|99:115|165:111,1,90,2|2,0:0|0:0,0:0:0:0:
214,178,34831,2,0,P|268:164|309:88,1,120,2|2,0:0|0:0,0:0:0:0:
269,66,35542,2,0,L|303:4,1,60,0|2,1:0|0:0,0:0:0:0:
358,4,36010,6,0,P|394:34|456:34,1,90,2|2,0:0|0:0,0:0:0:0:
505,95,36702,2,0,B|477:128|477:128|486:218,1,120,2|2,0:0|0:0,0:0:0:0:
488,268,37428,1,8,0:0:0:0:
488,268,37670,2,0,P|434:243|376:249,1,120,2|0,0:0|0:0,0:0:0:0:
312,351,38638,1,0,0:0:0:0:
264,384,38880,2,0,L|196:374,1,60,8|2,3:2|0:0,0:0:0:0:
173,323,39353,2,0,L|110:342,1,60,2|0,0:0|0:0,0:0:0:0:
65,372,39825,6,0,B|17:341|17:341|67:138,1,240,2|2,0:0|0:0,0:0:0:0:
127,63,41260,1,2,0:0:0:0:
184,78,41520,2,0,L|211:261,1,190,2|0,0:0|0:0,0:0:0:0:
328,278,42688,1,2,0:0:0:0:
377,168,43149,1,0,0:0:0:0:
356,111,43387,6,0,P|372:41|466:69,1,180,2|0,0:0|0:0,0:0:0:0:
508,167,44577,2,0,P|501:202|497:239,1,60,2|2,0:0|0:0,0:0:0:0:
484,284,45053,2,0,B|446:291|446:291|389:231,1,127.2,2|0,0:0|0:0,0:0:0:0:
324,131,46033,2,0,L|308:251,1,120,0|2,0:0|0:0,0:0:0:0:
276,365,46977,1,8,0:0:0:0:
217,377,47214,6,0,P|170:374|150:292,1,120.2,2|0,0:0|0:0,0:0:0:0:
172,264,47926,2,0,L|98:252,1,60,10|0,3:2|0:0,0:0:0:0:
53,246,48417,1,2,0:0:0:0:
14,132,48861,1,8,1:0:0:0:
43,79,49083,6,0,L|173:62,1,129,2|0,0:0|0:0,0:0:0:0:
209,29,49817,2,0,L|285:41,1,60,10|8,3:2|0:0,0:0:0:0:
324,59,50293,2,0,L|318:-17,2,60,2|2|8,1:2|1:0|0:0,0:0:0:0:
350,113,51007,2,0,L|342:245,1,125,2|2,0:0|0:0,0:0:0:0:
297,272,51737,1,8,0:0:0:0:
285,330,51971,5,2,0:0:0:0:
400,361,52463,1,2,0:0:0:0:
488,280,52936,2,0,P|449:256|457:173,1,116,10|2,0:0|0:0,0:0:0:0:
492,148,53648,2,0,L|484:76,1,60,10|2,1:2|0:0,0:0:0:0:
476,29,54124,1,2,1:2:0:0:
221,101,55076,6,0,B|236:90|235:61|212:50|182:54|143:72|116:92,1,132.00000402832,2|10,3:2|0:0,0:0:0:0:
79,117,55790,1,2,0:0:0:0:
79,117,56028,2,0,P|87:70|88:6,1,99.0000030212403,2|2,3:2|0:0,0:0:0:0:
8,57,56726,1,0,0:0:0:0:
0,164,57195,1,2,0:0:0:0:
58,266,57671,6,0,L|48:331,2,66.0000020141602,2|0|2,0:0|1:0|0:0,0:0:0:0:
163,211,58635,1,2,0:0:0:0:
230,226,58885,2,0,P|247:254|252:310,1,66.0000020141602,2|2,1:2|0:0,0:0:0:0:
248,351,59361,2,0,L|331:340,1,66.0000020141602,10|2,0:0|0:0,0:0:0:0:
380,355,59837,6,0,L|488:344,1,99.0000030212403,2|2,0:0|0:0,0:0:0:0:
492,248,60536,2,0,L|420:254,1,66.0000020141602,2|8,0:0|1:0,0:0:0:0:
380,206,61012,2,0,L|308:212,1,66.0000020141602,2|8,0:0|0:0,0:0:0:0:
248,217,61488,1,2,3:2:0:0:
149,128,61964,1,2,0:0:0:0:
232,26,62440,1,2,0:0:0:0:
232,26,62678,6,0,B|217:37|218:66|241:77|271:73|310:55|337:35,1,132.00000402832,2|8,3:2|1:0,0:0:0:0:
388,29,63427,1,0,0:0:0:0:
388,29,63659,2,0,P|368:78|361:138,1,99.0000030212403,2|2,3:2|0:0,0:0:0:0:
272,165,64403,2,0,P|281:199|299:230,1,66.0000020141602,2|0,3:2|1:0,0:0:0:0:
295,292,64858,2,0,P|323:312|357:324,1,66.0000020141602,0|8,0:0|0:0,0:0:0:0:
398,369,65334,6,0,L|243:363,1,132.00000402832,2|2,0:0|0:0,0:0:0:0:
204,380,66048,1,8,0:0:0:0:
204,380,66286,2,0,L|49:374,1,132.00000402832,2|0,0:0|0:0,0:0:0:0:
6,371,67000,1,2,3:2:0:0:
17,239,67477,6,0,P|27:200|34:117,1,99.0000030212403,2|2,3:2|0:0,0:0:0:0:
10,45,68159,1,2,3:2:0:0:
128,104,68635,2,0,P|159:103|200:91,1,66.0000020141602,2|8,0:0|0:0,0:0:0:0:
224,36,69111,1,2,0:0:0:0:
331,112,69587,1,0,0:0:0:0:
451,55,70063,1,2,0:0:0:0:
451,55,70301,6,0,B|465:42|493:49|498:75|488:103|461:137|436:159,1,132.00000402832,2|2,3:2|1:2,0:0:0:0:
390,162,71012,1,2,0:0:0:0:
390,162,71246,2,0,L|431:279,1,97.0000030212403,10|2,3:2|0:0,0:0:0:0:
486,326,71947,1,0,0:0:0:0:
393,384,72423,1,2,0:0:0:0:
300,326,72913,6,0,L|289:253,2,66.0000020141602,2|0|0,0:0|1:0|0:0,0:0:0:0:
208,362,73865,1,2,0:0:0:0:
167,310,74103,2,0,L|92:323,1,66.0000020141602,0|2,0:0|0:0,0:0:0:0:
62,374,74579,2,0,P|28:370|-2:345,1,66.0000020141602,8|2,1:0|0:0,0:0:0:0:
23,289,75055,6,0,L|13:174,1,99.0000030212403,2|2,3:2|0:0,0:0:0:0:
16,91,75770,2,0,P|49:101|96:103,1,66.0000020141602,2|0,0:0|1:0,0:0:0:0:
126,151,76246,2,0,P|159:141|206:139,1,66.0000020141602,2|8,1:2|0:0,0:0:0:0:
256,143,76722,1,2,3:2:0:0:
338,57,77201,1,2,3:2:0:0:
434,137,77685,1,2,0:0:0:0:
434,137,77927,6,0,B|443:152|472:154|485:131|483:101|468:61|450:32,1,132.00000402832,2|2,3:2|1:2,0:0:0:0:
423,16,78641,1,0,0:0:0:0:
423,16,78879,2,0,L|315:10,1,99.0000030212403,2|2,3:2|0:0,0:0:0:0:
235,54,79593,2,0,L|146:48,1,66.0000020141602,2|8,3:2|1:0,0:0:0:0:
118,7,80069,2,0,L|29:1,1,66.0000020141602,2|8,0:0|0:0,0:0:0:0:
4,47,80546,6,0,P|24:112|41:201,1,132.00000402832,2|2,0:0|0:0,0:0:0:0:
106,190,81260,1,8,0:0:0:0:
106,190,81498,2,0,P|86:255|69:344,1,132.00000402832,2|0,0:0|0:0,0:0:0:0:
63,382,82212,1,2,0:0:0:0:
167,301,82688,6,0,P|217:285|274:325,1,97.0000030212403,2|2,0:0|0:0,0:0:0:0:
328,371,83404,1,2,3:2:0:0:
453,331,83880,2,0,L|442:264,1,66.0000020141602,2|2,0:0|0:0,0:0:0:0:
390,233,84356,1,2,0:0:0:0:
390,233,84594,2,0,L|402:113,1,99.0000030212403,2|2,0:0|0:0,0:0:0:0:
478,74,85314,1,2,0:0:0:0:
431,35,85560,6,0,B|391:25|389:-2|389:-2|378:22|314:17,1,120,2|2,0:0|0:0,0:0:0:0:
254,106,86512,1,8,1:0:0:0:
211,63,86750,2,0,P|182:59|141:38,1,60,2|2,0:0|0:0,0:0:0:0:
103,13,87218,6,0,P|59:11|28:93,1,122,10|0,1:2|0:0,0:0:0:0:
53,120,87925,1,8,1:0:0:0:
6,230,88401,1,0,0:0:0:0:
64,244,88639,2,0,P|77:281|83:322,1,60,0|8,0:0|1:0,0:0:0:0:
77,361,89108,6,0,P|101:316|172:334,1,122.2,10|2,1:2|0:0,0:0:0:0:
200,368,89813,2,0,L|279:358,1,60,2|0,0:0|0:0,0:0:0:0:
318,351,90289,2,0,L|301:266,2,60,10|0|8,0:0|0:0|1:0,0:0:0:0:
374,372,91003,1,2,3:2:0:0:
481,320,91493,2,0,L|464:235,1,60,2|2,0:2|0:2,0:0:0:0:
433,221,91983,1,2,0:2:0:0:
433,221,92221,2,0,L|451:123,1,90,2|2,0:2|0:2,0:0:0:0:
390,78,92945,6,0,B|350:19|251:34|233:136|301:176|301:176|159:162|212:258|75:228|75:228|123:162|87:85,1,624
