osu file format v14

[General]
AudioFilename: audio.mp3
AudioLeadIn: 0
PreviewTime: 543
Countdown: 0
SampleSet: Soft
StackLeniency: 0.7
Mode: 0
LetterboxInBreaks: 0
WidescreenStoryboard: 1

[Editor]
Bookmarks: 9340,24590,39825,47214,55076,85560
DistanceSpacing: 0.5
BeatDivisor: 4
GridSize: 4
TimelineZoom: 2.7

[Metadata]
Title:Brand New Wings
TitleUnicode:Brand New Wings
Artist:Oshio Kotaro
ArtistUnicode:押尾コータロー
Creator:jasontime12345
Version:Hard
Source:おはよう朝日です
Tags:Xahlt Some Hero Mayflower Yuhdj hero_ic jasontime instrumental pop j-pop jpop ABCテレビ asahi television broadcasting corporation Ohayou Asahi Desu 押尾 光太郎 Hand to Hand Greven D Herringbone Custom C# G E F# B E acoustic fingerstyle guitar cut version ver vrs theme song intro
BeatmapID:2460709
BeatmapSetID:1178838

[Difficulty]
HPDrainRate:4.5
CircleSize:4.3
OverallDifficulty:7
ApproachRate:7.5
SliderMultiplier:1.6
SliderTickRate:1

[Events]
//Background and Video events
0,0,"wp5220959-guitar-anime-wallpapers.jpg",0,0
//Break Periods
//Storyboard Layer 0 (Background)
//Storyboard Layer 1 (Fail)
//Storyboard Layer 2 (Pass)
//Storyboard Layer 3 (Foreground)
//Storyboard Layer 4 (Overlay)
//Storyboard Sound Samples

[TimingPoints]
782,476.190476190476,4,2,1,75,1,0
782,-166.666666666667,4,2,1,75,0,0
1734,-100,4,2,1,75,0,0
2210,-90.9090909090909,4,2,1,75,0,0
2686,-100,4,2,1,75,0,0
5533,458.015267175572,4,2,1,75,1,0
5533,-100,4,2,1,75,0,0
6001,476.190476190476,4,2,1,75,1,0
6001,-100,4,2,1,75,0,0
7191,-71.4285714285714,4,2,1,75,0,0
7310,-71.4285714285714,4,2,1,5,0,0
7667,-71.4285714285714,4,2,1,75,0,0
7905,-166.666666666667,4,2,1,75,0,0
8381,483.870967741935,4,2,1,75,1,0
8381,-100,4,2,1,75,0,0
8622,-100,4,2,1,60,0,0
8864,476.190476190476,4,2,1,60,1,0
8864,-100,4,2,1,60,0,0
9340,-111.111111111111,4,2,1,60,0,0
11244,517.241379310345,4,2,1,60,1,0
11502,441.176470588235,4,2,1,60,1,0
11502,-111.111111111111,4,2,1,60,0,0
11721,483.870967741935,4,2,1,60,1,0
11721,-100,4,2,1,60,0,0
12204,476.190476190476,4,2,1,60,1,0
12204,-111.111111111111,4,2,1,60,0,0
12918,495.867768595041,4,2,1,60,1,0
13165,476.190476190476,4,2,1,60,1,0
13165,-111.111111111111,4,2,1,60,0,0
14117,458.015267175572,4,2,1,60,1,0
14117,-90.9090909090909,4,2,1,60,0,0
14575,476.190476190476,4,2,1,60,1,0
14575,-90.9090909090909,4,2,1,60,0,0
15051,517.241379310345,4,2,1,60,1,0
15051,-100,4,2,1,60,0,0
15527,508.474576271186,4,2,1,60,1,0
16035,447.761194029851,4,2,1,60,1,0
16035,-111.111111111111,4,2,1,60,0,0
16489,504.201680672269,4,2,1,60,1,0
16489,-100,4,2,1,60,0,0
16993,461.538461538461,4,2,1,60,1,0
16993,-111.111111111111,4,2,1,60,0,0
17930,476.190476190476,4,2,1,60,1,0
17930,-111.111111111111,4,2,1,60,0,0
20775,468.75,4,2,1,60,1,0
20775,-111.111111111111,4,2,1,60,0,0
21243,476.190476190476,4,2,1,60,1,0
21243,-111.111111111111,4,2,1,60,0,0
22433,-90.9090909090909,4,2,1,60,0,0
22552,-90.9090909090909,4,2,1,5,0,0
22909,-90.9090909090909,4,2,1,60,0,0
23147,-166.666666666667,4,2,1,60,0,0
23623,483.870967741935,4,2,1,60,1,0
23623,-100,4,2,1,60,0,0
23864,-100,4,2,1,60,0,0
24590,476.190476190476,4,2,1,60,1,0
24590,-111.111111111111,4,2,1,60,0,0
25542,458.015267175572,4,2,1,60,1,0
25542,-111.111111111111,4,2,1,60,0,0
26000,476.190476190476,4,2,1,60,1,0
26000,-111.111111111111,4,2,1,60,0,0
26476,461.538461538461,4,2,1,60,1,0
26476,-100,4,2,1,60,0,0
26706,-111.111111111111,4,2,1,60,0,0
26937,487.80487804878,4,2,1,60,1,0
26937,-100,4,2,1,60,0,0
27424,-111.111111111111,4,2,1,60,0,0
28400,476.190476190476,4,2,1,60,1,0
28400,-111.111111111111,4,2,1,60,0,0
29352,-90.9090909090909,4,2,1,60,0,0
30304,-100,4,2,1,60,0,0
31257,-111.111111111111,4,2,1,60,0,0
31733,491.803278688524,4,2,1,60,1,0
31733,-100,4,2,1,60,0,0
32224,476.190476190476,4,2,1,60,1,0
32224,-111.111111111111,4,2,1,60,0,0
33652,465.116279069767,4,2,1,60,1,0
33652,-100,4,2,1,60,0,0
34117,476.190476190476,4,2,1,60,1,0
34117,-111.111111111111,4,2,1,60,0,0
35542,468.75,4,2,1,60,1,0
35542,-100,4,2,1,60,0,0
36010,451.127819548872,4,2,1,60,1,0
36010,-111.111111111111,4,2,1,60,0,0
36461,483.870967741935,4,2,1,60,1,0
36461,-100,4,2,1,60,0,0
36702,-111.111111111111,4,2,1,60,0,0
39353,472.44094488189,4,2,1,60,1,0
39353,-100,4,2,1,60,0,0
39825,476.190476190476,4,2,1,50,1,0
39825,-125,4,2,1,50,0,0
40777,483.870967741935,4,2,1,50,1,0
40777,-125,4,2,1,50,0,0
41260,521.739130434783,4,2,1,50,1,0
41520,447.761194029851,4,2,1,50,1,0
41520,-125,4,2,1,50,0,0
41744,483.870967741936,4,2,1,50,1,0
41744,-100,4,2,1,50,0,0
42227,-125,4,2,1,50,0,0
42688,461.538461538461,4,2,1,50,1,0
42688,-125,4,2,1,50,0,0
43149,476.190476190476,4,2,1,50,1,0
43149,-100,4,2,1,50,0,0
43625,-125,4,2,1,50,0,0
45557,476.190476190476,4,2,1,50,1,0
45557,-100,4,2,1,50,0,0
46033,472.44094488189,4,2,1,50,1,0
46033,-100,4,2,1,50,0,0
46505,-125,4,2,1,50,0,0
47214,-125,4,2,1,60,0,0
47450,476.190476190476,4,2,1,60,1,0
47450,-111.111111111111,4,2,1,60,0,0
47926,491.803278688524,4,2,1,60,1,0
47926,-111.111111111111,4,2,1,60,0,0
48417,444.444444444444,4,2,1,60,1,0
48417,-111.111111111111,4,2,1,60,0,0
49083,-100,4,2,1,60,0,0
49305,512.820512820513,4,2,1,60,1,0
49305,-100,4,2,1,60,0,0
49817,476.190476190476,4,2,1,60,1,0
49817,-100,4,2,1,60,0,0
50412,-100,4,2,1,5,0,0
50531,-90.9090909090909,4,2,1,60,0,0
51007,-100,4,2,1,60,0,0
51245,517.241379310345,4,2,1,60,1,0
51245,-100,4,2,1,60,0,0
51503,468.75,4,2,1,60,1,0
51503,-100,4,2,1,60,0,0
52205,517.241379310345,4,2,1,60,1,0
52205,-100,4,2,1,60,0,0
52463,465.116279069767,4,2,1,60,1,0
52695,483.870967741935,4,2,1,60,1,0
52936,-90.9090909090909,4,2,1,60,0,0
53157,491.803278688524,4,2,1,60,1,0
53157,-100,4,2,1,60,0,0
53648,476.190476190476,4,2,1,60,1,0
53648,-100,4,2,1,60,0,0
54362,-133.333333333333,4,2,1,60,0,0
54600,-133.333333333333,4,2,1,70,0,0
55076,476.190476190476,4,2,1,75,1,1
55076,-71.4285714285714,4,2,1,75,0,1
55552,-71.4285714285714,4,2,1,75,0,0
56496,461.538461538461,4,2,1,75,1,0
56496,-100,4,2,1,75,0,0
56726,-66.6666666666667,4,2,1,75,0,0
56842,-66.6666666666667,4,2,1,5,0,0
56957,476.190476190476,4,2,1,75,1,0
56957,-100,4,2,1,75,0,0
57195,-83.3333333333333,4,2,1,75,0,0
57671,-100,4,2,1,75,0,0
58385,500,4,2,1,75,1,0
58385,-100,4,2,1,75,0,0
58885,476.190476190476,4,2,1,75,1,0
58885,-100,4,2,1,75,0,0
59837,461.538461538461,4,2,1,75,1,0
59837,-90.9090909090909,4,2,1,75,0,0
60298,476.190476190476,4,2,1,75,1,0
60298,-100,4,2,1,75,0,0
61012,-83.3333333333333,4,2,1,75,0,0
61607,-83.3333333333333,4,2,1,5,0,0
61964,-83.3333333333333,4,2,1,75,0,0
62678,491.803278688524,4,2,1,75,1,1
62678,-71.4285714285714,4,2,1,75,0,1
63046,-71.4285714285714,4,2,1,75,0,1
63169,517.241379310344,4,2,1,75,1,0
63169,-71.4285714285714,4,2,1,75,0,0
63427,465.116279069767,4,2,1,75,1,0
63659,476.190476190476,4,2,1,75,1,0
63659,-66.6666666666667,4,2,1,75,0,0
63778,-66.6666666666667,4,2,1,5,0,0
64016,517.241379310345,4,2,1,75,1,0
64016,-66.6666666666667,4,2,1,75,0,0
64403,434.782608695652,4,2,1,75,1,0
64620,476.190476190476,4,2,1,75,1,0
64620,-83.3333333333333,4,2,1,75,0,0
65334,-100,4,2,1,75,0,0
67477,444.444444444444,4,2,1,75,1,0
67477,-83.3333333333333,4,2,1,75,0,0
67921,476.190476190476,4,2,1,75,1,0
67921,-100,4,2,1,75,0,0
68159,-71.4285714285714,4,2,1,75,0,0
68278,-71.4285714285714,4,2,1,5,0,0
68635,-83.3333333333333,4,2,1,75,0,0
70301,476.190476190476,4,2,1,75,1,1
70301,-71.4285714285714,4,2,1,75,0,1
70658,-71.4285714285714,4,2,1,75,0,1
70778,468.75,4,2,1,75,1,0
70778,-71.4285714285714,4,2,1,75,0,0
71246,476.190476190476,4,2,1,75,1,0
71246,-71.4285714285714,4,2,1,75,0,0
71484,451.127819548872,4,2,1,75,1,0
71596,-71.4285714285714,4,2,1,75,0,0
71709,476.190476190476,4,2,1,75,1,0
71947,-71.4285714285714,4,2,1,75,0,0
72423,504.201680672269,4,2,1,75,1,0
72423,-71.4285714285714,4,2,1,75,0,0
72675,476.190476190476,4,2,1,75,1,0
72913,-83.3333333333333,4,2,1,75,0,0
73865,-100,4,2,1,75,0,0
75055,-83.3333333333333,4,2,1,75,0,0
75770,-100,4,2,1,75,0,0
76841,-100,4,2,1,5,0,0
76960,483.870967741935,4,2,1,75,1,0
76960,-100,4,2,1,75,0,0
77201,-100,4,2,1,75,0,0
77927,476.190476190476,4,2,1,75,1,1
77927,-71.4285714285714,4,2,1,75,0,1
78403,-71.4285714285714,4,2,1,75,0,0
78879,-66.6666666666667,4,2,1,75,0,0
78998,-66.6666666666667,4,2,1,5,0,0
79236,-66.6666666666667,4,2,1,75,0,0
79355,-71.4285714285714,4,2,1,75,0,0
79831,-83.3333333333333,4,2,1,75,0,0
80546,-100,4,2,1,75,0,0
82688,-71.4285714285714,4,2,1,75,0,0
82927,447.761194029851,4,2,1,75,1,0
83038,-71.4285714285714,4,2,1,75,0,0
83150,508.474576271186,4,2,1,75,1,0
83404,476.190476190476,4,2,1,75,1,0
83404,-66.6666666666667,4,2,1,75,0,0
83523,-66.6666666666667,4,2,1,5,0,0
83880,-100,4,2,1,75,0,0
85069,491.803278688524,4,2,1,75,1,0
85069,-100,4,2,1,75,0,0
85560,476.190476190476,4,2,1,75,1,0
85560,-83.3333333333333,4,2,1,75,0,0
86036,-76.9230769230769,4,2,1,75,0,0
86988,461.538461538461,4,2,1,75,1,0
86988,-100,4,2,1,75,0,0
87218,-83.3333333333333,4,2,1,75,0,0
87449,476.190476190476,4,2,1,75,1,0
87449,-100,4,2,1,75,0,0
87925,-83.3333333333333,4,2,1,75,0,0
88879,458.015267175572,4,2,1,75,1,0
88879,-100,4,2,1,75,0,0
89337,476.190476190476,4,2,1,75,1,0
89337,-100,4,2,1,75,0,0
89813,-83.3333333333333,4,2,1,75,0,0
90289,-76.9230769230769,4,2,1,75,0,0
91003,-66.6666666666667,4,2,1,75,0,0
91122,-66.6666666666667,4,2,1,5,0,0
91241,504.201680672269,4,2,1,75,1,0
91241,-100,4,2,1,75,0,0
91493,-100,4,2,1,75,0,0
91745,476.190476190476,4,2,1,75,1,0
91745,-100,4,2,1,75,0,0
92945,476.190476190476,4,2,1,50,1,0
92945,-200,4,2,1,50,0,0
96040,-200,4,2,1,5,0,0

[Colours]
Combo1 : 172,203,227
Combo2 : 193,159,198
Combo3 : 244,199,91

[HitObjects]
362,187,782,6,0,P|341:111|319:48,1,143.999995605469,10|0,1:0|0:0,0:0:0:0:
350,25,1734,6,0,P|409:23|433:83,1,120,2|0,0:0|0:0,0:0:0:0:
444,85,2210,2,0,P|452:52|471:-14,1,88.0000026855469,10|0,0:0|0:0,0:0:0:0:
366,105,2686,5,8,1:0:0:0:
391,177,2924,1,2,0:0:0:0:
388,200,3162,1,2,0:0:0:0:
410,295,3401,6,0,P|293:262|197:247,1,200,10|0,1:2|0:0,0:0:0:0:
201,240,4115,2,0,P|223:228|246:215,1,40,8|0,0:1|1:0,0:0:0:0:
283,162,4353,1,0,0:0:0:0:
283,162,4472,1,8,1:0:0:0:
283,162,4591,2,0,P|314:187|372:219,1,80
365,210,4948,1,0,0:0:0:0:
365,210,5067,1,8,1:0:0:0:
294,281,5305,6,0,P|210:300|135:320,1,154,10|2,1:2|0:0,0:0:0:0:
110,298,6001,2,0,P|147:268|147:238,1,80,2|0,3:0|0:0,0:0:0:0:
64,163,6477,6,0,P|51:115|37:83,1,80,10|0,0:0|0:0,0:0:0:0:
57,181,6953,1,8,1:0:0:0:
48,69,7191,6,0,P|73:79|106:88,1,55.9999982910157,2|0,3:0|0:0,0:0:0:0:
343,32,7667,5,2,0:0:0:0:
373,108,7905,2,0,P|346:70|310:27,1,95.9999970703126,2|0,1:0|0:0,0:0:0:0:
445,59,8622,5,2,0:0:0:0:
488,128,8864,2,0,P|479:169|473:208,1,80,2|0,0:0|0:0,0:0:0:0:
507,286,9340,6,0,P|443:282|424:325,1,107.999996704102,2|2,0:0|0:0,0:0:0:0:
410,321,9816,2,0,P|397:279|379:241,1,71.9999978027344,8|2,0:0|0:0,0:0:0:0:
417,153,10292,6,0,P|368:130|317:111,1,107.999996704102,2|2,1:2|0:0,0:0:0:0:
304,128,10768,2,0,P|253:148|229:160,1,71.9999978027344,8|2,0:0|0:0,0:0:0:0:
148,148,11244,1,0,1:0:0:0:
93,217,11502,2,0,P|117:155|129:122,1,71.9999978027344,2|8,0:0|0:0,0:0:0:0:
81,64,11962,1,2,0:0:0:0:
112,136,12204,6,0,P|162:128|238:108,2,107.999996704102,10|2|2,1:2|0:0|0:0,0:0:0:0:
0,117,13165,6,0,P|49:147|56:200,1,107.999996704102,2|0,0:0|0:0,0:0:0:0:
66,211,13641,2,0,P|110:189|142:177,1,71.9999978027344,8|2,0:0|0:0,0:0:0:0:
262,307,14117,6,0,P|210:285|133:260,1,132.00000402832,2|0,3:0|0:0,0:0:0:0:
139,276,14575,2,0,P|87:294|41:318,1,88.000002685547,2|2,3:1|0:0,0:0:0:0:
2,384,15051,5,8,1:0:0:0:
54,320,15309,2,0,P|42:274|29:233,1,67.5,2|0,0:0|1:0,0:0:0:0:
0,156,15781,1,2,0:0:0:0:
13,145,16035,2,0,L|26:71,1,71.9999978027344,2|2,0:0|0:0,0:0:0:0:
116,111,16489,1,8,0:0:0:0:
192,88,16741,1,2,0:0:0:0:
233,201,16993,6,0,P|283:180|335:169,2,107.999996704102,2|2|2,0:0|0:0|0:0,0:0:0:0:
155,143,17930,2,0,P|182:95|254:-5,1,143.999995605469,0|8,0:0|0:0,0:0:0:0:
252,17,18644,2,0,P|289:29|331:37,1,71.9999978027344,2|0,0:0|0:0,0:0:0:0:
303,138,19120,2,0,P|267:146|233:157,2,71.9999978027344,0|8|2,0:0|0:0|0:0,0:0:0:0:
389,65,19834,6,0,P|485:85|523:99,2,107.999996704102,2|2|2,0:0|1:2|0:0,0:0:0:0:
315,148,20775,6,0,P|342:192|367:252,1,107.999996704102,2|2,0:0|0:0,0:0:0:0:
362,263,21243,2,0,P|385:225|415:208,1,71.9999978027344,8|2,0:0|0:0,0:0:0:0:
482,269,21719,5,8,1:0:0:0:
419,191,21957,2,0,P|416:175|409:155,2,35.9999989013672,0|0|2,0:0|0:0|0:0,0:0:0:0:
490,277,22433,6,0,P|486:296|482:325,1,44.0000013427735,8|0,3:1|0:0,0:0:0:0:
430,202,22909,5,0,0:0:0:0:
494,122,23147,2,0,P|482:63|473:22,1,95.9999970703126,2|0,1:0|0:0,0:0:0:0:
457,12,23864,5,2,0:0:0:0:
378,58,24106,2,0,P|334:47|292:32,1,80,2|2,0:0|0:0,0:0:0:0:
212,80,24590,6,0,P|161:92|146:142,1,107.999996704102,2|2,0:0|0:0,0:0:0:0:
134,160,25066,2,0,P|116:116|100:88,1,71.9999978027344,8|2,0:0|0:0,0:0:0:0:
30,15,25542,6,0,P|13:87|1:133,1,107.999996704102,2|2,1:2|0:0,0:0:0:0:
14,133,26000,2,0,P|26:166|43:198,1,71.9999978027344,8|2,0:0|0:0,0:0:0:0:
149,248,26476,5,0,1:0:0:0:
75,307,26706,2,0,P|62:340|49:374,1,71.9999978027344,0|8,0:0|0:0,0:0:0:0:
153,356,27180,1,2,0:0:0:0:
153,356,27424,6,0,P|203:364|279:384,2,107.999996704102,2|2|2,1:2|0:0|0:0,0:0:0:0:
94,286,28400,6,0,P|143:256|150:203,1,107.999996704102,2|0,1:2|0:0,0:0:0:0:
161,196,28876,2,0,P|205:218|237:230,1,71.9999978027344,8|2,0:0|0:0,0:0:0:0:
365,95,29352,6,0,P|302:115|241:140,1,132.00000402832,2|0,1:2|0:0,0:0:0:0:
235,122,29828,2,0,P|195:103|153:89,1,88.000002685547,2|0,1:0|0:0,0:0:0:0:
110,13,30304,5,8,1:0:0:0:
144,97,30542,2,0,P|185:110|227:128,1,80,2|0,0:0|1:0,0:0:0:0:
276,192,31019,1,2,0:0:0:0:
289,173,31257,2,0,P|324:167|359:158,2,71.9999978027344,10|2|8,1:2|0:0|0:0,0:0:0:0:
199,129,31978,1,2,0:0:0:0:
150,217,32224,6,0,P|163:269|170:322,2,107.999996704102,2|2|2,0:0|0:0|0:0,0:0:0:0:
93,148,33176,1,0,1:0:0:0:
156,202,33414,2,0,P|222:222|251:226,1,71.9999978027344,0|8,0:0|0:0,0:0:0:0:
149,224,33884,1,2,0:0:0:0:
241,207,34117,6,0,P|268:166|331:172,1,107.999996704102,2|2,0:0|0:0,0:0:0:0:
324,186,34593,1,8,0:0:0:0:
420,99,34831,6,0,P|400:169|388:240,1,143.999995605469,2|2,0:0|0:0,0:0:0:0:
417,330,35542,1,0,1:0:0:0:
372,236,35776,1,2,0:0:0:0:
300,276,36010,6,0,P|291:222|279:169,1,107.999996704102,2|2,0:0|0:0,0:0:0:0:
269,158,36461,1,8,0:0:0:0:
375,54,36702,6,0,P|364:88|356:123,1,71.9999978027344,2|0,0:0|0:0,0:0:0:0:
262,168,37186,2,0,P|252:133|242:98,1,71.9999978027344,2|8,0:0|0:0,0:0:0:0:
160,37,37670,6,0,P|48:61|-10:70,1,143.999995605469,2|0,0:0|0:0,0:0:0:0:
8,81,38396,1,0,0:0:0:0:
4,96,38638,1,0,0:0:0:0:
46,172,38880,5,8,3:2:0:0:
103,237,39122,1,2,0:0:0:0:
55,313,39353,1,2,0:0:0:0:
107,248,39589,1,0,0:0:0:0:
176,276,39825,6,0,P|242:266|375:238,1,192,2|0,0:0|0:0,0:0:0:0:
376,257,40777,2,0,P|343:274|319:301,2,64,2|2|2,0:0|0:0|0:0,0:0:0:0:
449,157,41520,6,0,P|431:89|418:27,1,133,2|0,0:0|0:0,0:0:0:0:
404,22,42227,2,0,P|390:65|376:90,1,64,0|2,0:0|0:0,0:0:0:0:
251,49,42688,2,0,P|280:37|308:21,2,64,2|2|0,0:0|0:0|0:0,0:0:0:0:
156,26,43387,1,2,0:0:0:0:
136,38,43625,6,0,P|159:110|183:224,1,192
177,240,44577,1,2,0:0:0:0:
126,322,44815,2,0,P|96:310|65:302,2,64,2|2|2,0:0|0:0|0:0,0:0:0:0:
201,373,45557,5,0,0:0:0:0:
279,325,45795,1,0,0:0:0:0:
314,339,46033,1,0,0:0:0:0:
395,294,46269,1,0,0:0:0:0:
434,354,46505,6,0,P|423:302|412:216,1,128,2|8,0:0|0:0,0:0:0:0:
460,151,47214,1,2,0:0:0:0:
388,99,47450,6,0,P|421:112|456:122,1,71.9999978027344,0|0,1:0|0:0,0:0:0:0:
330,34,47926,2,0,P|277:54|217:72,1,107.999996704102,10|0,3:2|0:0,0:0:0:0:
224,87,48417,2,0,P|162:69|128:55,1,71.9999978027344,2|0,0:0|0:0,0:0:0:0:
79,117,48861,1,8,1:0:0:0:
157,80,49083,6,0,P|180:148|208:252,1,172,2|0,0:0|0:0,0:0:0:0:
185,276,49817,2,0,P|161:235|123:240,1,80,10|8,3:2|0:0,0:0:0:0:
107,269,50174,5,8,0:0:0:0:
99,281,50293,2,0,P|95:305|92:334,1,40,2|0,1:2|0:0,0:0:0:0:
37,228,50531,2,0,P|31:177|18:117,1,88.000002685547,2|8,1:0|0:0,0:0:0:0:
246,91,51007,6,0,P|287:151|342:134,1,123,2|0,0:0|0:0,0:0:0:0:
331,131,51503,2,0,P|336:170|344:217,1,80,2|8,0:0|0:0,0:0:0:0:
253,349,51971,6,0,P|262:306|271:271,1,80,2|8,0:0|0:0,0:0:0:0:
168,282,52463,2,0,P|159:238|150:203,1,80,2|8,0:0|0:0,0:0:0:0:
201,31,52936,6,0,P|184:117|177:205,1,170.000005371094,10|2,0:0|0:0,0:0:0:0:
242,276,53648,5,10,1:2:0:0:
321,255,53886,1,2,0:0:0:0:
395,345,54124,1,2,1:2:0:0:
431,335,54362,2,0,P|460:341|497:353,2,60.0000022888184,2|2|2,0:0|0:0|0:0,0:0:0:0:
385,260,55076,6,0,B|392:303|307:300|296:209|343:161,1,167.999994873047,2|0,3:2|0:0,0:0:0:0:
324,163,55552,2,0,P|300:201|234:209,1,111.999996582031,10|2,0:0|0:0,0:0:0:0:
143,113,56028,6,0,P|64:88|17:79,1,111.999996582031,2|0,3:2|0:0,0:0:0:0:
26,67,56385,2,0,P|81:79|134:98,1,106.999996582031,2|0,0:0|0:0,0:0:0:0:
216,58,56726,6,0,P|199:26|186:-9,1,60.0000022888184,2|0,3:2|0:0,0:0:0:0:
319,110,57195,6,0,P|348:74|392:37,1,95.9999970703126,2|8,0:0|0:0,0:0:0:0:
439,205,57671,2,0,P|420:128|409:49,1,160,2|2,0:0|0:0,0:0:0:0:
325,135,58385,1,8,0:0:0:0:
314,123,58635,6,0,P|277:58|206:77,1,156,2|2,0:0|0:0,0:0:0:0:
223,159,59361,2,0,P|209:196|202:235,1,80,10|2,0:0|0:0,0:0:0:0:
338,231,59837,6,0,P|353:295|361:337,1,88.000002685547,2|0,0:0|0:0,0:0:0:0:
371,323,60183,2,0,P|362:279|351:237,1,89.000002685547,2|0,0:0|0:0,0:0:0:0:
291,182,60536,6,0,P|309:116|325:47,1,120,2|0,0:0|0:0,0:0:0:0:
310,51,61012,2,0,P|263:26|226:1,1,95.9999970703126,2|8,0:0|0:0,0:0:0:0:
182,105,61488,6,0,P|190:128|201:150,1,47.9999985351563,2|0,3:2|0:0,0:0:0:0:
71,206,61964,6,0,P|82:159|99:114,1,95.9999970703126,2|8,0:0|0:0,0:0:0:0:
121,101,62440,1,2,0:0:0:0:
95,0,62678,6,0,B|52:-7|55:78|146:89|194:42,1,167.999994873047,2|0,3:2|0:0,0:0:0:0:
184,41,63169,2,0,P|237:56|288:80,1,111.999996582031,8|0,1:0|0:0,0:0:0:0:
389,53,63659,6,0,P|368:26|353:-13,1,60.0000022888184,2|0,3:2|0:0,0:0:0:0:
486,31,64016,5,2,0:0:0:0:
474,44,64145,2,0,P|453:117|442:188,1,120.000004577637,0|2,1:0|3:2,0:0:0:0:
492,261,64620,6,0,P|478:216|457:173,1,95.9999970703126,0|0,1:0|0:0,0:0:0:0:
473,157,65096,1,8,0:0:0:0:
482,279,65334,6,0,P|394:298|314:320,1,160,2|2,0:0|0:0,0:0:0:0:
271,370,66048,1,8,0:0:0:0:
127,303,66286,6,0,P|150:242|239:258,1,160,2|0,0:0|0:0,0:0:0:0:
238,166,67000,2,0,P|220:131|235:88,1,80,2|0,3:2|0:0,0:0:0:0:
354,54,67477,6,0,P|418:69|480:93,1,95.9999970703126,2|0,3:2|0:0,0:0:0:0:
448,92,67810,2,0,P|402:77|355:67,1,98.9999970703126,2|0,0:0|0:0,0:0:0:0:
319,143,68159,6,0,P|341:166|355:194,1,55.9999982910157,2|0,3:2|0:0,0:0:0:0:
89,304,68635,6,0,P|103:252|117:193,1,95.9999970703126,2|8,0:0|0:0,0:0:0:0:
143,130,69111,2,0,P|154:176|166:222,1,95.9999970703126,2|0,0:0|1:0,0:0:0:0:
220,340,69587,2,0,P|231:293|243:247,1,95.9999970703126,0|8,0:0|1:0,0:0:0:0:
320,160,70063,1,2,0:0:0:0:
418,226,70301,6,0,B|461:233|458:148|367:137|319:184,1,167.999994873047,2|0,3:2|0:0,0:0:0:0:
320,160,70778,2,0,P|364:121|368:67,1,111.999996582031,2|2,1:2|0:0,0:0:0:0:
245,6,71246,6,0,P|152:41|131:51,1,111.999996582031,10|8,3:2|1:0,0:0:0:0:
139,58,71596,2,0,P|191:36|243:18,1,114.999996582031,2|0,0:0|0:0,0:0:0:0:
314,69,71947,6,0,P|336:117|390:124,1,111.999996582031,2|0,3:2|0:0,0:0:0:0:
500,190,72423,2,0,P|471:247|460:294,1,111.999996582031,2|8,0:0|0:0,0:0:0:0:
439,378,72913,6,0,P|425:314|388:222,1,143.999995605469,2|0,0:0|0:0,0:0:0:0:
380,232,73389,1,0,0:0:0:0:
311,303,73627,1,0,1:0:0:0:
210,257,73865,6,0,P|133:270|110:197,1,160,2|2,0:0|0:0,0:0:0:0:
94,118,74579,2,0,P|112:154|126:192,1,80,8|2,1:0|0:0,0:0:0:0:
0,282,75055,6,0,P|17:227|38:183,1,95.9999970703126,2|0,3:2|0:0,0:0:0:0:
48,186,75413,2,0,P|28:229|14:275,1,95.9999970703126,2|0,0:0|0:0,0:0:0:0:
67,350,75770,6,0,P|124:325|191:311,1,120,2|0,0:0|0:0,0:0:0:0:
194,324,76246,2,0,P|239:342|282:353,1,80,2|8,1:2|0:0,0:0:0:0:
369,232,76722,6,0,P|373:251|379:271,1,40,2|0,3:2|0:0,0:0:0:0:
497,196,77201,6,0,P|484:246|476:287,1,80,2|8,3:2|1:0,0:0:0:0:
501,356,77685,1,2,0:0:0:0:
390,285,77927,6,0,B|433:278|430:363|339:374|291:327,1,167.999994873047,2|0,3:2|0:0,0:0:0:0:
301,324,78403,2,0,P|231:334|188:361,1,111.999996582031,2|0,1:2|0:0,0:0:0:0:
100,257,78879,6,0,P|128:266|162:274,1,60.0000022888184,2|0,3:2|0:0,0:0:0:0:
39,336,79236,1,2,0:0:0:0:
29,324,79355,2,0,P|14:265|7:201,1,111.999996582031,8|2,0:0|3:2,0:0:0:0:
43,107,79831,6,0,P|36:167|16:221,1,95.9999970703126,8|2,1:0|0:0,0:0:0:0:
9,203,80307,1,8,0:0:0:0:
61,100,80546,6,0,P|127:79|223:60,1,160,2|2,0:0|0:0,0:0:0:0:
138,40,81260,1,8,0:0:0:0:
144,25,81498,1,2,0:0:0:0:
109,131,81736,6,0,P|125:174|139:236,1,80,0|0,1:0|0:0,0:0:0:0:
250,299,82212,2,0,P|260:260|295:178,1,120,2|0,0:0|0:0,0:0:0:0:
386,124,82688,6,0,P|369:87|339:7,1,111.999996582031,2|0,0:0|0:0,0:0:0:0:
347,6,83038,2,0,P|366:58|389:109,1,119.999996582031,2|0,0:0|0:0,0:0:0:0:
470,198,83404,6,0,P|477:169|489:141,1,60.0000022888184,2|0,3:2|0:0,0:0:0:0:
351,263,83880,5,2,0:0:0:0:
382,343,84118,1,2,0:0:0:0:
363,362,84356,1,2,0:0:0:0:
271,336,84594,6,0,P|198:313|133:302,1,120,2|2,0:0|0:0,0:0:0:0:
144,283,85069,2,0,P|96:298|74:336,1,80,8|2,0:0|0:0,0:0:0:0:
129,384,85560,6,0,P|110:310|88:236,1,143.999995605469
77,233,86036,2,0,P|27:233|3:190,1,103.999995239258,2|0,0:0|0:0,0:0:0:0:
104,101,86512,5,8,1:0:0:0:
181,60,86750,1,2,0:0:0:0:
205,70,86988,1,2,0:0:0:0:
297,27,87218,6,0,P|314:121|341:213,1,194.999994140625,10|0,1:2|0:0,0:0:0:0:
359,230,87925,2,0,P|337:242|314:258,1,47.9999985351563,8|0,1:0|1:0,0:0:0:0:
268,338,88163,1,0,0:0:0:0:
268,338,88282,1,8,1:0:0:0:
268,338,88401,2,0,P|256:299|225:239,1,95.9999970703126
219,247,88758,1,0,0:0:0:0:
219,247,88879,1,8,1:0:0:0:
255,145,89108,6,0,P|164:158|107:86,1,162.999994140625,10|2,1:2|0:0,0:0:0:0:
73,91,89813,2,0,P|62:134|52:202,1,95.9999970703126,2|0,0:0|0:0,0:0:0:0:
0,283,90289,6,0,P|20:330|34:380,1,103.999995239258,10|0,0:0|0:0,0:0:0:0:
7,266,90765,1,8,1:0:0:0:
54,359,91003,6,0,P|84:367|120:378,1,60.0000022888184,2|0,3:2|0:0,0:0:0:0:
248,173,91493,5,2,0:2:0:0:
311,239,91745,1,2,0:2:0:0:
358,250,91983,1,2,0:2:0:0:
430,182,92221,5,2,0:2:0:0:
408,185,92578,1,2,0:2:0:0:
236,90,92945,6,0,B|302:58|430:99|462:208|305:324|117:321|129:147|246:167,1,520,6|0,0:2|0:0,0:0:0:0:
