osu file format v14

[General]
AudioFilename: audio.mp3
AudioLeadIn: 0
PreviewTime: 50143
Countdown: 0
SampleSet: Normal
StackLeniency: 0.4
Mode: 0
LetterboxInBreaks: 0
WidescreenStoryboard: 0

[Editor]
DistanceSpacing: 1.5
BeatDivisor: 4
GridSize: 8
TimelineZoom: 1

[Metadata]
Title:Diamond
TitleUnicode:ダイヤモンド
Artist:Oshimizu Nako (CV:Toyosaki Aki)
ArtistUnicode:押水菜子 (CV:豊崎愛生)
Creator:Sonnyc
Version:Insane
Source:花咲くいろは
Tags:Hanasaku Iroha opening
BeatmapID:1705710
BeatmapSetID:813281

[Difficulty]
HPDrainRate:6
CircleSize:3
OverallDifficulty:8
ApproachRate:9
SliderMultiplier:1.71
SliderTickRate:2

[Events]
//Background and Video events
0,0,"hanasaku-iroha0190[1].jpg",0,0
//Break Periods
//Storyboard Layer 0 (Background)
//Storyboard Layer 1 (Fail)
//Storyboard Layer 2 (Pass)
//Storyboard Layer 3 (Foreground)
//Storyboard Sound Samples

[TimingPoints]
704,344.8275862069,4,1,22,60,1,0
32428,-86.9565217391304,4,1,22,60,0,0
33117,-100,4,1,22,60,0,0
50359,-90.9090909090909,4,1,22,60,0,1
79324,-100,4,1,22,60,0,0

[Colours]
Combo1 : 255,192,0
Combo2 : 0,202,0
Combo3 : 18,124,255
Combo4 : 242,24,57

[HitObjects]
256,72,704,5,2,0:3:0:0:
256,72,1048,1,2,0:3:0:0:
168,264,1393,5,8,0:3:0:0:
208,176,1566,1,4,0:3:0:0:
304,176,1738,1,4,0:3:0:0:
344,264,1911,1,4,0:3:0:0:
512,352,2083,6,2,L|0:352,1,513,6|8,0:0|0:0,0:0:0:0:
171,236,3462,2,2,L|342:236,1,171,2|8,0:0|0:0,0:0:0:0:
384,148,3979,2,2,L|128:148,1,256.5,2|10,0:0|0:0,0:0:0:0:
128,352,4841,6,2,L|384:352,1,256.5
512,32,5876,2,2,L|0:32,1,513,2|10,0:0|0:0,0:0:0:0:
0,32,7083,1,4,0:3:0:0:
0,32,7255,1,4,0:3:0:0:
0,384,7600,5,6,0:0:0:0:
96,208,8117,1,6,0:0:0:0:
192,32,8635,1,2,0:0:0:0:
192,32,8807,1,6,0:0:0:0:
256,336,9152,5,2,0:0:0:0:
304,248,9324,1,6,0:0:0:0:
256,160,9497,1,2,0:0:0:0:
208,248,9669,1,6,0:0:0:0:
512,384,10014,5,2,0:0:0:0:
512,384,10100,1,0,0:0:0:0:
512,384,10186,1,0,0:0:0:0:
512,384,10272,1,0,0:0:0:0:
512,384,10359,1,6,0:0:0:0:
416,208,10876,1,6,0:0:0:0:
320,32,11394,1,2,0:0:0:0:
320,32,11566,1,6,0:0:0:0:
256,336,11911,5,2,0:0:0:0:
184,224,12083,1,2,0:0:0:0:
256,104,12255,1,2,0:0:0:0:
328,224,12428,1,2,0:0:0:0:
56,24,12945,5,0,0:0:0:0:
136,72,13117,1,4,0:0:0:0:
136,168,13290,1,0,0:0:0:0:
136,168,13635,1,0,0:0:0:0:
56,216,13807,1,0,0:0:0:0:
56,312,13980,1,0,0:0:0:0:
136,360,14152,1,8,0:0:0:0:
136,360,14324,1,0,0:0:0:0:
136,360,15704,5,0,0:0:0:0:
216,312,15876,1,0,0:0:0:0:
216,216,16049,1,0,0:0:0:0:
136,168,16221,1,8,0:0:0:0:
136,72,16394,1,0,0:0:0:0:
216,24,16566,1,0,0:0:0:0:
296,72,16738,1,0,0:0:0:0:
296,168,16911,1,8,0:0:0:0:
216,216,17083,1,0,0:0:0:0:
216,312,17256,1,0,0:0:0:0:
296,360,17428,1,0,0:0:0:0:
296,360,18462,5,8,0:0:0:0:
376,312,18634,1,0,0:0:0:0:
376,216,18807,1,0,0:0:0:0:
296,168,18979,1,8,0:0:0:0:
296,72,19152,1,0,0:0:0:0:
376,24,19324,1,0,0:0:0:0:
456,72,19496,1,0,0:0:0:0:
456,168,19669,1,8,0:0:0:0:
376,216,19841,1,0,0:0:0:0:
376,216,20186,1,0,0:0:0:0:
376,312,20359,1,8,0:0:0:0:
456,360,20531,1,0,0:0:0:0:
456,360,21221,5,0,0:0:0:0:
376,312,21393,1,0,0:0:0:0:
376,216,21566,1,0,0:0:0:0:
456,168,21738,1,8,0:0:0:0:
456,72,21910,1,0,0:0:0:0:
56,72,22428,1,8,0:0:0:0:
56,72,22772,1,0,0:0:0:0:
56,168,22944,1,0,0:0:0:0:
136,216,23116,1,8,0:0:0:0:
136,312,23289,1,0,0:0:0:0:
56,360,23461,1,8,0:3:0:0:
56,360,23635,1,4,0:3:0:0:
56,360,23807,1,4,0:3:0:0:
56,264,23979,5,0,0:0:0:0:
136,216,24152,1,4,0:0:0:0:
56,168,24324,1,0,0:0:0:0:
56,168,24669,1,0,0:0:0:0:
136,120,24841,1,0,0:0:0:0:
216,72,25014,1,0,0:0:0:0:
216,168,25187,1,8,0:0:0:0:
216,264,25359,1,0,0:0:0:0:
216,264,26738,5,0,0:0:0:0:
136,216,26910,1,0,0:0:0:0:
216,168,27083,1,0,0:0:0:0:
216,168,27428,1,0,0:0:0:0:
296,120,27600,1,0,0:0:0:0:
376,72,27772,1,0,0:0:0:0:
376,168,27945,1,8,0:0:0:0:
456,216,28117,1,0,0:0:0:0:
376,264,28289,1,0,0:0:0:0:
296,312,28461,1,0,0:0:0:0:
296,312,29497,5,8,0:0:0:0:
376,360,29669,1,0,0:0:0:0:
456,312,29841,1,0,0:0:0:0:
376,264,30014,1,8,0:0:0:0:
296,216,30186,1,0,0:0:0:0:
216,264,30359,1,0,0:0:0:0:
136,216,30531,1,0,0:0:0:0:
56,168,30704,1,8,0:0:0:0:
136,120,30876,1,0,0:0:0:0:
136,120,31221,1,0,0:0:0:0:
216,168,31393,1,8,0:0:0:0:
296,120,31566,1,0,0:0:0:0:
216,72,31738,1,0,0:0:0:0:
216,72,32255,5,0,0:0:0:0:
295,120,32428,2,0,P|216:167|136:120,1,196.650003750801,0|8,0:0|0:0,0:0:0:0:
80,296,33117,2,0,L|336:296,1,256.5
336,200,33807,1,8,0:0:0:0:
417,152,33979,1,8,0:0:0:0:
496,200,34151,1,0,0:0:0:0:
496,296,34324,1,8,0:0:0:0:
417,344,34496,1,8,0:3:0:0:
417,344,34670,1,4,0:3:0:0:
417,344,34842,1,4,0:3:0:0:
512,32,35186,5,6,0:0:0:0:
416,208,35703,1,6,0:0:0:0:
320,384,36221,1,4,0:0:0:0:
256,40,36738,5,2,0:0:0:0:
256,40,36910,1,4,0:0:0:0:
256,344,37255,1,6,0:0:0:0:
0,32,37600,5,0,0:0:0:0:
0,32,37686,1,0,0:0:0:0:
0,32,37772,1,0,0:0:0:0:
0,32,37859,1,0,0:0:0:0:
0,32,37945,1,6,0:0:0:0:
96,208,38462,1,6,0:0:0:0:
192,384,38980,1,4,0:0:0:0:
256,40,39497,5,2,0:0:0:0:
256,40,39669,1,4,0:0:0:0:
256,136,39841,1,0,0:0:0:0:
168,88,40014,1,0,0:0:0:0:
256,40,40186,1,0,0:0:0:0:
344,88,40359,1,0,0:0:0:0:
56,40,40704,37,4,0:0:0:0:
168,288,41048,1,0,0:0:0:0:
256,240,41221,1,8,0:0:0:0:
344,288,41393,1,0,0:0:0:0:
456,40,41738,1,0,0:0:0:0:
256,336,42083,5,4,0:0:0:0:
168,288,42255,1,0,0:0:0:0:
256,240,42427,1,0,0:0:0:0:
344,288,42600,1,8,0:0:0:0:
256,336,42772,1,8,0:0:0:0:
256,336,43117,1,8,0:0:0:0:
256,40,43462,5,4,0:0:0:0:
160,344,44497,1,8,0:0:0:0:
352,344,44841,1,0,0:0:0:0:
256,40,45704,5,8,0:0:0:0:
256,40,45876,1,4,0:0:0:0:
256,344,46221,1,4,0:0:0:0:
40,120,46566,5,4,0:3:0:0:
136,136,46738,1,4,0:3:0:0:
184,56,46910,1,8,0:3:0:0:
472,120,47255,1,8,0:3:0:0:
376,136,47427,1,4,0:3:0:0:
328,56,47599,1,4,0:0:0:0:
256,376,47945,5,8,0:0:0:0:
248,352,48117,1,8,0:0:0:0:
280,328,48290,1,8,0:0:0:0:
232,312,48462,1,8,0:0:0:0:
304,272,48635,1,8,0:0:0:0:
208,232,48807,1,8,0:0:0:0:
336,184,48979,1,10,0:0:0:0:
176,136,49152,1,10,0:0:0:0:
368,64,49324,1,10,0:0:0:0:
136,16,49497,1,10,0:0:0:0:
416,360,50186,5,0,0:0:0:0:
510,316,50359,2,0,P|393:258|312:360,1,282.150008610535,4|2,0:0|0:0,0:0:0:0:
200,359,51048,2,2,P|118:258|1:316,1,282.150008610535
96,360,51738,1,2,0:0:0:0:
256,32,52083,5,8,0:0:0:0:
256,136,52255,1,0,0:0:0:0:
168,192,52428,1,0,0:0:0:0:
256,248,52600,1,0,0:0:0:0:
344,192,52772,1,8,0:0:0:0:
432,248,52945,2,2,P|352:352|80:248,1,470.250014350892,2|0,0:0|0:0,0:0:0:0:
344,32,54152,5,2,0:0:0:0:
256,88,54324,1,0,0:0:0:0:
168,32,54497,1,2,0:0:0:0:
16,256,54841,1,8,0:0:0:0:
256,88,55186,1,2,0:0:0:0:
496,256,55531,1,8,0:0:0:0:
151,328,55876,6,0,P|256:248|360:328,1,282.150008610535,2|0,0:0|0:0,0:0:0:0:
256,352,56566,1,2,0:0:0:0:
256,32,57083,1,2,0:0:0:0:
360,55,57255,2,0,P|255:135|151:55,1,282.150008610535,2|2,0:0|0:0,0:0:0:0:
256,32,57945,1,2,0:0:0:0:
200,352,58462,37,0,0:0:0:0:
312,352,58635,1,2,0:0:0:0:
496,56,58979,1,8,0:0:0:0:
256,232,59324,1,2,0:0:0:0:
16,56,59669,1,8,0:0:0:0:
200,344,60014,5,0,0:0:0:0:
312,344,60186,1,8,0:0:0:0:
352,232,60359,1,8,0:0:0:0:
352,232,60445,1,8,0:0:0:0:
352,232,60531,1,8,0:0:0:0:
256,168,60704,1,8,0:0:0:0:
256,168,60790,1,8,0:0:0:0:
256,168,60876,1,8,0:0:0:0:
160,232,61048,1,8,0:0:0:0:
200,24,61221,5,2,0:0:0:0:
136,104,61393,2,0,P|256:168|376:104,1,282.150008610535,4|2,0:0|0:0,0:0:0:0:
312,24,62083,1,2,0:0:0:0:
256,352,62600,5,2,0:0:0:0:
256,352,62772,1,0,0:0:0:0:
256,136,63117,1,8,0:0:0:0:
256,248,63289,1,0,0:0:0:0:
344,192,63462,1,0,0:0:0:0:
256,136,63634,1,0,0:0:0:0:
168,192,63806,1,8,0:0:0:0:
80,136,63979,2,2,P|160:32|432:136,1,470.250014350892,2|0,0:0|0:0,0:0:0:0:
256,296,65359,5,0,0:0:0:0:
256,296,65532,1,2,0:0:0:0:
496,128,65876,1,8,0:0:0:0:
256,296,66221,1,2,0:0:0:0:
16,128,66566,1,8,0:0:0:0:
360,56,66910,6,0,P|255:136|152:56,1,282.150008610535,2|0,0:0|0:0,0:0:0:0:
256,32,67600,1,2,0:0:0:0:
176,288,68117,2,0,P|280:248|336:288,1,188.100005740357,2|2,0:0|0:0,0:0:0:0:
256,352,68635,1,8,0:0:0:0:
256,352,68807,1,2,0:0:0:0:
296,48,69497,5,0,0:0:0:0:
296,48,69669,1,14,0:0:0:0:
72,8,69841,1,0,0:0:0:0:
0,160,70014,1,10,0:0:0:0:
224,120,70186,1,0,0:0:0:0:
296,272,70359,1,10,0:0:0:0:
72,232,70531,1,0,0:0:0:0:
0,384,70704,1,10,0:0:0:0:
224,344,70876,1,0,0:0:0:0:
0,384,71048,1,10,0:0:0:0:
72,232,71221,1,0,0:0:0:0:
296,272,71393,1,10,0:0:0:0:
224,120,71566,1,0,0:0:0:0:
0,160,71738,1,10,0:0:0:0:
216,336,72256,5,0,0:0:0:0:
216,336,72428,1,14,0:0:0:0:
216,336,72772,1,10,0:0:0:0:
440,376,72944,1,0,0:0:0:0:
512,224,73117,1,10,0:0:0:0:
288,264,73289,1,0,0:0:0:0:
216,112,73462,1,10,0:0:0:0:
440,152,73634,1,0,0:0:0:0:
512,0,73807,1,10,0:0:0:0:
288,40,73979,1,0,0:0:0:0:
512,0,74151,1,10,0:0:0:0:
288,264,74497,1,10,0:0:0:0:
96,24,74841,5,0,0:0:0:0:
96,24,74928,1,0,0:0:0:0:
96,24,75014,1,0,0:0:0:0:
96,24,75100,1,0,0:0:0:0:
96,24,75186,1,14,0:0:0:0:
56,248,75359,1,0,0:0:0:0:
208,320,75532,1,10,0:0:0:0:
168,96,75704,1,0,0:0:0:0:
312,24,75876,1,10,0:0:0:0:
272,248,76048,1,0,0:0:0:0:
424,320,76221,1,10,0:0:0:0:
384,96,76393,1,0,0:0:0:0:
424,320,76566,1,10,0:0:0:0:
272,248,76738,1,0,0:0:0:0:
312,24,76910,1,10,0:0:0:0:
168,96,77083,1,0,0:0:0:0:
208,320,77255,1,10,0:0:0:0:
256,32,77600,5,10,0:0:0:0:
208,320,77945,2,2,P|256:184|304:320,1,376.200011480713,6|6,0:0|0:0,0:0:0:0:
344,32,78979,37,2,0:0:0:0:
256,88,79151,1,0,0:0:0:0:
168,32,79324,1,2,0:0:0:0:
72,200,79668,1,0,0:0:0:0:
256,88,80013,1,2,0:0:0:0:
440,200,80358,1,0,0:0:0:0:
208,320,80704,6,2,P|280:232|304:320,1,256.5,6|2,0:0|0:0,0:0:0:0:
256,192,81307,12,8,83117,0:0:0:0:
176,240,83462,6,2,L|5:240,1,171,2|8,0:0|0:0,0:0:0:0:
5,336,83979,2,2,L|176:336,1,171,2|0,0:0|0:0,0:0:0:0:
336,240,84669,6,2,L|507:240,1,171
507,336,85186,1,10,0:0:0:0:
336,336,85359,1,0,0:0:0:0:
507,336,85531,1,10,0:0:0:0:
336,48,85876,5,8,0:0:0:0:
336,48,85962,1,0,0:0:0:0:
336,48,86048,1,0,0:0:0:0:
336,48,86135,1,0,0:0:0:0:
336,48,86221,2,2,L|507:48,1,171,2|8,0:0|0:0,0:0:0:0:
507,144,86738,2,2,L|336:144,1,171,2|0,0:0|0:0,0:0:0:0:
176,48,87428,6,2,L|5:48,1,171,2|0,0:0|0:0,0:0:0:0:
40,144,87945,1,10,0:0:0:0:
144,144,88117,1,0,0:0:0:0:
176,240,88290,1,10,0:0:0:0:
5,240,88462,1,0,0:0:0:0:
176,240,88635,1,10,0:0:0:0:
384,352,88979,6,2,L|128:352,1,256.5,6|2,0:0|0:0,0:0:0:0:
256,32,89841,1,2,0:0:0:0:
470,264,90186,2,2,L|42:264,1,427.5,2|8,0:0|0:0,0:0:0:0:
256,32,91393,1,8,0:0:0:0:
128,352,91738,6,2,L|384:352,1,256.5
256,32,92600,1,2,0:0:0:0:
128,352,92945,1,2,0:0:0:0:
80,200,93117,5,8,0:3:0:0:
144,88,93290,1,4,0:3:0:0:
256,152,93462,1,4,0:3:0:0:
192,264,93635,1,4,0:3:0:0:
320,264,93807,1,4,0:3:0:0:
256,152,93979,1,4,0:3:0:0:
368,88,94151,1,4,0:3:0:0:
432,200,94324,1,6,0:0:0:0:
32,24,94841,5,8,0:0:0:0:
32,24,95186,1,0,0:0:0:0:
32,24,95531,1,0,0:0:0:0:
256,192,95876,1,0,0:0:0:0:
480,24,96221,1,8,0:0:0:0:
392,56,96393,1,0,0:0:0:0:
480,24,96566,1,0,0:0:0:0:
480,24,96911,1,0,0:0:0:0:
352,312,97255,37,0,0:0:0:0:
256,48,97600,1,8,0:0:0:0:
160,312,97945,1,0,0:0:0:0:
144,160,98117,5,10,0:0:0:0:
256,240,98290,1,0,0:0:0:0:
368,160,98462,1,6,0:0:0:0:
256,192,98548,12,2,100014,0:0:0:0:
256,192,100186,5,6,0:0:0:0:
