osu file format v14

[General]
AudioFilename: audio.mp3
AudioLeadIn: 0
PreviewTime: 55539
Countdown: 0
SampleSet: Soft
StackLeniency: 0.7
Mode: 0
LetterboxInBreaks: 0
WidescreenStoryboard: 1

[Editor]
Bookmarks: 100022
DistanceSpacing: 1
BeatDivisor: 4
GridSize: 32
TimelineZoom: 2.1

[Metadata]
Title:Diamond
TitleUnicode:ダイヤモンド
Artist:Oshimizu Nako (CV: Toyosaki Aki)
ArtistUnicode:押水菜子 (CV: 豊崎愛生)
Creator:Toyosaki Aki
Version:Normal
Source:花咲くいろは
Tags:toooooon hohi Hanasaku Iroha P.A.WORKS japanese pop anime character song full ver
BeatmapID:2534883
BeatmapSetID:1217268

[Difficulty]
HPDrainRate:4
CircleSize:3.3
OverallDifficulty:4
ApproachRate:5.5
SliderMultiplier:1
SliderTickRate:1

[Events]
//Background and Video events
0,0,"illustration-anime-anime-girls-cartoon-Hanasaku-Iroha-mangaka-104055.jpg",0,0
//Break Periods
2,88843,96138
2,123670,127862
2,129187,130621
//Storyboard Layer 0 (Background)
//Storyboard Layer 1 (Fail)
//Storyboard Layer 2 (Pass)
//Storyboard Layer 3 (Foreground)
//Storyboard Layer 4 (Overlay)
//Storyboard Sound Samples

[TimingPoints]
712,344.827586206897,4,2,1,65,1,0
12436,-100,4,2,1,65,0,0
18643,-100,4,2,1,55,0,0
40712,-100,4,2,1,65,0,0
55884,-100,4,2,1,70,0,1
83470,-100,4,2,1,60,0,1
88643,-100,4,2,1,65,0,0
108298,-100,4,2,1,50,0,0
131746,-100,4,2,1,65,0,0
137263,-100,4,2,1,70,0,0
137608,-100,4,2,1,70,0,1
175884,-100,4,2,1,60,0,1
181401,-100,4,2,1,65,0,0

[Colours]
Combo1 : 248,122,125
Combo2 : 211,104,16
Combo3 : 63,129,250
Combo4 : 31,186,27

[HitObjects]
85,238,712,5,2,0:0:0:0:
176,276,1056,1,2,0:0:0:0:
246,205,1401,2,0,L|235:151,1,50,8|8,0:0|0:3,0:0:0:0:
188,133,1746,2,0,L|198:84,1,50,4|0,0:3|3:0,0:0:0:0:
209,35,2091,6,0,P|258:42|308:48,1,100,6|8,3:2|0:0,0:0:0:0:
403,19,2780,2,0,L|459:6,2,50,2|0|8,0:3|3:0|0:0,0:0:0:0:
308,48,3470,2,0,L|325:146,1,100,2|8,3:2|0:0,0:0:0:0:
365,175,3987,2,0,L|347:273,1,100,2|0,3:2|3:0,0:0:0:0:
336,322,4505,1,10,0:0:0:0:
250,374,4849,6,0,P|176:357|103:342,1,150,2|2,3:2|3:2,0:0:0:0:
6,314,5712,1,0,3:2:0:0:
6,314,5884,2,0,L|18:266,1,50,10|0,0:0|0:0,0:0:0:0:
64,245,6229,2,0,L|53:145,1,100,0|8,3:0|0:0,0:0:0:0:
54,45,6918,2,0,P|29:46|6:57,2,50,8|4|8,0:3|0:3|0:0,0:0:0:0:
136,101,7608,6,0,P|179:123|224:105,1,100,6|8,3:2|0:0,0:0:0:0:
313,60,8298,2,0,L|302:8,2,50,2|0|8,0:3|3:0|0:0,0:0:0:0:
390,125,8987,2,0,P|376:172|364:221,1,100,2|8,3:2|0:0,0:0:0:0:
355,271,9505,2,0,P|309:287|265:266,1,100,2|0,3:2|3:0,0:0:0:0:
241,222,10022,1,10,0:0:0:0:
173,148,10367,6,0,B|125:174|125:174|147:266,1,150,2|2,3:2|3:2,0:0:0:0:
176,362,11229,1,0,3:0:0:0:
176,362,11401,2,0,L|224:348,1,50,10|0,0:0|0:0,0:0:0:0:
252,306,11746,2,0,L|351:324,1,100,0|12,3:0|0:0,0:0:0:0:
448,345,12436,2,0,L|438:295,1,50,10|8,0:1|0:3,0:0:0:0:
429,246,12780,1,10,0:1:0:0:
426,146,13125,6,0,P|382:126|336:141,1,100,14|0,0:0|3:0,0:0:0:0:
312,185,13643,1,14,0:0:0:0:
191,274,14160,1,10,0:0:0:0:
191,274,14332,1,10,0:0:0:0:
98,235,14677,1,2,3:2:0:0:
98,235,14849,2,0,P|66:273|66:322,2,100,14|14|8,0:0|0:0|0:0,0:0:0:0:
178,176,15884,6,0,B|226:187|226:187|271:164,1,100,14|0,0:0|3:0,0:0:0:0:
315,140,16401,1,14,0:0:0:0:
464,141,16918,1,14,0:0:0:0:
464,141,17091,1,14,0:0:0:0:
417,52,17436,2,0,L|429:3,2,50,10|10|10,0:0|0:0|0:0,0:0:0:0:
370,71,17953,2,0,P|321:59|272:50,1,100,10|8,0:0|0:2,0:0:0:0:
172,42,18643,6,0,B|138:73|138:73|159:122,1,100,4|8,3:2|0:0,0:0:0:0:
243,176,19332,2,0,L|291:163,2,50,0|0|8,3:0|0:0|0:0,0:0:0:0:
198,198,19849,2,0,P|162:258|210:310,1,150,0|8,0:0|0:0,0:0:0:0:
303,273,20712,1,2,3:2:0:0:
390,321,21056,1,10,0:0:0:0:
474,266,21401,6,0,L|464:216,1,50,0|0,3:0|0:0,0:0:0:0:
423,188,21746,2,0,L|441:89,1,100,8|0,0:0|3:0,0:0:0:0:
359,32,22436,2,0,L|349:84,1,50,8|0,0:0|0:0,0:0:0:0:
318,120,22780,2,0,P|269:108|220:98,1,100,0|8,3:0|0:0,0:0:0:0:
138,40,23470,1,2,3:2:0:0:
58,105,23815,2,0,L|71:154,1,50,10|8,0:0|0:0,0:0:0:0:
104,189,24160,6,0,L|82:286,1,100,0|8,3:0|0:0,0:0:0:0:
164,325,24849,2,0,L|152:373,2,50,0|0|8,3:0|0:0|0:0,0:0:0:0:
181,287,25367,2,0,P|226:271|269:294,1,100,2|2,0:0|0:0,0:0:0:0:
298,335,25884,1,8,0:0:0:0:
394,309,26229,2,0,L|442:319,2,50,2|0|10,3:2|3:2|0:0,0:0:0:0:
357,215,26918,6,0,B|369:115,1,100,0|8,3:0|0:0,0:0:0:0:
400,76,27436,1,0,0:0:0:0:
317,20,27780,1,0,3:0:0:0:
317,20,27953,2,0,L|268:30,1,50,8|0,0:0|0:0,0:0:0:0:
220,46,28298,1,2,3:2:0:0:
244,142,28643,1,10,0:2:0:0:
165,203,28987,1,10,0:0:0:0:
165,203,29160,1,8,0:3:0:0:
165,203,29332,1,4,0:3:0:0:
70,180,29677,6,0,P|41:219|51:267,1,100,4|8,3:2|0:0,0:0:0:0:
148,303,30367,2,0,L|139:352,2,50,0|0|8,3:0|0:0|0:0,0:0:0:0:
156,252,30884,2,0,B|218:265|218:265|240:284|240:284|296:292,1,150,0|8,0:0|0:0,0:0:0:0:
371,359,31746,1,2,3:2:0:0:
460,314,32091,1,10,0:0:0:0:
389,242,32436,6,0,L|402:142,1,100,0|8,3:0|0:0,0:0:0:0:
355,54,33125,1,0,3:0:0:0:
256,78,33470,2,0,L|266:126,1,50,8|0,0:0|0:0,0:0:0:0:
298,169,33815,2,0,L|284:268,1,100,0|8,3:0|0:0,0:0:0:0:
221,346,34505,1,2,3:2:0:0:
149,276,34849,2,0,L|100:286,1,50,10|8,0:0|0:0,0:0:0:0:
50,299,35194,6,0,P|26:257|39:210,1,100,0|8,3:0|0:0,0:0:0:0:
82,120,35884,2,0,L|69:71,2,50,0|0|8,3:0|0:0|0:0,0:0:0:0:
124,146,36401,2,0,P|172:133|221:121,1,100,2|2,0:0|0:0,0:0:0:0:
267,141,36918,2,0,L|315:129,1,50,8|0,0:0|0:0,0:0:0:0:
349,92,37263,1,2,3:2:0:0:
434,143,37608,2,0,L|421:191,1,50,10|0,0:0|0:0,0:0:0:0:
385,226,37953,6,0,L|401:324,1,100,0|8,3:0|0:0,0:0:0:0:
320,384,38643,2,0,L|303:285,1,100,0|12,3:0|0:0,0:0:0:0:
209,252,39332,1,10,0:0:0:0:
119,303,39677,1,10,0:0:0:0:
31,258,40022,1,10,0:0:0:0:
31,258,40194,1,8,0:3:0:0:
31,258,40367,1,10,0:0:0:0:
116,205,40712,6,0,B|92:48,2,150,14|14|14,0:0|0:0|0:0,0:0:0:0:
170,344,42263,2,0,P|242:350|278:289,1,150,10|14,0:0|0:0,0:0:0:0:
238,199,43125,1,10,0:0:0:0:
297,118,43470,6,0,B|343:94|343:94|435:125,2,150,14|14|14,0:0|0:0|0:0,0:0:0:0:
151,156,45022,2,0,P|143:107|172:69,1,100,10|0,0:0|3:0,0:0:0:0:
220,57,45539,2,0,L|208:8,2,50,14|8|8,0:0|0:0|0:3,0:0:0:0:
297,118,46229,6,0,L|276:215,1,100,4|0,3:2|3:0,0:0:0:0:
286,264,46746,1,8,0:3:0:0:
286,264,46918,2,0,B|243:283|243:283|194:261,1,100,0|0,3:0|3:0,0:0:0:0:
99,294,47608,2,0,P|87:246|111:203,1,100,4|0,3:2|3:0,0:0:0:0:
150,172,48125,1,8,0:0:0:0:
150,172,48298,2,0,L|138:72,1,100,8|0,0:0|3:0,0:0:0:0:
45,18,48987,5,4,3:2:0:0:
45,18,50022,2,0,L|55:117,1,100,8|12,3:2|0:0,0:0:0:0:
89,298,51229,1,12,0:0:0:0:
89,298,51401,1,12,0:0:0:0:
145,215,51746,6,0,L|243:230,1,100,8|0,0:0|3:0,0:0:0:0:
272,271,52263,1,0,3:0:0:0:
272,271,52436,2,0,L|370:255,1,100,8|0,3:3|3:0,0:0:0:0:
405,220,52953,1,0,3:0:0:0:
405,220,53125,1,12,0:0:0:0:
256,192,53212,12,10,54505,0:0:0:0:
90,282,55884,6,0,P|138:287|176:256,1,100,6|8,3:2|0:0,0:0:0:0:
198,211,56401,1,2,3:2:0:0:
198,211,56574,2,0,P|191:161|184:111,1,100,2|8,0:0|0:0,0:0:0:0:
242,29,57263,1,2,3:2:0:0:
321,89,57608,2,0,L|380:75,1,50,10|2,0:0|3:2,0:0:0:0:
416,63,57953,2,0,P|452:96|448:145,1,100,2|8,0:0|0:0,0:0:0:0:
414,181,58470,1,2,0:0:0:0:
414,181,58643,6,0,P|408:230|402:280,1,100,2|8,3:2|0:0,0:0:0:0:
305,304,59332,2,0,P|310:254|316:204,1,100,0|10,0:0|0:0,0:0:0:0:
295,162,59849,1,2,0:0:0:0:
295,162,60022,1,2,3:2:0:0:
203,204,60367,1,10,0:0:0:0:
161,113,60712,1,2,0:0:0:0:
252,70,61056,1,10,0:0:0:0:
295,162,61401,6,0,P|289:211|283:261,1,100,6|8,3:2|0:0,0:0:0:0:
304,307,61918,1,2,3:2:0:0:
304,307,62091,2,0,P|352:295|401:284,1,100,2|8,0:0|0:0,0:0:0:0:
477,348,62780,2,0,P|505:280|472:215,1,150,2|2,3:2|3:2,0:0:0:0:
427,192,63470,2,0,L|440:93,1,100,2|8,0:0|0:0,0:0:0:0:
420,46,63987,1,2,0:0:0:0:
420,46,64160,5,10,0:0:0:0:
336,100,64505,1,10,0:0:0:0:
250,49,64849,1,10,0:0:0:0:
166,103,65194,1,10,0:0:0:0:
92,34,65539,2,0,B|48:77|48:77|76:160,1,150,10|2,0:0|3:2,0:0:0:0:
110,197,66229,2,0,L|97:260,1,50,10|8,0:1|0:0,0:0:0:0:
88,294,66574,1,8,0:0:0:0:
163,358,66918,6,0,P|211:346|261:338,1,100,6|8,3:2|0:0,0:0:0:0:
311,345,67436,1,2,3:2:0:0:
311,345,67608,2,0,P|329:300|310:255,1,100,2|8,0:0|0:0,0:0:0:0:
236,187,68298,1,2,3:2:0:0:
313,123,68643,2,0,L|303:73,1,50,10|2,0:0|3:2,0:0:0:0:
294,24,68987,2,0,P|244:31|195:39,1,100,2|8,0:0|0:2,0:0:0:0:
145,28,69505,1,2,0:0:0:0:
145,28,69677,6,0,P|121:70|139:115,1,100,2|8,3:2|0:0,0:0:0:0:
178,206,70367,2,0,L|161:304,1,100,0|8,0:0|0:0,0:0:0:0:
179,351,70884,1,2,0:0:0:0:
179,351,71056,1,2,3:2:0:0:
269,308,71401,1,10,0:0:0:0:
303,214,71746,1,2,0:0:0:0:
398,245,72091,1,10,0:0:0:0:
478,304,72436,6,0,B|503:268|503:268|485:214,1,100,6|8,3:2|0:0,0:0:0:0:
451,177,72953,1,2,3:2:0:0:
451,177,73125,2,0,L|462:77,1,100,2|8,0:0|0:0,0:0:0:0:
373,31,73815,2,0,L|361:130,1,100,2|10,3:2|0:0,0:0:0:0:
323,164,74332,2,0,P|249:148|175:136,1,150,2|12,3:2|0:0,0:0:0:0:
85,92,75194,5,14,0:0:0:0:
41,182,75539,1,10,0:0:0:0:
131,226,75884,1,10,0:0:0:0:
175,136,76229,1,10,0:0:0:0:
219,46,76574,2,0,L|277:56,1,50,10|0,0:0|0:0,0:0:0:0:
306,86,76918,2,0,L|355:77,1,50,10|0,0:0|3:0,0:0:0:0:
404,68,77263,2,0,P|394:117|385:166,1,100,10|10,0:0|0:1,0:0:0:0:
306,228,77953,6,0,L|326:333,1,100,14|10,0:1|0:0,0:0:0:0:
301,370,78470,1,0,0:0:0:0:
301,370,78643,2,0,L|243:358,1,50,10|0,0:0|3:0,0:0:0:0:
215,326,78987,2,0,L|166:336,1,50,10|0,0:0|3:0,0:0:0:0:
117,347,79332,1,10,0:0:0:0:
42,280,79677,1,10,0:0:0:0:
118,215,80022,2,0,L|100:116,1,100,10|10,0:0|0:1,0:0:0:0:
153,31,80712,5,14,0:0:0:0:
240,78,81056,1,10,0:0:0:0:
326,27,81401,1,10,0:0:0:0:
377,113,81746,1,10,0:0:0:0:
291,164,82091,2,0,L|305:221,1,50,10|0,0:0|0:0,0:0:0:0:
343,242,82436,2,0,L|331:290,1,50,10|0,0:0|3:0,0:0:0:0:
318,338,82780,1,10,0:0:0:0:
415,361,83125,2,0,L|426:312,1,50,10|0,0:0|0:0,0:0:0:0:
468,285,83470,6,0,L|450:186,1,100,4|8,3:2|0:0,0:0:0:0:
465,138,83987,1,8,0:3:0:0:
465,138,84160,1,0,3:0:0:0:
395,66,84505,2,0,L|345:75,1,50,0|0,3:0|3:0,0:0:0:0:
313,113,84849,2,0,P|221:116|207:26,2,200,4|2|4,0:0|0:0|3:2,0:0:0:0:
256,192,86315,12,4,88643,0:0:0:0:
43,67,97263,6,0,P|32:142|95:190,2,150,12|12|12,0:0|0:0|0:0,0:0:0:0:
136,103,98643,1,8,0:0:0:0:
220,51,98987,2,0,L|270:63,1,50,8|8,0:0|0:0,0:0:0:0:
307,94,99332,2,0,L|355:83,2,50,8|10|4,0:0|0:3|0:3,0:0:0:0:
237,166,100022,6,0,B|194:211|194:211|217:295,2,150,12|12|12,0:0|0:0|0:0,0:0:0:0:
332,195,101401,1,8,0:0:0:0:
426,229,101746,2,0,L|414:277,1,50,8|8,0:0|0:0,0:0:0:0:
371,304,102091,2,0,L|382:352,2,50,0|8|4,3:0|0:3|0:3,0:0:0:0:
273,283,102780,6,0,B|216:295|216:295|196:318|196:318|136:331,2,150,12|12|12,0:0|0:0|0:0,0:0:0:0:
371,304,104160,1,8,0:0:0:0:
430,224,104505,2,0,L|415:157,1,50,8|8,0:0|0:0,0:0:0:0:
379,144,104849,2,0,L|394:77,2,50,8|10|4,0:0|0:3|0:3,0:0:0:0:
290,192,105539,6,0,P|243:205|202:178,1,100,8|0,0:0|3:0,0:0:0:0:
160,153,106056,2,0,L|180:55,1,100,8|0,0:0|3:0,0:0:0:0:
157,10,106574,1,8,0:0:0:0:
157,10,106746,1,8,0:0:0:0:
48,30,107091,2,0,B|12:64|12:64|30:111,1,100,8|8,0:0|0:0,0:0:0:0:
58,152,107608,2,0,L|44:215,1,50,8|4,0:0|0:3,0:0:0:0:
37,250,107953,1,0,3:0:0:0:
60,347,108298,6,0,P|128:366|172:310,2,150,4|4|4,3:2|3:2|3:2,0:0:0:0:
147,219,109849,2,0,L|294:246,1,150,8|8,0:3|0:3,0:0:0:0:
370,312,110712,1,4,0:3:0:0:
447,248,111056,5,4,3:2:0:0:
329,153,111574,1,4,3:2:0:0:
217,252,112091,1,4,3:2:0:0:
98,160,112608,2,0,L|114:61,1,100,8|8,0:0|0:3,0:0:0:0:
127,13,113125,2,0,L|175:24,1,50,8|0,0:3|0:0,0:0:0:0:
223,40,113470,1,0,3:2:0:0:
294,109,113815,6,0,P|344:97|391:88,1,100,4|4,3:2|0:3,0:0:0:0:
438,104,114332,1,8,0:0:0:0:
438,104,114505,2,0,P|464:146|450:192,1,100,0|0,3:0|3:0,0:0:0:0:
357,229,115194,2,0,P|365:278|371:327,1,100,4|0,3:2|3:0,0:0:0:0:
340,368,115712,1,12,0:0:0:0:
340,368,115884,2,0,P|290:355|242:346,1,100,8|0,0:3|3:0,0:0:0:0:
144,322,116574,1,4,3:2:0:0:
9,160,117263,5,4,3:0:0:0:
76,227,117608,2,0,L|173:203,1,100,8|4,0:0|3:2,0:0:0:0:
263,29,118643,2,0,L|255:78,1,50,8|8,0:3|0:3,0:0:0:0:
248,124,118987,1,0,3:0:0:0:
301,208,119332,6,0,P|348:221|392:200,1,100,4|0,3:2|3:0,0:0:0:0:
437,177,119849,1,8,0:0:0:0:
437,177,120022,2,0,P|427:128|418:79,1,100,8|4,0:3|0:3,0:0:0:0:
407,29,120539,1,4,0:3:0:0:
407,29,120712,1,4,3:2:0:0:
256,192,120798,12,4,122091,3:2:0:0:
256,192,123470,5,4,0:3:0:0:
256,192,128987,5,4,3:2:0:0:
74,72,131746,5,4,0:0:0:0:
146,141,132091,2,0,L|133:189,1,50,0|8,3:0|0:0,0:0:0:0:
93,219,132436,2,0,L|105:267,1,50,0|8,3:0|0:3,0:0:0:0:
119,315,132780,1,4,0:3:0:0:
201,259,133125,2,0,P|272:255|316:312,1,150,0|8,3:0|0:0,0:0:0:0:
345,353,133815,2,0,L|415:335,1,50,0|8,3:0|0:3,0:0:0:0:
442,329,134160,1,4,0:3:0:0:
493,243,134505,6,0,L|395:218,1,100,4|0,3:2|3:0,0:0:0:0:
374,173,135022,1,8,0:0:0:0:
374,173,135194,2,0,L|274:185,1,100,4|0,0:3|3:0,0:0:0:0:
174,195,135884,1,10,0:0:0:0:
174,195,136056,2,0,L|181:145,1,50,10|10,0:0|0:0,0:0:0:0:
146,109,136401,2,0,P|75:113|52:180,1,150,10|8,0:0|0:0,0:0:0:0:
110,268,137263,5,4,3:3:0:0:
122,367,137608,2,0,L|170:353,1,50,12|2,0:0|0:0,0:0:0:0:
206,319,137953,2,0,P|256:327|305:335,1,100,2|8,3:2|0:0,0:0:0:0:
395,379,138643,2,0,B|419:344|419:344|401:279,1,100,2|8,3:2|0:0,0:0:0:0:
367,254,139160,1,2,3:2:0:0:
367,254,139332,2,0,L|376:203,1,50,2|0,0:0|3:2,0:0:0:0:
418,178,139677,2,0,L|409:127,1,50,10|0,0:0|0:0,0:0:0:0:
380,87,140022,6,0,P|330:96|282:108,1,100,2|8,3:2|0:0,0:0:0:0:
240,17,140712,2,0,P|190:26|142:38,1,100,0|10,0:0|0:0,0:0:0:0:
92,44,141229,1,2,0:0:0:0:
92,44,141401,1,2,3:2:0:0:
152,123,141746,1,10,0:0:0:0:
85,197,142091,1,2,0:0:0:0:
150,272,142436,1,14,0:0:0:0:
153,368,142780,6,0,P|201:356|250:346,1,100,6|8,3:2|0:0,0:0:0:0:
298,361,143298,1,2,3:2:0:0:
298,361,143470,2,0,P|326:323|311:277,1,100,2|8,0:0|0:0,0:0:0:0:
237,208,144160,2,0,P|209:141|248:80,1,150,2|2,3:2|3:2,0:0:0:0:
294,62,144849,2,0,P|343:71|392:79,1,100,2|8,0:0|0:0,0:0:0:0:
442,88,145367,1,2,0:0:0:0:
442,88,145539,5,14,0:0:0:0:
413,183,145884,1,10,0:0:0:0:
508,212,146229,1,10,0:0:0:0:
479,307,146574,1,10,0:0:0:0:
384,278,146918,2,0,B|341:307|341:307|244:273,1,150,10|4,0:0|0:3,0:0:0:0:
201,256,147608,1,2,3:1:0:0:
112,303,147953,2,0,L|100:254,1,50,14|2,0:0|0:3,0:0:0:0:
57,228,148298,6,0,L|78:128,1,100,6|8,3:2|0:0,0:0:0:0:
66,81,148815,1,2,3:2:0:0:
66,81,148987,2,0,P|110:62|156:80,1,100,2|8,0:0|0:0,0:0:0:0:
193,172,149677,2,0,P|241:160|290:151,1,100,2|8,3:2|0:0,0:0:0:0:
337,169,150194,1,2,3:2:0:0:
337,169,150367,2,0,L|324:223,1,50,2|0,0:0|3:2,0:0:0:0:
279,238,150712,2,0,L|290:291,1,50,10|0,0:0|0:0,0:0:0:0:
297,336,151056,6,0,P|345:322|394:313,1,100,2|8,3:2|0:0,0:0:0:0:
443,323,151574,1,0,3:0:0:0:
510,249,151918,1,2,3:2:0:0:
510,249,152091,2,0,L|497:192,1,50,10|0,0:0|0:0,0:0:0:0:
488,151,152436,1,2,3:2:0:0:
391,174,152780,1,10,0:0:0:0:
369,76,153125,1,2,0:0:0:0:
272,99,153470,1,10,0:0:0:0:
173,78,153815,6,0,P|145:118|161:164,1,100,6|8,3:2|0:0,0:0:0:0:
196,199,154332,1,2,3:2:0:0:
196,199,154505,2,0,L|178:297,1,100,2|8,0:0|0:0,0:0:0:0:
268,343,155194,2,0,L|293:193,1,150,2|2,3:2|3:2,0:0:0:0:
339,175,155884,2,0,L|320:74,1,100,2|12,0:0|0:0,0:0:0:0:
309,27,156401,1,2,0:0:0:0:
309,27,156574,5,10,0:0:0:0:
223,77,156918,1,10,0:0:0:0:
145,13,157263,1,10,0:0:0:0:
59,63,157607,1,10,0:0:0:0:
132,129,157953,2,0,P|152:201|125:270,1,150,14|0,0:0|3:0,0:0:0:0:
78,288,158643,1,10,0:1:0:0:
117,379,158987,2,0,L|164:362,1,50,10|10,0:0|0:3,0:0:0:0:
203,331,159332,6,0,L|309:348,1,100,6|8,3:2|0:0,0:0:0:0:
351,354,159849,1,2,3:2:0:0:
351,354,160022,2,0,B|370:315|370:315|348:262,1,100,2|8,0:0|0:0,0:0:0:0:
324,218,160539,1,2,0:0:0:0:
324,218,160712,1,2,3:2:0:0:
373,131,161056,1,10,0:0:0:0:
313,50,161401,2,0,L|264:63,1,50,2|0,0:0|3:2,0:0:0:0:
227,96,161746,2,0,L|178:82,1,50,14|0,0:0|0:0,0:0:0:0:
129,72,162091,6,0,P|101:111|115:157,1,100,6|8,3:2|0:0,0:0:0:0:
201,208,162780,2,0,P|215:254|187:293,1,100,0|10,0:0|0:0,0:0:0:0:
139,309,163298,1,2,0:0:0:0:
139,309,163470,1,2,3:2:0:0:
64,242,163815,1,14,0:0:0:0:
115,157,164160,1,2,0:0:0:0:
201,208,164505,2,0,L|269:195,1,50,10|8,0:0|0:0,0:0:0:0:
299,203,164849,6,0,P|288:251|278:300,1,100,6|8,3:2|0:0,0:0:0:0:
299,347,165367,1,2,3:2:0:0:
299,347,165539,2,0,P|345:364|386:338,1,100,2|8,0:0|0:0,0:0:0:0:
485,334,166229,2,0,P|475:284|464:230,1,100,2|8,3:2|0:0,0:0:0:0:
419,216,166746,2,0,L|439:64,1,150,2|12,3:2|0:0,0:0:0:0:
360,5,167608,5,14,0:0:0:0:
269,47,167953,1,10,0:0:0:0:
217,132,168298,1,10,0:0:0:0:
126,90,168643,1,10,0:0:0:0:
41,142,168987,2,0,L|52:190,1,50,10|0,0:0|0:0,0:0:0:0:
99,209,169332,2,0,L|87:257,1,50,10|0,0:0|3:0,0:0:0:0:
81,307,169677,2,0,P|130:298|179:289,1,100,10|10,0:0|0:1,0:0:0:0:
278,274,170367,5,14,0:1:0:0:
344,348,170712,2,0,L|397:336,1,50,10|0,0:0|0:0,0:0:0:0:
441,325,171056,2,0,L|424:226,1,100,10|10,0:0|0:0,0:0:0:0:
395,185,171574,1,0,3:0:0:0:
395,185,171746,2,0,L|402:130,1,50,10|0,0:0|0:0,0:0:0:0:
444,109,172091,2,0,L|437:54,1,50,10|0,0:0|3:0,0:0:0:0:
411,16,172436,2,0,P|365:-1|321:19,1,100,10|10,0:0|0:1,0:0:0:0:
243,82,173125,5,14,0:0:0:0:
145,103,173470,1,10,0:0:0:0:
166,200,173815,1,10,0:0:0:0:
264,179,174160,1,10,0:0:0:0:
362,196,174505,2,0,L|352:254,1,50,10|0,0:0|0:0,0:0:0:0:
309,268,174849,2,0,L|319:326,1,50,10|0,0:0|3:0,0:0:0:0:
328,366,175194,1,10,0:0:0:0:
227,367,175539,2,0,L|218:317,1,50,10|0,0:0|0:0,0:0:0:0:
207,268,175884,6,0,P|157:277|108:286,1,100,6|8,3:2|0:0,0:0:0:0:
59,295,176401,1,8,0:3:0:0:
59,295,176574,1,4,0:0:0:0:
4,211,176918,2,0,L|14:161,1,50,0|0,3:0|0:0,0:0:0:0:
28,113,177263,2,0,P|111:157|187:100,1,200,4|10,3:2|0:0,0:0:0:0:
249,21,178298,1,2,0:0:0:0:
340,61,178643,5,4,3:2:0:0:
256,192,178729,12,4,181401,0:0:0:0:
