osu file format v14

[General]
AudioFilename: audio.mp3
AudioLeadIn: 0
PreviewTime: 55539
Countdown: 0
SampleSet: Soft
StackLeniency: 0.7
Mode: 0
LetterboxInBreaks: 0
WidescreenStoryboard: 1

[Editor]
DistanceSpacing: 1.2
BeatDivisor: 4
GridSize: 32
TimelineZoom: 2.1

[Metadata]
Title:Diamond
TitleUnicode:ダイヤモンド
Artist:Oshimizu Nako (CV: Toyosaki Aki)
ArtistUnicode:押水菜子 (CV: 豊崎愛生)
Creator:Toyosaki Aki
Version:Hard
Source:花咲くいろは
Tags:toooooon hohi Hanasaku Iroha P.A.WORKS japanese pop anime character song full ver
BeatmapID:2535956
BeatmapSetID:1217268

[Difficulty]
HPDrainRate:5
CircleSize:3.9
OverallDifficulty:6
ApproachRate:7.5
SliderMultiplier:1.53
SliderTickRate:1

[Events]
//Background and Video events
0,0,"illustration-anime-anime-girls-cartoon-Hanasaku-Iroha-mangaka-104055.jpg",0,0
//Break Periods
2,88843,96438
2,123670,128162
2,129187,130921
//Storyboard Layer 0 (Background)
//Storyboard Layer 1 (Fail)
//Storyboard Layer 2 (Pass)
//Storyboard Layer 3 (Foreground)
//Storyboard Layer 4 (Overlay)
//Storyboard Sound Samples

[TimingPoints]
712,344.827586206897,4,2,1,65,1,0
1401,-111.111111111111,4,2,1,65,0,0
18643,-125,4,2,1,55,0,0
40712,-125,4,2,1,65,0,0
55884,-100,4,2,1,70,0,1
83470,-100,4,2,1,60,0,1
84846,-125,4,2,1,60,0,1
88643,-111.111111111111,4,2,1,65,0,0
108298,-125,4,2,1,50,0,0
131746,-111.111111111111,4,2,1,65,0,0
137263,-100,4,2,1,70,0,0
137608,-100,4,2,1,70,0,1
175884,-100,4,2,1,60,0,1
177263,-125,4,2,1,60,0,1
181401,-100,4,2,1,65,0,0

[Colours]
Combo1 : 248,122,125
Combo2 : 211,104,16
Combo3 : 63,129,250
Combo4 : 31,186,27

[HitObjects]
65,336,712,5,2,0:0:0:0:
65,336,1056,1,2,0:0:0:0:
124,211,1401,2,0,L|197:224,1,68.8499978988648,8|8,0:0|0:3,0:0:0:0:
238,301,1746,2,0,L|305:287,1,68.8499978988648,4|0,0:3|3:0,0:0:0:0:
404,225,2091,6,0,P|391:292|378:360,2,137.69999579773,6|8|2,3:2|0:0|0:3,0:0:0:0:
468,164,2953,1,0,3:0:0:0:
417,90,3125,2,0,L|349:102,1,68.8499978988648,8|0,0:0|0:0,0:0:0:0:
260,180,3470,6,0,P|273:114|235:58,1,137.69999579773,2|8,3:2|0:0,0:0:0:0:
147,74,3987,2,0,P|133:139|171:195,1,137.69999579773,2|0,3:2|3:0,0:0:0:0:
228,265,4505,1,10,0:0:0:0:
228,265,4849,5,2,3:2:0:0:
171,333,5022,2,0,P|137:326|103:318,1,68.8499978988648,2|8,0:2|0:0,0:0:0:0:
16,236,5367,2,0,L|149:202,1,137.69999579773,2|0,3:2|3:0,0:0:0:0:
201,128,5884,2,0,P|226:150|238:182,1,68.8499978988648,10|0,0:0|0:0,0:0:0:0:
275,264,6229,6,0,L|302:128,2,137.69999579773,0|8|8,3:0|0:0|0:3,0:0:0:0:
322,340,7091,1,4,0:3:0:0:
401,299,7263,1,8,0:0:0:0:
320,128,7608,6,0,L|294:264,2,137.69999579773,6|8|2,3:2|0:0|0:3,0:0:0:0:
375,57,8470,1,0,3:0:0:0:
297,8,8643,2,0,L|224:22,1,68.8499978988648,8|0,0:0|0:0,0:0:0:0:
164,117,8987,6,0,L|28:90,1,137.69999579773,2|8,3:2|0:0,0:0:0:0:
2,176,9505,2,0,L|137:202,1,137.69999579773,2|0,3:2|3:0,0:0:0:0:
183,279,10022,1,10,0:0:0:0:
183,279,10367,5,2,3:2:0:0:
270,258,10539,2,0,L|338:243,1,68.8499978988648,2|8,0:0|0:0,0:0:0:0:
425,309,10884,2,0,P|456:251|433:188,1,137.69999579773,2|0,3:2|3:0,0:0:0:0:
389,108,11401,2,0,P|361:127|348:159,1,68.8499978988648,10|0,0:0|0:0,0:0:0:0:
338,243,11746,6,0,L|270:258,1,68.8499978988648,0|0,3:0|0:0,0:0:0:0:
219,331,12091,2,0,L|151:316,1,68.8499978988648,12|0,0:0|0:0,0:0:0:0:
65,292,12436,1,10,0:1:0:0:
65,292,12608,1,8,0:3:0:0:
131,232,12780,1,10,0:1:0:0:
131,232,12952,1,0,0:0:0:0:
74,161,13125,6,0,P|81:128|87:94,1,68.8499978988648,14|0,0:0|3:0,0:0:0:0:
108,7,13470,1,0,3:0:0:0:
196,62,13643,2,0,L|337:39,1,137.69999579773,14|0,0:0|3:0,0:0:0:0:
381,142,14160,1,10,0:0:0:0:
381,142,14332,2,0,L|313:129,1,68.8499978988648,10|0,0:0|0:0,0:0:0:0:
233,158,14677,5,2,3:2:0:0:
282,230,14849,2,0,L|268:298,1,68.8499978988648,14|0,0:0|0:2,0:0:0:0:
178,301,15194,2,0,L|193:234,1,68.8499978988648,14|0,0:0|0:0,0:0:0:0:
141,160,15539,2,0,L|107:167,3,34.4249989494324,8|8|8|8,0:0|0:0|0:0|0:0,0:0:0:0:
71,177,15884,6,0,L|89:254,1,68.8499978988648,14|0,0:0|3:0,0:0:0:0:
6,280,16229,1,0,3:0:0:0:
39,372,16401,2,0,L|181:339,1,137.69999579773,14|0,0:0|3:0,0:0:0:0:
275,353,16918,1,14,0:0:0:0:
275,353,17091,2,0,L|262:285,1,68.8499978988648,14|0,0:0|0:0,0:0:0:0:
238,198,17436,5,10,0:0:0:0:
325,213,17608,1,10,0:0:0:0:
393,155,17780,1,10,0:0:0:0:
480,170,17953,1,10,0:0:0:0:
480,170,18298,2,0,L|464:237,1,68.8499978988648,8|0,0:2|3:0,0:0:0:0:
489,335,18643,6,0,P|429:336|384:297,1,122.4,4|8,3:2|0:0,0:0:0:0:
325,213,19160,1,0,0:0:0:0:
325,213,19332,2,0,L|312:285,1,61.2,0|0,3:0|0:0,0:0:0:0:
233,302,19677,2,0,L|243:241,1,61.2,8|0,0:0|0:0,0:0:0:0:
203,150,20022,6,0,L|83:175,1,122.4,0|8,3:0|0:0,0:0:0:0:
51,95,20539,1,0,0:0:0:0:
51,95,20712,2,0,L|58:26,1,61.2,2|2,3:2|3:2,0:0:0:0:
142,24,21056,2,0,L|135:84,1,61.2,8|0,0:0|0:0,0:0:0:0:
203,150,21401,6,0,P|232:142|262:135,1,61.2,0|0,3:0|0:0,0:0:0:0:
342,71,21746,2,0,B|377:95|377:95|359:173,1,122.4,8|0,0:0|3:0,0:0:0:0:
384,255,22263,1,0,0:0:0:0:
384,255,22436,2,0,L|448:241,1,61.2,8|0,0:0|0:0,0:0:0:0:
359,173,22780,6,0,P|308:205|299:263,1,122.4,0|8,3:0|0:0,0:0:0:0:
309,349,23298,1,0,0:0:0:0:
309,349,23471,2,0,L|245:335,1,61.2,2|2,3:2|3:2,0:0:0:0:
160,272,23815,2,0,L|224:258,1,61.2,8|8,0:0|0:0,0:0:0:0:
172,350,24160,6,0,B|121:361|121:361|59:327,1,122.4,0|8,3:0|0:0,0:0:0:0:
78,243,24677,1,0,0:0:0:0:
54,160,24849,2,0,L|-5:174,2,61.2,0|0|8,3:0|0:0|0:0,0:0:0:0:
120,75,25367,6,0,B|152:108|152:108|134:182,1,122.4,2|2,0:0|0:0,0:0:0:0:
218,200,25884,2,0,L|233:138,1,61.2,8|0,0:0|0:0,0:0:0:0:
220,52,26229,1,2,3:2:0:0:
220,52,26401,1,2,3:2:0:0:
300,91,26574,2,0,L|366:80,1,61.2,8|0,0:0|0:0,0:0:0:0:
443,18,26918,6,0,P|473:69|454:125,1,122.4,0|8,3:0|0:0,0:0:0:0:
378,167,27436,2,0,P|355:221|382:274,1,122.4,0|0,0:0|3:0,0:0:0:0:
462,304,27953,1,8,0:0:0:0:
462,304,28298,6,0,L|388:318,1,61.2,2|0,3:2|0:0,0:0:0:0:
333,367,28643,2,0,L|272:355,1,61.2,10|0,0:2|0:0,0:0:0:0:
189,336,28987,1,10,0:0:0:0:
251,276,29160,1,8,0:3:0:0:
206,202,29332,1,4,0:3:0:0:
206,202,29677,6,0,P|150:218|101:184,1,122.4,4|8,3:2|0:0,0:0:0:0:
74,102,30194,1,0,0:0:0:0:
74,102,30367,2,0,L|133:87,1,61.2,0|0,3:0|0:0,0:0:0:0:
218,101,30712,2,0,L|205:38,1,61.2,8|0,0:0|0:0,0:0:0:0:
303,98,31056,6,0,L|282:228,1,122.4,0|8,3:0|0:0,0:0:0:0:
313,299,31574,1,0,0:0:0:0:
313,299,31746,2,0,L|375:285,1,61.2,2|2,3:2|3:2,0:0:0:0:
343,205,32091,2,0,L|283:218,1,61.2,8|0,0:0|0:0,0:0:0:0:
189,278,32436,6,0,L|208:157,1,122.4,0|8,3:0|0:0,0:0:0:0:
208,71,32953,1,0,0:0:0:0:
208,71,33125,2,0,L|268:58,1,61.2,0|0,3:0|0:0,0:0:0:0:
339,105,33470,2,0,L|399:118,1,61.2,8|0,0:0|0:0,0:0:0:0:
463,40,33815,6,0,P|500:86|493:145,1,122.4,0|8,3:0|0:0,0:0:0:0:
423,196,34332,1,0,0:0:0:0:
423,196,34505,2,0,L|435:255,1,61.2,2|2,3:2|3:2,0:0:0:0:
359,293,34849,2,0,L|346:233,1,61.2,8|8,0:0|0:0,0:0:0:0:
278,153,35194,6,0,P|232:190|239:248,1,122.4,0|8,3:0|0:0,0:0:0:0:
282,323,35712,1,0,0:0:0:0:
196,318,35884,2,0,L|186:383,2,61.2,0|0|8,3:0|0:0|0:0,0:0:0:0:
107,262,36401,6,0,L|125:141,1,122.4,2|2,0:0|0:0,0:0:0:0:
95,67,36918,2,0,L|154:53,1,61.2,8|0,0:0|0:0,0:0:0:0:
205,115,37263,2,0,L|264:128,2,61.2,2|2|8,3:2|3:2|0:0,0:0:0:0:
300,53,37780,1,0,0:0:0:0:
300,53,37953,6,0,P|343:93|343:152,1,122.4,0|8,3:0|0:0,0:0:0:0:
268,293,38643,2,0,P|328:284|389:275,1,122.4,0|12,3:0|0:0,0:0:0:0:
485,148,39332,6,0,L|425:132,1,61.2,10|8,0:0|0:0,0:0:0:0:
343,152,39677,2,0,L|283:136,1,61.2,10|8,0:0|0:0,0:0:0:0:
220,78,40022,1,10,0:0:0:0:
143,117,40194,1,8,0:3:0:0:
75,63,40367,1,10,0:0:0:0:
75,63,40712,6,0,P|109:112|103:172,1,122.4,14|0,0:0|3:0,0:0:0:0:
36,235,41229,2,0,B|60:312|60:312|99:299,1,122.4,14|0,0:0|3:0,0:0:0:0:
163,233,41746,2,0,L|292:260,1,122.4,14|0,0:0|3:0,0:0:0:0:
353,317,42263,5,10,0:0:0:0:
353,317,42436,2,0,P|373:276|367:240,1,61.2,12|0,0:0|3:0,0:0:0:0:
328,194,42780,2,0,P|324:164|318:131,1,61.2,14|0,0:0|3:0,0:0:0:0:
305,55,43125,1,10,0:0:0:0:
305,55,43212,1,8,0:0:0:0:
305,55,43298,1,8,0:0:0:0:
392,19,43470,6,0,B|425:51|425:51|404:124,1,122.4,14|0,0:0|3:0,0:0:0:0:
328,194,43987,2,0,P|268:178|208:165,1,122.4,14|0,0:0|3:0,0:0:0:0:
136,90,44505,2,0,P|99:136|107:195,1,122.4,14|0,0:0|3:0,0:0:0:0:
174,240,45022,5,10,0:0:0:0:
174,240,45194,2,0,L|161:299,1,61.2,6|0,0:0|3:0,0:0:0:0:
227,345,45539,2,0,L|286:330,1,61.2,14|8,0:0|0:0,0:0:0:0:
315,256,45884,2,0,L|374:270,1,61.2,10|0,0:3|0:0,0:0:0:0:
462,327,46229,6,0,L|448:199,1,122.4,4|0,3:2|3:0,0:0:0:0:
377,168,46746,1,8,0:3:0:0:
377,168,46918,2,0,L|392:98,1,61.2,0|0,3:0|0:0,0:0:0:0:
446,52,47263,1,0,3:0:0:0:
446,52,47608,6,0,B|403:73|403:73|332:49,1,122.4,4|0,3:2|3:0,0:0:0:0:
252,29,48125,1,8,0:0:0:0:
252,29,48298,2,0,L|263:89,1,61.2,8|8,0:0|0:3,0:0:0:0:
225,159,48643,2,0,P|164:149|104:138,1,122.4,0|4,3:0|3:2,0:0:0:0:
104,138,50022,6,0,P|164:149|225:159,1,122.4,8|12,3:2|0:0,0:0:0:0:
225,159,51229,5,12,0:0:0:0:
170,220,51401,2,0,L|186:280,1,61.2,12|0,0:0|0:0,0:0:0:0:
179,377,51746,6,0,P|238:362|298:351,1,122.4,8|0,0:0|3:0,0:0:0:0:
382,359,52263,1,0,3:0:0:0:
382,359,52436,2,0,L|367:293,1,61.2,8|0,3:3|0:0,0:0:0:0:
303,253,52780,2,0,L|316:193,1,61.2,0|0,3:0|3:0,0:0:0:0:
395,128,53125,6,0,L|274:98,1,122.4,12|8,0:0|0:0,0:0:0:0:
221,40,53643,1,8,0:0:0:0:
173,116,53815,2,0,L|113:100,1,61.2,8|8,0:0|0:0,0:0:0:0:
69,26,54160,2,0,L|129:10,1,61.2,8|8,0:0|0:0,0:0:0:0:
221,40,54505,5,10,0:0:0:0:
173,116,54677,1,10,0:0:0:0:
247,179,54849,1,10,0:0:0:0:
190,262,55021,1,10,0:0:0:0:
190,262,55884,6,0,P|263:266|298:330,1,153,6|8,3:2|0:0,0:0:0:0:
209,357,56401,1,2,3:2:0:0:
209,357,56574,2,0,P|133:343|57:332,1,153,2|8,0:0|0:0,0:0:0:0:
11,252,57091,1,0,0:0:0:0:
102,251,57263,6,0,L|86:176,1,76.5,2|0,3:2|0:0,0:0:0:0:
6,129,57608,2,0,L|22:54,1,76.5,10|0,0:0|3:2,0:0:0:0:
102,8,57953,1,2,0:0:0:0:
102,8,58125,1,2,3:2:0:0:
131,95,58298,2,0,L|208:75,1,76.5,10|0,0:0|0:0,0:0:0:0:
295,16,58643,6,0,B|336:62|336:62|307:150,1,153,2|8,3:2|0:0,0:0:0:0:
219,169,59160,1,0,3:0:0:0:
266,248,59332,2,0,L|341:233,1,76.5,0|0,0:0|3:0,0:0:0:0:
428,265,59677,1,10,0:0:0:0:
428,265,59849,1,2,0:0:0:0:
419,372,60022,6,0,L|336:352,1,76.5,2|0,3:2|0:0,0:0:0:0:
248,322,60367,2,0,L|268:238,1,76.5,10|0,0:0|3:0,0:0:0:0:
167,205,60712,2,0,L|149:279,1,76.5,2|0,0:0|3:0,0:0:0:0:
64,326,61056,1,10,0:0:0:0:
64,326,61229,1,8,0:0:0:0:
182,357,61401,6,0,L|165:190,1,153,6|8,3:2|0:0,0:0:0:0:
114,125,61918,1,2,3:2:0:0:
114,125,62091,2,0,L|131:47,1,76.5,2|0,0:0|0:0,0:0:0:0:
222,42,62436,2,0,L|205:116,1,76.5,8|0,0:0|0:0,0:0:0:0:
253,220,62780,6,0,P|323:238|371:183,1,153,2|8,3:2|0:0,0:0:0:0:
351,98,63298,1,2,3:2:0:0:
471,128,63470,2,0,L|445:278,1,153,2|8,0:0|0:0,0:0:0:0:
353,334,63987,1,0,0:0:0:0:
353,334,64160,6,0,L|338:251,1,76.5,10|0,0:0|0:0,0:0:0:0:
249,201,64505,2,0,P|211:202|182:226,1,76.5,10|0,0:0|0:0,0:0:0:0:
189,335,64849,2,0,L|114:318,1,76.5,10|0,0:0|0:0,0:0:0:0:
25,253,65194,2,0,L|99:236,1,76.5,10|0,0:0|0:0,0:0:0:0:
182,225,65539,5,10,0:0:0:0:
182,225,65712,1,8,0:0:0:0:
117,139,65884,1,8,0:0:0:0:
117,139,65970,1,8,0:3:0:0:
117,139,66056,1,2,3:2:0:0:
221,116,66229,2,0,L|287:101,2,38.25,10|8|8,0:1|0:0|0:0,0:0:0:0:
161,24,66574,1,8,0:0:0:0:
161,24,66746,1,8,0:3:0:0:
49,79,66918,6,0,L|76:248,1,153,6|8,3:2|0:0,0:0:0:0:
0,280,67436,1,2,3:2:0:0:
66,338,67608,2,0,P|139:318|215:305,1,153,2|8,0:0|0:0,0:0:0:0:
296,349,68125,1,0,0:0:0:0:
295,241,68298,6,0,P|331:251|369:255,1,76.5,2|0,3:2|0:0,0:0:0:0:
456,287,68643,1,10,0:0:0:0:
456,287,68815,2,0,L|442:189,1,76.5,2|0,3:2|0:0,0:0:0:0:
364,166,69160,1,2,3:2:0:0:
364,166,69332,2,0,L|378:68,1,76.5,10|0,0:2|0:0,0:0:0:0:
304,8,69677,6,0,B|247:20|247:20|229:38|229:38|161:52,1,153,2|8,3:2|0:0,0:0:0:0:
171,144,70194,2,0,L|95:132,1,76.5,0|0,3:0|0:0,0:0:0:0:
16,94,70539,1,0,3:0:0:0:
85,41,70712,2,0,L|160:52,1,76.5,8|0,0:0|0:0,0:0:0:0:
260,109,71056,6,0,B|290:156|290:156|261:248,1,153,2|10,3:2|0:0,0:0:0:0:
169,265,71574,1,0,3:0:0:0:
210,350,71746,2,0,L|292:335,1,76.5,2|0,0:0|3:0,0:0:0:0:
341,263,72091,2,0,L|416:276,1,76.5,10|8,0:0|0:0,0:0:0:0:
482,373,72436,6,0,L|461:213,1,153,6|8,3:2|0:0,0:0:0:0:
496,132,72953,1,2,3:2:0:0:
496,132,73125,2,0,L|412:114,1,76.5,2|0,0:0|0:0,0:0:0:0:
343,164,73470,2,0,L|268:147,1,76.5,8|0,0:0|0:0,0:0:0:0:
235,59,73815,6,0,L|85:92,1,153,2|10,3:2|0:0,0:0:0:0:
24,162,74332,2,0,L|40:237,1,76.5,2|0,3:2|0:0,0:0:0:0:
130,257,74677,1,0,3:0:0:0:
102,360,74849,2,0,L|177:342,1,76.5,12|0,0:0|0:0,0:0:0:0:
234,250,75194,6,0,P|271:253|300:278,1,76.5,14|0,0:0|0:0,0:0:0:0:
361,368,75539,2,0,P|399:358|436:350,1,76.5,10|0,0:0|0:0,0:0:0:0:
488,256,75884,2,0,P|450:246|413:238,1,76.5,10|0,0:0|3:0,0:0:0:0:
329,170,76229,2,0,L|343:94,1,76.5,10|0,0:0|3:0,0:0:0:0:
238,9,76574,6,0,B|189:39|189:39|216:137,1,153,10|10,0:0|0:0,0:0:0:0:
187,235,77091,1,0,3:0:0:0:
118,163,77263,2,0,L|32:150,1,76.5,10|0,0:0|3:0,0:0:0:0:
3,251,77608,2,0,L|78:262,1,76.5,10|0,0:1|3:0,0:0:0:0:
179,360,77953,6,0,P|220:301|188:236,1,153,14|10,0:1|0:0,0:0:0:0:
118,163,78470,1,0,0:0:0:0:
175,74,78643,2,0,L|249:90,1,76.5,10|0,0:0|3:0,0:0:0:0:
292,186,78987,2,0,L|366:169,1,76.5,10|0,0:0|3:0,0:0:0:0:
463,158,79332,5,10,0:0:0:0:
463,158,79505,1,0,0:0:0:0:
455,280,79677,2,0,L|380:263,1,76.5,10|0,0:0|3:0,0:0:0:0:
292,186,80022,2,0,L|274:260,1,76.5,10|0,0:0|3:0,0:0:0:0:
319,352,80367,1,10,0:1:0:0:
319,352,80453,1,8,0:0:0:0:
319,352,80539,1,8,0:0:0:0:
210,361,80712,6,0,L|192:286,1,76.5,14|0,0:0|0:0,0:0:0:0:
114,212,81056,2,0,L|194:186,1,76.5,10|0,0:0|0:0,0:0:0:0:
285,178,81401,1,10,0:0:0:0:
330,90,81574,1,0,3:0:0:0:
237,93,81746,2,0,L|162:73,1,76.5,10|0,0:0|3:0,0:0:0:0:
55,114,82091,5,10,0:0:0:0:
55,114,82263,1,0,0:0:0:0:
114,212,82436,1,10,0:0:0:0:
0,222,82608,1,0,3:0:0:0:
58,321,82780,1,10,0:0:0:0:
58,321,83125,6,0,L|134:306,1,76.5,10|0,0:0|0:0,0:0:0:0:
230,375,83470,2,0,B|269:343|269:343|247:242,1,153,4|8,3:2|0:0,0:0:0:0:
182,171,83987,1,8,0:3:0:0:
118,101,84160,2,0,L|131:21,1,76.5,0|0,3:0|3:0,0:0:0:0:
221,16,84505,2,0,L|208:91,1,76.5,0|0,3:0|3:0,0:0:0:0:
262,157,84849,6,0,P|348:141|393:215,1,183.6,4|0,0:0|0:0,0:0:0:0:
338,290,85539,2,0,L|279:272,1,61.2,2|0,0:0|0:0,0:0:0:0:
213,224,85884,2,0,L|154:242,1,61.2,2|0,0:0|0:0,0:0:0:0:
80,269,86229,5,4,3:2:0:0:
256,192,86315,12,4,88643,0:0:0:0:
56,111,97263,6,0,B|106:133|106:133|182:100,1,137.69999579773,12|0,0:0|3:2,0:0:0:0:
246,28,97780,2,0,P|288:79|270:142,1,137.69999579773,12|0,0:0|3:0,0:0:0:0:
190,197,98298,2,0,L|211:297,1,103.274996848297,12|0,0:0|0:0,0:0:0:0:
218,333,98643,6,0,L|285:316,1,68.8499978988648,8|0,0:0|0:0,0:0:0:0:
378,287,98987,1,8,0:0:0:0:
378,287,99074,1,8,0:0:0:0:
378,287,99160,2,0,L|432:274,2,34.4249989494324,8|8|8,0:0|0:0|0:0,0:0:0:0:
314,234,99505,1,10,0:3:0:0:
314,234,99677,2,0,L|328:161,1,68.8499978988648,4|0,0:3|3:0,0:0:0:0:
341,76,100022,5,12,0:0:0:0:
258,87,100195,2,0,L|184:101,1,68.8499978988648,0|0,3:0|3:0,0:0:0:0:
119,34,100539,2,0,B|79:89|79:89|112:167,1,137.69999579773,12|0,0:0|3:0,0:0:0:0:
201,188,101056,2,0,L|302:168,1,103.274996848297,12|0,0:0|0:0,0:0:0:0:
326,166,101401,6,0,L|311:242,1,68.8499978988648,8|0,0:0|0:0,0:0:0:0:
243,278,101746,1,8,0:0:0:0:
243,278,101918,1,8,0:0:0:0:
263,358,102091,2,0,L|338:345,2,68.8499978988648,0|8|4,3:0|0:3|0:3,0:0:0:0:
85,289,102780,6,0,L|106:151,1,137.69999579773,12|0,0:0|3:0,0:0:0:0:
94,56,103298,2,0,B|150:68|150:68|167:85|167:85|222:95,1,137.69999579773,12|0,0:0|3:0,0:0:0:0:
291,163,103815,2,0,P|274:115|294:68,1,103.274996848297,12|0,0:0|0:0,0:0:0:0:
313,51,104160,6,0,L|381:45,1,68.8499978988648,8|0,0:0|0:0,0:0:0:0:
439,122,104505,1,8,0:0:0:0:
439,122,104591,1,8,0:0:0:0:
439,122,104677,2,0,L|473:118,2,34.4249989494324,8|8|8,0:0|0:0|0:0,0:0:0:0:
376,176,105022,1,10,0:3:0:0:
376,176,105194,2,0,L|391:243,1,68.8499978988648,4|0,0:3|3:0,0:0:0:0:
344,327,105539,5,8,0:0:0:0:
344,327,105712,2,0,L|276:314,1,68.8499978988648,0|0,3:0|3:0,0:0:0:0:
206,247,106056,1,8,0:0:0:0:
206,247,106229,2,0,L|138:259,1,68.8499978988648,0|0,3:0|3:0,0:0:0:0:
66,325,106574,1,8,0:0:0:0:
66,325,106746,6,0,P|34:268|57:205,1,137.69999579773,8|8,0:0|0:0,0:0:0:0:
135,176,107263,2,0,L|121:100,1,68.8499978988648,8|8,0:0|0:0,0:0:0:0:
108,26,107608,2,0,L|178:36,1,68.8499978988648,8|8,0:0|0:3,0:0:0:0:
200,70,107867,1,4,0:3:0:0:
200,70,107953,2,0,L|268:60,1,68.8499978988648,0|0,3:0|0:0,0:0:0:0:
361,18,108298,6,0,B|411:64|411:64|376:174,2,183.6,4|4|4,3:2|3:2|3:2,0:0:0:0:
308,220,109849,6,0,P|386:259|450:202,1,183.6,8|8,0:3|0:3,0:0:0:0:
353,112,110712,1,4,0:3:0:0:
223,147,111056,6,0,L|41:118,2,183.6,4|4|4,3:2|3:2|3:2,0:0:0:0:
199,363,112608,2,0,P|143:347|139:290,1,122.4,8|8,0:0|0:3,0:0:0:0:
208,246,113125,2,0,L|270:255,1,61.2,8|0,0:3|0:0,0:0:0:0:
319,319,113470,2,0,L|379:310,1,61.2,0|0,3:2|0:0,0:0:0:0:
451,262,113815,6,0,L|431:133,1,122.4,4|4,3:2|0:3,0:0:0:0:
382,70,114332,1,8,0:0:0:0:
382,70,114505,2,0,P|410:56|440:54,2,61.2,0|2|0,3:0|0:3|3:0,0:0:0:0:
284,163,115194,6,0,L|264:34,1,122.4,4|0,3:2|3:0,0:0:0:0:
180,23,115712,1,12,0:0:0:0:
180,23,115884,2,0,L|189:83,1,61.2,8|0,0:3|0:0,0:0:0:0:
113,124,116229,2,0,L|103:63,1,61.2,0|0,3:0|0:0,0:0:0:0:
33,12,116574,5,4,3:2:0:0:
0,271,117263,1,4,0:3:0:0:
182,223,117608,2,0,L|57:199,1,122.4,8|4,0:0|3:2,0:0:0:0:
62,200,118643,5,8,0:3:0:0:
111,289,118815,1,8,0:3:0:0:
182,223,118987,1,0,3:0:0:0:
269,325,119332,6,0,L|392:305,1,122.4,4|0,3:2|3:0,0:0:0:0:
474,313,119849,1,8,0:0:0:0:
445,232,120022,2,0,L|322:212,1,122.4,8|4,0:3|0:3,0:0:0:0:
284,135,120539,1,4,0:3:0:0:
284,135,120712,5,4,3:2:0:0:
182,223,121056,2,0,L|172:162,1,61.2,0|8,3:0|0:0,0:0:0:0:
116,97,121401,2,0,P|57:86|21:136,1,122.4,0|0,3:0|3:0,0:0:0:0:
70,201,121918,1,8,0:0:0:0:
34,279,122091,5,4,3:2:0:0:
256,192,122177,12,4,123470,0:3:0:0:
256,192,128987,5,4,3:2:0:0:
96,301,131746,5,4,0:0:0:0:
112,136,132091,2,0,L|185:156,1,68.8499978988648,0|8,3:0|0:0,0:0:0:0:
218,226,132436,2,0,L|284:207,1,68.8499978988648,0|8,3:0|0:3,0:0:0:0:
364,187,132780,1,4,0:3:0:0:
492,267,133125,6,0,L|473:130,1,137.69999579773,0|0,3:0|3:0,0:0:0:0:
488,55,133643,1,8,0:0:0:0:
488,55,133815,2,0,L|421:35,1,68.8499978988648,0|8,3:0|0:3,0:0:0:0:
374,95,134160,2,0,L|307:114,1,68.8499978988648,4|0,0:3|0:0,0:0:0:0:
261,52,134505,6,0,P|198:32|146:72,1,137.69999579773,4|0,3:2|3:0,0:0:0:0:
75,116,135022,1,8,0:0:0:0:
75,116,135194,2,0,L|91:182,1,68.8499978988648,4|0,0:3|0:0,0:0:0:0:
172,216,135539,2,0,L|155:282,1,68.8499978988648,0|8,3:0|0:0,0:0:0:0:
135,368,135884,5,10,0:0:0:0:
231,331,136056,1,10,0:0:0:0:
326,381,136228,1,10,0:0:0:0:
419,335,136401,1,10,0:0:0:0:
360,195,136746,5,8,0:0:0:0:
360,195,136832,1,8,0:0:0:0:
360,195,136918,2,0,L|373:114,1,68.8499978988648,8|8,0:0|0:0,0:0:0:0:
273,64,137263,6,0,B|229:105|229:105|245:196,1,153,4|12,3:3|0:0,0:0:0:0:
302,269,137780,1,2,0:0:0:0:
231,348,137953,2,0,P|155:334|80:320,1,153,2|8,3:2|0:0,0:0:0:0:
37,226,138470,1,0,0:0:0:0:
138,236,138643,2,0,L|126:160,1,76.5,2|0,3:2|0:0,0:0:0:0:
183,72,138987,2,0,L|258:85,1,76.5,10|0,0:0|3:2,0:0:0:0:
294,185,139332,1,2,0:0:0:0:
294,185,139505,1,2,3:2:0:0:
398,181,139677,2,0,L|388:105,1,76.5,10|0,0:0|0:0,0:0:0:0:
501,66,140022,6,0,L|484:237,1,153,2|8,3:2|0:0,0:0:0:0:
474,324,140539,1,0,3:0:0:0:
389,266,140712,2,0,L|310:280,1,76.5,0|0,0:0|3:0,0:0:0:0:
228,333,141056,1,10,0:0:0:0:
228,333,141229,1,2,0:0:0:0:
174,222,141401,6,0,L|249:208,1,76.5,2|0,3:2|0:0,0:0:0:0:
313,109,141746,2,0,L|237:122,1,76.5,10|0,0:0|3:0,0:0:0:0:
125,96,142091,2,0,L|138:20,1,76.5,2|0,0:0|3:0,0:0:0:0:
25,2,142436,2,0,L|11:77,1,76.5,14|8,0:0|0:0,0:0:0:0:
72,183,142780,6,0,P|140:208|196:162,1,153,6|8,3:2|0:0,0:0:0:0:
214,51,143298,1,2,3:2:0:0:
304,110,143470,2,0,L|458:83,1,153,2|8,0:0|0:0,0:0:0:0:
500,180,143987,1,2,0:0:0:0:
500,180,144160,6,0,L|349:206,1,153,2|8,3:2|0:0,0:0:0:0:
263,195,144677,1,2,3:2:0:0:
324,283,144849,2,0,L|310:358,1,76.5,2|0,0:0|3:0,0:0:0:0:
203,364,145194,2,0,L|216:288,1,76.5,8|0,0:0|0:0,0:0:0:0:
173,179,145539,6,0,P|135:185|97:192,1,76.5,14|0,0:0|0:0,0:0:0:0:
30,93,145884,2,0,P|67:85|105:79,1,76.5,10|0,0:0|0:0,0:0:0:0:
213,15,146229,2,0,L|228:93,1,76.5,10|0,0:0|3:0,0:0:0:0:
331,165,146574,2,0,L|345:89,1,76.5,10|0,0:0|3:0,0:0:0:0:
433,16,146918,5,10,0:0:0:0:
507,95,147091,1,8,0:0:0:0:
432,173,147263,1,8,0:0:0:0:
432,173,147349,1,8,0:3:0:0:
432,173,147436,1,4,0:3:0:0:
505,252,147608,2,0,L|485:340,1,76.5,2|8,3:1|0:3,0:0:0:0:
399,383,147953,2,0,L|382:308,1,76.5,14|2,0:0|0:3,0:0:0:0:
326,199,148298,6,0,B|268:211|268:211|244:231|244:231|182:241,1,153,6|8,3:2|0:0,0:0:0:0:
110,302,148815,1,2,3:2:0:0:
44,177,148987,2,0,L|194:151,1,153,2|8,0:0|0:0,0:0:0:0:
228,72,149505,1,0,0:0:0:0:
327,130,149677,6,0,L|315:41,1,76.5,2|0,3:2|0:0,0:0:0:0:
416,14,150022,2,0,L|426:89,1,76.5,10|0,0:0|3:2,0:0:0:0:
511,154,150367,1,2,0:0:0:0:
511,154,150539,1,2,3:2:0:0:
484,256,150712,2,0,L|402:243,1,76.5,10|0,0:0|0:0,0:0:0:0:
321,153,151056,6,0,P|269:203|285:275,1,153,2|8,3:2|0:0,0:0:0:0:
372,346,151574,2,0,L|296:357,1,76.5,0|0,3:0|0:0,0:0:0:0:
211,298,151918,1,2,3:2:0:0:
211,298,152091,2,0,L|135:309,1,76.5,10|0,0:0|0:0,0:0:0:0:
21,329,152436,6,0,L|35:253,1,76.5,2|0,3:2|0:0,0:0:0:0:
151,221,152780,2,0,L|136:145,1,76.5,10|0,0:0|3:0,0:0:0:0:
78,34,153125,2,0,L|63:109,1,76.5,2|0,0:0|3:0,0:0:0:0:
212,133,153470,2,0,L|226:57,1,76.5,10|8,0:0|0:0,0:0:0:0:
352,8,153815,6,0,P|404:60|379:128,1,153,6|8,3:2|0:0,0:0:0:0:
294,211,154332,1,2,3:2:0:0:
294,211,154505,2,0,L|308:289,1,76.5,2|0,0:0|3:0,0:0:0:0:
410,287,154849,2,0,L|396:211,1,76.5,8|0,0:0|0:0,0:0:0:0:
289,122,155194,6,0,P|218:147|150:116,1,153,2|8,3:2|0:0,0:0:0:0:
86,42,155712,1,2,3:2:0:0:
18,106,155884,2,0,P|27:143|36:180,1,76.5,2|0,0:0|3:0,0:0:0:0:
129,230,156229,2,0,P|119:267|110:304,1,76.5,12|0,0:0|0:0,0:0:0:0:
193,382,156574,6,0,L|269:364,1,76.5,10|0,0:0|3:0,0:0:0:0:
373,297,156918,2,0,L|298:280,1,76.5,10|0,0:0|3:0,0:0:0:0:
224,180,157263,2,0,L|246:86,1,76.5,10|0,0:0|3:0,0:0:0:0:
347,32,157608,2,0,L|364:106,1,76.5,10|0,0:0|3:0,0:0:0:0:
430,209,157953,5,14,0:0:0:0:
306,199,158125,1,8,3:0:0:0:
364,106,158298,1,10,0:0:0:0:
364,106,158470,1,0,3:0:0:0:
231,28,158643,2,0,L|242:104,1,76.5,10|10,0:1|0:1,0:0:0:0:
140,140,158987,2,0,L|130:65,1,76.5,10|10,0:0|0:3,0:0:0:0:
19,102,159332,6,0,P|90:86|140:140,1,153,6|8,3:2|0:0,0:0:0:0:
175,250,159849,1,2,3:2:0:0:
72,195,160022,2,0,L|89:353,1,153,2|8,0:0|0:0,0:0:0:0:
192,364,160539,1,2,0:0:0:0:
192,364,160712,6,0,L|210:275,1,76.5,2|0,3:2|0:0,0:0:0:0:
236,179,161056,2,0,B|284:212|284:212|372:177,1,153,10|0,0:0|0:0,0:0:0:0:
400,75,161574,1,2,3:2:0:0:
491,132,161746,2,0,L|475:206,1,76.5,14|0,0:0|0:0,0:0:0:0:
396,328,162091,6,0,L|371:176,1,153,6|8,3:2|0:0,0:0:0:0:
400,75,162608,1,0,3:0:0:0:
302,117,162780,2,0,L|220:104,1,76.5,0|0,0:0|3:0,0:0:0:0:
162,23,163125,1,10,0:0:0:0:
162,23,163298,1,2,0:0:0:0:
57,92,163470,6,0,L|76:166,1,76.5,2|0,3:2|0:0,0:0:0:0:
68,288,163815,2,0,P|105:287|138:269,1,76.5,14|0,0:0|3:0,0:0:0:0:
199,162,164160,2,0,L|277:178,1,76.5,2|0,0:0|3:0,0:0:0:0:
322,299,164505,2,0,L|396:283,1,76.5,10|8,0:0|0:0,0:0:0:0:
495,180,164849,6,0,P|427:207|369:162,1,153,6|8,3:2|0:0,0:0:0:0:
411,73,165367,1,2,3:2:0:0:
315,14,165539,2,0,L|304:89,1,76.5,2|0,0:0|3:0,0:0:0:0:
207,135,165884,2,0,L|124:112,1,76.5,8|0,0:0|0:0,0:0:0:0:
88,21,166229,5,2,3:2:0:0:
0,80,166401,2,0,L|18:157,1,76.5,2|8,0:0|0:0,0:0:0:0:
27,279,166746,2,0,L|176:248,1,153,2|0,3:2|3:0,0:0:0:0:
264,185,167263,1,12,0:0:0:0:
302,281,167436,1,0,0:0:0:0:
374,204,167608,6,0,L|449:214,1,76.5,14|0,0:0|0:0,0:0:0:0:
450,349,167953,2,0,L|375:339,1,76.5,10|0,0:0|0:0,0:0:0:0:
302,281,168298,1,10,0:0:0:0:
264,378,168470,1,0,3:0:0:0:
143,322,168643,2,0,L|230:303,1,76.5,10|0,0:0|3:0,0:0:0:0:
260,175,168987,6,0,P|197:139|130:170,1,153,10|10,0:0|0:0,0:0:0:0:
80,268,169505,1,0,3:0:0:0:
3,177,169677,2,0,L|17:101,1,76.5,10|0,0:0|3:0,0:0:0:0:
111,4,170022,2,0,L|125:79,1,76.5,10|0,0:1|3:0,0:0:0:0:
194,215,170367,6,0,P|268:198|344:185,1,153,14|10,0:1|0:0,0:0:0:0:
430,249,170884,1,0,0:0:0:0:
507,160,171056,2,0,P|469:150|433:140,1,76.5,10|0,0:0|3:0,0:0:0:0:
328,75,171401,2,0,L|343:0,1,76.5,10|0,0:0|3:0,0:0:0:0:
237,97,171746,5,10,0:0:0:0:
237,97,171918,1,0,0:0:0:0:
134,43,172091,2,0,L|149:120,1,76.5,10|0,0:0|3:0,0:0:0:0:
89,240,172436,2,0,P|164:225|239:212,1,153,10|10,0:0|0:1,0:0:0:0:
368,170,172953,1,8,0:0:0:0:
368,170,173039,1,8,0:0:0:0:
368,170,173125,6,0,L|350:244,1,76.5,14|0,0:0|0:0,0:0:0:0:
275,359,173470,2,0,L|257:285,1,76.5,10|0,0:0|0:0,0:0:0:0:
230,161,173815,1,10,0:0:0:0:
158,240,173987,1,0,3:0:0:0:
65,157,174160,2,0,L|142:135,1,76.5,10|0,0:0|3:0,0:0:0:0:
215,53,174505,5,10,0:0:0:0:
215,53,174677,1,0,0:0:0:0:
303,122,174849,1,10,0:0:0:0:
395,57,175022,1,0,3:0:0:0:
483,151,175194,1,10,0:0:0:0:
483,151,175539,6,0,L|466:225,1,76.5,10|0,0:0|0:0,0:0:0:0:
393,340,175884,2,0,L|368:189,1,153,6|8,3:2|0:0,0:0:0:0:
356,104,176401,1,8,0:3:0:0:
356,104,176574,2,0,L|280:118,1,76.5,4|8,0:0|0:3,0:0:0:0:
226,184,176918,2,0,L|150:169,1,76.5,0|0,3:0|0:0,0:0:0:0:
105,82,177263,6,0,P|58:119|52:178,1,122.4,4|0,3:2|0:0,0:0:0:0:
109,249,177780,1,8,0:0:0:0:
109,249,177867,1,8,0:0:0:0:
109,249,177953,2,0,L|94:321,1,61.2,10|0,0:0|3:0,0:0:0:0:
168,356,178298,2,0,L|180:296,1,61.2,2|0,0:0|0:0,0:0:0:0:
256,259,178643,5,4,3:2:0:0:
256,192,178729,12,4,181401,0:0:0:0:
