osu file format v14

[General]
AudioFilename: audio.mp3
AudioLeadIn: 0
PreviewTime: 55539
Countdown: 0
SampleSet: Soft
StackLeniency: 0.7
Mode: 0
LetterboxInBreaks: 0
WidescreenStoryboard: 1

[Editor]
Bookmarks: 132436
DistanceSpacing: 1.2
BeatDivisor: 2
GridSize: 32
TimelineZoom: 1.050002

[Metadata]
Title:Diamond
TitleUnicode:ダイヤモンド
Artist:Oshimizu Nako (CV: Toyosaki Aki)
ArtistUnicode:押水菜子 (CV: 豊崎愛生)
Creator:Toyosaki Aki
Version:Easy
Source:花咲くいろは
Tags:toooooon hohi Hanasaku Iroha P.A.WORKS japanese pop anime character song full ver
BeatmapID:2535955
BeatmapSetID:1217268

[Difficulty]
HPDrainRate:3
CircleSize:2.4
OverallDifficulty:3
ApproachRate:4.5
SliderMultiplier:0.799999999999999
SliderTickRate:1

[Events]
//Background and Video events
0,0,"illustration-anime-anime-girls-cartoon-Hanasaku-Iroha-mangaka-104055.jpg",0,0
//Break Periods
2,88843,96003
2,123670,130486
//Storyboard Layer 0 (Background)
//Storyboard Layer 1 (Fail)
//Storyboard Layer 2 (Pass)
//Storyboard Layer 3 (Foreground)
//Storyboard Layer 4 (Overlay)
//Storyboard Sound Samples

[TimingPoints]
712,344.827586206897,4,2,1,65,1,0
12436,-100,4,2,1,65,0,0
18643,-100,4,2,1,55,0,0
40712,-100,4,2,1,65,0,0
55884,-100,4,2,1,70,0,1
83470,-100,4,2,1,60,0,1
88643,-100,4,2,1,65,0,0
108298,-100,4,2,1,50,0,0
131746,-100,4,2,1,65,0,0
137263,-100,4,2,1,70,0,0
137608,-100,4,2,1,70,0,1
175884,-100,4,2,1,60,0,1
181401,-100,4,2,1,65,0,0

[Colours]
Combo1 : 248,122,125
Combo2 : 211,104,16
Combo3 : 63,129,250
Combo4 : 31,186,27

[HitObjects]
68,127,712,5,2,0:0:0:0:
154,168,1056,1,2,0:0:0:0:
225,103,1401,2,0,L|304:90,1,79.9999999999999,8|4,0:0|0:3,0:0:0:0:
366,16,2091,6,0,B|416:53|416:53|393:148,1,160,6|2,3:2|0:3,0:0:0:0:
366,240,3125,1,8,0:0:0:0:
289,180,3470,2,0,P|237:152|182:171,2,120,2|2|10,3:2|3:2|0:0,0:0:0:0:
366,241,4849,6,0,P|417:213|472:232,2,120,2|2|10,3:2|3:2|0:0,0:0:0:0:
320,325,6229,2,0,B|296:314|280:286|280:286|225:271|181:301,1,160,0|8,3:0|0:3,0:0:0:0:
86,316,7263,1,8,0:0:0:0:
66,222,7608,6,0,B|42:115|42:115|88:135,1,160,6|2,3:2|0:3,0:0:0:0:
170,184,8643,1,8,0:0:0:0:
256,143,8987,2,0,P|312:127|365:152,2,120,2|2|10,3:2|3:2|0:0,0:0:0:0:
241,238,10367,6,0,P|293:263|350:247,2,120,2|2|10,3:2|3:2|0:0,0:0:0:0:
146,221,11746,2,0,P|196:278|171:350,1,160,0|10,3:0|0:1,0:0:0:0:
74,359,12780,1,10,0:1:0:0:
35,272,13125,6,0,L|59:141,1,120,14|12,0:0|0:0,0:0:0:0:
86,12,14160,1,10,0:0:0:0:
269,74,14849,2,0,L|347:60,2,79.9999999999999,14|14|8,0:0|0:0|0:0,0:0:0:0:
205,146,15884,6,0,P|149:127|97:153,1,120,14|14,0:0|0:0,0:0:0:0:
38,288,16918,1,14,0:0:0:0:
152,376,17436,2,0,P|210:361|268:348,1,120,10|10,0:0|0:0,0:0:0:0:
359,317,18298,1,8,0:2:0:0:
413,237,18643,6,0,B|466:276|466:276|446:368,2,160,4|0|0,3:2|3:0|3:0,0:0:0:0:
317,232,20367,1,10,0:0:0:0:
240,173,20712,2,0,L|254:94,1,79.9999999999999,0|10,3:2|0:0,0:0:0:0:
187,26,21401,6,0,P|114:26|115:98,2,160,0|0|0,3:0|3:0|3:0,0:0:0:0:
254,94,23125,1,10,0:0:0:0:
340,134,23470,2,0,L|418:118,1,79.9999999999999,0|10,3:2|0:0,0:0:0:0:
460,31,24160,6,0,P|515:85|506:162,1,160,0|0,3:0|3:0,0:0:0:0:
425,214,25194,1,10,0:0:0:0:
340,168,25539,2,0,B|275:175|275:175|257:195|257:195|189:204,1,160,0|0,3:0|3:2,0:0:0:0:
94,214,26574,1,10,0:0:0:0:
74,309,26918,6,0,P|140:347|212:318,1,160,0|0,3:0|3:0,0:0:0:0:
274,245,27953,1,10,0:0:0:0:
354,297,28298,2,0,L|432:281,1,79.9999999999999,2|10,3:2|0:0,0:0:0:0:
512,225,28987,1,4,3:3:0:0:
403,62,29677,6,0,B|361:60|331:90|331:90|304:119|258:114,1,160,4|0,3:2|3:0,0:0:0:0:
175,63,30712,1,10,0:0:0:0:
90,106,31056,2,0,P|53:173|92:239,2,160,0|0|0,3:0|3:2|3:0,0:0:0:0:
175,63,32780,5,10,0:0:0:0:
257,113,33125,2,0,L|242:191,1,79.9999999999999,0|10,3:0|0:0,0:0:0:0:
295,272,33815,2,0,B|347:303|347:303|438:263,2,160,0|0|0,3:0|3:2|3:0,0:0:0:0:
242,194,35539,5,10,0:0:0:0:
149,218,35884,2,0,P|131:252|140:290,1,79.9999999999999,0|10,3:0|0:0,0:0:0:0:
227,335,36574,2,0,P|266:268|242:194,1,160,0|0,3:0|3:2,0:0:0:0:
176,125,37608,1,10,0:0:0:0:
210,35,37953,6,0,L|383:30,1,160,0|0,3:0|3:0,0:0:0:0:
429,105,38987,1,14,0:0:0:0:
488,180,39332,2,0,B|462:285|462:285|411:271,1,160,10|10,0:0|0:0,0:0:0:0:
319,244,40367,1,10,0:0:0:0:
251,176,40712,6,0,P|197:153|142:173,2,120,14|14|14,0:0|0:0|0:0,0:0:0:0:
264,319,42263,2,0,P|319:338|374:317,1,120,10|14,0:0|0:0,0:0:0:0:
319,244,43125,1,10,0:0:0:0:
393,183,43470,6,0,L|373:64,2,120,14|14|14,0:0|0:0|0:0,0:0:0:0:
248,180,45022,2,0,L|228:61,1,120,10|14,0:0|0:0,0:0:0:0:
141,20,45884,1,10,0:3:0:0:
52,59,46229,6,0,P|7:121|33:194,1,160,4|0,3:2|3:0,0:0:0:0:
119,237,47263,1,0,3:0:0:0:
160,323,47608,2,0,B|239:314,1,79.9999999999999,4|0,3:2|3:0,0:0:0:0:
297,237,48298,2,0,B|376:245,1,79.9999999999999,8|0,0:0|3:0,0:0:0:0:
428,326,48987,5,4,3:2:0:0:
454,91,50022,2,0,B|374:99,1,79.9999999999999,8|12,3:2|0:0,0:0:0:0:
99,12,51401,1,12,0:0:0:0:
40,91,51746,6,0,L|74:263,1,160,8|8,0:0|3:3,0:0:0:0:
93,341,52780,1,0,3:0:0:0:
256,192,53125,12,10,54505,0:0:0:0:
171,259,55884,6,0,P|242:231|307:274,1,160,6|0,3:2|0:0,0:0:0:0:
358,354,56918,1,10,0:0:0:0:
442,308,57263,2,0,B|493:279|493:279|458:183,1,160,2|0,3:2|0:0,0:0:0:0:
384,123,58298,1,10,0:0:0:0:
335,40,58643,6,0,P|391:24|445:48,2,120,2|2|8,3:2|3:2|0:0,0:0:0:0:
249,85,60022,2,0,P|236:122|240:162,1,79.9999999999999,2|8,3:2|0:0,0:0:0:0:
323,209,60712,2,0,P|328:249|315:287,1,79.9999999999999,2|8,0:0|0:0,0:0:0:0:
251,358,61401,6,0,P|172:345|93:330,1,160,6|2,3:2|0:0,0:0:0:0:
42,248,62436,1,8,0:0:0:0:
111,181,62780,2,0,L|92:58,2,120,2|2|8,3:2|3:2|0:0,0:0:0:0:
180,247,64160,6,0,P|219:248|253:228,1,79.9999999999999,10|10,0:0|0:0,0:0:0:0:
314,154,64849,2,0,L|300:73,1,79.9999999999999,10|10,0:0|0:0,0:0:0:0:
387,33,65539,2,0,B|435:70|435:70|415:167,1,160,10|10,0:0|0:1,0:0:0:0:
390,260,66574,1,8,0:0:0:0:
368,353,66918,6,0,P|444:343|482:276,1,160,6|0,3:2|0:0,0:0:0:0:
390,260,67953,1,10,0:0:0:0:
297,286,68298,2,0,B|251:311|251:311|151:269,1,160,2|0,3:2|0:0,0:0:0:0:
85,200,69332,1,10,0:2:0:0:
153,132,69677,6,0,L|130:14,2,120,2|2|8,3:2|3:2|0:0,0:0:0:0:
217,203,71056,2,0,L|295:188,1,79.9999999999999,2|8,3:2|0:0,0:0:0:0:
349,267,71746,2,0,L|427:252,1,79.9999999999999,2|8,0:0|0:0,0:0:0:0:
502,312,72436,6,0,P|528:239|484:176,1,160,6|2,3:2|0:0,0:0:0:0:
391,148,73470,1,8,0:0:0:0:
300,182,73815,2,0,B|278:136|278:136|322:67,2,120,2|2|12,3:2|3:2|0:0,0:0:0:0:
375,241,75194,6,0,P|379:280|363:316,2,79.9999999999999,14|10|10,0:0|0:0|0:0,0:0:0:0:
300,182,76229,1,10,0:0:0:0:
218,232,76574,2,0,L|137:214,2,79.9999999999999,10|10|10,0:0|0:0|0:0,0:0:0:0:
300,182,77608,1,10,0:1:0:0:
390,214,77953,6,0,P|396:174|384:137,1,79.9999999999999,14|10,0:1|0:0,0:0:0:0:
304,83,78643,2,0,L|217:101,1,79.9999999999999,10|10,0:0|0:0,0:0:0:0:
155,164,79332,1,10,0:0:0:0:
71,116,79677,1,10,0:0:0:0:
6,187,80022,2,0,B|-12:224|-12:224|-1:261,1,79.9999999999999,10|10,0:0|0:1,0:0:0:0:
88,297,80712,6,0,P|80:334|69:378,2,79.9999999999999,14|10|10,0:0|0:0|0:0,0:0:0:0:
173,252,81746,1,10,0:0:0:0:
261,289,82091,2,0,P|252:328|242:366,2,79.9999999999999,10|10|10,0:0|0:0|0:0,0:0:0:0:
346,244,83125,1,10,0:0:0:0:
418,306,83470,6,0,B|452:259|452:259|420:156,1,160,4|0,3:2|3:0,0:0:0:0:
389,70,84505,1,0,3:0:0:0:
306,118,84849,2,0,L|147:95,2,160,4|2|4,0:0|0:0|3:2,0:0:0:0:
256,192,86401,12,4,88643,0:0:0:0:
294,332,97263,6,0,B|351:352|351:352|396:313,2,120,12|12|12,0:0|0:0|0:0,0:0:0:0:
204,296,98643,2,0,L|225:210,1,79.9999999999999,8|8,0:0|0:0,0:0:0:0:
316,197,99332,2,0,L|295:111,1,79.9999999999999,8|4,0:0|0:3,0:0:0:0:
240,44,100022,6,0,P|294:21|350:39,2,120,12|12|12,0:0|0:0|0:0,0:0:0:0:
159,92,101401,2,0,P|221:137|297:120,1,160,8|0,0:0|3:0,0:0:0:0:
350,39,102436,1,4,0:3:0:0:
416,107,102780,6,0,B|465:77|465:77|443:18,2,120,12|12|12,0:0|0:0|0:0,0:0:0:0:
344,171,104160,2,0,L|363:267,1,79.9999999999999,8|8,0:0|0:0,0:0:0:0:
322,338,104849,2,0,P|283:346|246:332,1,79.9999999999999,8|4,0:0|0:3,0:0:0:0:
172,271,105539,6,0,L|54:296,1,120,8|8,0:0|0:0,0:0:0:0:
0,168,106574,2,0,P|82:89|188:128,1,240,8|8,0:0|0:0,0:0:0:0:
242,208,107953,1,0,3:0:0:0:
296,287,108298,6,0,L|414:267,2,120,4|4|4,3:2|3:2|3:2,0:0:0:0:
169,356,109849,2,0,P|141:305|156:249,1,120,8|8,0:3|0:3,0:0:0:0:
242,208,110712,1,4,0:3:0:0:
303,134,111056,6,0,L|421:114,2,120,4|4|4,3:2|3:2|3:2,0:0:0:0:
186,49,112608,2,0,L|51:29,1,120,8|8,0:0|0:3,0:0:0:0:
16,110,113470,1,0,3:2:0:0:
45,201,113815,6,0,B|96:231|96:231|191:191,1,160,4|0,3:2|3:0,0:0:0:0:
275,149,114849,1,0,3:0:0:0:
370,152,115194,2,0,P|410:194|414:252,2,120,4|12|0,3:2|0:0|3:0,0:0:0:0:
325,66,116574,5,4,3:2:0:0:
133,66,117263,1,4,0:3:0:0:
71,139,117608,2,0,L|91:233,1,79.9999999999999,8|4,0:0|3:2,0:0:0:0:
234,342,118643,2,0,L|248:262,1,79.9999999999999,8|0,0:3|3:0,0:0:0:0:
204,176,119332,6,0,P|280:167|336:221,1,160,4|8,3:2|0:3,0:0:0:0:
330,317,120367,1,4,0:3:0:0:
256,192,120712,12,4,122091,3:2:0:0:
330,317,123470,5,4,0:3:0:0:
81,91,131746,6,0,L|172:106,1,79.9999999999999,4|0,0:0|3:0,0:0:0:0:
224,175,132436,2,0,L|302:161,1,79.9999999999999,0|4,3:0|0:3,0:0:0:0:
359,83,133125,2,0,P|402:148|377:222,1,160,0|0,3:0|3:0,0:0:0:0:
288,258,134160,1,4,0:3:0:0:
256,192,134505,12,10,135884,0:0:0:0:
134,278,137263,5,4,3:3:0:0:
187,198,137608,2,0,L|272:212,1,79.9999999999999,12|2,0:0|3:2,0:0:0:0:
335,278,138298,1,8,0:0:0:0:
402,345,138643,2,0,P|436:275|399:208,1,160,2|0,3:2|0:0,0:0:0:0:
331,140,139677,1,10,0:0:0:0:
392,66,140022,6,0,L|519:83,2,120,2|2|8,3:2|3:2|0:0,0:0:0:0:
315,8,141401,2,0,P|275:6|238:21,1,79.9999999999999,2|8,3:2|0:0,0:0:0:0:
204,111,142091,2,0,P|164:112|127:97,1,79.9999999999999,2|12,0:0|0:0,0:0:0:0:
57,31,142780,6,0,B|17:81|17:81|48:171,1,160,6|2,3:2|0:0,0:0:0:0:
122,233,143815,1,8,0:0:0:0:
185,305,144160,2,0,P|132:331|75:316,2,120,2|2|8,3:2|3:2|0:0,0:0:0:0:
250,234,145539,6,0,L|236:155,1,79.9999999999999,14|10,0:0|0:0,0:0:0:0:
282,73,146229,1,10,0:0:0:0:
375,51,146574,1,10,0:0:0:0:
468,70,146918,2,0,P|426:135|349:142,1,160,10|2,0:0|3:1,0:0:0:0:
282,73,147953,1,14,0:0:0:0:
205,13,148298,6,0,B|143:25|143:25|120:49|120:49|57:61,1,160,6|0,3:2|0:0,0:0:0:0:
28,153,149332,1,10,0:0:0:0:
80,233,149677,2,0,P|159:242|235:265,1,160,2|0,3:2|0:0,0:0:0:0:
307,329,150712,1,10,0:0:0:0:
378,266,151056,6,0,P|406:318|391:374,2,120,2|2|8,3:2|3:2|0:0,0:0:0:0:
307,201,152436,2,0,L|318:114,1,79.9999999999999,2|8,3:2|0:0,0:0:0:0:
282,30,153125,2,0,P|244:23|207:38,1,79.9999999999999,2|8,0:0|0:0,0:0:0:0:
142,109,153815,6,0,L|178:275,1,160,6|2,3:2|0:0,0:0:0:0:
201,357,154849,1,8,0:0:0:0:
108,331,155194,2,0,P|51:323|8:362,2,120,2|2|12,3:2|3:2|0:0,0:0:0:0:
201,357,156574,6,0,L|279:343,1,79.9999999999999,10|10,0:0|0:0,0:0:0:0:
331,263,157263,1,10,0:0:0:0:
282,180,157608,1,10,0:0:0:0:
319,91,157953,2,0,B|361:91|400:108|400:108|400:149|376:198,1,160,14|10,0:0|0:1,0:0:0:0:
331,263,158987,1,10,0:0:0:0:
235,259,159332,6,0,L|61:226,1,160,6|0,3:2|0:0,0:0:0:0:
45,138,160367,1,10,0:0:0:0:
95,56,160712,2,0,L|173:70,1,79.9999999999999,2|8,3:2|0:0,0:0:0:0:
239,140,161401,2,0,L|317:125,1,79.9999999999999,2|12,0:0|0:0,0:0:0:0:
384,56,162091,6,0,B|430:93|430:93|407:191,1,160,6|0,3:2|0:0,0:0:0:0:
402,287,163125,1,10,0:0:0:0:
319,336,163470,2,0,L|238:318,1,79.9999999999999,2|12,3:2|0:0,0:0:0:0:
148,345,164160,2,0,P|141:306|158:270,1,79.9999999999999,2|8,0:0|0:0,0:0:0:0:
222,197,164849,6,0,P|207:119|194:40,1,160,6|2,3:2|0:0,0:0:0:0:
284,8,165884,1,8,0:0:0:0:
359,68,166229,2,0,P|416:76|462:39,2,120,2|2|12,3:2|3:2|0:0,0:0:0:0:
284,8,167608,6,0,L|205:20,1,79.9999999999999,14|10,0:0|0:0,0:0:0:0:
110,41,168298,1,10,0:0:0:0:
81,133,168643,1,10,0:0:0:0:
154,194,168987,2,0,L|246:179,2,79.9999999999999,10|10|10,0:0|0:0|0:0,0:0:0:0:
116,282,170022,1,10,0:1:0:0:
195,336,170367,6,0,L|273:322,1,79.9999999999999,14|10,0:1|0:0,0:0:0:0:
350,264,171056,1,10,0:0:0:0:
437,302,171401,1,10,0:0:0:0:
509,239,171746,2,0,L|494:154,1,79.9999999999999,10|10,0:0|0:0,0:0:0:0:
436,83,172436,2,0,P|397:75|359:89,1,79.9999999999999,10|10,0:0|0:1,0:0:0:0:
290,154,173125,6,0,L|200:141,1,79.9999999999999,14|10,0:0|0:0,0:0:0:0:
120,176,173815,1,10,0:0:0:0:
69,94,174160,1,10,0:0:0:0:
141,31,174505,2,0,L|220:42,2,79.9999999999999,10|10|10,0:0|0:0|0:0,0:0:0:0:
69,94,175539,1,10,0:0:0:0:
3,163,175884,6,0,L|41:318,1,160,6|4,3:2|0:0,0:0:0:0:
122,369,176918,1,0,3:0:0:0:
184,295,177263,2,0,P|218:275|257:267,1,79.9999999999999,4|0,3:2|0:0,0:0:0:0:
298,180,177953,2,0,P|336:189|370:211,1,79.9999999999999,10|2,0:0|0:0,0:0:0:0:
442,275,178643,5,4,3:2:0:0:
256,192,178815,12,4,181401,0:0:0:0:
