osu file format v14

[General]
AudioFilename: audio.mp3
AudioLeadIn: 0
PreviewTime: 66269
Countdown: 0
SampleSet: Soft
StackLeniency: 0.4
Mode: 0
LetterboxInBreaks: 0
WidescreenStoryboard: 0

[Editor]
Bookmarks: 13925,27639,41353,55068,68782,96211,109925,123639,137353,157925,164782
DistanceSpacing: 0.2
BeatDivisor: 4
GridSize: 32
TimelineZoom: 4.300003

[Metadata]
Title:TBKS
TitleUnicode:ТБКС
Artist:Oshibsya nomerom
ArtistUnicode:Ошибся номером
Creator:Maiev
Version:Your tremendously beautiful heart
Source:
Tags:azinlen твоё твое безумно красивое сердце tvoe tvoyo bezumno krasivoe krasivoye serdce sertse serdse russian alternate indie alt rock альт инди русский рок
BeatmapID:3410889
BeatmapSetID:1669986

[Difficulty]
HPDrainRate:4.4
CircleSize:4.5
OverallDifficulty:7.7
ApproachRate:8.2
SliderMultiplier:1.8
SliderTickRate:1

[Events]
//Background and Video events
0,0,"bg.jpg",0,0
//Break Periods
2,109876,122656
//Storyboard Layer 0 (Background)
//Storyboard Layer 1 (Fail)
//Storyboard Layer 2 (Pass)
//Storyboard Layer 3 (Foreground)
//Storyboard Layer 4 (Overlay)
//Storyboard Sound Samples

[TimingPoints]
162,428.571428571429,4,2,1,55,1,0
162,-125,4,2,1,55,0,0
13876,-100,4,2,1,60,0,0
19340,-100,4,2,1,5,0,0
19447,-100,4,2,1,60,0,0
26733,-500,4,2,1,60,0,0
27590,-200,4,2,1,70,0,1
28126,-200,4,2,1,5,0,1
28233,-200,4,2,1,70,0,1
28447,-166.666666666667,4,2,1,70,0,1
29304,-142.857142857143,4,2,1,70,0,1
31019,-166.666666666667,4,2,1,70,0,1
31554,-166.666666666667,4,2,1,5,0,1
31662,-166.666666666667,4,2,1,70,0,1
31876,-142.857142857143,4,2,1,70,0,1
32733,-111.111111111111,4,2,1,70,0,1
33162,-200,4,2,1,70,0,1
34447,-142.857142857143,4,2,1,70,0,1
34983,-200,4,2,1,5,0,1
35090,-200,4,2,1,70,0,1
41304,-125,4,2,1,60,0,0
41947,-100,4,2,1,60,0,0
55019,-90.9090909090909,4,2,1,65,0,0
66590,-142.857142857143,4,2,1,65,0,0
67876,-500,4,2,1,65,0,0
68626,-500,4,2,1,5,0,0
68733,-200,4,2,1,70,0,1
69590,-166.666666666667,4,2,1,70,0,1
70447,-142.857142857143,4,2,1,70,0,1
72162,-166.666666666667,4,2,1,70,0,1
73019,-142.857142857143,4,2,1,70,0,1
74304,-200,4,2,1,70,0,1
75590,-166.666666666667,4,2,1,70,0,1
85876,-142.857142857143,4,2,1,70,0,1
87590,-200,4,2,1,70,0,1
89304,-166.666666666667,4,2,1,70,0,1
96162,-125,4,2,1,65,0,0
100769,-125,4,2,1,5,0,0
100876,-125,4,2,1,65,0,0
101090,-200,4,2,1,65,0,0
101733,-125,4,2,1,65,0,0
104197,-125,4,2,1,5,0,0
104304,-125,4,2,1,65,0,0
123590,-142.857142857143,4,2,1,50,0,0
129376,-125,4,2,1,50,0,0
130447,-125,4,2,1,60,0,0
131090,-111.111111111111,4,2,1,60,0,0
133876,-111.111111111111,4,2,1,65,0,0
134947,-111.111111111111,4,2,1,45,0,0
136876,-111.111111111111,4,2,1,60,0,0
137304,-83.3333333333333,4,2,1,75,0,1
163019,-76.9230769230769,4,2,1,75,0,1
163876,-100,4,2,1,75,0,1
164733,-83.3333333333333,4,2,1,75,0,0

[Colours]
Combo1 : 231,190,222
Combo2 : 222,188,188
Combo3 : 201,201,201
Combo4 : 240,210,179

[HitObjects]
503,27,162,6,0,L|497:98,1,72,4|0,3:2|0:0,0:0:0:0:
418,197,590,2,0,L|412:125,1,72,8|0,0:2|0:0,0:0:0:0:
309,12,1019,1,2,0:2:0:0:
233,17,1233,1,2,3:2:0:0:
216,92,1447,2,0,P|234:122|267:136,1,72,10|2,0:2|0:2,0:0:0:0:
147,232,1876,6,0,B|61:237|101:282|23:296,1,144,2|8,3:2|0:2,0:0:0:0:
0,227,2519,1,0,0:0:0:0:
23,148,2733,2,0,L|17:219,1,72,0|0,0:0|3:2,0:0:0:0:
151,383,3162,2,0,L|145:311,1,72,10|2,0:2|0:2,0:0:0:0:
226,234,3590,5,2,3:2:0:0:
301,247,3804,1,2,0:2:0:0:
377,259,4019,1,10,0:2:0:0:
325,320,4233,2,0,P|301:293|297:258,1,72,2|0,0:2|0:0,0:0:0:0:
346,176,4662,1,2,3:2:0:0:
216,92,4876,1,10,0:2:0:0:
196,176,5090,1,2,0:2:0:0:
231,15,5305,5,2,3:2:0:0:
294,113,5519,1,2,0:2:0:0:
196,176,5733,1,10,0:2:0:0:
133,78,5947,1,2,3:2:0:0:
124,74,6162,2,0,L|53:87,1,72,2|2,0:2|3:2,0:0:0:0:
201,184,6590,2,0,L|271:197,1,72,10|0,0:2|3:2,0:0:0:0:
468,45,7019,6,0,B|428:45|418:77|418:77|438:154,1,144,4|10,3:2|0:2,0:0:0:0:
499,203,7662,1,2,0:2:0:0:
421,297,7876,2,0,P|385:296|355:277,1,72,2|2,0:2|3:2,0:0:0:0:
267,321,8304,2,0,B|181:326|221:371|143:385,1,144,10|0,0:2|3:2,0:0:0:0:
188,99,9162,5,10,0:2:0:0:
267,88,9376,1,2,0:2:0:0:
201,184,9590,1,2,0:2:0:0:
105,118,9804,1,2,3:2:0:0:
171,22,10019,1,10,0:2:0:0:
168,13,10233,1,2,0:2:0:0:
272,95,10447,6,0,P|307:94|337:75,1,72,2|2,3:2|0:2,0:0:0:0:
489,0,10876,1,10,0:2:0:0:
479,68,11090,1,2,0:2:0:0:
415,151,11304,2,0,L|423:222,1,72,2|2,0:2|3:2,0:0:0:0:
510,317,11733,1,10,0:2:0:0:
506,309,11947,1,2,0:2:0:0:
344,360,12162,5,2,3:2:0:0:
334,292,12376,1,2,3:2:0:0:
431,370,12590,1,10,0:2:0:0:
241,278,12804,1,2,3:2:0:0:
416,152,13019,1,10,0:2:0:0:
243,273,13233,1,2,3:2:0:0:
153,163,13447,1,10,0:2:0:0:
155,145,13554,1,8,0:2:0:0:
157,127,13661,1,10,0:2:0:0:
159,109,13768,1,8,0:2:0:0:
161,91,13876,6,0,B|126:99|126:99|94:147|94:147|53:156,1,135,6|0,3:2|0:0,0:0:0:0:
37,152,14304,1,10,0:2:0:0:
27,78,14519,1,2,0:2:0:0:
172,168,14733,2,0,L|159:257,1,90,2|0,0:2|3:2,0:0:0:0:
221,354,15162,1,10,0:2:0:0:
220,345,15376,1,2,0:2:0:0:
334,292,15590,5,2,3:2:0:0:
421,297,15804,1,2,3:2:0:0:
437,378,16019,2,0,P|469:348|513:349,1,90,10|2,0:2|0:2,0:0:0:0:
347,202,16447,2,0,L|334:291,1,90,2|2,0:2|3:2,0:0:0:0:
172,168,16876,2,0,P|215:167|248:196,1,90,10|2,0:2|0:2,0:0:0:0:
490,150,17304,6,0,P|485:82|480:15,1,135,4|0,3:2|0:0,0:0:0:0:
485,5,17733,1,10,0:2:0:0:
415,58,17947,1,2,0:2:0:0:
341,18,18162,1,2,0:2:0:0:
276,160,18376,1,2,3:2:0:0:
272,63,18590,2,0,L|285:152,1,90,10|2,0:2|0:2,0:0:0:0:
220,345,19019,6,0,P|178:293|113:285,1,135,2|0,3:2|0:0,0:0:0:0:
103,295,19447,1,10,0:2:0:0:
35,362,19662,1,2,3:2:0:0:
216,223,19876,1,8,0:2:0:0:
11,157,20090,1,0,3:2:0:0:
216,223,20304,1,8,0:2:0:0:
238,222,20411,1,8,0:2:0:0:
260,222,20518,1,10,0:2:0:0:
283,221,20625,1,8,0:2:0:0:
307,222,20733,6,0,P|343:246|350:289,1,90,4|0,3:2|3:2,0:0:0:0:
176,152,21162,2,0,L|189:63,1,90,10|0,0:2|0:0,0:0:0:0:
0,278,21590,1,2,0:2:0:0:
64,232,21804,1,2,3:2:0:0:
135,265,22019,2,0,L|148:354,1,90,10|2,0:2|0:2,0:0:0:0:
381,225,22447,5,2,3:2:0:0:
262,139,22662,1,2,3:2:0:0:
397,83,22876,1,10,0:2:0:0:
401,76,23090,1,2,0:2:0:0:
347,152,23304,2,0,L|334:241,1,90,2|0,0:2|3:2,0:0:0:0:
401,358,23733,2,0,P|428:323|472:318,1,90,10|2,0:2|0:2,0:0:0:0:
228,384,24162,5,4,3:2:0:0:
135,265,24376,1,2,3:2:0:0:
262,139,24590,1,10,0:2:0:0:
209,39,24804,1,2,0:2:0:0:
202,36,25019,2,0,L|114:56,1,90,2|2,0:2|3:2,0:0:0:0:
347,152,25447,1,10,0:2:0:0:
347,152,25661,1,2,3:2:0:0:
347,152,26733,6,0,B|350:182|350:182|349:185|349:185|351:214,1,63,2|0,0:2|0:0,0:0:0:0:
382,331,27590,6,0,P|346:288|292:283,1,112.5,6|0,3:2|0:0,0:0:0:0:
288,290,28233,1,2,3:2:0:0:
135,384,28447,2,0,L|123:276,1,107.999996704102,10|2,0:2|3:2,0:0:0:0:
53,227,29090,1,0,3:2:0:0:
255,80,29304,6,0,B|328:95|291:119|364:138,2,125.999996154785,2|2|10,0:2|3:2|0:2,0:0:0:0:
187,112,30376,1,2,3:2:0:0:
377,0,30590,2,0,L|371:62,1,62.9999980773926,2|0,0:2|3:2,0:0:0:0:
499,325,31019,6,0,L|485:190,1,134.999995880127,6|0,3:2|0:0,0:0:0:0:
489,182,31662,1,0,3:2:0:0:
349,239,31876,2,0,P|323:221|292:218,1,62.9999980773926,8|2,0:2|0:2,0:0:0:0:
201,301,32304,1,2,3:2:0:0:
62,190,32519,1,2,3:2:0:0:
222,0,32733,6,0,L|230:80,1,80.9999975280763,2|2,0:2|3:2,0:0:0:0:
58,194,33162,2,0,L|54:256,1,45,2|0,3:2|0:0,0:0:0:0:
40,336,33590,1,10,0:2:0:0:
215,222,33804,1,2,3:2:0:0:
33,342,34019,1,10,0:2:0:0:
209,223,34233,1,0,3:2:0:0:
332,319,34447,6,0,B|423:333|386:366|477:385,1,157.499995193482,6|0,3:2|0:0,0:0:0:0:
480,383,35090,1,2,3:2:0:0:
485,190,35304,2,0,L|475:280,1,90,10|2,0:2|3:2,0:0:0:0:
391,219,35947,1,2,3:2:0:0:
468,47,36162,6,0,L|513:40,1,45,2|0,0:2|3:2,0:0:0:0:
512,48,36590,2,0,L|467:41,1,45,2|2,3:2|0:2,0:0:0:0:
367,82,37019,1,10,0:2:0:0:
294,63,37233,1,2,3:2:0:0:
214,118,37447,1,2,0:2:0:0:
141,137,37661,1,2,3:2:0:0:
0,100,37876,6,0,P|58:124|61:188,1,135,6|2,3:2|3:2,0:0:0:0:
17,261,38733,1,8,0:2:0:0:
95,382,38947,1,2,0:2:0:0:
91,376,39162,2,0,L|133:362,1,45,2|2,3:2|3:2,0:0:0:0:
181,277,39590,2,0,L|214:307,1,45,2|10,0:2|0:2,0:0:0:0:
311,305,40019,2,0,L|301:348,1,45,2|0,3:2|3:2,0:0:0:0:
194,185,40447,1,10,0:2:0:0:
363,78,40662,1,2,3:2:0:0:
188,184,40876,1,10,0:2:0:0:
369,78,41090,1,2,3:2:0:0:
289,3,41304,6,0,P|270:32|273:67,1,72,6|2,3:2|0:2,0:0:0:0:
367,158,41733,1,10,0:2:0:0:
294,289,41947,2,0,B|203:298|234:350|133:362,1,180,2|2,0:2|3:2,0:0:0:0:
42,329,42590,2,0,P|21:290|34:248,1,90,8|2,0:2|0:2,0:0:0:0:
121,154,43019,5,2,3:2:0:0:
113,79,43233,1,2,0:2:0:0:
105,4,43447,1,10,0:2:0:0:
98,0,43662,1,2,0:2:0:0:
187,110,43876,2,0,L|276:99,1,90,2|0,0:2|3:2,0:0:0:0:
447,177,44304,5,10,0:2:0:0:
505,124,44519,1,2,0:2:0:0:
480,51,44733,2,0,L|390:40,1,90,2|2,3:2|0:2,0:0:0:0:
297,182,45162,1,10,0:2:0:0:
305,257,45376,1,2,0:2:0:0:
316,330,45590,2,0,P|358:341|398:321,1,90,2|2,0:2|3:2,0:0:0:0:
200,182,46019,2,0,L|207:271,1,90,10|2,0:2|0:2,0:0:0:0:
14,130,46447,6,0,P|53:110|96:121,1,90,2|2,3:2|0:2,0:0:0:0:
20,221,46876,1,10,0:2:0:0:
165,57,47090,1,2,3:2:0:0:
200,182,47304,1,10,0:2:0:0:
201,191,47412,1,8,0:2:0:0:
202,199,47519,1,0,3:2:0:0:
119,300,47733,1,10,0:2:0:0:
120,292,47840,1,8,0:2:0:0:
121,283,47948,1,2,3:2:0:0:
355,233,48162,6,0,B|461:248|419:292|512:310,1,180,6|10,3:2|0:2,0:0:0:0:
371,313,48804,1,2,0:2:0:0:
501,228,49019,2,0,L|512:139,1,90,2|2,0:2|3:2,0:0:0:0:
406,39,49447,2,0,L|416:128,1,90,10|2,0:2|0:2,0:0:0:0:
268,230,49876,5,2,3:2:0:0:
200,182,50090,1,2,0:2:0:0:
116,253,50304,1,10,0:2:0:0:
49,284,50518,1,2,0:2:0:0:
188,377,50733,2,0,L|198:287,1,90,2|2,0:2|3:2,0:0:0:0:
96,159,51162,2,0,P|52:160|22:192,1,90,10|2,0:2|0:2,0:0:0:0:
200,182,51590,5,2,3:2:0:0:
206,176,51804,2,0,L|195:86,1,90,2|10,0:2|0:2,0:0:0:0:
306,7,52233,2,0,B|407:28|407:28|438:77|388:81,1,180,2|2,0:2|3:2,0:0:0:0:
314,193,52876,2,0,P|343:160|387:159,1,90,10|2,0:2|0:2,0:0:0:0:
492,191,53304,6,0,L|499:101,1,90,10|2,0:2|0:2,0:0:0:0:
423,242,53626,2,0,L|433:376,1,135,0|2,1:2|3:2,0:0:0:0:
339,337,54054,1,8,0:2:0:0:
317,334,54162,1,10,0:2:0:0:
294,330,54269,1,0,1:2:0:0:
272,327,54376,1,2,3:2:0:0:
250,324,54483,1,0,3:2:0:0:
227,320,54590,1,10,0:2:0:0:
187,299,54697,1,8,0:2:0:0:
166,260,54804,1,10,0:2:0:0:
171,216,54911,1,8,0:2:0:0:
200,182,55018,5,6,3:2:0:0:
314,64,55233,1,2,3:2:0:0:
125,0,55447,1,8,0:2:0:0:
81,107,55662,1,2,0:2:0:0:
84,116,55769,1,2,0:2:0:0:
87,125,55876,2,0,P|48:154|0:151,1,99.0000030212403,2|2,0:2|3:2,0:0:0:0:
230,32,56304,2,0,P|278:29|317:58,1,99.0000030212403,10|2,0:2|0:2,0:0:0:0:
511,257,56733,5,2,3:2:0:0:
313,196,56947,1,2,3:2:0:0:
468,124,57162,1,8,0:2:0:0:
476,129,57376,1,2,0:2:0:0:
400,252,57590,2,0,L|392:153,1,99.0000030212403,2|2,0:2|3:2,0:0:0:0:
230,32,58019,2,0,L|222:130,1,99.0000030212403,10|2,0:2|0:2,0:0:0:0:
40,338,58447,5,2,3:2:0:0:
0,150,58662,1,2,3:2:0:0:
169,232,58876,1,8,0:2:0:0:
167,241,59090,1,2,0:2:0:0:
79,258,59304,2,0,P|67:211|93:170,1,99.0000030212403,2|2,0:2|3:2,0:0:0:0:
233,304,59733,5,10,0:2:0:0:
387,355,59947,1,2,0:2:0:0:
512,219,60162,1,0,3:2:0:0:
389,260,60376,1,2,3:2:0:0:
232,139,60590,1,8,0:2:0:0:
339,174,60804,1,2,3:2:0:0:
464,74,61019,1,8,0:2:0:0:
394,96,61233,1,2,3:2:0:0:
301,0,61447,1,8,0:2:0:0:
302,24,61554,1,8,0:2:0:0:
303,49,61661,1,10,0:2:0:0:
305,74,61768,1,8,0:2:0:0:
306,98,61876,5,6,3:2:0:0:
256,215,62090,1,2,3:2:0:0:
99,128,62304,1,10,0:2:0:0:
171,116,62519,2,0,P|194:157|177:202,1,99.0000030212403,2|0,0:2|0:0,0:0:0:0:
65,328,62947,1,2,3:2:0:0:
112,267,63162,1,10,0:2:0:0:
185,285,63376,1,2,0:2:0:0:
32,252,63590,5,2,3:2:0:0:
177,202,63804,1,2,3:2:0:0:
146,352,64019,1,10,0:2:0:0:
141,346,64233,2,0,P|176:313|224:318,1,99.0000030212403,2|0,0:2|0:0,0:0:0:0:
288,384,64662,1,2,3:2:0:0:
418,305,64876,2,0,L|413:207,1,99.0000030212403,10|2,0:2|0:2,0:0:0:0:
512,88,65304,5,2,3:2:0:0:
445,38,65519,1,2,3:2:0:0:
338,110,65733,1,10,0:2:0:0:
344,117,65947,2,0,P|311:81|263:82,1,99.0000030212403,2|0,0:2|0:0,0:0:0:0:
217,155,66376,1,2,3:2:0:0:
62,69,66590,2,0,B|123:53,1,62.9999980773926,10|2,0:2|0:2,0:0:0:0:
415,381,67876,6,0,B|413:352|413:352|414:349|414:349|411:319,1,63,2|0,0:2|0:0,0:0:0:0:
415,310,68733,6,0,P|373:259|308:262,1,135,6|2,3:2|3:2,0:0:0:0:
177,189,69590,2,0,P|181:242|186:296,1,107.999996704102,10|2,0:2|3:2,0:0:0:0:
260,333,70233,1,0,3:2:0:0:
108,143,70447,6,0,B|35:158|72:182|-1:201,2,125.999996154785,2|2|10,0:2|3:2|0:2,0:0:0:0:
258,0,71519,1,2,3:2:0:0:
314,53,71733,2,0,L|310:115,1,62.9999980773926,2|0,0:2|3:2,0:0:0:0:
375,241,72162,6,0,B|466:261|420:297|511:321,1,161.999995056153,6|0,3:2|3:2,0:0:0:0:
483,183,73019,2,0,L|478:246,1,62.9999980773926,8|2,0:2|0:2,0:0:0:0:
419,382,73447,2,0,L|414:319,1,62.9999980773926,2|2,3:2|3:2,0:0:0:0:
190,318,73876,5,2,0:2:0:0:
325,191,74090,1,2,3:2:0:0:
229,91,74304,2,0,L|185:101,1,45,2|0,3:2|0:0,0:0:0:0:
68,208,74733,1,10,0:2:0:0:
18,21,74947,1,2,3:2:0:0:
75,210,75162,1,10,0:2:0:0:
12,18,75376,1,0,3:2:0:0:
5,107,75590,6,0,P|81:95|132:154,1,161.999995056153,6|2,3:2|3:2,0:0:0:0:
261,256,76447,2,0,P|209:246|172:283,1,107.999996704102,10|2,0:2|3:2,0:0:0:0:
214,202,77090,1,2,3:2:0:0:
376,224,77304,6,0,L|365:331,1,107.999996704102,2|2,0:2|3:2,0:0:0:0:
288,375,77947,1,2,0:2:0:0:
457,283,78162,1,10,0:2:0:0:
491,208,78376,1,2,3:2:0:0:
425,151,78590,1,2,0:2:0:0:
404,71,78804,1,2,3:2:0:0:
512,37,79019,6,0,P|437:56|385:0,1,161.999995056153,6|2,3:2|3:2,0:0:0:0:
263,96,79876,2,0,L|211:84,1,53.9999983520508,8|2,0:2|0:2,0:0:0:0:
19,38,80304,1,2,3:2:0:0:
112,0,80519,2,0,L|122:107,1,107.999996704102,2|10,3:2|0:2,0:0:0:0:
45,211,81162,5,2,3:2:0:0:
115,186,81376,1,0,3:2:0:0:
229,290,81590,1,10,0:2:0:0:
38,212,81804,1,2,3:2:0:0:
211,84,82019,1,10,0:2:0:0:
229,295,82233,1,2,3:2:0:0:
349,243,82447,6,0,B|448:261|399:291|490:315,1,161.999995056153,6|2,3:2|3:2,0:0:0:0:
492,181,83304,2,0,L|486:234,1,53.9999983520508,10|0,0:2|0:0,0:0:0:0:
420,384,83733,1,2,3:2:0:0:
410,306,83947,1,0,3:2:0:0:
197,224,84162,6,0,B|170:229|170:229|144:270|144:270|113:278,2,107.999996704102,2|2|10,0:2|3:2|0:2,0:0:0:0:
272,291,85233,1,2,3:2:0:0:
362,185,85447,2,0,L|357:239,1,53.9999983520508,2|2,0:2|3:2,0:0:0:0:
390,11,85876,6,0,B|421:16|421:16|452:65|452:65|487:75,1,125.999996154785,6|2,3:2|0:2,0:0:0:0:
506,0,86519,1,0,3:2:0:0:
372,87,86733,2,0,L|310:75,1,62.9999980773926,8|2,0:2|0:2,0:0:0:0:
146,4,87162,1,2,3:2:0:0:
37,59,87376,1,2,3:2:0:0:
154,0,87590,2,0,P|176:37|158:77,1,90,2|2,0:2|3:2,0:0:0:0:
41,356,88447,5,10,0:2:0:0:
119,204,88662,1,2,3:2:0:0:
43,363,88876,1,10,0:2:0:0:
120,198,89090,1,0,3:2:0:0:
315,271,89304,6,0,B|409:290|409:290|436:332|391:333,1,161.999995056153,6|2,3:2|3:2,0:0:0:0:
495,248,90162,2,0,L|497:194,1,53.9999983520508,10|2,0:2|0:2,0:0:0:0:
434,0,90590,1,2,3:2:0:0:
367,71,90804,1,2,3:2:0:0:
330,3,91019,6,0,B|434:16|378:51|477:63,1,161.999995056153,2|2,0:2|0:2,0:0:0:0:
314,170,91876,1,10,0:2:0:0:
237,133,92090,1,2,3:2:0:0:
152,199,92304,1,2,0:2:0:0:
69,222,92518,1,2,3:2:0:0:
198,86,92733,6,0,P|193:166|189:247,1,161.999995056153,6|2,3:2|3:2,0:0:0:0:
94,334,93590,2,0,P|58:295|5:297,1,107.999996704102,8|2,0:2|3:2,0:0:0:0:
212,384,94233,2,0,P|248:345|301:347,1,107.999996704102,2|8,3:2|0:2,0:0:0:0:
406,320,94876,2,0,L|402:265,1,53.9999983520508,0|0,3:2|3:2,0:0:0:0:
488,84,95304,5,8,0:2:0:0:
486,104,95411,1,0,1:2:0:0:
484,124,95518,1,0,3:2:0:0:
482,144,95625,1,0,3:2:0:0:
481,164,95732,1,8,0:2:0:0:
403,267,95947,1,8,0:2:0:0:
401,242,96054,1,8,0:2:0:0:
398,209,96162,6,0,B|313:218|343:250|266:261,1,144,6|2,3:2|0:2,0:0:0:0:
120,172,96804,1,2,3:2:0:0:
165,90,97019,2,0,P|161:161|157:233,1,144,10|0,0:2|3:2,0:0:0:0:
191,320,97662,1,0,3:2:0:0:
0,382,97876,6,0,P|34:321|103:311,1,144,2|2,0:2|3:2,0:0:0:0:
191,320,98519,1,2,0:2:0:0:
309,384,98733,2,0,P|305:312|300:240,1,144,10|0,0:2|0:0,0:0:0:0:
250,170,99376,1,0,3:2:0:0:
440,146,99590,6,0,B|376:144|340:105|363:87|327:51|256:51,1,216,6|0,3:2|3:2,0:0:0:0:
102,1,100447,2,0,P|105:54|108:108,1,108,8|0,0:2|0:0,0:0:0:0:
117,128,100876,1,2,3:2:0:0:
73,248,101090,2,0,P|43:216|0:218,1,90,2|0,3:2|3:2,0:0:0:0:
120,334,101733,2,0,L|190:318,1,72,0|0,3:2|3:2,0:0:0:0:
410,381,102162,5,8,0:2:0:0:
481,261,102376,1,0,3:2:0:0:
353,116,102590,1,0,1:2:0:0:
353,116,102804,1,0,3:2:0:0:
458,164,103019,6,0,B|419:174|419:174|364:285|364:285|312:291,1,216,4|2,3:2|3:2,0:0:0:0:
162,214,103876,2,0,B|222:207|204:187|268:185,1,108,10|0,0:2|0:0,0:0:0:0:
276,189,104304,1,2,3:2:0:0:
366,227,104519,1,2,3:2:0:0:
458,163,104733,2,0,P|457:128|460:92,1,72,2|2,0:2|3:2,0:0:0:0:
512,33,105162,2,0,P|491:4|456:0,1,72,2|2,3:2|0:2,0:0:0:0:
312,77,105590,1,8,0:2:0:0:
320,0,105804,2,0,P|322:35|323:71,1,72,2|0,3:2|0:0,0:0:0:0:
297,178,106233,1,2,3:2:0:0:
58,47,106447,5,6,3:2:0:0:
131,70,106662,1,0,3:2:0:0:
247,115,106876,1,0,3:2:0:0:
174,138,107091,1,0,3:2:0:0:
28,283,107304,5,8,0:2:0:0:
99,257,107519,1,2,3:2:0:0:
74,186,107733,1,2,3:2:0:0:
2,211,107947,1,2,3:2:0:0:
150,339,108162,5,2,3:2:0:0:
241,320,108376,1,2,3:2:0:0:
332,301,108590,1,2,3:2:0:0:
423,282,108804,1,0,3:2:0:0:
461,92,109019,5,10,0:2:0:0:
297,178,109233,1,2,3:2:0:0:
490,233,109447,1,10,0:2:0:0:
501,230,109554,1,8,0:2:0:0:
512,227,109662,1,0,3:2:0:0:
480,26,123376,5,2,0:2:0:0:
422,89,123590,2,0,L|427:151,1,62.9999980773926,2|2,3:2|0:2,0:0:0:0:
378,221,124019,1,2,3:2:0:0:
249,165,124233,2,0,B|175:172|208:209|137:217,2,125.999996154785,2|2|2,0:2|3:2|0:2,0:0:0:0:
94,136,125304,6,0,P|64:124|45:100,1,62.9999980773926,2|2,3:2|0:2,0:0:0:0:
69,19,125733,1,2,3:2:0:0:
138,216,125947,2,0,P|133:279|129:342,2,125.999996154785,2|2|2,0:2|3:2|3:2,0:0:0:0:
260,358,127019,5,2,3:2:0:0:
332,334,127233,1,2,0:2:0:0:
406,333,127447,1,2,3:2:0:0:
502,228,127662,2,0,P|444:209|427:151,2,125.999996154785,2|2|2,0:2|3:2|0:2,0:0:0:0:
336,150,128733,5,2,3:2:0:0:
471,72,128947,1,2,0:2:0:0:
334,0,129162,1,2,3:2:0:0:
385,75,129376,2,0,B|316:69|316:69|313:68|313:68|241:62,1,144,2|2,0:2|3:2,0:0:0:0:
120,20,130019,1,10,0:2:0:0:
122,37,130126,1,0,1:2:0:0:
124,55,130233,1,2,3:2:0:0:
126,73,130340,1,0,1:2:0:0:
128,91,130447,5,6,3:2:0:0:
12,233,130662,1,2,0:2:0:0:
190,280,130876,1,2,3:2:0:0:
105,193,131090,2,0,L|109:273,1,80.9999975280763,10|0,0:2|1:2,0:0:0:0:
419,370,131519,5,2,3:2:0:0:
281,213,131734,1,10,0:2:0:0:
485,141,131948,1,2,0:2:0:0:
403,259,132162,5,2,3:2:0:0:
266,108,132376,1,2,3:2:0:0:
443,0,132590,1,2,3:2:0:0:
380,154,132804,2,0,L|376:74,1,80.9999975280763,10|0,0:2|1:2,0:0:0:0:
128,91,133233,5,2,3:2:0:0:
281,213,133447,1,10,0:2:0:0:
283,233,133554,1,0,1:2:0:0:
284,253,133661,1,2,1:2:0:0:
285,273,133768,1,0,1:2:0:0:
286,293,133875,1,2,3:2:0:0:
380,154,134090,1,2,3:2:0:0:
165,278,134304,1,2,3:2:0:0:
419,370,134519,1,10,0:2:0:0:
31,80,136876,5,10,0:2:0:0:
31,80,137304,2,0,B|129:88|81:132|174:146,1,161.999995056153,6|0,3:2|3:2,0:0:0:0:
39,160,137733,1,10,0:2:0:0:
175,66,137947,1,2,3:2:0:0:
290,251,138162,2,0,L|282:358,1,107.999996704102,2|2,0:2|3:2,0:0:0:0:
476,277,138590,2,0,P|444:234|392:226,1,107.999996704102,10|0,0:2|3:2,0:0:0:0:
172,360,139019,6,0,P|98:334|78:259,1,161.999995056153,6|0,3:2|3:2,0:0:0:0:
173,145,139447,2,0,L|180:252,1,107.999996704102,10|0,0:2|3:2,0:0:0:0:
397,384,139876,1,2,0:2:0:0:
476,277,140090,1,2,3:2:0:0:
341,167,140304,1,10,0:2:0:0:
334,172,140519,1,0,3:2:0:0:
479,39,140733,6,0,P|471:119|465:200,1,161.999995056153,6|0,3:2|3:2,0:0:0:0:
476,277,141162,2,0,P|424:268|392:226,1,107.999996704102,10|0,0:2|3:2,0:0:0:0:
398,382,141590,1,2,0:2:0:0:
180,252,141804,1,2,3:2:0:0:
371,84,142019,1,10,0:2:0:0:
302,247,142233,1,2,3:2:0:0:
142,7,142447,6,0,P|165:55|166:108,1,107.999996704102,14|2,0:2|3:2,0:0:0:0:
106,168,142769,1,8,0:2:0:0:
98,174,142876,2,0,L|45:163,1,53.9999983520508,2|0,3:2|0:0,0:0:0:0:
244,45,143090,2,0,L|296:34,1,53.9999983520508,8|0,0:2|0:0,0:0:0:0:
417,161,143304,1,2,3:2:0:0:
390,155,143411,1,8,0:2:0:0:
364,150,143519,2,0,P|353:125|357:99,1,53.9999983520508,2|0,3:2|0:0,0:0:0:0:
482,89,143733,2,0,P|493:113|489:139,1,53.9999983520508,10|0,0:2|0:0,0:0:0:0:
423,301,143947,1,8,0:2:0:0:
396,295,144054,1,8,0:2:0:0:
369,289,144162,6,0,B|271:297|319:341|225:355,1,161.999995056153,6|0,3:2|3:2,0:0:0:0:
130,309,144590,1,10,0:2:0:0:
281,151,144804,1,2,3:2:0:0:
165,108,145019,2,0,B|171:156|171:156|170:162|170:162|177:215,1,107.999996704102,2|2,0:2|3:2,0:0:0:0:
290,384,145447,2,0,B|297:330|297:330|296:324|296:324|302:276,1,107.999996704102,10|2,0:2|3:2,0:0:0:0:
488,138,145876,6,0,P|456:68|379:62,1,161.999995056153,6|0,3:2|3:2,0:0:0:0:
366,152,146304,1,10,0:2:0:0:
271,16,146519,1,2,3:2:0:0:
165,108,146733,1,2,0:2:0:0:
79,76,146947,1,2,3:2:0:0:
280,184,147162,1,10,0:2:0:0:
366,152,147376,1,2,3:2:0:0:
190,376,147590,6,0,P|184:295|177:214,1,161.999995056153,6|0,3:2|3:2,0:0:0:0:
91,182,148019,1,10,0:2:0:0:
272,271,148233,1,2,3:2:0:0:
281,275,148447,1,2,0:2:0:0:
7,309,148662,5,2,3:2:0:0:
177,214,148876,1,10,0:2:0:0:
8,114,149090,1,2,3:2:0:0:
67,207,149304,5,14,0:2:0:0:
83,203,149412,1,0,1:2:0:0:
98,199,149519,2,0,L|151:208,1,53.9999983520508,2|0,1:2|3:2,0:0:0:0:
227,284,149733,2,0,L|280:274,1,53.9999983520508,10|0,0:2|3:2,0:0:0:0:
389,173,149947,1,0,1:2:0:0:
378,161,150054,1,0,1:2:0:0:
364,159,150162,2,0,P|361:185|364:212,1,53.9999983520508,2|0,3:2|1:2,0:0:0:0:
468,209,150376,2,0,P|471:182|468:155,1,53.9999983520508,2|0,1:2|3:2,0:0:0:0:
480,27,150590,1,10,0:2:0:0:
453,31,150697,1,0,3:2:0:0:
426,36,150804,1,0,1:2:0:0:
400,41,150911,1,0,1:2:0:0:
366,47,151019,6,0,B|274:64|274:64|245:103|291:114,1,161.999995056153,6|0,3:2|3:2,0:0:0:0:
364,159,151447,1,10,0:2:0:0:
210,4,151662,1,2,3:2:0:0:
151,208,151876,2,0,P|155:261|160:315,1,107.999996704102,2|2,3:2|0:2,0:0:0:0:
211,368,152197,1,0,3:2:0:0:
217,374,152304,1,10,0:2:0:0:
61,226,152519,1,0,3:2:0:0:
291,114,152733,6,0,B|389:122|341:166|434:180,1,161.999995056153,6|0,3:2|3:2,0:0:0:0:
512,161,153162,2,0,P|468:189|460:241,1,107.999996704102,10|0,0:2|3:2,0:0:0:0:
512,384,153590,1,2,3:2:0:0:
392,357,153804,1,2,0:2:0:0:
375,359,153912,1,0,3:2:0:0:
358,362,154019,1,10,0:2:0:0:
460,241,154233,1,0,3:2:0:0:
221,136,154447,6,0,P|228:216|235:297,1,161.999995056153,6|0,3:2|3:2,0:0:0:0:
211,368,154876,1,10,0:2:0:0:
322,230,155090,1,0,3:2:0:0:
128,206,155304,2,0,B|90:217|90:217|61:292|61:292|21:305,1,161.999995056153,0|0,3:2|3:2,0:0:0:0:
0,230,155733,1,10,0:2:0:0:
146,291,155947,1,2,3:2:0:0:
220,135,156162,6,0,P|188:94|136:86,1,107.999996704102,4|2,3:2|3:2,0:0:0:0:
322,230,156590,2,0,P|354:188|406:180,1,107.999996704102,8|0,0:2|3:2,0:0:0:0:
211,368,157019,1,2,3:2:0:0:
146,291,157233,1,10,0:2:0:0:
119,295,157340,1,8,0:2:0:0:
92,299,157447,1,10,0:2:0:0:
65,303,157554,1,8,0:2:0:0:
39,306,157662,2,0,P|32:332|41:358,1,53.9999983520508,0|0,3:2|3:2,0:0:0:0:
227,235,157876,5,14,0:2:0:0:
238,224,157983,2,0,P|244:198|235:172,1,53.9999983520508,0|0,3:2|3:2,0:0:0:0:
323,134,158197,1,8,0:2:0:0:
318,118,158304,2,0,P|298:99|272:94,1,53.9999983520508,0|0,3:2|3:2,0:0:0:0:
253,4,158519,2,0,P|227:11|209:31,1,53.9999983520508,10|0,0:2|3:2,0:0:0:0:
333,227,158733,5,2,3:2:0:0:
359,222,158840,1,8,0:2:0:0:
386,218,158947,1,2,3:2:0:0:
413,214,159054,1,0,3:2:0:0:
439,210,159162,2,0,L|436:264,1,53.9999983520508,10|0,0:2|0:0,0:0:0:0:
370,369,159376,2,0,L|367:315,1,53.9999983520508,2|0,3:2|0:0,0:0:0:0:
227,235,159590,6,0,B|170:248|191:269|131:282,1,107.999996704102,6|8,3:2|0:2,0:0:0:0:
49,244,159912,1,0,3:2:0:0:
40,230,160019,2,0,L|43:176,1,53.9999983520508,2|8,3:2|0:2,0:0:0:0:
125,133,160233,2,0,L|122:79,1,53.9999983520508,2|0,3:2|0:0,0:0:0:0:
252,3,160447,5,10,0:2:0:0:
264,10,160554,1,8,0:2:0:0:
273,20,160661,1,2,3:2:0:0:
276,33,160768,1,0,3:2:0:0:
275,46,160876,2,0,L|328:37,1,53.9999983520508,10|0,0:2|0:0,0:0:0:0:
384,97,161090,2,0,L|437:105,1,53.9999983520508,2|0,3:2|0:0,0:0:0:0:
332,226,161304,5,6,3:2:0:0:
310,212,161411,1,8,0:2:0:0:
295,190,161518,1,8,0:2:0:0:
291,163,161625,1,0,3:2:0:0:
298,137,161733,2,0,P|309:162|308:189,1,53.9999983520508,10|8,0:2|0:2,0:0:0:0:
352,260,161947,2,0,P|335:281|312:294,1,53.9999983520508,0|8,3:2|0:2,0:0:0:0:
272,366,162162,5,10,0:2:0:0:
242,373,162269,1,0,3:2:0:0:
212,370,162376,1,8,0:2:0:0:
185,354,162483,1,8,0:2:0:0:
168,329,162590,1,10,0:2:0:0:
149,303,162697,1,8,0:2:0:0:
123,289,162804,1,2,1:2:0:0:
93,284,162911,1,0,1:2:0:0:
62,292,163019,6,0,P|24:251|33:195,1,116.999994644165,4|0,3:2|0:0,0:0:0:0:
12,105,163340,2,0,B|63:117|63:117|70:124|70:124|122:138,1,116.999994644165,0|0,3:2|0:0,0:0:0:0:
188,194,163662,2,0,B|216:187|216:187|219:184|219:184|243:176,1,58.4999973220826,0|0,3:2|0:0,0:0:0:0:
415,116,163876,5,8,0:2:0:0:
424,123,163983,1,0,1:2:0:0:
428,133,164090,2,0,L|423:177,1,45,0|0,3:2|3:2,0:0:0:0:
342,182,164304,1,0,1:2:0:0:
333,175,164411,1,0,1:2:0:0:
329,165,164518,2,0,L|333:120,1,45,0|0,1:2|1:2,0:0:0:0:
