osu file format v14

[General]
AudioFilename: audio.mp3
AudioLeadIn: 0
PreviewTime: 65364
Countdown: 1
SampleSet: Soft
StackLeniency: 0.7
Mode: 3
LetterboxInBreaks: 0
SpecialStyle: 0
WidescreenStoryboard: 1

[Editor]
Bookmarks: 20889
DistanceSpacing: 1
BeatDivisor: 4
GridSize: 32
TimelineZoom: 1

[Metadata]
Title:Umarun Taisou
TitleUnicode:うまるん体操
Artist:Osamuraisan
ArtistUnicode:おさむらいさん
Creator:guineaQ
Version:NM
Source:干物妹!うまるちゃんR
Tags:acoustic Himouto! Umaru-chan R
BeatmapID:1530364
BeatmapSetID:724755

[Difficulty]
HPDrainRate:7
CircleSize:4
OverallDifficulty:7
ApproachRate:5
SliderMultiplier:1.4
SliderTickRate:1

[Events]
//Background and Video events
0,0,"how.jpg",0,0
//Break Periods
//Storyboard Layer 0 (Background)
//Storyboard Layer 1 (Fail)
//Storyboard Layer 2 (Pass)
//Storyboard Layer 3 (Foreground)
//Storyboard Sound Samples

[TimingPoints]
1898,397.350993377483,4,2,1,40,1,0
5871,394.736842105263,4,2,1,40,1,0
5871,-101.010101010101,4,2,1,40,0,0
7055,375,4,2,1,40,1,0
7055,-106.382978723404,4,2,1,40,0,0
7430,387.096774193548,4,2,1,40,1,0
7430,-103.092783505155,4,2,1,40,0,0
8204,397.350993377483,4,2,1,40,1,0
13766,375,4,2,1,40,1,0
13766,-106.382978723404,4,2,1,40,0,0
14516,396.039603960396,4,2,1,40,1,0
19268,405.405405405405,4,2,1,40,1,0
19268,-98.0392156862745,4,2,1,40,0,0
20889,428.571428571429,4,2,1,40,1,0
20889,-93.4579439252336,4,2,1,40,0,0
21317,405.405405405405,4,2,1,40,1,0
21317,-98.0392156862745,4,2,1,40,0,0
26181,392.156862745098,4,2,1,40,1,0
26181,-101.010101010101,4,2,1,40,0,0
26965,405.405405405405,4,2,1,40,1,0
26965,-98.0392156862745,4,2,1,40,0,0
31829,397.350993377483,4,2,1,40,1,0
33815,402.684563758389,4,2,1,40,1,0
33815,-99.009900990099,4,2,1,40,0,0
36231,397.350993377483,4,2,1,40,1,0
37025,394.736842105263,4,2,1,40,1,0
37025,-101.010101010101,4,2,1,40,0,0
40182,387.096774193548,4,2,1,40,1,0
40182,-103.092783505155,4,2,1,40,0,0
40956,377.358490566038,4,2,1,40,1,0
40956,-105.263157894737,4,2,1,40,0,0
43220,396.039603960396,4,2,1,40,1,0
46388,419.58041958042,4,2,1,40,1,0
46388,-94.3396226415094,4,2,1,40,0,0
47227,394.736842105263,4,2,1,40,1,0
47227,-101.010101010101,4,2,1,40,0,0
48411,372.670807453416,4,2,1,40,1,0
48411,-106.382978723404,4,2,1,40,0,0
49156,398.009950248756,4,2,1,40,1,0
52340,397.350993377483,4,2,1,40,1,0
53929,402.684563758389,4,2,1,40,1,0
53929,-99.009900990099,4,2,1,40,0,0
56345,397.350993377483,4,2,1,40,1,0
58729,400,4,2,1,40,1,0
58729,-99.009900990099,4,2,1,40,0,0
59129,377.358490566038,4,2,1,40,1,0
59129,-105.263157894737,4,2,1,40,0,0
60638,387.096774193548,4,2,1,40,1,0
60638,-103.092783505155,4,2,1,40,0,0
62186,397.350993377483,4,2,1,40,1,0
65364,394.996708360764,4,2,1,40,1,1
65364,-101.010101010101,4,2,1,40,0,1
89063,376.175548589342,4,2,1,40,1,0
89063,-105.263157894737,4,2,1,40,0,0
90567,397.350993377483,4,2,1,40,1,0

[HitObjects]
448,192,1898,5,0,0:0:0:0:
320,192,2295,1,0,0:0:0:0:
192,192,2692,1,0,0:0:0:0:
64,192,3090,1,0,0:0:0:0:
320,192,3487,1,0,0:0:0:0:
192,192,3884,1,0,0:0:0:0:
448,192,4282,1,0,0:0:0:0:
64,192,4679,1,0,0:0:0:0:
192,192,4878,1,0,0:0:0:0:
320,192,4977,1,0,0:0:0:0:
448,192,5076,1,0,0:0:0:0:
320,192,5474,1,0,0:0:0:0:
64,192,5871,1,0,0:0:0:0:
192,192,6265,1,0,0:0:0:0:
448,192,6660,1,0,0:0:0:0:
192,192,7055,1,0,0:0:0:0:
64,192,7430,1,0,0:0:0:0:
64,192,7623,1,0,0:0:0:0:
448,192,7817,1,0,0:0:0:0:
320,192,8204,128,0,8601:0:0:0:0:
192,192,8601,1,0,0:0:0:0:
64,192,8998,128,0,9396:0:0:0:0:
448,192,9396,1,0,0:0:0:0:
192,192,9793,128,0,10190:0:0:0:0:
320,192,10190,128,0,10588:0:0:0:0:
448,192,10588,1,0,0:0:0:0:
64,192,10985,1,0,0:0:0:0:
192,192,11382,128,0,11780:0:0:0:0:
320,192,11780,1,0,0:0:0:0:
448,192,12177,128,0,12574:0:0:0:0:
64,192,12574,1,0,0:0:0:0:
320,192,12972,128,0,13369:0:0:0:0:
192,192,13369,128,0,13766:0:0:0:0:
64,192,13766,1,0,0:0:0:0:
448,192,14141,1,0,0:0:0:0:
320,192,14516,128,0,14912:0:0:0:0:
64,192,14912,1,0,0:0:0:0:
192,192,15308,128,0,15704:0:0:0:0:
448,192,15704,1,0,0:0:0:0:
64,192,16100,128,0,16496:0:0:0:0:
320,192,16496,128,0,16892:0:0:0:0:
448,192,16892,1,0,0:0:0:0:
192,192,17288,1,0,0:0:0:0:
448,192,17684,128,0,18080:0:0:0:0:
64,192,18080,1,0,0:0:0:0:
64,192,18476,128,0,18872:0:0:0:0:
448,192,18872,1,0,0:0:0:0:
192,192,19268,128,0,19673:0:0:0:0:
448,192,19673,1,0,0:0:0:0:
320,192,19876,1,0,0:0:0:0:
64,192,20078,1,0,0:0:0:0:
64,192,20281,1,0,0:0:0:0:
320,192,20484,1,0,0:0:0:0:
448,192,20889,1,4,0:0:0:0:
192,192,21103,1,0,0:0:0:0:
320,192,21317,1,0,0:0:0:0:
64,192,21519,128,0,21925:0:0:0:0:
448,192,21925,1,0,0:0:0:0:
192,192,22127,1,0,0:0:0:0:
320,192,22330,128,0,22735:0:0:0:0:
64,192,22735,1,0,0:0:0:0:
448,192,22938,1,0,0:0:0:0:
64,192,23141,1,0,0:0:0:0:
320,192,23344,1,0,0:0:0:0:
192,192,23546,1,0,0:0:0:0:
448,192,23749,1,0,0:0:0:0:
320,192,23952,1,0,0:0:0:0:
192,192,24053,1,0,0:0:0:0:
64,192,24154,1,4,0:0:0:0:
448,192,24357,1,0,0:0:0:0:
192,192,24560,1,0,0:0:0:0:
320,192,24762,128,0,25168:0:0:0:0:
64,192,25168,1,0,0:0:0:0:
192,192,25371,1,0,0:0:0:0:
448,192,25573,128,0,25979:0:0:0:0:
192,192,25979,1,0,0:0:0:0:
320,192,26181,1,0,0:0:0:0:
64,192,26377,1,0,0:0:0:0:
448,192,26573,1,0,0:0:0:0:
192,192,26769,1,0,0:0:0:0:
320,192,26965,1,0,0:0:0:0:
64,192,27167,1,0,0:0:0:0:
192,192,27269,1,0,0:0:0:0:
320,192,27370,1,4,0:0:0:0:
64,192,27573,1,0,0:0:0:0:
448,192,27775,1,0,0:0:0:0:
192,192,27978,128,0,28383:0:0:0:0:
320,192,28383,1,0,0:0:0:0:
64,192,28586,1,0,0:0:0:0:
448,192,28789,128,0,29194:0:0:0:0:
320,192,29194,1,0,0:0:0:0:
64,192,29397,1,0,0:0:0:0:
448,192,29600,1,0,0:0:0:0:
192,192,29802,1,0,0:0:0:0:
320,192,30005,1,0,0:0:0:0:
64,192,30208,1,0,0:0:0:0:
448,192,30410,1,0,0:0:0:0:
320,192,30512,1,0,0:0:0:0:
192,192,30613,1,4,0:0:0:0:
64,192,30816,1,0,0:0:0:0:
448,192,31019,1,0,0:0:0:0:
320,192,31221,128,0,31627:0:0:0:0:
64,192,31627,1,0,0:0:0:0:
192,192,31829,1,0,0:0:0:0:
448,192,32027,128,0,32425:0:0:0:0:
320,192,32425,1,0,0:0:0:0:
64,192,32623,1,0,0:0:0:0:
448,192,32822,1,0,0:0:0:0:
192,192,33021,1,0,0:0:0:0:
448,192,33219,1,0,0:0:0:0:
64,192,33418,1,0,0:0:0:0:
320,192,33617,1,0,0:0:0:0:
192,192,33815,1,4,0:0:0:0:
64,192,34016,1,0,0:0:0:0:
192,192,34117,1,0,0:0:0:0:
320,192,34217,1,0,0:0:0:0:
448,192,34419,1,0,0:0:0:0:
64,192,34620,1,0,0:0:0:0:
192,192,34922,1,0,0:0:0:0:
320,192,35224,1,0,0:0:0:0:
192,192,35425,1,0,0:0:0:0:
448,192,35627,1,0,0:0:0:0:
64,192,35828,1,0,0:0:0:0:
320,192,36029,1,0,0:0:0:0:
192,192,36231,1,0,0:0:0:0:
448,192,36429,1,0,0:0:0:0:
64,192,36628,1,0,0:0:0:0:
448,192,36827,1,0,0:0:0:0:
320,192,36926,1,0,0:0:0:0:
192,192,37025,1,0,0:0:0:0:
192,192,37222,1,0,0:0:0:0:
448,192,37419,1,0,0:0:0:0:
320,192,37617,1,0,0:0:0:0:
64,192,37814,1,2,0:0:0:0:
64,192,38011,1,0,0:0:0:0:
448,192,38209,1,0,0:0:0:0:
320,192,38406,1,0,0:0:0:0:
64,192,38603,1,2,0:0:0:0:
192,192,38801,1,0,0:0:0:0:
448,192,38998,1,0,0:0:0:0:
320,192,39196,1,0,0:0:0:0:
64,192,39393,1,2,0:0:0:0:
192,192,39590,1,0,0:0:0:0:
448,192,39788,1,2,0:0:0:0:
320,192,39985,1,0,0:0:0:0:
192,192,40084,1,0,0:0:0:0:
64,192,40182,1,0,0:0:0:0:
320,192,40375,1,0,0:0:0:0:
192,192,40569,1,0,0:0:0:0:
448,192,40762,1,0,0:0:0:0:
64,192,40956,1,0,0:0:0:0:
320,192,41239,1,0,0:0:0:0:
64,192,41522,128,0,41899:0:0:0:0:
448,192,41899,1,0,0:0:0:0:
192,192,42088,1,0,0:0:0:0:
320,192,42276,1,0,0:0:0:0:
64,192,42465,1,0,0:0:0:0:
192,192,42654,1,0,0:0:0:0:
448,192,42842,1,0,0:0:0:0:
320,192,43031,1,0,0:0:0:0:
192,192,43125,1,0,0:0:0:0:
64,192,43220,1,0,0:0:0:0:
64,192,43418,1,0,0:0:0:0:
320,192,43616,1,0,0:0:0:0:
448,192,43814,1,0,0:0:0:0:
192,192,44012,1,2,0:0:0:0:
192,192,44210,1,2,0:0:0:0:
320,192,44408,1,2,0:0:0:0:
64,192,44606,1,2,0:0:0:0:
448,192,44804,1,2,0:0:0:0:
448,192,45002,1,2,0:0:0:0:
320,192,45200,1,2,0:0:0:0:
320,192,45398,1,2,0:0:0:0:
192,192,45596,1,2,0:0:0:0:
64,192,45794,1,0,0:0:0:0:
448,192,45992,1,0,0:0:0:0:
320,192,46190,1,0,0:0:0:0:
64,192,46388,128,4,46807:0:0:0:0:
192,192,46807,1,0,0:0:0:0:
192,192,47017,1,0,0:0:0:0:
448,192,47227,128,0,47621:0:0:0:0:
192,192,47621,128,0,48016:0:0:0:0:
320,192,48016,128,0,48411:0:0:0:0:
64,192,48411,128,0,48783:0:0:0:0:
448,192,48783,128,0,49156:0:0:0:0:
192,192,49156,128,0,49554:0:0:0:0:
320,192,49554,1,0,0:0:0:0:
448,192,49753,1,0,0:0:0:0:
192,192,49952,1,0,0:0:0:0:
448,192,50151,128,0,50549:0:0:0:0:
64,192,50549,1,0,0:0:0:0:
192,192,50748,1,0,0:0:0:0:
448,192,50947,1,0,0:0:0:0:
192,192,51146,1,0,0:0:0:0:
64,192,51345,1,0,0:0:0:0:
448,192,51544,1,0,0:0:0:0:
192,192,51743,1,0,0:0:0:0:
320,192,51942,128,0,52340:0:0:0:0:
192,192,52340,128,0,52737:0:0:0:0:
448,192,52737,1,0,0:0:0:0:
448,192,52936,1,0,0:0:0:0:
64,192,53134,1,0,0:0:0:0:
320,192,53532,1,0,0:0:0:0:
320,192,53730,1,0,0:0:0:0:
192,192,53929,1,0,0:0:0:0:
448,192,54130,1,0,0:0:0:0:
64,192,54331,1,0,0:0:0:0:
64,192,54533,1,0,0:0:0:0:
448,192,54734,1,0,0:0:0:0:
192,192,55137,1,0,0:0:0:0:
192,192,55338,1,0,0:0:0:0:
320,192,55539,1,0,0:0:0:0:
448,192,55942,1,0,0:0:0:0:
448,192,56143,1,0,0:0:0:0:
192,192,56345,1,0,0:0:0:0:
320,192,56742,1,0,0:0:0:0:
64,192,57139,1,0,0:0:0:0:
320,192,57537,1,0,0:0:0:0:
448,192,57537,1,0,0:0:0:0:
192,192,57934,1,0,0:0:0:0:
320,192,57934,1,0,0:0:0:0:
64,192,58331,1,0,0:0:0:0:
192,192,58331,1,0,0:0:0:0:
448,192,58729,1,0,0:0:0:0:
64,192,59129,1,0,0:0:0:0:
192,192,59317,1,0,0:0:0:0:
320,192,59506,1,0,0:0:0:0:
448,192,59695,1,0,0:0:0:0:
320,192,59883,1,0,0:0:0:0:
192,192,60072,1,0,0:0:0:0:
64,192,60261,1,0,0:0:0:0:
192,192,60449,1,0,0:0:0:0:
320,192,60638,1,0,0:0:0:0:
448,192,60831,1,0,0:0:0:0:
320,192,61025,1,0,0:0:0:0:
192,192,61218,1,0,0:0:0:0:
64,192,61412,1,0,0:0:0:0:
192,192,61605,1,0,0:0:0:0:
320,192,61799,1,0,0:0:0:0:
448,192,61992,1,0,0:0:0:0:
320,192,62186,1,0,0:0:0:0:
192,192,62384,1,0,0:0:0:0:
64,192,62583,1,0,0:0:0:0:
192,192,62782,1,0,0:0:0:0:
320,192,62980,1,0,0:0:0:0:
448,192,63179,1,0,0:0:0:0:
320,192,63378,1,0,0:0:0:0:
192,192,63576,1,0,0:0:0:0:
64,192,63775,1,0,0:0:0:0:
448,192,63775,1,4,0:0:0:0:
192,192,64570,1,0,0:0:0:0:
448,192,64570,1,0,0:0:0:0:
320,192,64967,1,0,0:0:0:0:
448,192,64967,1,0,0:0:0:0:
64,192,65364,1,2,0:0:0:0:
192,192,65364,1,4,0:0:0:0:
448,192,65561,1,0,0:0:0:0:
192,192,65758,1,0,0:0:0:0:
320,192,65758,1,2,0:0:0:0:
448,192,65956,1,0,0:0:0:0:
64,192,66153,1,0,0:0:0:0:
192,192,66153,1,2,0:0:0:0:
448,192,66351,1,0,0:0:0:0:
320,192,66548,1,2,0:0:0:0:
192,192,66548,1,0,0:0:0:0:
64,192,66746,1,0,0:0:0:0:
192,192,66943,1,2,0:0:0:0:
448,192,66943,1,0,0:0:0:0:
320,192,67141,1,0,0:0:0:0:
64,192,67338,1,2,0:0:0:0:
320,192,67536,1,0,0:0:0:0:
192,192,67733,1,2,0:0:0:0:
64,192,67931,1,0,0:0:0:0:
320,192,68128,1,2,0:0:0:0:
448,192,68326,1,0,0:0:0:0:
64,192,68523,1,0,0:0:0:0:
192,192,68523,1,2,0:0:0:0:
448,192,68770,1,0,0:0:0:0:
320,192,68918,1,2,0:0:0:0:
64,192,69116,1,0,0:0:0:0:
192,192,69313,1,2,0:0:0:0:
448,192,69313,1,0,0:0:0:0:
320,192,69560,1,0,0:0:0:0:
64,192,69708,1,2,0:0:0:0:
448,192,69906,1,0,0:0:0:0:
320,192,70103,1,2,0:0:0:0:
64,192,70103,1,0,0:0:0:0:
448,192,70301,1,0,0:0:0:0:
192,192,70498,1,2,0:0:0:0:
448,192,70696,1,0,0:0:0:0:
320,192,70893,1,2,0:0:0:0:
64,192,70893,1,0,0:0:0:0:
64,192,71091,1,0,0:0:0:0:
448,192,71288,1,4,0:0:0:0:
192,192,71486,1,0,0:0:0:0:
448,192,71683,1,0,0:0:0:0:
320,192,71683,1,2,0:0:0:0:
64,192,71881,1,0,0:0:0:0:
192,192,72078,1,2,0:0:0:0:
320,192,72078,1,0,0:0:0:0:
64,192,72276,1,0,0:0:0:0:
448,192,72473,1,0,0:0:0:0:
320,192,72473,1,2,0:0:0:0:
192,192,72671,1,0,0:0:0:0:
64,192,72868,1,0,0:0:0:0:
320,192,72868,1,2,0:0:0:0:
448,192,73066,1,0,0:0:0:0:
192,192,73263,1,2,0:0:0:0:
320,192,73263,1,0,0:0:0:0:
64,192,73461,1,0,0:0:0:0:
448,192,73658,1,2,0:0:0:0:
192,192,73856,1,0,0:0:0:0:
448,192,74053,1,2,0:0:0:0:
64,192,74251,1,0,0:0:0:0:
320,192,74448,1,2,0:0:0:0:
448,192,74646,1,0,0:0:0:0:
192,192,74843,1,0,0:0:0:0:
320,192,74843,1,2,0:0:0:0:
64,192,75090,1,0,0:0:0:0:
448,192,75238,1,2,0:0:0:0:
192,192,75436,1,0,0:0:0:0:
448,192,75633,1,2,0:0:0:0:
64,192,75831,1,0,0:0:0:0:
320,192,76028,1,2,0:0:0:0:
192,192,76226,1,0,0:0:0:0:
320,192,76423,1,2,0:0:0:0:
448,192,76423,1,0,0:0:0:0:
64,192,76621,1,0,0:0:0:0:
448,192,76818,1,2,0:0:0:0:
192,192,77016,1,0,0:0:0:0:
320,192,77213,1,2,0:0:0:0:
448,192,77213,1,4,0:0:0:0:
192,192,77608,1,2,0:0:0:0:
64,192,77608,1,4,0:0:0:0:
192,192,78003,1,2,0:0:0:0:
448,192,78003,1,0,0:0:0:0:
320,192,78201,1,0,0:0:0:0:
192,192,78398,1,2,0:0:0:0:
64,192,78398,1,0,0:0:0:0:
320,192,78596,1,0,0:0:0:0:
192,192,78793,1,2,0:0:0:0:
448,192,78793,1,0,0:0:0:0:
64,192,78991,1,0,0:0:0:0:
320,192,79188,1,2,0:0:0:0:
448,192,79188,1,0,0:0:0:0:
192,192,79386,1,0,0:0:0:0:
64,192,79583,1,0,0:0:0:0:
320,192,79583,1,2,0:0:0:0:
448,192,79781,1,0,0:0:0:0:
320,192,79978,1,2,0:0:0:0:
64,192,80176,1,0,0:0:0:0:
192,192,80373,1,2,0:0:0:0:
448,192,80373,1,4,0:0:0:0:
64,192,80768,1,4,0:0:0:0:
320,192,80768,1,2,0:0:0:0:
448,192,81163,128,6,81558:0:0:0:0:
192,192,81163,1,0,0:0:0:0:
64,192,81558,1,0,0:0:0:0:
320,192,81756,128,4,82151:0:0:0:0:
192,192,82151,1,0,0:0:0:0:
448,192,82348,1,2,0:0:0:0:
64,192,82546,128,4,82941:0:0:0:0:
448,192,82941,1,0,0:0:0:0:
192,192,83138,1,2,0:0:0:0:
448,192,83336,1,0,0:0:0:0:
64,192,83533,1,2,0:0:0:0:
320,192,83731,1,0,0:0:0:0:
192,192,83928,1,2,0:0:0:0:
448,192,84126,1,0,0:0:0:0:
64,192,84323,1,0,0:0:0:0:
320,192,84323,1,2,0:0:0:0:
448,192,84570,1,0,0:0:0:0:
192,192,84718,1,2,0:0:0:0:
320,192,84916,1,0,0:0:0:0:
64,192,85113,1,0,0:0:0:0:
448,192,85113,1,2,0:0:0:0:
192,192,85311,1,0,0:0:0:0:
448,192,85508,1,2,0:0:0:0:
192,192,85706,1,0,0:0:0:0:
64,192,85903,1,0,0:0:0:0:
320,192,85903,1,2,0:0:0:0:
448,192,86150,1,0,0:0:0:0:
192,192,86298,1,2,0:0:0:0:
320,192,86496,1,0,0:0:0:0:
64,192,86693,1,4,0:0:0:0:
448,192,86693,1,2,0:0:0:0:
64,192,87088,1,4,0:0:0:0:
448,192,87088,1,2,0:0:0:0:
192,192,87483,1,2,0:0:0:0:
320,192,87483,1,0,0:0:0:0:
448,192,87681,1,0,0:0:0:0:
192,192,87878,1,2,0:0:0:0:
64,192,87878,1,0,0:0:0:0:
448,192,88076,1,0,0:0:0:0:
320,192,88273,1,2,0:0:0:0:
192,192,88273,1,0,0:0:0:0:
64,192,88471,1,2,0:0:0:0:
320,192,88668,1,2,0:0:0:0:
448,192,88866,1,0,0:0:0:0:
64,192,89063,128,0,90191:0:0:0:0:
192,192,89063,128,0,90191:0:0:0:0:
320,192,89063,128,0,90191:0:0:0:0:
448,192,90191,1,0,0:0:0:0:
192,192,90379,1,0,0:0:0:0:
320,192,90567,128,0,90964:0:0:0:0:
64,192,90964,1,0,0:0:0:0:
448,192,91361,128,0,91759:0:0:0:0:
192,192,91759,1,0,0:0:0:0:
64,192,92156,128,0,92553:0:0:0:0:
192,192,92553,128,0,92951:0:0:0:0:
320,192,92951,1,0,0:0:0:0:
448,192,93149,1,0,0:0:0:0:
320,192,93249,1,0,0:0:0:0:
192,192,93348,1,0,0:0:0:0:
64,192,93547,1,0,0:0:0:0:
192,192,93646,1,0,0:0:0:0:
320,192,93745,128,0,94143:0:0:0:0:
448,192,94143,1,0,0:0:0:0:
192,192,94540,128,0,94937:0:0:0:0:
64,192,94937,1,0,0:0:0:0:
448,192,95335,128,0,95732:0:0:0:0:
64,192,95732,128,0,96129:0:0:0:0:
320,192,96129,1,0,0:0:0:0:
320,192,96328,1,0,0:0:0:0:
192,192,96527,1,0,0:0:0:0:
448,192,96527,1,0,0:0:0:0:
