osu file format v14

[General]
AudioFilename: audio.mp3
AudioLeadIn: 0
PreviewTime: 63083
Countdown: 0
SampleSet: Soft
StackLeniency: 0.4
Mode: 0
LetterboxInBreaks: 0
WidescreenStoryboard: 1

[Editor]
Bookmarks: 21172,28231,40584,49407,63525,70584,77643,84701
DistanceSpacing: 0.6
BeatDivisor: 4
GridSize: 32
TimelineZoom: 1.900002

[Metadata]
Title:Presto
TitleUnicode:Presto
Artist:Osamu Kubota
ArtistUnicode:久保田修
Creator:Kloyd
Version:Hyper
Source:beatmania IIDX 3rd style
Tags:dailycare leominexd jval93700 ponbot ktgster instrumental video game ノスタルジア nostalgia Op.3 REFLEC BEAT plus groovin'!! Upper KEYBOARDMANIA 2ndMIX piano ambient bemani
BeatmapID:2997193
BeatmapSetID:1452332

[Difficulty]
HPDrainRate:6
CircleSize:4
OverallDifficulty:7
ApproachRate:8
SliderMultiplier:1.3
SliderTickRate:1

[Events]
//Background and Video events
0,0,"piano.jpg",0,0
//Break Periods
2,49596,55706
//Storyboard Layer 0 (Background)
//Storyboard Layer 1 (Fail)
//Storyboard Layer 2 (Pass)
//Storyboard Layer 3 (Foreground)
//Storyboard Layer 4 (Overlay)
//Storyboard Sound Samples

[TimingPoints]
0,452.830188679245,4,2,1,50,1,0
0,-125,4,2,1,50,0,0
2716,410.958904109589,4,2,1,30,1,0
2716,-125,4,2,1,30,0,0
3537,444.444444444444,4,2,1,30,1,0
3537,-125,4,2,1,30,0,0
5314,441.176470588235,4,2,1,30,1,0
5314,-125,4,2,1,30,0,0
8843,433.212996389892,4,2,1,30,1,0
8843,-125,4,2,1,30,0,0
10574,441.176470588235,4,2,1,40,1,0
10574,-100,4,2,1,40,0,0
21162,-100,4,2,1,50,0,0
28221,-100,4,2,1,60,0,0
40573,-100,4,2,1,70,0,0
49397,-100,4,2,1,40,0,0
56456,-133.333333333333,4,2,1,40,0,0
63073,-100,4,2,1,40,0,0
63515,-100,4,2,1,50,0,0
70573,-100,4,2,1,60,0,0
77632,-100,4,2,1,70,0,0
95279,-100,4,2,1,5,0,0

[Colours]
Combo1 : 255,102,102
Combo2 : 255,170,213
Combo3 : 255,255,210
Combo4 : 225,225,225
Combo5 : 125,125,125

[HitObjects]
164,235,0,6,0,P|98:261|106:348,1,156,2|0,0:0|0:0,0:0:0:0:
96,363,905,2,0,B|203:305|178:395|300:344,2,208,2|0|2,0:0|0:0|0:0,0:0:0:0:
16,170,3537,6,0,P|86:158|77:37,2,208,2|2|2,0:0|0:0|0:0,0:0:0:0:
201,75,6196,1,2,0:0:0:0:
401,20,7078,2,0,P|465:74|456:197,2,208,2|2|2,0:0|0:0|0:0,0:0:0:0:
193,3,9709,2,0,L|215:166,1,156,2|0,0:0|0:0,0:0:0:0:
225,233,10575,5,4,0:0:0:0:
225,233,11235,2,0,L|268:244,2,32.5,2|2|2,0:0|0:0|0:0,0:0:0:0:
150,209,11676,1,2,0:0:0:0:
75,185,11897,1,0,1:0:0:0:
53,260,12118,1,2,0:0:0:0:
32,335,12338,2,0,P|64:329|97:326,2,65,2|2|0,0:0|0:0|1:0,0:0:0:0:
186,360,13221,2,0,P|231:318|221:257,1,130,2|0,0:0|1:0,0:0:0:0:
359,186,14103,5,2,0:0:0:0:
359,186,14985,2,0,L|397:177,2,32.5,2|2|2,0:0|0:0|0:0,0:0:0:0:
299,236,15426,2,0,P|332:249|366:271,1,65,0|2,1:0|0:0,0:0:0:0:
423,306,15868,6,0,P|429:353|356:367,1,130,2|0,0:0|1:0,0:0:0:0:
289,342,16529,2,0,L|284:381,2,32.5,2|2|2,0:0|0:0|0:0,0:0:0:0:
226,295,16971,1,2,0:0:0:0:
178,233,17191,2,0,L|195:163,1,65,0|0,1:0|0:0,0:0:0:0:
219,96,17632,6,0,P|172:89|121:156,1,130,2|0,0:0|1:0,0:0:0:0:
178,233,18295,1,2,0:0:0:0:
184,252,18405,1,2,0:0:0:0:
186,268,18515,6,0,P|116:296|94:235,1,130,2|0,0:0|1:0,0:0:0:0:
14,251,19176,1,2,0:0:0:0:
11,234,19287,1,2,0:0:0:0:
1,221,19397,6,0,B|-17:143|61:115,1,130,2|0,0:0|1:0,0:0:0:0:
77,41,20059,1,2,0:0:0:0:
94,44,20170,1,2,0:0:0:0:
107,54,20280,6,0,B|185:72|213:-6,1,130,2|0,0:0|1:0,0:0:0:0:
286,16,20941,6,0,L|327:25,2,32.5,2|2|0,0:0|0:0|0:0,0:0:0:0:
273,31,21272,1,2,0:0:0:0:
317,95,21493,1,2,0:0:0:0:
392,111,21713,1,0,0:0:0:0:
439,49,21934,5,2,0:0:0:0:
407,120,22154,1,2,0:0:0:0:
434,202,22375,2,0,P|443:232|444:265,1,65,2|0,0:0|0:0,0:0:0:0:
449,284,22706,2,0,P|441:299|438:318,1,32.5,0|0,0:0|0:0,0:0:0:0:
442,333,22926,6,0,L|462:361,1,32.5,2|2,0:0|0:0,0:0:0:0:
366,378,23257,2,0,P|322:373|295:293,1,130,2|0,0:0|0:0,0:0:0:0:
298,282,23809,2,0,L|337:274,1,32.5,2|2,0:0|0:0,0:0:0:0:
250,216,24140,2,0,P|208:208|185:224,1,65,2|0,0:0|0:0,0:0:0:0:
176,231,24471,6,0,L|173:271,2,32.5,2|2|0,0:0|0:0|0:0,0:0:0:0:
158,222,24801,1,2,0:0:0:0:
81,240,25022,1,2,0:0:0:0:
37,304,25243,1,0,0:0:0:0:
54,228,25463,1,0,0:0:0:0:
24,155,25684,1,2,0:0:0:0:
90,113,25904,2,0,P|110:89|115:57,1,65,2|0,0:0|0:0,0:0:0:0:
111,38,26235,2,0,L|71:14,1,32.5,0|0,0:0|0:0,0:0:0:0:
64,28,26456,6,0,L|43:66,1,32.5,2|2,0:0|0:0,0:0:0:0:
97,125,26787,2,0,P|172:122|189:59,1,130,2|0,0:0|0:0,0:0:0:0:
190,59,27338,6,0,P|202:42|225:25,1,32.5,2|2,0:0|0:0,0:0:0:0:
285,56,27669,2,0,P|323:105|286:155,1,130,2|2,0:0|0:0,0:0:0:0:
283,172,28221,5,2,0:0:0:0:
280,191,28331,2,0,L|203:184,1,65,8|0,0:0|0:0,0:0:0:0:
209,203,28662,2,0,L|132:196,1,65,8|0,0:0|0:0,0:0:0:0:
135,214,28993,2,0,P|89:191|87:140,1,97.5,10|10,0:0|0:0,0:0:0:0:
18,333,29986,5,10,0:0:0:0:
31,319,30096,2,0,L|100:327,1,65,0|0,0:0|0:0,0:0:0:0:
100,307,30427,2,0,L|169:315,1,65,10|0,0:0|0:0,0:0:0:0:
179,301,30757,2,0,P|228:307|237:363,1,97.5,8|8,0:0|0:0,0:0:0:0:
242,347,31529,1,10,0:0:0:0:
319,353,31750,6,0,L|387:367,2,43.3333333333333,0|2|2,1:0|0:0|0:0,0:0:0:0:
337,280,32191,2,0,L|294:271,2,43.3333333333333,8|2|2,0:0|0:0|0:0,0:0:0:0:
355,207,32632,2,0,P|400:205|462:184,2,97.5,0|0|0,1:0|1:0|0:0,0:0:0:0:
340,102,33515,6,0,P|348:83|354:62,2,43.3333333333333,0|2|2,1:0|0:0|0:0,0:0:0:0:
417,131,33956,2,0,P|408:150|402:171,2,43.3333333333333,8|2|2,0:0|0:0|0:0,0:0:0:0:
495,116,34397,2,0,P|493:70|481:11,2,97.5,0|0|8,1:0|1:0|0:0,0:0:0:0:
466,215,35279,6,0,L|474:255,2,32.5,0|2|2,1:0|0:0|0:0,0:0:0:0:
456,195,35610,2,0,P|409:198|379:235,1,97.5,2|0,0:0|0:0,0:0:0:0:
362,311,36162,5,0,1:0:0:0:
355,329,36272,1,2,0:0:0:0:
349,347,36382,2,0,L|302:341,1,32.5,2|2,0:0|0:0,0:0:0:0:
305,327,36603,2,0,L|258:333,1,32.5,8|0,0:0|0:0,0:0:0:0:
201,298,36934,2,0,P|160:302|121:352,1,97.5,2|0,0:0|0:0,0:0:0:0:
121,361,37375,2,0,L|192:374,2,65,2|2|2,0:0|0:0|0:0,0:0:0:0:
106,374,37926,5,0,1:0:0:0:
36,337,38147,1,0,1:0:0:0:
36,337,38257,1,0,1:0:0:0:
39,258,38478,1,8,0:0:0:0:
105,216,38698,1,8,0:0:0:0:
105,216,38809,6,0,L|151:228,1,32.5,0|0,1:0|0:0,0:0:0:0:
198,177,39140,2,0,L|179:90,1,65,2|0,0:0|0:0,0:0:0:0:
179,94,39471,2,0,L|146:98,1,32.5,0|0,0:0|1:0,0:0:0:0:
72,6,39801,2,0,P|46:23|32:52,1,65,0|0,1:0|1:0,0:0:0:0:
30,68,40132,1,0,1:0:0:0:
92,163,40353,1,0,1:0:0:0:
92,163,40463,1,0,1:0:0:0:
92,163,40573,5,4,0:0:0:0:
158,121,40794,2,0,L|167:84,2,32.5,8|0|0,0:0|0:0|0:0,0:0:0:0:
225,159,41235,2,0,L|232:190,2,32.5,8|0|0,0:0|0:0|1:0,0:0:0:0:
285,109,41676,2,0,L|294:72,2,32.5,8|0|0,0:0|0:0|0:0,0:0:0:0:
343,161,42118,6,0,L|350:192,2,32.5,10|2|0,0:0|0:0|1:0,0:0:0:0:
414,128,42559,1,8,0:0:0:0:
414,128,42669,1,0,0:0:0:0:
414,128,42779,2,0,P|464:125|484:94,1,65,0|8,0:0|0:0,0:0:0:0:
492,114,43110,2,0,L|500:71,1,32.5,0|0,0:0|1:0,0:0:0:0:
429,43,43441,2,0,L|421:0,2,32.5,8|0|0,0:0|0:0|0:0,0:0:0:0:
350,39,43882,1,8,0:0:0:0:
279,73,44103,5,0,1:0:0:0:
225,129,44323,2,0,L|178:137,2,32.5,8|0|0,0:0|0:0|0:0,0:0:0:0:
271,192,44765,2,0,L|318:200,2,32.5,8|0|0,0:0|0:0|1:0,0:0:0:0:
209,239,45206,2,0,L|162:247,2,32.5,8|0|0,0:0|0:0|0:0,0:0:0:0:
270,303,45647,1,10,0:0:0:0:
270,303,45757,1,2,0:0:0:0:
270,303,45868,5,0,1:0:0:0:
339,338,46088,2,0,L|345:378,2,32.5,8|0|0,0:0|0:0|0:0,0:0:0:0:
385,275,46529,1,8,0:0:0:0:
387,272,46640,1,0,0:0:0:0:
389,269,46750,2,0,L|442:262,2,32.5,0|0|8,1:0|0:0|0:0,0:0:0:0:
347,202,47191,1,0,0:0:0:0:
269,212,47412,1,8,0:0:0:0:
269,212,47522,1,10,0:0:0:0:
269,212,47632,6,0,P|262:289|240:345,2,130,0|8|0,1:0|0:0|1:0,0:0:0:0:
194,189,48735,1,2,0:0:0:0:
123,222,48956,1,0,0:0:0:0:
49,196,49176,2,0,L|43:160,2,32.5,0|0|4,1:0|1:0|0:0,0:0:0:0:
180,90,56456,6,0,P|135:88|81:73,3,97.50000371933,0|0|0|0,1:0|1:0|1:0|1:0,0:0:0:0:
32,179,58221,2,0,P|77:181|131:196,3,97.50000371933,0|0|0|0,1:0|1:0|1:0|1:0,0:0:0:0:
209,277,59985,6,0,B|284:306|328:235|314:198|336:225|325:187|368:139|458:175,1,292.50001115799,0|0,1:0|0:0,0:0:0:0:
412,283,61750,6,0,L|218:261,1,195.00000743866,0|0,1:0|1:0,0:0:0:0:
218,261,63184,6,0,L|231:303,2,32.5,2|2|2,0:0|0:0|0:0,0:0:0:0:
207,244,63515,2,0,L|171:230,1,32.5,4|2,0:0|0:0,0:0:0:0:
102,208,63846,1,2,0:0:0:0:
31,241,64066,2,0,P|14:269|12:301,1,65,2|2,0:0|0:0,0:0:0:0:
21,318,64397,6,0,L|9:362,2,32.5,0|2|2,1:0|0:0|0:0,0:0:0:0:
35,330,64728,2,0,L|120:320,1,65,2|2,0:0|0:0,0:0:0:0:
208,364,65279,6,0,P|216:351|221:322,1,32.5,0|2,1:0|0:0,0:0:0:0:
200,258,65610,1,2,0:0:0:0:
199,257,65721,2,0,P|196:225|205:195,1,65,8|2,0:0|0:0,0:0:0:0:
214,177,66051,5,2,0:0:0:0:
229,103,66272,1,2,0:0:0:0:
229,103,66383,2,0,P|261:106|291:97,1,65,0|8,0:0|0:0,0:0:0:0:
305,83,66713,1,2,0:0:0:0:
386,93,66934,1,2,0:0:0:0:
385,93,67045,6,0,P|381:108|381:124,1,32.5,0|0,1:0|0:0,0:0:0:0:
455,150,67375,2,0,P|493:123|494:88,1,65,0|2,0:0|0:0,0:0:0:0:
500,88,67706,1,2,0:0:0:0:
456,23,67926,6,0,L|420:11,1,32.5,0|2,1:0|0:0,0:0:0:0:
391,83,68257,2,0,L|355:95,2,32.5,2|8|2,0:0|0:0|0:0,0:0:0:0:
401,164,68698,1,0,0:0:0:0:
401,164,68809,5,0,0:0:0:0:
444,228,69029,1,2,0:0:0:0:
511,268,69250,2,0,L|500:178,1,65,10|0,0:0|0:0,0:0:0:0:
508,184,69581,2,0,L|487:156,2,32.5,2|0|2,0:0|1:0|0:0,0:0:0:0:
388,219,70022,1,2,0:0:0:0:
391,297,70243,1,2,0:0:0:0:
466,335,70463,1,2,0:0:0:0:
482,325,70573,5,0,0:0:0:0:
485,305,70684,2,0,L|407:325,1,65,0|0,0:0|0:0,0:0:0:0:
409,336,71015,2,0,L|334:355,1,65,8|0,0:0|0:0,0:0:0:0:
332,365,71346,2,0,P|346:316|354:254,1,97.5,10|8,0:0|0:0,0:0:0:0:
352,270,72118,1,8,0:0:0:0:
287,226,72338,5,8,0:0:0:0:
268,233,72448,2,0,L|279:149,1,65,2|0,0:0|0:0,0:0:0:0:
260,157,72779,2,0,L|271:73,1,65,8|0,0:0|0:0,0:0:0:0:
270,73,73110,2,0,P|224:89|176:99,1,97.5,10|8,0:0|0:0,0:0:0:0:
176,99,73882,1,8,0:0:0:0:
104,67,74103,6,0,P|110:44|112:14,2,43.3333333333333,0|2|2,1:0|0:0|0:0,0:0:0:0:
27,79,74544,2,0,P|20:56|7:29,2,43.3333333333333,8|2|2,0:0|0:0|0:0,0:0:0:0:
19,156,74985,2,0,P|12:178|0:205,2,43.3333333333333,0|2|2,1:0|0:0|0:0,0:0:0:0:
95,137,75426,2,0,P|117:143|144:156,2,43.3333333333333,8|2|2,0:0|0:0|0:0,0:0:0:0:
27,79,75868,5,0,1:0:0:0:
18,156,76088,2,0,L|-16:147,2,32.5,2|0|8,0:0|0:0|0:0,0:0:0:0:
75,208,76529,1,2,0:0:0:0:
87,223,76640,1,2,0:0:0:0:
89,242,76750,2,0,L|19:281,1,65,0|2,1:0|0:0,0:0:0:0:
15,349,77191,1,8,0:0:0:0:
15,349,77301,1,0,0:0:0:0:
131,354,77632,6,0,P|126:369|119:384,2,32.5,0|0|0,1:0|0:0|0:0,0:0:0:0:
135,334,77963,1,0,0:0:0:0:
133,314,78073,1,8,0:0:0:0:
202,278,78294,2,0,P|213:289|226:298,2,32.5,0|0|0,0:0|0:0|1:0,0:0:0:0:
165,208,78735,2,0,P|149:212|133:213,2,32.5,0|0|8,0:0|0:0|0:0,0:0:0:0:
212,145,79176,1,2,0:0:0:0:
224,129,79287,1,10,0:0:0:0:
226,109,79397,6,0,P|214:71|199:38,1,65,0|0,1:0|0:0,0:0:0:0:
190,33,79728,2,0,L|228:8,1,32.5,0|8,0:0|0:0,0:0:0:0:
284,55,80059,2,0,L|332:62,2,32.5,0|0|0,0:0|0:0|1:0,0:0:0:0:
298,131,80500,2,0,L|335:159,2,32.5,0|0|8,0:0|0:0|0:0,0:0:0:0:
264,201,80941,1,10,0:0:0:0:
217,263,81162,6,0,P|212:321|266:373,1,130,0|12,1:0|0:0,0:0:0:0:
329,338,81823,2,0,L|369:346,1,32.5,0|0,0:0|0:0,0:0:0:0:
378,335,82044,6,0,P|422:331|456:378,2,97.5,0|0|2,1:0|0:0|0:0,0:0:0:0:
322,287,82926,1,0,1:0:0:0:
322,287,83037,2,0,P|299:264|297:233,1,65,0|0,0:0|0:0,0:0:0:0:
292,214,83368,2,0,L|371:225,1,65,8|0,0:0|0:0,0:0:0:0:
373,213,83698,1,0,0:0:0:0:
453,128,84029,1,0,0:0:0:0:
426,54,84250,2,0,L|438:12,2,32.5,8|2|14,0:0|0:0|0:0,0:0:0:0:
349,37,84691,5,4,0:0:0:0:
331,27,84801,1,0,0:0:0:0:
311,30,84912,2,0,L|320:71,2,32.5,0|0|8,0:0|0:0|0:0,0:0:0:0:
243,69,85353,2,0,L|242:113,2,32.5,0|0|0,0:0|0:0|1:0,0:0:0:0:
165,78,85794,2,0,L|152:123,2,32.5,0|0|8,0:0|0:0|0:0,0:0:0:0:
102,31,86235,1,10,0:0:0:0:
102,31,86346,1,10,0:0:0:0:
102,31,86456,5,0,1:0:0:0:
28,55,86676,2,0,L|-7:46,2,32.5,0|0|8,0:0|0:0|0:0,0:0:0:0:
20,140,87118,1,0,0:0:0:0:
20,140,87228,1,0,0:0:0:0:
20,140,87338,2,0,P|37:166|43:198,1,65,0|0,1:0|0:0,0:0:0:0:
29,275,87779,2,0,L|4:305,2,32.5,10|0|2,0:0|0:0|0:0,0:0:0:0:
104,252,88221,5,0,1:0:0:0:
168,295,88441,1,8,0:0:0:0:
192,369,88662,1,0,1:0:0:0:
207,292,88882,1,8,0:0:0:0:
266,241,89103,1,0,1:0:0:0:
282,230,89213,1,0,0:0:0:0:
301,230,89323,1,8,0:0:0:0:
346,293,89544,2,0,L|419:305,1,65,0|8,1:0|0:0,0:0:0:0:
426,314,89875,1,0,0:0:0:0:
438,328,89985,6,0,P|439:344|436:359,2,32.5,0|2|8,1:0|0:0|0:0,0:0:0:0:
313,367,90426,2,0,P|298:360|286:349,2,32.5,0|2|8,1:0|0:0|0:0,0:0:0:0:
341,239,90868,2,0,P|353:229|369:224,2,32.5,0|0|8,1:0|0:0|0:0,0:0:0:0:
325,250,91198,1,2,0:0:0:0:
305,248,91309,2,0,P|289:242|273:241,1,32.5,0|0,1:0|1:0,0:0:0:0:
255,249,91529,5,4,0:0:0:0:
