osu file format v14

[General]
AudioFilename: audio.mp3
AudioLeadIn: 0
PreviewTime: 48112
Countdown: 0
SampleSet: Soft
StackLeniency: 0.7
Mode: 0
LetterboxInBreaks: 0
WidescreenStoryboard: 0

[Editor]
Bookmarks: 48841
DistanceSpacing: 1
BeatDivisor: 4
GridSize: 4
TimelineZoom: 2

[Metadata]
Title:Kaikai Kitan
TitleUnicode:廻廻奇譚
Artist:Osamu
ArtistUnicode:攻
Creator:Nevo
Version:Polarity
Source:呪術廻戦
Tags:vocaloid japanese rock pop jrock jpop cover arc [arc] ozaki senpai Kazarii addy2607 KaedeharaKazuha jujutsu kaisen anime opening sorcery Fight JJK j-rock 鏡音レン kagamine len おさむ eve
BeatmapID:2884262
BeatmapSetID:1397696

[Difficulty]
HPDrainRate:6
CircleSize:4.2
OverallDifficulty:9
ApproachRate:9.3
SliderMultiplier:1.7
SliderTickRate:1

[Events]
//Background and Video events
0,0,"len.jpg",0,0
Video,0,"mp3.mp4"
//Break Periods
2,80177,84612
2,139203,150774
//Storyboard Layer 0 (Background)
//Storyboard Layer 1 (Fail)
//Storyboard Layer 2 (Pass)
//Storyboard Layer 3 (Foreground)
//Storyboard Layer 4 (Overlay)
//Storyboard Sound Samples

[TimingPoints]
2302,324.324324324324,4,2,1,85,1,0
3517,-100,4,2,1,5,0,0
3599,-100,4,2,1,85,0,0
5545,324.324324324324,4,2,1,80,1,0
5788,-100,4,2,1,5,0,0
5869,-100,4,2,1,80,0,0
6923,-100,4,2,1,5,0,0
7004,-100,4,2,1,80,0,0
10977,-100,4,2,1,5,0,0
11058,-100,4,2,1,80,0,0
12112,-100,4,2,1,5,0,0
12193,-100,4,2,1,80,0,0
14706,-100,4,2,1,5,0,0
14788,-100,4,2,1,80,0,0
17869,324.324324324324,4,2,1,70,1,0
18193,-200,4,2,1,70,0,0
26787,-83.3333333333333,4,2,1,70,0,0
28247,-100,4,2,1,80,0,0
28490,-100,4,2,1,5,0,0
28571,-100,4,2,1,80,0,0
29301,-100,4,2,1,5,0,0
29382,-100,4,2,1,80,0,0
47544,-76.9230769230769,4,2,1,80,0,0
48193,-153.846153846153,4,2,1,80,0,0
48841,-74.074074074074,4,2,1,90,0,1
49084,-74.074074074074,4,2,1,5,0,1
49166,-74.074074074074,4,2,1,90,0,1
50382,-74.074074074074,4,2,1,5,0,1
50463,-74.074074074074,4,2,1,90,0,1
51679,-74.074074074074,4,2,1,5,0,1
51760,-74.074074074074,4,2,1,90,0,1
52976,-74.074074074074,4,2,1,5,0,1
53058,-74.074074074074,4,2,1,90,0,1
55571,-74.074074074074,4,2,1,5,0,1
55652,-74.074074074074,4,2,1,90,0,1
56868,-74.074074074074,4,2,1,5,0,1
56950,-74.074074074074,4,2,1,90,0,1
58166,-74.074074074074,4,2,1,5,0,1
58247,-74.074074074074,4,2,1,90,0,1
59463,-74.074074074074,4,2,1,5,0,1
59544,-74.074074074074,4,2,1,90,0,1
60760,-74.074074074074,4,2,1,5,0,1
60841,-74.074074074074,4,2,1,90,0,1
62057,-74.074074074074,4,2,1,5,0,1
62139,-74.074074074074,4,2,1,90,0,1
62301,-86.9565217391304,4,2,1,90,0,1
64085,-74.074074074074,4,2,1,90,0,1
69760,-74.074074074074,4,2,1,80,0,0
70247,-100,4,2,1,80,0,0
71139,-100,4,2,1,5,0,0
71220,-100,4,2,1,80,0,0
72679,-133.333333333333,4,2,1,80,0,0
75193,-133.333333333333,4,2,1,5,0,0
75274,-133.333333333333,4,2,1,80,0,0
75679,-133.333333333333,4,2,1,5,0,0
75760,-133.333333333333,4,2,1,80,0,0
85247,-133.333333333333,4,2,1,5,0,0
85328,-133.333333333333,4,2,1,80,0,0
86625,-133.333333333333,4,2,1,65,0,0
105922,-133.333333333333,4,2,1,70,0,0
107220,-71.4285714285714,4,2,1,80,0,0
107463,-71.4285714285714,4,2,1,5,0,0
107544,-100,4,2,1,80,0,0
112571,-100,4,2,1,65,0,0
113058,-153.846153846153,4,2,1,65,0,0
115166,-68.9655172413791,4,2,1,80,0,0
116301,-80,4,2,1,80,0,0
116950,-153.846153846153,4,2,1,80,0,0
117598,-68.9655172413793,4,2,1,90,0,1
117841,-68.9655172413793,4,2,1,5,0,1
117923,-74.0740740740741,4,2,1,90,0,1
119139,-74.0740740740741,4,2,1,5,0,1
119220,-74.0740740740741,4,2,1,90,0,1
121733,-74.0740740740741,4,2,1,5,0,1
121814,-74.0740740740741,4,2,1,90,0,1
124328,-74.0740740740741,4,2,1,5,0,1
124409,-74.0740740740741,4,2,1,90,0,1
126922,-74.0740740740741,4,2,1,5,0,1
127004,-74.0740740740741,4,2,1,90,0,1
128220,-74.0740740740741,4,2,1,5,0,1
128301,-74.0740740740741,4,2,1,90,0,1
129517,-74.0740740740741,4,2,1,5,0,1
129598,-74.0740740740741,4,2,1,90,0,1
133409,-74.0740740740741,4,2,1,5,0,1
133490,-74.0740740740741,4,2,1,90,0,1
134787,-86.9565217391304,4,2,1,90,0,1
139004,-86.9565217391304,4,2,1,90,0,0
151328,-86.9565217391304,4,2,1,75,0,0
151490,-100,4,2,1,75,0,0
156679,-100,4,2,1,60,0,0
157652,-100,4,2,1,40,0,0
159274,-250,4,2,1,40,0,0
167058,-250,4,2,1,60,0,0
174031,-250,4,2,1,70,0,0
174841,-250,4,2,1,80,0,0
175328,-100,4,2,1,80,0,0
176220,-100,4,2,1,5,0,0
176301,-100,4,2,1,80,0,0
176625,-166.666666666667,4,2,1,80,0,0
177274,-66.6666666666667,4,2,1,90,0,1
177517,-66.6666666666667,4,2,1,5,0,1
177598,-66.6666666666667,4,2,1,90,0,1
179868,-76.9230769230769,4,2,1,90,0,1
181895,-76.9230769230769,4,2,1,5,0,1
181977,-76.9230769230769,4,2,1,90,0,1
185301,-76.9230769230769,4,2,1,5,0,1
185382,-76.9230769230769,4,2,1,90,0,1
186598,-76.9230769230769,4,2,1,5,0,1
186679,-76.9230769230769,4,2,1,90,0,1
187895,-76.9230769230769,4,2,1,5,0,1
187977,-76.9230769230769,4,2,1,90,0,1
189517,-76.9230769230769,4,2,1,5,0,1
189598,-76.9230769230769,4,2,1,90,0,1
198193,-100,4,2,1,80,0,0
198436,-100,4,2,1,5,0,0
198517,-100,4,2,1,80,0,0
199571,-100,4,2,1,5,0,0
199652,-100,4,2,1,80,0,0
201679,-100,4,2,1,5,0,0
201760,-100,4,2,1,80,0,0

[Colours]
Combo1 : 155,155,255
Combo2 : 43,155,168
Combo3 : 226,213,44

[HitObjects]
161,217,2302,6,0,L|146:281,1,42.5,14|0,2:0|2:0,2:0:0:0:
175,241,2464,2,0,L|160:305,1,42.5,0|0,3:2|2:0,2:0:0:0:
117,77,2626,1,0,3:2:0:0:
244,186,2788,1,10,2:0:0:0:
61,165,2950,6,0,L|76:229,1,42.5,0|0,3:2|2:0,2:0:0:0:
47,189,3112,2,0,L|62:253,1,42.5,0|0,3:2|2:0,2:0:0:0:
308,268,3274,6,0,P|345:211|338:135,1,127.5,14|0,2:0|0:0,2:0:0:0:
293,88,3599,1,0,3:2:0:0:
379,224,3761,2,0,B|406:233|406:233|464:221,1,85,14|0,2:0|2:0,2:0:0:0:
244,186,4085,1,0,3:2:0:0:
134,362,4247,5,10,2:0:0:0:
480,313,4491,1,10,2:0:0:0:
205,275,4734,1,10,2:0:0:0:
205,275,5545,6,0,B|187:193|187:193|228:150,1,127.5,6|0,3:2|0:0,2:0:0:0:
162,73,5869,2,0,L|191:173,1,85,8|0,2:0|2:0,2:0:0:0:
419,166,6193,1,2,3:2:0:0:
316,96,6355,1,0,3:2:0:0:
275,249,6517,1,8,2:0:0:0:
483,249,6680,6,0,P|419:256|358:273,1,127.5,2|0,3:2|0:0,2:0:0:0:
343,303,7004,1,0,3:2:0:0:
210,362,7166,2,0,P|159:350|116:344,1,85,10|0,2:0|2:0,2:0:0:0:
105,355,7409,1,8,2:0:0:0:
88,367,7490,1,0,3:2:0:0:
192,257,7653,1,0,3:2:0:0:
4,246,7815,1,10,2:0:0:0:
95,103,7977,6,0,B|123:163|110:210|110:210|87:244|105:295,1,170,2|0,3:2|2:0,2:0:0:0:
281,365,8463,2,0,P|277:312|269:268,1,85,10|0,2:0|2:0,2:0:0:0:
259,257,8707,1,8,2:0:0:0:
242,242,8788,1,0,3:2:0:0:
367,344,8950,1,0,3:2:0:0:
180,329,9112,1,10,2:0:0:0:
339,195,9274,6,0,B|402:188|402:188|442:202|442:202|517:192,1,170,2|0,3:2|2:0,2:0:0:0:
301,76,9761,1,10,2:0:0:0:
242,242,9923,1,0,3:2:0:0:
448,106,10085,1,2,3:2:0:0:
162,70,10247,1,8,2:0:0:0:
137,86,10328,1,8,2:0:0:0:
118,109,10409,1,8,2:0:0:0:
107,137,10490,1,8,2:0:0:0:
105,166,10571,1,8,2:0:0:0:
110,195,10652,1,8,2:0:0:0:
124,222,10734,6,0,B|203:213|203:213|269:262,1,127.5,6|0,3:2|0:0,2:0:0:0:
332,199,11058,2,0,L|238:214,1,85,10|0,2:0|2:0,2:0:0:0:
406,332,11382,1,0,3:2:0:0:
451,230,11544,1,0,3:2:0:0:
329,114,11707,1,10,2:0:0:0:
237,305,11869,6,0,B|219:317|219:317|168:290|85:296,1,127.5,2|0,3:2|0:0,2:0:0:0:
87,311,12193,1,0,3:2:0:0:
23,163,12355,2,0,P|17:114|33:62,1,85,10|0,2:0|2:0,2:0:0:0:
40,66,12599,1,8,2:0:0:0:
60,50,12679,1,0,3:2:0:0:
215,14,12842,1,0,3:2:0:0:
119,179,13004,1,10,2:0:0:0:
394,106,13166,6,0,P|309:105|226:123,1,170,2|0,3:2|2:0,2:0:0:0:
156,301,13653,1,10,2:0:0:0:
336,232,13815,1,0,3:2:0:0:
508,317,13977,1,10,2:0:0:0:
236,248,14139,1,0,3:2:0:0:
420,327,14301,1,10,2:0:0:0:
78,384,14463,6,0,L|51:219,1,127.5,6|0,3:2|0:0,2:0:0:0:
97,161,14788,1,8,0:2:0:0:
248,329,14950,1,8,0:2:0:0:
371,145,15112,1,0,3:2:0:0:
371,145,15193,1,8,2:0:0:0:
371,145,15274,2,0,P|316:124|277:123,1,85,8|0,2:0|2:0,2:0:0:0:
271,127,15517,1,0,3:2:0:0:
256,133,15599,1,0,3:2:0:0:
137,282,15761,2,0,L|96:275,1,42.5,0|0,3:2|3:2,2:0:0:0:
19,261,15923,5,6,3:2:0:0:
256,192,16004,12,0,17869,3:2:0:0:
130,281,18031,5,2,2:0:0:0:
130,281,18193,2,0,L|125:228,1,42.5,2|0,3:2|2:0,2:0:0:0:
209,296,18517,2,0,L|204:243,1,42.5,2|0,3:2|2:0,2:0:0:0:
235,179,18841,5,2,3:2:0:0:
235,179,19004,2,0,P|267:166|284:166,1,42.5,2|0,2:0|3:2,2:0:0:0:
296,89,19328,1,2,2:0:0:0:
296,89,19490,2,0,P|327:102|339:114,1,42.5,2|0,3:2|2:0,2:0:0:0:
357,228,19814,1,2,3:2:0:0:
357,228,19976,2,0,P|352:193|357:177,1,42.5,2|0,2:0|3:2,2:0:0:0:
464,236,20301,1,2,2:0:0:0:
464,236,20463,2,0,P|436:214|428:200,1,42.5,2|0,3:2|2:0,2:0:0:0:
420,86,20787,1,2,3:2:0:0:
420,86,20949,2,0,P|415:120|406:134,1,42.5,2|0,2:0|3:2,2:0:0:0:
343,31,21274,1,2,2:0:0:0:
343,31,21436,1,2,3:2:0:0:
215,98,21598,6,0,L|163:97,1,42.5,2|0,2:0|3:2,2:0:0:0:
47,109,21923,1,2,2:0:0:0:
108,47,22085,1,2,3:2:0:0:
107,189,22247,1,2,2:0:0:0:
48,246,22409,1,2,3:2:0:0:
284,322,22733,2,0,P|285:278|271:227,1,85,2|0,3:2|3:2,2:0:0:0:
171,136,23220,5,2,2:0:0:0:
0,122,23382,2,0,L|11:176,1,42.5,2|0,3:2|2:0,2:0:0:0:
260,143,23706,1,2,3:2:0:0:
83,128,23868,2,0,L|94:182,1,42.5,2|0,2:0|3:2,2:0:0:0:
346,151,24193,1,2,2:0:0:0:
171,136,24355,2,0,L|182:190,1,42.5,2|0,3:2|2:0,2:0:0:0:
430,160,24679,1,2,3:2:0:0:
260,143,24841,2,0,L|271:197,1,42.5,2|0,2:0|3:2,2:0:0:0:
511,175,25166,1,2,2:0:0:0:
346,151,25328,1,2,3:2:0:0:
444,79,25490,1,2,2:0:0:0:
412,254,25652,5,2,3:2:0:0:
256,244,25896,1,2,2:0:0:0:
144,345,26139,1,0,2:0:0:0:
59,306,26301,1,2,3:2:0:0:
312,376,26625,1,2,3:2:0:0:
379,326,26787,6,0,P|403:225|396:196,1,101.999996887207,14|0,2:0|2:0,2:0:0:0:
210,128,27112,1,2,3:2:0:0:
210,128,27193,1,8,2:0:0:0:
210,128,27274,1,2,3:2:0:0:
387,120,27436,1,0,3:2:0:0:
387,120,27517,1,0,3:0:0:0:
387,120,27598,1,10,2:0:0:0:
164,326,27760,5,10,2:0:0:0:
164,326,28247,6,0,P|262:301|310:298,1,127.5,6|0,3:2|0:0,2:0:0:0:
357,332,28571,1,10,2:0:0:0:
448,241,28733,1,0,3:2:0:0:
455,222,28814,1,0,3:2:0:0:
458,203,28896,1,2,3:2:0:0:
313,82,29058,2,0,L|342:220,1,127.5,2|0,3:2|0:0,2:0:0:0:
339,206,29382,1,10,2:0:0:0:
226,152,29544,5,2,2:0:0:0:
197,146,29625,1,2,2:0:0:0:
112,102,29787,5,2,2:0:0:0:
83,108,29868,1,10,2:0:0:0:
27,192,30031,1,2,2:0:0:0:
189,60,30193,1,2,3:2:0:0:
102,20,30355,1,2,3:2:0:0:
43,288,30679,6,0,L|133:265,1,85,10|0,2:0|2:0,2:0:0:0:
255,186,31004,1,2,3:2:0:0:
367,372,31166,1,10,2:0:0:0:
260,308,31328,1,2,2:0:0:0:
260,308,31409,1,10,2:0:0:0:
260,308,31490,1,2,3:2:0:0:
371,260,31652,1,2,3:2:0:0:
146,353,31814,1,2,2:0:0:0:
461,298,31977,6,0,P|467:279|447:200,1,85,10|0,2:0|2:0,2:0:0:0:
308,74,32301,1,2,3:2:0:0:
451,60,32463,1,10,2:0:0:0:
320,211,32625,1,2,2:0:0:0:
320,211,32706,1,2,2:0:0:0:
320,211,32787,2,0,L|228:198,1,85,2|0,3:2|3:0,2:0:0:0:
404,144,33112,2,0,L|488:155,1,85,10|0,2:0|2:0,2:0:0:0:
333,309,33436,5,0,3:2:0:0:
153,240,33598,1,2,2:0:0:0:
247,283,33760,2,0,L|234:188,1,85,10|0,2:0|3:0,2:0:0:0:
235,198,34004,1,0,3:0:0:0:
235,198,34085,1,2,3:2:0:0:
82,357,34247,2,0,L|69:262,1,85,2|0,3:2|2:0,2:0:0:0:
109,156,34571,1,10,2:0:0:0:
415,319,34733,6,0,L|402:224,1,85,2|0,2:0|2:0,2:0:0:0:
457,111,35058,1,10,2:0:0:0:
301,100,35220,1,2,2:0:0:0:
301,100,35301,1,0,3:0:0:0:
301,100,35382,1,0,3:2:0:0:
374,160,35544,1,2,3:2:0:0:
230,31,35706,2,0,P|276:7|330:11,1,85,2|8,2:0|2:0,2:0:0:0:
160,176,36031,5,2,2:0:0:0:
108,104,36193,2,0,P|123:54|164:19,1,85,2|8,3:2|2:0,2:0:0:0:
246,232,36517,1,2,2:0:0:0:
246,232,36598,1,8,2:0:0:0:
246,232,36679,1,2,3:2:0:0:
66,191,36841,1,0,3:2:0:0:
207,109,37004,1,2,2:0:0:0:
170,301,37166,6,0,L|85:290,1,85,10|0,2:0|2:0,2:0:0:0:
285,147,37490,1,2,3:2:0:0:
326,357,37652,1,14,2:0:0:0:
392,236,37814,1,2,2:0:0:0:
392,236,37896,1,10,2:0:0:0:
392,236,37977,2,0,L|476:225,1,85,2|0,3:2|2:0,2:0:0:0:
371,85,38301,1,2,3:2:0:0:
285,147,38463,6,0,L|115:136,1,170,6|0,3:2|3:0,2:0:0:0:
209,49,38950,1,8,2:0:0:0:
233,233,39112,1,0,3:0:0:0:
234,249,39193,1,0,3:2:0:0:
237,268,39274,1,0,3:2:0:0:
157,171,39436,1,2,3:2:0:0:
321,212,39598,1,10,2:0:0:0:
291,336,39760,1,2,3:2:0:0:
457,278,39923,6,0,L|373:291,1,85,2|2,3:2|3:2,2:0:0:0:
202,348,40247,1,10,2:0:0:0:
111,292,40409,1,2,2:0:0:0:
111,292,40490,1,0,3:2:0:0:
111,292,40571,2,0,P|89:251|89:204,1,85,2|0,3:2|2:0,2:0:0:0:
146,128,40896,1,10,2:0:0:0:
257,244,41058,6,0,L|169:234,1,85,2|0,3:2|3:2,2:0:0:0:
370,324,41382,2,0,L|201:347,1,170,2|0,3:2|2:0,2:0:0:0:
195,360,41787,1,0,3:2:0:0:
188,375,41868,1,0,3:2:0:0:
349,246,42031,1,2,3:2:0:0:
193,160,42193,1,10,2:0:0:0:
257,244,42355,1,2,3:2:0:0:
125,84,42517,6,0,P|171:61|233:70,1,85,2|2,2:0|3:2,2:0:0:0:
307,164,42841,1,10,2:0:0:0:
166,255,43004,1,2,2:0:0:0:
166,255,43085,1,8,2:0:0:0:
166,255,43166,1,10,2:0:0:0:
22,191,43328,2,0,L|127:175,1,85,2|0,3:2|3:2,2:0:0:0:
342,251,43652,1,2,3:2:0:0:
279,309,43814,5,6,2:0:0:0:
118,351,44139,5,2,2:0:0:0:
112,332,44301,1,2,2:0:0:0:
248,178,44787,5,2,2:0:0:0:
242,198,44949,1,2,2:0:0:0:
73,163,45436,5,2,2:0:0:0:
88,84,45598,1,2,3:2:0:0:
83,63,45679,1,0,3:2:0:0:
79,42,45760,1,10,2:0:0:0:
249,119,45923,1,2,3:2:0:0:
137,228,46085,1,2,3:2:0:0:
137,228,46247,1,2,3:2:0:0:
294,337,46409,5,14,2:0:0:0:
56,269,46571,1,2,3:2:0:0:
220,216,46733,1,2,3:2:0:0:
85,377,46896,5,14,2:0:0:0:
397,367,47058,1,2,3:2:0:0:
189,304,47220,1,2,3:2:0:0:
397,247,47382,5,10,2:0:0:0:
303,78,47544,2,0,L|321:194,1,110.499994941712,6|0,3:2|2:0,2:0:0:0:
397,27,47868,1,8,2:0:0:0:
144,175,48031,1,0,3:2:0:0:
220,216,48193,6,0,L|233:159,2,55.2499974708558,2|2|2,2:0|2:0|2:0,2:0:0:0:
205,297,48679,1,2,2:0:0:0:
44,172,48841,6,0,P|63:117|179:82,1,172.125000656605,6|0,3:2|0:0,2:0:0:0:
269,119,49166,2,0,L|144:107,1,114.750000437737,2|8,3:2|2:0,2:0:0:0:
329,234,49490,1,2,2:0:0:0:
445,76,49652,1,2,3:2:0:0:
347,106,49814,1,2,3:2:0:0:
419,174,49977,1,10,2:0:0:0:
183,37,50139,6,0,B|57:26|57:26|19:58,1,172.125000656605,2|0,3:2|0:0,2:0:0:0:
230,106,50463,2,0,P|268:66|265:7,1,114.750000437737,2|8,3:2|2:0,2:0:0:0:
88,121,50787,1,2,2:0:0:0:
91,153,50868,1,8,2:0:0:0:
95,182,50950,1,2,3:2:0:0:
171,362,51112,1,2,3:2:0:0:
284,210,51274,1,10,2:0:0:0:
85,344,51436,6,0,P|27:346|97:296,1,172.125000656605,2|0,3:2|0:0,2:0:0:0:
135,247,51760,1,2,3:2:0:0:
314,366,51923,1,10,2:0:0:0:
420,269,52085,1,2,2:0:0:0:
420,269,52166,1,8,2:0:0:0:
420,269,52247,1,2,3:2:0:0:
229,297,52409,1,2,3:2:0:0:
512,338,52571,1,10,2:0:0:0:
379,59,52733,6,0,P|317:114|337:247,1,172.125000656605,2|0,3:2|0:0,2:0:0:0:
334,286,53058,1,2,3:2:0:0:
464,60,53220,2,0,P|390:30|335:44,1,114.750000437737,10|0,2:0|2:0,2:0:0:0:
181,219,53544,1,2,3:2:0:0:
143,244,53625,1,0,3:0:0:0:
98,250,53706,1,0,3:0:0:0:
55,234,53787,1,2,3:0:0:0:
25,201,53868,1,8,0:2:0:0:
13,157,53949,1,8,0:0:0:0:
22,113,54030,1,10,0:0:0:0:
51,78,54111,1,8,0:0:0:0:
93,60,54193,6,0,L|217:82,1,114.750000437737,2|2,3:2|2:0,2:0:0:0:
350,233,54517,1,10,2:0:0:0:
490,159,54679,1,2,2:0:0:0:
315,0,54841,2,0,P|295:78|308:126,1,114.750000437737,2|0,3:2|3:0,2:0:0:0:
301,110,55085,1,0,3:0:0:0:
301,110,55166,1,10,2:0:0:0:
444,313,55328,6,0,P|373:266|290:276,1,172.125000656605,2|0,3:2|0:0,2:0:0:0:
198,342,55652,1,2,3:2:0:0:
36,267,55814,1,10,2:0:0:0:
197,153,55977,1,2,2:0:0:0:
189,195,56058,1,8,2:0:0:0:
182,241,56139,1,2,3:2:0:0:
99,357,56301,1,2,3:2:0:0:
26,175,56463,1,10,2:0:0:0:
291,241,56625,6,0,P|301:170|295:29,1,172.125000656605,2|0,3:2|0:0,2:0:0:0:
193,0,56950,1,2,3:2:0:0:
99,227,57112,1,10,2:0:0:0:
345,149,57274,1,0,3:2:0:0:
148,76,57436,2,0,L|29:92,1,114.750000437737,10|0,2:0|3:0,2:0:0:0:
34,91,57679,1,0,3:0:0:0:
34,91,57760,1,10,2:0:0:0:
220,347,57923,6,0,P|294:355|407:319,1,172.125000656605,6|0,3:2|0:0,2:0:0:0:
467,255,58247,1,0,3:2:0:0:
398,41,58409,1,0,3:2:0:0:
178,123,58571,1,10,2:0:0:0:
162,153,58652,1,10,2:0:0:0:
148,191,58733,1,0,3:2:0:0:
250,27,58896,5,10,2:0:0:0:
208,9,58977,1,8,2:0:0:0:
163,13,59058,1,10,2:0:0:0:
122,33,59139,1,8,2:0:0:0:
89,65,59220,6,0,L|122:251,1,172.125000656605,6|0,3:2|0:0,2:0:0:0:
68,370,59544,2,0,L|83:256,1,114.750000437737,2|8,3:2|2:0,2:0:0:0:
341,243,59868,1,2,2:0:0:0:
248,339,60031,1,2,3:2:0:0:
453,290,60193,1,2,3:2:0:0:
131,297,60355,1,10,2:0:0:0:
282,168,60517,6,0,P|319:146|432:213,1,172.125000656605,2|0,3:2|0:0,2:0:0:0:
262,185,60841,2,0,B|239:156|239:156|250:54,1,114.750000437737,2|8,3:2|2:0,2:0:0:0:
393,27,61166,1,10,2:0:0:0:
393,27,61247,1,8,2:0:0:0:
393,27,61328,1,2,3:2:0:0:
157,108,61490,1,2,3:2:0:0:
133,216,61652,1,10,2:0:0:0:
433,203,61814,6,0,B|460:171|460:171|289:208,1,172.125000656605,6|0,3:2|0:0,2:0:0:0:
254,241,62139,5,2,3:2:0:0:
242,265,62220,1,2,3:2:0:0:
236,289,62301,2,0,L|258:389,1,97.7500018644333,14|0,2:0|2:0,2:0:0:0:
203,178,62544,5,2,3:2:0:0:
181,190,62625,2,0,L|125:276,1,97.7500018644333,14|0,2:0|2:0,2:0:0:0:
231,102,62868,5,2,3:2:0:0:
207,96,62949,2,0,L|107:118,1,97.7500018644333,14|0,2:0|2:0,2:0:0:0:
318,74,63193,5,2,3:2:0:0:
305,52,63274,2,0,L|218:-3,1,97.7500018644333,14|0,2:0|2:0,2:0:0:0:
408,104,63517,5,2,3:2:0:0:
419,78,63598,2,0,L|383:-37,1,97.7500018644333,14|0,2:0|2:0,2:0:0:0:
380,247,63923,1,10,2:0:0:0:
409,265,64003,1,8,2:0:0:0:
443,270,64085,6,0,L|454:199,1,57.3750002188683,2|0,3:2|3:2,2:0:0:0:
295,273,64247,2,0,L|253:215,1,57.3750002188683,2|0,3:2|3:2,2:0:0:0:
193,345,64409,2,0,B|57:318|57:318|21:343,1,172.125000656605,6|8,3:2|2:0,2:0:0:0:
9,354,64733,5,2,3:2:0:0:
295,273,64896,1,10,2:0:0:0:
8,185,65058,1,2,2:0:0:0:
201,262,65220,1,2,3:2:0:0:
142,30,65382,1,2,3:2:0:0:
173,172,65544,1,10,2:0:0:0:
333,41,65706,1,2,2:0:0:0:
238,91,65868,5,2,3:2:0:0:
331,226,66031,2,0,P|389:239|445:211,1,114.750000437737,2|8,3:2|2:0,2:0:0:0:
248,185,66355,1,2,3:2:0:0:
296,317,66517,1,2,2:0:0:0:
377,156,66679,1,0,3:2:0:0:
383,135,66760,1,0,3:0:0:0:
390,115,66841,1,10,2:0:0:0:
112,39,67004,1,8,2:0:0:0:
116,75,67085,1,8,2:0:0:0:
121,107,67166,5,6,3:2:0:0:
223,279,67328,1,2,3:2:0:0:
296,54,67490,1,10,2:0:0:0:
98,257,67652,1,2,3:2:0:0:
341,296,67814,1,10,2:0:0:0:
59,167,67977,1,2,3:2:0:0:
349,123,68139,1,10,2:0:0:0:
263,354,68301,1,2,3:2:0:0:
178,125,68463,5,2,2:0:0:0:
400,213,68625,2,0,L|512:188,1,114.750000437737,2|2,3:2|3:2,2:0:0:0:
368,11,68950,5,10,2:0:0:0:
339,13,69031,1,8,2:0:0:0:
312,23,69112,1,8,2:0:0:0:
289,39,69193,1,0,2:0:0:0:
269,60,69274,2,0,L|277:118,3,57.3750002188683,2|0|0|0,3:2|3:2|3:2|3:0,2:0:0:0:
294,199,69598,1,2,3:2:0:0:
85,185,69760,5,6,3:2:0:0:
411,335,70085,1,0,3:2:0:0:
411,335,70247,2,0,P|464:317|395:272,1,170,8|2,2:0|3:2,2:0:0:0:
239,363,70733,5,8,2:0:0:0:
239,363,70896,2,0,P|153:347|81:343,1,127.5,6|0,2:0|0:0,2:0:0:0:
113,343,71220,2,0,P|81:292|95:234,1,85,14|0,2:0|2:0,2:0:0:0:
112,194,71544,1,0,3:2:0:0:
191,266,71706,1,10,2:0:0:0:
199,265,71787,1,8,2:0:0:0:
207,264,71868,1,10,2:0:0:0:
216,263,71949,1,8,2:0:0:0:
224,262,72030,1,8,2:0:0:0:
233,261,72111,1,8,2:0:0:0:
241,260,72192,1,10,2:0:0:0:
250,259,72273,1,8,2:0:0:0:
258,258,72354,5,6,3:2:0:0:
338,130,72679,2,0,L|331:210,1,63.7500024318696,2|8,3:2|2:0,2:0:0:0:
258,99,73004,2,0,L|251:179,1,63.7500024318696,2|0,2:0|2:0,2:0:0:0:
414,92,73328,1,10,2:0:0:0:
435,246,73490,6,0,L|423:159,1,63.7500024318696,6|0,3:2|2:0,2:0:0:0:
364,330,73814,2,0,L|352:243,1,63.7500024318696,2|8,3:2|2:0,2:0:0:0:
291,378,74139,1,10,2:0:0:0:
291,378,74220,1,8,2:0:0:0:
291,378,74301,1,10,2:0:0:0:
212,320,74463,1,0,3:2:0:0:
76,355,74625,1,14,2:0:0:0:
281,206,74950,6,0,P|354:177|392:179,1,95.6250036478044,12|0,2:0|0:0,2:0:0:0:
370,176,75274,1,2,3:2:0:0:
233,78,75436,2,0,P|159:49|122:51,1,95.6250036478044,14|0,2:0|0:0,2:0:0:0:
144,48,75760,1,2,3:2:0:0:
29,178,75923,6,0,L|168:151,1,127.500004863739,14|0,2:0|3:2,2:0:0:0:
300,96,76409,1,10,2:0:0:0:
148,52,76571,1,2,3:2:0:0:
239,213,76733,1,2,3:2:0:0:
154,153,76896,1,10,2:0:0:0:
128,265,77058,2,0,L|116:339,1,63.7500024318696,2|10,3:2|2:0,2:0:0:0:
365,236,77382,5,14,2:0:0:0:
256,192,77463,12,0,78841,2:0:0:0:
132,69,79004,5,8,2:0:0:0:
128,94,79166,1,8,2:0:0:0:
383,181,79490,5,8,2:0:0:0:
389,211,79652,1,8,2:0:0:0:
140,325,79977,5,6,3:2:0:0:
339,301,85166,6,0,L|347:331,1,31.8750012159348,6|0,3:2|2:0,2:0:0:0:
256,192,85328,12,2,86625,3:2:0:0:
89,290,86950,6,0,P|137:311|163:311,1,63.7500024318696,2|0,2:0|2:0,2:0:0:0:
345,232,87274,5,2,2:0:0:0:
237,182,87517,1,2,2:0:0:0:
143,226,87760,1,2,2:0:0:0:
226,271,87923,5,2,2:0:0:0:
328,144,88166,1,2,2:0:0:0:
218,22,88409,1,2,2:0:0:0:
158,91,88571,5,2,2:0:0:0:
343,34,88814,1,2,2:0:0:0:
448,181,89058,1,2,2:0:0:0:
323,206,89220,6,0,P|323:160|334:127,1,63.7500024318696,2|0,3:2|2:0,2:0:0:0:
358,278,89544,2,0,P|325:245|309:214,1,63.7500024318696,2|0,2:0|2:0,2:0:0:0:
436,327,89868,5,2,2:0:0:0:
262,300,90112,1,2,2:0:0:0:
205,175,90355,1,2,2:0:0:0:
276,218,90517,5,2,2:0:0:0:
155,306,90760,1,2,2:0:0:0:
21,271,91004,1,2,2:0:0:0:
108,223,91166,5,2,2:0:0:0:
259,318,91409,1,2,2:0:0:0:
407,272,91652,1,2,2:0:0:0:
316,233,91814,5,2,3:2:0:0:
21,271,92544,2,0,P|15:235|42:166,1,95.6250036478044,2|0,2:0|2:0,2:0:0:0:
14,105,92868,2,0,P|86:113|107:149,1,95.6250036478044,2|0,2:0|2:0,2:0:0:0:
100,239,93274,6,0,L|182:229,1,63.7500024318696,2|0,3:2|2:0,2:0:0:0:
175,87,93598,2,0,P|184:118|181:151,1,63.7500024318696,2|8,3:2|2:0,2:0:0:0:
236,24,93923,2,0,P|209:6|178:0,1,63.7500024318696,2|0,3:2|2:0,2:0:0:0:
252,205,94247,6,0,L|241:287,1,63.7500024318696,2|0,2:0|3:2,2:0:0:0:
337,188,94571,2,0,L|326:270,1,63.7500024318696,2|0,2:0|2:0,2:0:0:0:
488,286,94896,2,0,L|496:222,1,63.7500024318696,0|8,3:2|2:0,2:0:0:0:
403,303,95220,2,0,L|411:239,1,63.7500024318696,2|0,2:0|2:0,2:0:0:0:
440,80,95544,5,2,2:0:0:0:
337,188,95868,1,2,2:0:0:0:
337,188,96031,2,0,P|300:194|255:180,1,63.7500024318696,2|0,2:0|2:0,2:0:0:0:
145,44,96355,2,0,L|164:114,1,63.7500024318696,2|0,2:0|2:0,2:0:0:0:
165,200,96679,1,2,2:0:0:0:
59,131,96841,2,0,L|66:102,2,15.9375006079674,0|0|0,3:2|2:0|2:0,2:0:0:0:
55,158,97004,5,0,3:2:0:0:
87,319,97328,1,2,2:0:0:0:
314,153,97652,6,0,L|297:221,1,63.7500024318696,10|2,2:0|2:0,2:0:0:0:
394,123,97896,1,2,2:0:0:0:
397,141,97976,2,0,L|380:209,1,63.7500024318696,2|0,2:0|2:0,2:0:0:0:
207,204,98301,6,0,L|224:272,1,63.7500024318696,2|0,2:0|2:0,2:0:0:0:
127,174,98545,1,2,2:0:0:0:
124,192,98625,2,0,L|141:260,1,63.7500024318696,2|0,2:0|2:0,2:0:0:0:
313,254,98950,6,0,L|296:322,1,63.7500024318696,10|0,2:0|2:0,2:0:0:0:
393,224,99194,1,2,2:0:0:0:
396,242,99274,2,0,L|379:310,1,63.7500024318696,2|0,2:0|2:0,2:0:0:0:
172,342,99598,5,2,3:2:0:0:
43,242,99923,2,0,P|30:192|42:158,1,63.7500024318696,2|0,2:0|2:0,2:0:0:0:
104,102,100247,6,0,B|73:115|73:115|33:99,1,63.7500024318696,2|2,2:0|2:0,2:0:0:0:
194,176,100490,1,2,2:0:0:0:
174,190,100571,2,0,B|143:177|143:177|103:193,1,63.7500024318696,2|0,2:0|2:0,2:0:0:0:
271,80,100896,6,0,B|240:93|240:93|200:77,1,63.7500024318696,2|0,2:0|2:0,2:0:0:0:
361,154,101139,1,2,2:0:0:0:
341,168,101220,2,0,B|310:155|310:155|270:171,1,63.7500024318696,2|0,2:0|2:0,2:0:0:0:
422,22,101544,6,0,B|391:35|391:35|351:19,1,63.7500024318696,10|0,2:0|2:0,2:0:0:0:
512,96,101787,1,2,2:0:0:0:
492,110,101868,2,0,B|461:97|461:97|421:113,1,63.7500024318696,2|0,2:0|2:0,2:0:0:0:
312,244,102193,5,2,3:2:0:0:
468,383,102679,2,0,P|487:354|496:318,1,63.7500024318696,2|8,3:2|2:0,2:0:0:0:
399,255,103004,2,0,L|411:329,1,63.7500024318696,2|0,2:0|2:0,2:0:0:0:
256,296,103328,2,0,L|268:370,1,63.7500024318696,2|0,2:0|2:0,2:0:0:0:
118,290,103652,2,0,L|130:364,1,63.7500024318696,2|0,3:2|2:0,2:0:0:0:
172,201,103977,6,0,L|99:182,1,63.7500024318696,2|8,3:2|2:0,2:0:0:0:
325,178,104301,2,0,L|390:140,1,63.7500024318696,2|0,3:2|2:0,2:0:0:0:
178,48,104625,2,0,P|165:83|162:117,1,63.7500024318696,2|0,2:0|3:2,2:0:0:0:
279,28,104950,2,0,P|305:54|318:84,1,63.7500024318696,2|0,2:0|2:0,2:0:0:0:
244,161,105274,1,0,3:2:0:0:
345,154,105436,2,0,L|360:148,8,15.9375006079674,8|0|0|0|2|0|0|0|0,2:0|2:0|2:0|2:0|2:0|2:0|2:0|2:0|2:0,2:0:0:0:
443,202,105882,2,0,L|428:196,3,15.9375006079674,0|2|0|0,2:0|2:0|2:0|2:0,2:0:0:0:
237,367,106247,5,2,2:0:0:0:
135,294,106409,1,2,2:0:0:0:
27,355,106571,1,2,2:0:0:0:
232,273,106733,5,2,2:0:0:0:
133,379,106896,1,2,2:0:0:0:
46,265,107058,1,0,3:2:0:0:
152,116,107220,6,0,P|145:205|132:314,1,178.499994552612,6|0,3:2|0:0,2:0:0:0:
179,208,107544,2,0,P|209:191|284:196,1,85,2|8,3:2|2:0,2:0:0:0:
395,292,107868,1,0,3:0:0:0:
388,309,107950,1,0,3:2:0:0:
383,323,108031,1,0,3:2:0:0:
232,273,108193,1,0,3:2:0:0:
371,204,108355,1,8,2:0:0:0:
292,368,108517,1,2,3:2:0:0:
102,262,108679,6,0,P|76:222|77:175,1,85,2|2,3:2|3:2,2:0:0:0:
177,67,109004,1,10,2:0:0:0:
65,88,109166,1,2,2:0:0:0:
260,140,109328,1,0,3:2:0:0:
246,0,109490,1,2,3:2:0:0:
153,153,109652,1,10,2:0:0:0:
380,196,109814,6,0,L|469:184,1,85,6|0,3:2|2:0,2:0:0:0:
288,215,110139,2,0,L|480:247,1,170,2|0,3:2|2:0,2:0:0:0:
462,258,110544,1,0,3:2:0:0:
464,274,110625,1,0,3:2:0:0:
390,365,110787,1,2,3:2:0:0:
326,323,110950,1,8,2:0:0:0:
217,381,111112,1,2,3:2:0:0:
121,253,111274,6,0,P|109:204|118:158,1,85,2|0,3:2|3:0,2:0:0:0:
247,102,111598,2,0,L|228:191,1,85,10|2,2:0|2:0,2:0:0:0:
229,185,111841,1,8,2:0:0:0:
229,185,111923,1,10,2:0:0:0:
317,39,112085,1,2,3:2:0:0:
162,99,112247,1,8,2:0:0:0:
93,47,112409,1,2,3:2:0:0:
0,148,112571,5,6,3:2:0:0:
248,326,112896,1,2,2:0:0:0:
295,257,113058,2,0,L|281:327,1,55.2499974708558,2|8,3:2|2:0,2:0:0:0:
380,236,113382,2,0,L|366:306,1,55.2499974708558,2|0,2:0|3:0,2:0:0:0:
423,158,113706,6,0,P|370:149|322:175,1,110.499994941712,2|8,2:0|2:0,2:0:0:0:
210,297,114193,1,0,3:0:0:0:
183,305,114274,1,8,2:0:0:0:
156,305,114355,1,8,2:0:0:0:
130,296,114436,1,8,2:0:0:0:
108,280,114517,5,10,2:0:0:0:
50,166,114720,1,0,3:0:0:0:
160,117,114841,1,10,0:0:0:0:
33,38,115004,1,2,3:2:0:0:
188,213,115166,6,0,B|241:179|302:216|302:216|317:198|317:198|368:227|430:206,1,246.500007522583,14|2,2:0|3:2,2:0:0:0:
365,12,115652,2,0,P|321:68|444:66,1,246.500007522583,14|2,2:0|3:2,2:0:0:0:
170,44,116139,1,14,2:0:0:0:
233,278,116301,6,0,L|218:384,1,106.25,6|0,2:0|2:0,2:0:0:0:
43,263,116625,1,10,2:0:0:0:
415,210,116787,1,10,2:0:0:0:
334,95,116950,6,0,L|342:157,2,55.2499974708558,2|2|0,2:0|2:0|2:0,2:0:0:0:
319,233,117436,1,2,2:0:0:0:
166,126,117598,6,0,B|96:90|24:107|24:107|72:166,1,184.875005641937,6|0,3:2|0:0,2:0:0:0:
141,219,117923,2,0,P|203:218|248:178,1,114.750000437737,2|8,3:2|2:0,2:0:0:0:
41,217,118247,1,2,2:0:0:0:
154,367,118409,1,2,3:2:0:0:
263,309,118571,1,2,3:2:0:0:
77,307,118733,1,10,2:0:0:0:
394,365,118896,6,0,P|468:338|471:240,1,172.125000656605,2|0,3:2|0:0,2:0:0:0:
325,211,119220,2,0,P|364:274|406:284,1,114.750000437737,2|8,3:2|2:0,2:0:0:0:
367,89,119544,1,2,2:0:0:0:
367,89,119625,1,8,2:0:0:0:
367,89,119706,1,2,3:2:0:0:
209,191,119868,1,2,3:2:0:0:
54,78,120031,1,10,2:0:0:0:
89,356,120193,6,0,P|154:359|211:331,1,114.750000437737,2|0,3:2|2:0,2:0:0:0:
301,231,120517,1,2,3:2:0:0:
134,279,120679,1,10,2:0:0:0:
276,369,120841,1,2,2:0:0:0:
282,347,120923,1,8,2:0:0:0:
288,325,121004,1,2,3:2:0:0:
290,137,121166,1,2,3:2:0:0:
159,192,121328,1,10,2:0:0:0:
512,111,121490,6,0,P|445:70|342:73,1,172.125000656605,2|0,3:2|0:0,2:0:0:0:
261,184,121814,2,0,P|290:130|288:119,1,57.3750002188683,2|0,3:2|2:0,2:0:0:0:
143,79,121977,2,0,L|165:233,1,114.750000437737,10|0,2:0|2:0,2:0:0:0:
439,325,122301,5,2,3:2:0:0:
417,279,122382,1,8,2:0:0:0:
376,249,122463,1,8,2:0:0:0:
325,238,122544,1,10,2:0:0:0:
274,257,122625,2,0,P|257:280|247:322,1,57.3750002188683,8|8,2:0|2:0,2:0:0:0:
464,197,122787,2,0,P|453:170|422:141,1,57.3750002188683,10|8,2:0|2:0,2:0:0:0:
223,98,122950,6,0,P|276:126|341:126,1,114.750000437737,6|2,3:2|2:0,2:0:0:0:
156,16,123274,1,10,2:0:0:0:
199,196,123436,1,2,2:0:0:0:
296,34,123598,1,2,3:2:0:0:
83,142,123760,1,2,3:2:0:0:
83,142,123841,1,0,3:0:0:0:
83,142,123923,2,0,L|79:230,1,57.3750002188683,10|0,2:0|2:0,2:0:0:0:
76,353,124085,6,0,B|140:345|140:345|192:363|192:363|258:353,1,172.125000656605,2|0,3:2|0:0,2:0:0:0:
328,318,124409,1,2,3:2:0:0:
106,265,124571,1,10,2:0:0:0:
317,186,124733,1,2,2:0:0:0:
317,186,124814,1,8,2:0:0:0:
317,186,124896,1,2,3:2:0:0:
111,131,125058,1,2,3:2:0:0:
205,287,125220,1,10,2:0:0:0:
471,98,125382,6,0,P|387:104|331:127,1,114.750000437737,2|0,3:2|2:0,2:0:0:0:
170,209,125706,1,2,3:2:0:0:
327,261,125868,1,10,2:0:0:0:
121,290,126031,1,2,3:2:0:0:
387,201,126193,1,10,2:0:0:0:
91,215,126355,1,2,3:2:0:0:
407,285,126517,1,10,2:0:0:0:
279,22,126679,6,0,B|235:48|235:48|249:185,1,172.125000656605,6|0,3:2|0:0,2:0:0:0:
262,288,127004,1,8,0:2:0:0:
151,110,127166,1,8,0:2:0:0:
429,150,127328,1,10,2:0:0:0:
429,150,127409,1,10,2:0:0:0:
429,150,127490,1,2,3:2:0:0:
224,355,127652,5,10,2:0:0:0:
186,321,127733,1,8,2:0:0:0:
173,273,127814,1,10,2:0:0:0:
188,226,127895,1,8,2:0:0:0:
226,191,127977,6,0,B|340:194|340:194|392:242,1,172.125000656605,6|0,3:2|0:0,2:0:0:0:
403,64,128301,2,0,L|383:200,1,114.750000437737,2|8,3:2|2:0,2:0:0:0:
136,111,128625,1,2,2:0:0:0:
136,111,128706,1,8,2:0:0:0:
136,111,128787,1,2,3:2:0:0:
272,283,128950,1,2,3:2:0:0:
308,62,129112,1,10,2:0:0:0:
213,176,129274,6,0,P|159:119|230:151,1,172.125000656605,2|0,3:2|0:0,2:0:0:0:
258,248,129598,2,0,B|201:280|144:258|144:258|84:231|9:271,1,229.500000875473,2|10,3:2|2:0,2:0:0:0:
27,274,130004,1,8,2:0:0:0:
17,293,130085,1,2,3:2:0:0:
213,176,130247,1,2,3:2:0:0:
72,110,130409,1,10,2:0:0:0:
344,18,130571,6,0,L|326:172,1,114.750000437737,6|0,3:2|2:0,2:0:0:0:
433,360,130896,5,2,3:2:0:0:
440,331,130977,1,2,3:2:0:0:
446,305,131058,2,0,B|459:255|459:255|426:190,1,114.750000437737,14|0,2:0|2:0,2:0:0:0:
276,373,131301,5,2,3:2:0:0:
298,358,131382,2,0,B|342:331|342:331|365:262,1,114.750000437737,14|0,2:0|2:0,2:0:0:0:
133,289,131625,5,2,3:2:0:0:
159,295,131706,2,0,B|209:308|209:308|274:275,1,114.750000437737,14|0,2:0|2:0,2:0:0:0:
95,132,131950,5,2,3:2:0:0:
109,154,132031,2,0,B|135:198|135:198|204:221,1,114.750000437737,14|0,2:0|2:0,2:0:0:0:
184,0,132274,5,2,3:2:0:0:
178,25,132355,2,0,B|165:75|165:75|198:140,1,114.750000437737,14|0,2:0|2:0,2:0:0:0:
219,148,132598,1,0,3:2:0:0:
258,156,132679,1,10,2:0:0:0:
297,151,132760,1,8,2:0:0:0:
333,134,132841,1,2,3:2:0:0:
362,106,132922,1,0,3:2:0:0:
381,70,133004,2,0,L|390:12,1,57.3750002188683,2|0,3:2|3:2,2:0:0:0:
214,236,133166,6,0,P|275:249|387:204,1,172.125000656605,6|0,3:2|0:0,2:0:0:0:
456,143,133490,1,2,3:2:0:0:
103,267,133652,1,10,2:0:0:0:
391,80,133814,1,2,2:0:0:0:
97,177,133977,1,2,3:2:0:0:
326,29,134139,1,2,3:2:0:0:
109,89,134301,1,10,2:0:0:0:
249,0,134463,1,2,2:0:0:0:
44,47,134625,5,2,3:2:0:0:
195,212,134787,2,0,P|248:225|302:198,1,97.7500018644333,2|8,3:2|2:0,2:0:0:0:
360,127,135112,1,2,3:2:0:0:
428,250,135274,2,0,P|451:309|443:364,1,97.7500018644333,2|0,2:0|3:0,2:0:0:0:
202,360,135598,1,10,2:0:0:0:
343,306,135760,1,8,2:0:0:0:
343,306,135841,1,8,2:0:0:0:
343,306,135923,5,6,3:2:0:0:
131,252,136085,1,2,3:2:0:0:
358,215,136247,1,10,2:0:0:0:
127,134,136409,1,2,3:2:0:0:
408,142,136571,1,10,2:0:0:0:
154,24,136733,1,2,3:2:0:0:
477,81,136896,1,10,2:0:0:0:
228,266,137058,6,0,L|102:248,1,97.7500018644333,6|2,3:2|2:0,2:0:0:0:
283,169,137382,1,2,3:2:0:0:
304,357,137544,1,2,3:2:0:0:
49,323,137706,1,10,2:0:0:0:
49,323,137787,1,8,2:0:0:0:
49,323,137868,5,8,2:0:0:0:
228,266,138112,5,0,3:2:0:0:
477,331,138355,6,0,B|458:382|401:368|365:322|428:250|428:250|488:165|450:117|374:167|434:232,1,391.000007457733,14|6,0:2|3:2,2:0:0:0:
461,262,151328,5,8,2:0:0:0:
461,262,151409,1,8,2:0:0:0:
461,262,151490,2,0,L|444:165,1,85,6|8,3:2|2:0,2:0:0:0:
447,179,151733,1,8,2:0:0:0:
447,179,151814,1,14,2:0:0:0:
364,119,151977,1,8,2:0:0:0:
364,119,152058,1,8,2:0:0:0:
364,119,152139,2,0,L|355:160,3,42.5,2|8|8|8,3:2|2:0|2:0|2:0,2:0:0:0:
269,156,152463,2,0,L|278:197,3,42.5,6|8|8|8,3:2|2:0|2:0|2:0,2:0:0:0:
188,137,152787,5,8,2:0:0:0:
168,169,152868,1,0,3:0:0:0:
129,176,152949,1,0,3:0:0:0:
97,152,153030,1,0,3:0:0:0:
92,108,153112,1,0,3:0:0:0:
113,69,153193,1,0,3:0:0:0:
149,44,153274,1,0,3:0:0:0:
193,38,153355,1,0,3:0:0:0:
234,49,153436,1,0,3:0:0:0:
266,76,153517,1,0,3:0:0:0:
283,114,153598,1,0,3:0:0:0:
281,156,153679,1,0,3:0:0:0:
261,193,153760,2,0,L|239:230,3,42.5,0|0|0|0,3:0|3:0|3:0|3:0,2:0:0:0:
297,296,154085,6,0,B|252:334|191:301|191:301|156:282|127:300,1,170,14|0,2:0|3:0,2:0:0:0:
46,370,154571,2,0,L|63:190,1,170,14|0,2:0|2:0,2:0:0:0:
239,229,155058,2,0,L|223:145,1,85,14|0,2:0|2:0,2:0:0:0:
0,61,155382,5,8,3:0:0:0:
15,84,155490,1,10,2:0:0:0:
36,103,155598,1,8,2:0:0:0:
62,114,155706,1,8,2:0:0:0:
90,117,155814,1,8,2:0:0:0:
117,112,155922,1,8,2:0:0:0:
142,99,156031,2,0,L|151:11,2,85,8|8|8,2:0|2:0|2:0,2:0:0:0:
63,200,156517,1,8,2:0:0:0:
167,324,156679,5,14,2:0:0:0:
86,271,157652,5,2,2:0:0:0:
82,286,157814,1,2,2:0:0:0:
239,197,158139,1,2,2:0:0:0:
149,191,158463,1,2,2:0:0:0:
153,206,158625,1,2,2:0:0:0:
286,288,158950,1,2,2:0:0:0:
290,273,159112,1,2,2:0:0:0:
209,321,159274,6,0,L|225:365,1,34,2|0,2:0|2:0,2:0:0:0:
452,296,159760,2,0,L|461:228,1,68,2|0,2:0|2:0,2:0:0:0:
418,150,160166,5,2,2:0:0:0:
400,157,160247,2,0,B|353:171|293:134|293:134|232:94|164:107|149:183|195:224|240:202,1,340,2|2,2:0|2:0,2:0:0:0:
216,33,162355,2,0,P|168:49|148:64,1,68,2|0,2:0|2:0,2:0:0:0:
83,56,162760,1,2,2:0:0:0:
74,75,162841,6,0,P|119:188|128:315,1,238,2|0,2:0|2:0,2:0:0:0:
233,208,164463,6,0,L|211:249,1,34,2|0,2:0|2:0,2:0:0:0:
450,205,165436,5,2,2:0:0:0:
450,205,165598,1,2,2:0:0:0:
419,119,165760,2,0,P|405:129|390:137,1,34,2|2,2:0|2:0,2:0:0:0:
310,132,166085,2,0,P|317:104|316:86,1,34,2|2,2:0|2:0,2:0:0:0:
218,29,166409,2,0,L|237:106,1,68,2|0,2:0|2:0,2:0:0:0:
49,225,167058,5,0,3:0:0:0:
138,165,167220,1,2,2:0:0:0:
138,165,167382,1,2,2:0:0:0:
244,160,167544,1,2,2:0:0:0:
100,69,167706,1,8,2:0:0:0:
111,334,168031,5,2,2:0:0:0:
111,334,168193,1,2,2:0:0:0:
207,373,168355,5,2,2:0:0:0:
319,267,168679,1,2,2:0:0:0:
153,261,169004,5,10,2:0:0:0:
309,353,169247,1,2,2:0:0:0:
467,292,169490,1,2,2:0:0:0:
397,221,169652,5,2,3:2:0:0:
431,126,169814,1,2,2:0:0:0:
431,126,169977,1,2,2:0:0:0:
488,196,170139,1,2,2:0:0:0:
334,145,170301,5,10,2:0:0:0:
165,115,170544,1,2,2:0:0:0:
93,242,170787,1,2,2:0:0:0:
174,281,170950,5,2,2:0:0:0:
246,151,171193,1,2,2:0:0:0:
148,24,171436,1,2,3:2:0:0:
78,99,171598,5,10,2:0:0:0:
280,55,171841,1,2,2:0:0:0:
404,206,172085,1,2,2:0:0:0:
305,228,172247,5,2,2:0:0:0:
125,355,172571,5,2,2:0:0:0:
369,309,172733,1,2,3:2:0:0:
217,265,173058,5,0,2:0:0:0:
404,206,173220,1,2,2:0:0:0:
512,278,173382,1,2,2:0:0:0:
267,159,173706,5,2,2:0:0:0:
405,82,174031,1,2,2:3:0:0:
405,96,174112,1,2,2:3:0:0:
405,108,174193,1,10,2:0:0:0:
318,231,174355,1,2,3:2:0:0:
184,144,174517,1,10,2:0:0:0:
404,206,174679,1,2,3:2:0:0:
88,262,174841,5,14,2:0:0:0:
257,50,175004,1,0,3:0:0:0:
382,286,175166,1,0,3:0:0:0:
185,236,175328,2,0,L|203:329,1,85,14|0,2:0|3:0,2:0:0:0:
306,185,175652,1,0,3:0:0:0:
82,150,175814,1,8,2:0:0:0:
353,375,175977,6,0,P|413:374|485:305,1,127.5,14|0,2:0|0:0,2:0:0:0:
471,242,176301,5,8,2:0:0:0:
115,359,176463,1,8,2:0:0:0:
207,287,176625,6,0,L|194:354,2,50.9999984436036,2|2|2,2:0|2:0|2:0,2:0:0:0:
225,198,177112,1,2,2:0:0:0:
38,67,177274,6,0,B|8:119|8:119|153:92,1,191.250007295609,6|0,3:2|0:0,2:0:0:0:
197,25,177598,2,0,L|323:39,1,127.500004863739,2|8,3:2|2:0,2:0:0:0:
68,222,177923,1,0,2:0:0:0:
266,131,178085,1,2,3:2:0:0:
293,331,178247,1,2,3:2:0:0:
177,227,178409,1,10,2:0:0:0:
380,196,178571,2,0,L|521:175,1,127.500004863739,2|0,3:2|2:0,2:0:0:0:
195,107,178896,6,0,L|460:166,1,255.000009727478,2|0,3:2|2:0,2:0:0:0:
449,179,179301,1,8,2:0:0:0:
453,202,179382,1,2,3:2:0:0:
388,313,179544,1,2,3:2:0:0:
256,226,179706,1,10,2:0:0:0:
41,316,179868,6,0,P|94:333|190:307,1,110.499994941712,2|0,3:2|2:0,2:0:0:0:
307,133,180193,1,2,3:2:0:0:
48,131,180355,2,0,P|64:186|92:233,1,110.499994941712,10|0,2:0|2:0,2:0:0:0:
168,146,180598,1,8,2:0:0:0:
168,146,180679,2,0,P|140:196|127:249,1,110.499994941712,2|2,3:2|3:2,2:0:0:0:
361,228,181004,1,10,2:0:0:0:
205,33,181166,6,0,P|135:27|89:50,1,110.499994941712,2|0,3:2|2:0,2:0:0:0:
127,247,181490,1,2,3:2:0:0:
323,76,181652,2,0,P|392:56|527:54,1,165.749992412568,10|0,2:0|0:0,2:0:0:0:
488,79,181977,2,0,L|474:142,1,55.2499974708558,2|0,3:2|2:0,2:0:0:0:
403,182,182139,1,8,2:0:0:0:
403,182,182220,2,0,L|417:245,1,55.2499974708558,10|0,2:0|3:2,2:0:0:0:
494,290,182382,1,8,2:0:0:0:
494,290,182463,2,0,L|505:236,1,55.2499974708558,10|8,2:0|2:0,2:0:0:0:
404,357,182625,6,0,P|319:323|268:322,1,110.499994941712,2|2,3:2|2:0,2:0:0:0:
38,351,182950,1,10,2:0:0:0:
160,380,183112,1,2,2:0:0:0:
249,239,183274,2,0,P|266:170|240:113,1,110.499994941712,2|0,3:2|3:2,2:0:0:0:
177,93,183517,2,0,L|279:114,1,55.2499974708558,0|10,2:0|2:0,2:0:0:0:
56,67,183760,6,0,P|88:142|104:289,1,220.999989883423,2|2,3:2|3:2,2:0:0:0:
275,373,184247,1,10,2:0:0:0:
388,308,184409,1,0,2:0:0:0:
509,377,184571,1,2,3:2:0:0:
219,290,184733,1,2,3:2:0:0:
398,148,184896,1,10,2:0:0:0:
337,237,185058,6,0,P|289:175|309:83,1,165.749992412568,2|0,3:2|0:0,2:0:0:0:
389,35,185382,1,2,3:2:0:0:
254,182,185544,1,10,2:0:0:0:
88,123,185706,1,0,3:2:0:0:
208,325,185868,1,10,2:0:0:0:
398,148,186031,1,0,3:2:0:0:
171,189,186193,1,10,2:0:0:0:
450,300,186355,6,0,B|389:287|389:287|337:299|337:299|267:284,1,165.749992412568,6|0,3:2|0:0,2:0:0:0:
208,325,186679,2,0,P|198:286|209:250,1,55.2499974708558,0|0,3:2|3:0,2:0:0:0:
303,174,186841,2,0,P|274:202|237:210,1,55.2499974708558,0|0,3:2|3:0,2:0:0:0:
111,112,187004,1,10,2:0:0:0:
111,112,187085,1,10,2:0:0:0:
111,112,187166,1,2,3:2:0:0:
301,33,187328,5,10,2:0:0:0:
342,16,187409,1,8,2:0:0:0:
388,16,187490,1,10,2:0:0:0:
431,27,187571,1,8,2:0:0:0:
469,52,187652,6,0,B|495:98|495:98|475:231,1,165.749992412568,6|0,3:2|0:0,2:0:0:0:
399,255,187977,2,0,L|388:186,1,55.2499974708558,2|0,3:2|2:0,2:0:0:0:
341,320,188139,2,0,P|438:335|485:282,1,165.749992412568,14|8,2:0|2:0,2:0:0:0:
478,209,188463,1,2,3:2:0:0:
235,119,188625,1,2,3:2:0:0:
250,361,188787,1,10,2:0:0:0:
357,155,188950,2,0,L|339:35,1,110.499994941712,2|0,3:2|2:0,2:0:0:0:
73,121,189274,6,0,B|114:141|162:124|162:124|207:107|264:128,1,165.749992412568,2|0,3:2|0:0,2:0:0:0:
203,218,189598,1,10,2:0:0:0:
134,33,189760,1,2,3:2:0:0:
46,240,189923,1,2,3:2:0:0:
210,88,190085,1,10,2:0:0:0:
404,317,190247,2,0,P|435:260|429:198,1,110.499994941712,6|0,3:2|2:0,2:0:0:0:
296,354,190571,5,2,3:2:0:0:
296,354,190652,1,2,3:0:0:0:
296,354,190733,2,0,B|263:378|263:378|153:356,1,110.499994941712,14|0,2:0|3:2,2:0:0:0:
29,256,190977,5,2,3:2:0:0:
50,275,191058,2,0,B|83:299|83:299|193:277,1,110.499994941712,14|0,2:0|3:2,2:0:0:0:
317,177,191301,5,2,3:2:0:0:
296,196,191382,2,0,B|263:220|263:220|153:198,1,110.499994941712,14|0,2:0|3:2,2:0:0:0:
49,29,191625,5,2,3:2:0:0:
57,55,191706,2,0,B|73:92|73:92|179:128,1,110.499994941712,14|0,2:0|3:2,2:0:0:0:
335,82,191949,5,2,3:2:0:0:
307,88,192030,2,0,B|266:92|266:92|182:18,1,110.499994941712,14|0,2:0|3:2,2:0:0:0:
390,6,192274,1,0,3:2:0:0:
421,50,192355,1,10,2:0:0:0:
421,104,192436,1,8,2:0:0:0:
390,149,192517,1,2,3:2:0:0:
360,194,192598,1,0,3:2:0:0:
353,249,192679,1,2,3:2:0:0:
371,300,192760,1,0,3:2:0:0:
410,339,192841,6,0,L|454:215,1,110.499994941712,6|0,3:2|2:0,2:0:0:0:
285,321,193166,1,2,3:2:0:0:
159,146,193328,1,10,2:0:0:0:
200,384,193490,1,2,2:0:0:0:
0,319,193652,1,2,3:2:0:0:
207,288,193814,1,2,3:2:0:0:
83,74,193977,1,10,2:0:0:0:
285,220,194139,1,2,2:0:0:0:
337,1,194301,5,2,3:2:0:0:
115,181,194463,2,0,L|-13:159,1,110.499994941712,2|8,3:2|2:0,2:0:0:0:
206,85,194787,1,2,3:2:0:0:
321,295,194950,1,2,2:0:0:0:
418,222,195112,1,0,3:2:0:0:
204,260,195274,1,10,2:0:0:0:
438,338,195436,1,8,2:0:0:0:
438,338,195517,1,8,2:0:0:0:
438,338,195598,5,6,3:2:0:0:
390,74,195760,1,2,3:2:0:0:
217,166,195923,1,10,2:0:0:0:
507,218,196085,1,2,3:2:0:0:
283,49,196247,1,10,2:0:0:0:
322,269,196409,1,2,3:2:0:0:
492,110,196571,1,10,2:0:0:0:
186,65,196733,1,2,3:2:0:0:
407,223,196896,5,2,2:0:0:0:
121,172,197058,2,0,L|-15:152,1,110.499994941712,2|0,3:2|3:2,2:0:0:0:
298,81,197382,1,10,2:0:0:0:
298,81,197463,1,8,2:0:0:0:
298,81,197544,1,8,2:0:0:0:
373,307,197706,1,2,3:2:0:0:
373,307,197787,1,0,3:2:0:0:
373,307,197868,1,0,3:2:0:0:
241,255,198031,1,2,3:2:0:0:
241,255,198112,1,0,2:0:0:0:
241,255,198193,6,0,P|181:244|102:297,1,127.5,6|0,3:2|0:0,2:0:0:0:
122,271,198517,1,0,3:2:0:0:
44,155,198679,2,0,L|19:344,1,170,8|2,2:0|3:2,2:0:0:0:
198,355,199166,1,8,2:0:0:0:
290,168,199328,2,0,P|363:135|436:152,1,127.5,2|0,2:0|0:0,2:0:0:0:
408,139,199652,2,0,L|430:245,1,85,12|2,2:0|2:0,2:0:0:0:
447,325,199977,1,0,3:2:0:0:
320,279,200139,1,10,2:0:0:0:
307,277,200220,1,8,2:0:0:0:
294,276,200301,1,10,2:0:0:0:
281,275,200382,1,8,2:0:0:0:
269,273,200463,1,8,2:0:0:0:
256,272,200544,1,8,2:0:0:0:
243,271,200625,1,10,2:0:0:0:
231,270,200706,1,8,2:0:0:0:
218,268,200787,5,6,3:2:0:0:
78,135,201112,2,0,P|62:71|79:39,1,85,2|8,3:2|2:0,2:0:0:0:
153,177,201436,2,0,L|3:206,1,127.5,2|0,2:0|0:0,2:0:0:0:
27,201,201760,1,10,2:0:0:0:
159,86,201923,6,0,L|247:96,1,85,6|0,3:2|2:0,2:0:0:0:
334,190,202247,2,0,L|418:180,1,85,2|8,3:2|2:0,2:0:0:0:
317,38,202571,1,10,2:0:0:0:
317,38,202652,1,8,2:0:0:0:
317,38,202733,1,10,2:0:0:0:
211,193,202896,1,0,3:2:0:0:
340,300,203058,1,14,2:0:0:0:
340,300,203382,6,0,B|369:320|369:320|445:302,1,85,12|0,2:0|2:0,2:0:0:0:
334,190,203706,1,2,3:2:0:0:
165,325,203868,2,0,B|136:345|136:345|60:327,1,85,14|0,2:0|2:0,2:0:0:0:
172,219,204193,1,2,3:2:0:0:
246,376,204355,6,0,P|252:282|259:178,1,170,14|0,2:0|3:2,2:0:0:0:
240,77,204841,1,10,2:0:0:0:
155,124,205004,1,2,3:2:0:0:
155,124,205166,1,2,3:2:0:0:
373,138,205328,1,10,2:0:0:0:
331,52,205490,1,2,3:2:0:0:
170,225,205652,1,10,2:0:0:0:
69,195,205814,5,14,2:0:0:0:
256,192,205896,12,0,207274,2:0:0:0:
156,302,207436,5,8,2:0:0:0:
149,335,207598,1,8,2:0:0:0:
358,221,207923,5,8,2:0:0:0:
365,254,208085,1,8,2:0:0:0:
158,78,208409,5,6,3:2:0:0:
