osu file format v14

[General]
AudioFilename: audio.mp3
AudioLeadIn: 0
PreviewTime:48112
Countdown: 0
SampleSet: Soft
StackLeniency: 0.6
Mode: 0
LetterboxInBreaks: 0
WidescreenStoryboard: 1

[Editor]
Bookmarks: 48841
DistanceSpacing: 1
BeatDivisor: 4
GridSize: 4
TimelineZoom: 2

[Metadata]
Title:Kaikai Kitan
TitleUnicode:廻廻奇譚
Artist:Osamu
ArtistUnicode:攻
Creator:Nevo
Version:Kazuha's Normal
Source:呪術廻戦
Tags:vocaloid japanese rock pop jrock jpop cover arc [arc] ozaki senpai Kazarii addy2607 KaedeharaKazuha jujutsu kaisen anime opening sorcery Fight JJK j-rock 鏡音レン kagamine len おさむ eve
BeatmapID:3231614
BeatmapSetID:1397696

[Difficulty]
HPDrainRate:4
CircleSize:3
OverallDifficulty:5
ApproachRate:6
SliderMultiplier:0.999999999999999
SliderTickRate:1

[Events]
//Background and Video events
0,0,"len.jpg",0,0
Video,0,"mp3.mp4"
//Break Periods
2,16123,16819
2,80177,85575
2,156879,166008
//Storyboard Layer 0 (Background)
//Storyboard Layer 1 (Fail)
//Storyboard Layer 2 (Pass)
//Storyboard Layer 3 (Foreground)
//Storyboard Layer 4 (Overlay)
//Storyboard Sound Samples

[TimingPoints]
2302,324.324324324324,4,2,1,85,1,0
2302,-105.263157894737,4,2,1,85,0,0
5545,324.324324324324,4,2,1,80,1,0
17869,324.324324324324,4,2,1,70,1,0
17869,-105.263157894737,4,2,1,70,0,0
28247,-100,4,2,1,80,0,0
38463,-105.263157894737,4,2,1,80,0,0
46409,-100,4,2,1,80,0,0
48841,-95.2380952380952,4,2,1,90,0,0
69760,-95.2380952380952,4,2,1,80,0,0
86625,-105.263157894737,4,2,1,65,0,0
105923,-105.263157894737,4,2,1,70,0,0
107220,-100,4,2,1,80,0,0
112571,-105.263157894737,4,2,1,65,0,0
115166,-100,4,2,1,80,0,0
117598,-95.2380952380952,4,2,1,90,0,0
139004,-100,4,2,1,90,0,0
139085,-100,4,2,1,70,0,0
151328,-100,4,2,1,75,0,0
156679,-100,4,2,1,60,0,0
167058,-105.263157894737,4,2,1,60,0,0
174031,-105.263157894737,4,2,1,70,0,0
174841,-100,4,2,1,80,0,0
177274,-95.2380952380952,4,2,1,90,0,0
198193,-95.2380952380952,4,2,1,80,0,0

[Colours]
Combo1 : 155,155,255
Combo2 : 43,155,168
Combo3 : 226,213,44

[HitObjects]
351,77,2302,6,0,L|414:71,2,47.4999987316131,14|0|0,2:0|3:2|3:2,2:0:0:0:
304,84,2788,1,10,2:0:0:0:
220,39,3112,1,0,3:2:0:0:
220,39,3274,2,0,P|170:11|86:62,1,142.499996194839,14|14,2:0|2:0,2:0:0:0:
75,84,3923,1,0,2:0:0:0:
82,178,4247,2,0,L|87:263,2,71.2499980974197,10|10|10,2:0|2:0|2:0,2:0:0:0:
293,312,5545,6,0,B|337:332|337:332|387:306,1,99.9999999999999,6|8,3:2|2:0,2:0:0:0:
422,277,6031,2,0,L|422:218,1,50,0|2,2:0|3:2,2:0:0:0:
421,177,6355,1,0,3:2:0:0:
486,100,6680,2,0,P|493:57|437:25,1,99.9999999999999,2|0,3:2|3:2,2:0:0:0:
407,46,7166,1,10,2:0:0:0:
324,102,7490,2,0,L|324:161,2,50,0|0|10,3:2|3:2|2:0,2:0:0:0:
284,70,7977,6,0,P|240:47|192:78,1,99.9999999999999,2|0,3:2|2:0,2:0:0:0:
168,108,8463,1,10,2:0:0:0:
72,78,8788,2,0,L|75:147,1,50,0|0,3:2|3:2,2:0:0:0:
52,173,9112,1,10,2:0:0:0:
52,173,9274,2,0,P|17:229|36:265,1,99.9999999999999,2|0,3:2|2:0,2:0:0:0:
63,291,9761,1,10,2:0:0:0:
162,287,10085,2,0,L|225:283,1,50,2|8,3:2|2:0,2:0:0:0:
261,279,10409,2,0,L|324:275,1,50,8|8,2:0|2:0,2:0:0:0:
352,247,10734,6,0,B|372:201|372:201|348:153,1,99.9999999999999,6|10,3:2|2:0,2:0:0:0:
305,133,11220,2,0,L|242:137,1,50,0|0,2:0|3:2,2:0:0:0:
205,141,11544,1,0,3:2:0:0:
119,88,11869,2,0,P|70:68|29:111,1,99.9999999999999,2|0,3:2|3:2,2:0:0:0:
15,138,12355,1,10,2:0:0:0:
82,211,12680,2,0,L|145:207,2,50,0|0|10,3:2|3:2|2:0,2:0:0:0:
53,252,13166,6,0,P|20:298|42:341,1,99.9999999999999,2|0,3:2|2:0,2:0:0:0:
78,358,13653,2,0,L|141:354,1,50,10|0,2:0|3:2,2:0:0:0:
177,352,13977,2,0,L|240:348,1,50,10|0,2:0|3:2,2:0:0:0:
280,348,14301,1,10,2:0:0:0:
280,348,14463,5,6,3:2:0:0:
359,286,14788,1,8,0:2:0:0:
359,286,14950,1,8,0:2:0:0:
288,215,15274,2,0,L|286:146,1,50,8|0,2:0|2:0,2:0:0:0:
285,114,15599,2,0,L|283:45,1,50,0|0,3:2|3:2,2:0:0:0:
282,14,15923,1,6,3:2:0:0:
457,88,17869,6,0,L|460:202,1,94.9999974632263,0|2,3:2|3:2,2:0:0:0:
503,266,18517,2,0,L|388:269,1,94.9999974632263,2|2,3:2|3:2,2:0:0:0:
360,270,19004,1,2,2:0:0:0:
298,343,19328,1,2,2:0:0:0:
298,343,19490,2,0,L|183:346,1,94.9999974632263,2|2,3:2|3:2,2:0:0:0:
155,348,19977,1,2,2:0:0:0:
81,288,20301,1,2,2:0:0:0:
81,288,20463,6,0,B|104:247|104:247|80:197,1,94.9999974632263,2|2,3:2|3:2,2:0:0:0:
58,163,20950,2,0,B|35:122|35:122|59:72,1,94.9999974632263,2|2,2:0|2:0,2:0:0:0:
85,41,21436,1,2,3:2:0:0:
85,41,21598,2,0,B|142:30|142:30|177:47|177:47|230:40,1,142.499996194839,2|2,2:0|3:2,2:0:0:0:
316,26,22409,1,2,3:2:0:0:
340,117,22733,1,2,3:2:0:0:
247,137,23058,6,0,P|221:181|240:224,1,94.9999974632263,0|2,3:2|3:2,2:0:0:0:
206,312,23706,1,2,3:2:0:0:
206,312,23868,2,0,L|315:307,1,94.9999974632263,2|2,2:0|2:0,2:0:0:0:
348,306,24355,1,2,3:2:0:0:
440,345,24679,1,2,3:2:0:0:
440,345,24841,2,0,L|435:236,1,94.9999974632263,2|2,2:0|2:0,2:0:0:0:
434,203,25328,1,2,3:2:0:0:
434,108,25652,6,0,P|464:117|505:101,2,71.2499980974197,2|2|0,3:2|2:0|2:0,2:0:0:0:
396,78,26301,2,0,P|337:58|299:81,1,94.9999974632263,2|2,3:2|3:2,2:0:0:0:
275,103,26787,2,0,L|278:198,1,94.9999974632263,14|2,2:0|3:2,2:0:0:0:
281,245,27274,1,2,3:2:0:0:
193,209,27598,2,0,L|191:161,1,47.4999987316131,10|10,2:0|2:0,2:0:0:0:
109,35,28247,6,0,B|64:16|64:16|15:40,1,99.9999999999999,6|10,3:2|2:0,2:0:0:0:
4,141,28896,1,2,3:2:0:0:
4,141,29058,2,0,L|9:245,1,99.9999999999999,2|10,3:2|2:0,2:0:0:0:
13,290,29544,1,2,2:0:0:0:
91,352,29868,1,10,2:0:0:0:
154,274,30193,2,0,L|151:222,1,50,2|2,3:2|3:2,2:0:0:0:
175,126,30679,6,0,P|150:85|181:36,1,99.9999999999999,10|2,2:0|3:2,2:0:0:0:
219,30,31166,2,0,L|285:30,1,50,10|2,2:0|2:0,2:0:0:0:
318,30,31490,2,0,L|384:30,1,50,2|2,3:2|3:2,2:0:0:0:
468,27,31977,2,0,B|491:49|491:49|487:129,1,99.9999999999999,10|2,2:0|3:2,2:0:0:0:
485,166,32463,1,10,2:0:0:0:
482,265,32787,2,0,L|422:263,1,50,2|0,3:2|3:0,2:0:0:0:
381,262,33112,1,10,2:0:0:0:
288,224,33436,6,0,B|245:248|245:248|191:221,1,99.9999999999999,0|10,3:2|2:0,2:0:0:0:
121,171,34085,1,2,3:2:0:0:
121,171,34247,2,0,L|121:69,1,99.9999999999999,2|10,3:2|2:0,2:0:0:0:
119,21,34733,1,2,2:0:0:0:
29,59,35058,1,10,2:0:0:0:
29,59,35220,2,0,L|29:161,1,99.9999999999999,2|2,2:0|3:2,2:0:0:0:
30,208,35706,1,2,2:0:0:0:
37,312,36031,5,2,2:0:0:0:
37,312,36193,2,0,L|139:312,1,99.9999999999999,2|2,3:2|2:0,2:0:0:0:
173,277,36679,2,0,L|173:223,2,50,2|0|2,3:2|3:2|2:0,2:0:0:0:
213,306,37166,2,0,P|265:336|342:291,1,150,10|14,2:0|2:0,2:0:0:0:
384,208,37977,2,0,L|384:143,1,50,2|0,3:2|2:0,2:0:0:0:
384,108,38301,1,2,3:2:0:0:
384,108,38463,6,0,P|383:62|296:58,1,142.499996194839,6|8,3:2|2:0,2:0:0:0:
236,119,39274,2,0,L|175:118,1,47.4999987316131,0|2,3:2|3:2,2:0:0:0:
141,119,39598,1,10,2:0:0:0:
55,77,39923,2,0,P|36:112|58:170,1,94.9999974632263,2|10,3:2|2:0,2:0:0:0:
108,237,40571,2,0,P|127:272|105:330,1,94.9999974632263,2|10,3:2|2:0,2:0:0:0:
75,353,41058,6,0,L|233:348,1,142.499996194839,2|8,3:2|2:0,2:0:0:0:
312,342,41868,1,0,3:2:0:0:
369,266,42193,1,10,2:0:0:0:
300,200,42517,2,0,L|296:95,1,94.9999974632263,2|10,2:0|2:0,2:0:0:0:
258,17,43166,2,0,L|322:14,1,47.4999987316131,10|2,2:0|3:2,2:0:0:0:
352,14,43490,2,0,L|416:11,1,47.4999987316131,0|2,3:2|3:2,2:0:0:0:
446,11,43814,6,0,B|507:57|465:144|446:122|374:203|458:277,1,284.999992389679,6|2,2:0|2:0,2:0:0:0:
479,304,44950,1,2,2:0:0:0:
336,312,45436,2,0,L|277:311,1,47.4999987316131,2|2,2:0|3:2,2:0:0:0:
241,311,45760,2,0,L|182:310,1,47.4999987316131,10|2,2:0|3:2,2:0:0:0:
145,311,46085,1,2,3:2:0:0:
53,350,46409,6,0,L|54:291,1,50,14|2,2:0|3:2,2:0:0:0:
56,250,46733,2,0,L|57:191,1,50,2|14,3:2|2:0,2:0:0:0:
56,149,47058,2,0,L|-3:148,2,50,2|2|10,3:2|3:2|2:0,2:0:0:0:
105,149,47544,1,6,3:2:0:0:
176,79,47868,1,8,2:0:0:0:
176,79,48031,1,0,3:2:0:0:
407,201,48841,6,0,L|407:315,1,104.999996795654,6|2,3:2|3:2,2:0:0:0:
407,358,49328,1,8,2:0:0:0:
321,297,49652,2,0,L|321:240,1,52.4999983978271,2|2,3:2|3:2,2:0:0:0:
321,195,49977,1,10,2:0:0:0:
321,195,50139,2,0,L|321:81,1,104.999996795654,2|2,3:2|3:2,2:0:0:0:
321,38,50626,1,8,2:0:0:0:
232,94,50950,2,0,L|232:151,2,52.4999983978271,2|2|10,3:2|3:2|2:0,2:0:0:0:
196,55,51436,6,0,P|149:26|95:55,1,104.999996795654,2|2,3:2|3:2,2:0:0:0:
68,78,51923,1,10,2:0:0:0:
72,182,52247,2,0,L|73:251,1,52.4999983978271,2|2,3:2|3:2,2:0:0:0:
75,286,52571,1,10,2:0:0:0:
75,286,52733,2,0,L|200:284,1,104.999996795654,2|2,3:2|3:2,2:0:0:0:
232,286,53220,1,10,2:0:0:0:
318,345,53544,2,0,P|357:366|414:336,1,104.999996795654,2|8,3:2|0:2,2:0:0:0:
447,306,54031,6,0,L|443:190,1,104.999996795654,10|2,0:0|2:0,2:0:0:0:
441,148,54517,1,10,2:0:0:0:
430,43,54841,2,0,P|391:22|334:52,1,104.999996795654,2|10,3:2|2:0,2:0:0:0:
309,88,55328,2,0,L|312:203,1,104.999996795654,2|2,3:2|3:2,2:0:0:0:
313,246,55814,1,10,2:0:0:0:
242,323,56139,2,0,L|243:381,2,52.4999983978271,2|2|10,3:2|3:2|2:0,2:0:0:0:
197,294,56625,6,0,B|150:273|150:273|99:304,1,104.999996795654,2|2,3:2|3:2,2:0:0:0:
61,331,57112,2,0,L|61:272,1,52.4999983978271,10|0,2:0|3:2,2:0:0:0:
59,226,57436,2,0,L|59:167,1,52.4999983978271,10|0,2:0|3:0,2:0:0:0:
23,143,57760,1,10,2:0:0:0:
23,143,57923,2,0,B|-8:97|-8:97|23:47,1,104.999996795654,6|0,3:2|3:2,2:0:0:0:
57,20,58409,1,0,3:2:0:0:
153,61,58733,2,0,L|224:58,1,52.4999983978271,0|10,3:2|2:0,2:0:0:0:
262,60,59058,1,10,2:0:0:0:
262,60,59220,6,0,P|308:82|359:51,1,104.999996795654,6|2,3:2|3:2,2:0:0:0:
387,20,59706,1,8,2:0:0:0:
476,75,60031,2,0,L|474:148,1,52.4999983978271,2|2,3:2|3:2,2:0:0:0:
477,184,60355,1,10,2:0:0:0:
477,184,60517,2,0,L|473:303,1,104.999996795654,2|2,3:2|3:2,2:0:0:0:
473,341,61004,1,8,2:0:0:0:
383,285,61328,2,0,L|385:225,2,52.4999983978271,2|2|10,3:2|3:2|2:0,2:0:0:0:
367,334,61814,6,0,B|318:360|318:360|258:329,1,104.999996795654,6|2,3:2|3:2,2:0:0:0:
229,309,62301,2,0,L|171:310,1,52.4999983978271,14|0,2:0|2:0,2:0:0:0:
124,312,62625,2,0,L|66:313,1,52.4999983978271,14|0,2:0|2:0,2:0:0:0:
18,317,62950,1,14,2:0:0:0:
52,217,63274,2,0,L|110:216,1,52.4999983978271,14|0,2:0|2:0,2:0:0:0:
157,214,63598,2,0,L|215:213,1,52.4999983978271,14|0,2:0|2:0,2:0:0:0:
262,213,63923,2,0,L|320:212,1,52.4999983978271,10|2,2:0|3:2,2:0:0:0:
371,215,64247,1,2,3:2:0:0:
371,215,64409,6,0,B|418:239|418:239|468:213,1,104.999996795654,6|2,3:2|3:2,2:0:0:0:
504,180,64896,2,0,L|504:117,1,52.4999983978271,10|2,2:0|2:0,2:0:0:0:
503,75,65220,1,2,3:2:0:0:
428,0,65544,1,10,2:0:0:0:
345,65,65868,5,2,3:2:0:0:
345,65,66031,2,0,L|226:65,1,104.999996795654,2|2,3:2|3:2,2:0:0:0:
187,65,66517,1,2,2:0:0:0:
98,9,66841,1,10,2:0:0:0:
29,88,67166,6,0,L|33:162,1,52.4999983978271,6|2,3:2|3:2,2:0:0:0:
37,192,67490,1,10,2:0:0:0:
83,285,67814,2,0,L|85:337,2,52.4999983978271,10|2|10,2:0|3:2|2:0,2:0:0:0:
132,265,68301,2,0,B|181:285|181:285|231:258,1,104.999996795654,2|2,3:2|3:2,2:0:0:0:
274,238,68787,1,2,3:2:0:0:
274,238,68950,2,0,B|323:218|323:218|373:245,1,104.999996795654,10|2,2:0|3:2,2:0:0:0:
411,272,69436,1,0,3:2:0:0:
489,202,69760,6,0,L|496:36,1,157.499995193481,6|8,3:2|2:0,2:0:0:0:
464,2,70409,1,0,2:0:0:0:
371,50,70733,1,8,2:0:0:0:
371,50,70896,2,0,L|366:162,1,104.999996795654,6|14,2:0|2:0,2:0:0:0:
363,207,71382,1,0,2:0:0:0:
258,204,71706,2,0,L|202:201,1,52.4999983978271,10|10,2:0|2:0,2:0:0:0:
152,197,72031,2,0,L|96:194,1,52.4999983978271,8|10,2:0|2:0,2:0:0:0:
47,191,72355,5,6,3:2:0:0:
11,92,72679,2,0,L|66:94,1,52.4999983978271,2|8,3:2|2:0,2:0:0:0:
116,98,73003,1,2,2:0:0:0:
211,54,73328,1,10,2:0:0:0:
211,54,73490,2,0,P|250:31|309:64,1,104.999996795654,6|2,3:2|3:2,2:0:0:0:
372,137,74139,1,10,2:0:0:0:
372,137,74301,2,0,L|370:206,1,52.4999983978271,10|0,2:0|3:2,2:0:0:0:
368,241,74625,1,14,2:0:0:0:
364,346,74950,6,0,P|319:366|254:329,1,104.999996795654,12|2,2:0|3:2,2:0:0:0:
228,315,75436,2,0,P|183:295|118:332,1,104.999996795654,14|2,2:0|3:2,2:0:0:0:
91,345,75923,2,0,P|25:360|15:278,1,157.499995193481,14|10,2:0|2:0,2:0:0:0:
60,197,76733,2,0,L|119:200,2,52.4999983978271,2|10|2,3:2|2:0|3:2,2:0:0:0:
20,170,77220,1,10,2:0:0:0:
20,170,77382,6,0,B|9:21|9:21|68:99,1,236.249992790222,14|0,2:0|2:0,2:0:0:0:
61,90,79004,6,0,L|118:92,1,52.4999983978271,8|8,2:0|2:0,2:0:0:0:
196,28,79490,2,0,L|253:30,1,52.4999983978271,8|8,2:0|2:0,2:0:0:0:
324,95,79977,1,6,3:2:0:0:
489,327,86625,6,0,L|384:326,1,94.9999974632263,2|2,3:2|2:0,2:0:0:0:
298,326,87274,2,0,B|245:319|245:319|212:341|212:341|151:335,1,142.499996194839,2|2,2:0|2:0,2:0:0:0:
115,337,87923,2,0,P|49:345|49:274,1,142.499996194839,2|2,2:0|2:0,2:0:0:0:
68,244,88571,2,0,P|95:190|47:109,1,142.499996194839,2|2,2:0|2:0,2:0:0:0:
23,93,89220,5,2,3:2:0:0:
63,7,89544,1,2,2:0:0:0:
146,51,89868,2,0,B|199:44|199:44|223:55|223:55|293:46,1,142.499996194839,2|2,2:0|2:0,2:0:0:0:
329,65,90517,2,0,B|389:29|389:29|460:75,1,142.499996194839,2|2,2:0|2:0,2:0:0:0:
482,103,91166,2,0,L|481:260,1,142.499996194839,2|2,2:0|2:0,2:0:0:0:
481,292,91814,6,0,P|423:329|364:284,1,142.499996194839,2|0,3:2|2:0,2:0:0:0:
280,123,92950,1,0,2:0:0:0:
202,177,93274,1,2,3:2:0:0:
114,140,93598,2,0,L|114:87,1,47.4999987316131,2|8,3:2|2:0,2:0:0:0:
114,44,93923,1,2,3:2:0:0:
23,14,94247,6,0,L|22:126,1,94.9999974632263,2|2,2:0|2:0,2:0:0:0:
24,204,94896,2,0,L|23:260,1,47.4999987316131,0|8,3:2|2:0,2:0:0:0:
25,298,95220,1,2,2:0:0:0:
348,376,96355,1,2,2:0:0:0:
278,311,96679,2,0,L|277:255,1,47.4999987316131,2|0,2:0|3:2,2:0:0:0:
246,226,97004,6,0,B|220:187|220:187|244:137,1,94.9999974632263,0|2,3:2|2:0,2:0:0:0:
290,62,97652,2,0,L|393:59,1,94.9999974632263,10|2,2:0|2:0,2:0:0:0:
472,23,98301,2,0,L|475:126,1,94.9999974632263,2|2,2:0|2:0,2:0:0:0:
511,205,98950,2,0,L|451:206,1,47.4999987316131,10|0,2:0|2:0,2:0:0:0:
416,211,99274,2,0,L|356:212,1,47.4999987316131,2|0,2:0|2:0,2:0:0:0:
321,215,99598,5,2,3:2:0:0:
247,274,99923,1,2,2:0:0:0:
175,211,100247,2,0,L|175:108,1,94.9999974632263,2|2,2:0|2:0,2:0:0:0:
218,31,100896,2,0,P|176:13|128:34,1,94.9999974632263,2|2,2:0|2:0,2:0:0:0:
64,96,101544,2,0,L|65:143,1,47.4999987316131,10|0,2:0|2:0,2:0:0:0:
66,190,101868,2,0,L|67:237,1,47.4999987316131,2|0,2:0|2:0,2:0:0:0:
68,284,102192,5,2,3:2:0:0:
195,347,102679,2,0,B|239:327|239:327|289:351,1,94.9999974632263,2|2,3:2|2:0,2:0:0:0:
361,298,103328,2,0,B|405:318|405:318|451:295,1,94.9999974632263,2|2,2:0|3:2,2:0:0:0:
508,224,103977,2,0,L|508:167,1,47.4999987316131,2|8,3:2|2:0,2:0:0:0:
508,129,104301,1,2,3:2:0:0:
440,61,104625,6,0,B|396:41|396:41|350:64,1,94.9999974632263,2|2,2:0|2:0,2:0:0:0:
262,36,105274,2,0,L|267:135,1,94.9999974632263,0|2,3:2|2:0,2:0:0:0:
274,182,105760,1,0,2:0:0:0:
274,182,105923,1,2,2:0:0:0:
274,182,107220,6,0,L|385:178,1,99.9999999999999,6|2,3:2|3:2,2:0:0:0:
423,177,107706,1,8,2:0:0:0:
463,85,108031,2,0,L|392:87,1,50,0|0,3:2|3:2,2:0:0:0:
362,88,108356,1,8,2:0:0:0:
262,90,108679,2,0,L|259:19,2,50,2|2|10,3:2|3:2|2:0,2:0:0:0:
194,164,109328,2,0,L|196:234,2,50,0|2|10,3:2|3:2|2:0,2:0:0:0:
170,120,109814,6,0,P|120:97|66:124,1,99.9999999999999,6|2,3:2|3:2,2:0:0:0:
49,151,110301,1,8,2:0:0:0:
54,250,110625,1,0,3:2:0:0:
54,250,110787,2,0,P|28:293|65:339,1,99.9999999999999,2|2,3:2|3:2,2:0:0:0:
94,355,111274,2,0,L|210:348,1,99.9999999999999,2|10,3:2|2:0,2:0:0:0:
293,339,111923,2,0,L|355:335,1,50,10|2,2:0|3:2,2:0:0:0:
392,331,112247,2,0,L|454:327,1,50,8|2,2:0|3:2,2:0:0:0:
489,323,112571,6,0,P|445:260|463:193,1,142.499996194839,6|2,3:2|3:2,2:0:0:0:
508,119,113382,1,2,2:0:0:0:
432,61,113706,2,0,B|377:56|377:56|349:76|349:76|281:72,1,142.499996194839,2|0,2:0|3:0,2:0:0:0:
206,40,114517,2,0,L|204:105,1,47.4999987316131,10|0,2:0|2:0,2:0:0:0:
204,134,114841,1,10,0:0:0:0:
166,226,115166,6,0,L|231:228,1,50,14|0,2:0|2:0,2:0:0:0:
265,230,115490,2,0,L|330:232,1,50,2|14,3:2|2:0,2:0:0:0:
364,229,115814,2,0,L|366:164,2,50,0|2|14,2:0|3:2|2:0,2:0:0:0:
363,280,116301,1,6,2:0:0:0:
297,354,116625,1,10,2:0:0:0:
297,354,116787,1,10,2:0:0:0:
47,271,117598,6,0,P|24:230|54:177,1,104.999996795654,6|2,3:2|3:2,2:0:0:0:
91,152,118085,1,8,2:0:0:0:
36,62,118409,2,0,L|103:62,1,52.4999983978271,2|2,3:2|3:2,2:0:0:0:
138,40,118733,1,10,2:0:0:0:
138,40,118896,2,0,L|255:40,1,104.999996795654,2|2,3:2|3:2,2:0:0:0:
295,40,119382,1,8,2:0:0:0:
385,92,119706,2,0,B|432:68|432:68|488:98,1,104.999996795654,2|10,3:2|2:0,2:0:0:0:
510,134,120193,6,0,L|506:255,1,104.999996795654,2|2,3:2|3:2,2:0:0:0:
504,291,120679,1,10,2:0:0:0:
404,257,121004,2,0,L|406:195,2,52.4999983978271,2|2|10,3:2|3:2|2:0,2:0:0:0:
402,309,121490,2,0,P|362:342|297:321,1,104.999996795654,2|2,3:2|3:2,2:0:0:0:
271,301,121977,1,10,2:0:0:0:
275,196,122301,2,0,L|277:134,1,52.4999983978271,2|8,3:2|2:0,2:0:0:0:
277,91,122625,1,8,2:0:0:0:
277,91,122787,6,0,B|231:67|231:67|170:99,1,104.999996795654,10|2,2:0|2:0,2:0:0:0:
143,125,123274,1,10,2:0:0:0:
40,103,123598,2,0,L|44:165,1,52.4999983978271,2|2,3:2|3:2,2:0:0:0:
51,207,123923,1,10,2:0:0:0:
51,207,124085,2,0,P|18:256|36:305,1,104.999996795654,2|2,3:2|3:2,2:0:0:0:
63,336,124571,1,10,2:0:0:0:
168,331,124896,2,0,L|238:326,1,52.4999983978271,2|2,3:2|3:2,2:0:0:0:
276,326,125220,1,10,2:0:0:0:
276,326,125382,6,0,B|321:351|321:351|379:318,1,104.999996795654,2|2,3:2|3:2,2:0:0:0:
415,302,125868,2,0,L|415:239,1,52.4999983978271,10|2,2:0|3:2,2:0:0:0:
413,196,126193,2,0,L|413:133,1,52.4999983978271,10|2,2:0|3:2,2:0:0:0:
411,91,126517,1,10,2:0:0:0:
411,91,126679,1,6,3:2:0:0:
332,21,127004,1,8,0:2:0:0:
332,21,127166,1,8,0:2:0:0:
257,95,127490,2,0,L|257:158,1,52.4999983978271,2|10,3:2|2:0,2:0:0:0:
294,191,127814,1,10,2:0:0:0:
294,191,127977,6,0,B|325:236|325:236|297:292,1,104.999996795654,6|2,3:2|3:2,2:0:0:0:
271,323,128463,1,8,2:0:0:0:
166,327,128787,2,0,L|104:327,1,52.4999983978271,2|2,3:2|3:2,2:0:0:0:
73,301,129112,1,10,2:0:0:0:
73,301,129275,2,0,B|42:256|42:256|70:200,1,104.999996795654,2|2,3:2|3:2,2:0:0:0:
96,169,129761,1,8,2:0:0:0:
62,69,130085,2,0,L|131:69,1,52.4999983978271,2|2,3:2|3:2,2:0:0:0:
170,70,130409,1,10,2:0:0:0:
170,70,130571,6,0,L|275:70,1,104.999996795654,6|2,3:2|3:2,2:0:0:0:
315,36,131058,2,0,B|340:27|340:27|368:37,1,52.4999983978271,14|0,2:0|2:0,2:0:0:0:
407,65,131382,2,0,B|432:74|432:74|460:64,1,52.4999983978271,14|0,2:0|2:0,2:0:0:0:
504,43,131706,1,14,2:0:0:0:
505,148,132031,2,0,L|503:218,1,52.4999983978271,14|0,2:0|2:0,2:0:0:0:
464,235,132355,2,0,L|394:233,1,52.4999983978271,14|0,2:0|2:0,2:0:0:0:
359,232,132679,2,0,L|289:230,1,52.4999983978271,10|2,2:0|3:2,2:0:0:0:
253,228,133004,1,2,3:2:0:0:
253,228,133166,6,0,P|215:259|155:242,1,104.999996795654,6|2,3:2|3:2,2:0:0:0:
125,212,133652,2,0,L|125:155,1,52.4999983978271,10|2,2:0|2:0,2:0:0:0:
125,106,133977,1,2,3:2:0:0:
31,57,134301,2,0,L|31:114,1,52.4999983978271,10|2,2:0|2:0,2:0:0:0:
33,166,134625,1,2,3:2:0:0:
33,166,134787,2,0,L|33:295,1,104.999996795654,2|2,3:2|3:2,2:0:0:0:
35,323,135274,1,2,2:0:0:0:
126,374,135598,1,10,2:0:0:0:
216,320,135923,6,0,L|280:320,1,52.4999983978271,6|2,3:2|3:2,2:0:0:0:
320,320,136247,2,0,L|384:320,1,52.4999983978271,10|2,2:0|3:2,2:0:0:0:
415,289,136571,2,0,L|479:289,2,52.4999983978271,10|2|10,2:0|3:2|2:0,2:0:0:0:
386,244,137058,2,0,P|360:196|391:148,1,104.999996795654,6|2,3:2|3:2,2:0:0:0:
425,127,137544,1,2,3:2:0:0:
342,62,137868,2,0,L|253:62,2,78.7499975967407,8|0|14,2:0|3:2|0:2,2:0:0:0:
146,16,139004,6,0,P|128:55|156:123,1,99.9999999999999,6|0,3:2|2:0,2:0:0:0:
174,145,139490,1,8,2:0:0:0:
126,232,139814,2,0,P|97:222|59:224,2,50,0|0|0,3:0|3:0|2:0,2:0:0:0:
171,252,140301,2,0,B|217:230|217:230|281:263,1,99.9999999999999,8|0,2:0|3:0,2:0:0:0:
300,281,140787,1,8,2:0:0:0:
382,224,141112,6,0,L|382:109,1,99.9999999999999,2|0,3:2|2:0,2:0:0:0:
382,74,141598,1,8,2:0:0:0:
476,39,141923,2,0,L|476:154,1,99.9999999999999,0|8,3:0|2:3,2:0:0:0:
477,242,142571,1,0,3:0:0:0:
477,242,142733,1,14,2:0:0:0:
476,342,143058,2,0,L|418:342,1,50,8|8,2:0|2:0,2:0:0:0:
376,341,143382,2,0,L|318:341,1,50,8|8,2:0|2:0,2:0:0:0:
276,341,143706,6,0,B|230:365|230:365|185:342,1,99.9999999999999,6|0,3:2|3:0,2:0:0:0:
148,310,144193,1,8,2:0:0:0:
53,342,144517,2,0,L|53:285,1,50,0|8,3:0|2:0,2:0:0:0:
109,210,145004,2,0,P|134:205|163:210,2,50,0|0|8,3:0|3:0|2:0,2:0:0:0:
68,181,145490,2,0,P|44:136|72:88,1,99.9999999999999,0|0,3:0|3:0,2:0:0:0:
105,68,145977,1,8,2:0:0:0:
204,68,146301,6,0,L|303:68,1,99.9999999999999,2|0,3:2|2:0,2:0:0:0:
353,68,146787,1,8,2:0:0:0:
384,163,147112,2,0,L|319:163,1,50,0|8,3:0|2:0,2:0:0:0:
234,162,147598,2,0,L|169:162,1,50,8|8,2:0|0:3,2:0:0:0:
133,162,147923,1,8,0:3:0:0:
133,162,148085,1,6,3:2:0:0:
72,241,148409,1,0,3:0:0:0:
72,241,148571,1,8,2:0:0:0:
140,314,148896,6,0,B|185:293|185:293|238:316,1,99.9999999999999,2|8,3:2|2:0,2:0:0:0:
275,336,149382,2,0,B|320:357|320:357|373:334,1,99.9999999999999,0|0,3:0|3:0,2:0:0:0:
412,318,149868,1,8,2:0:0:0:
413,217,150193,2,0,L|481:218,2,50,0|0|8,3:0|3:0|2:0,2:0:0:0:
412,117,150841,1,0,3:0:0:0:
413,16,151166,2,0,L|345:15,1,50,8|8,2:0|2:0,2:0:0:0:
322,44,151490,6,0,P|275:25|229:48,1,99.9999999999999,6|14,3:2|2:0,2:0:0:0:
200,83,151977,2,0,L|200:199,1,99.9999999999999,8|8,2:0|2:0,2:0:0:0:
202,232,152463,1,6,3:2:0:0:
203,335,152787,1,8,2:0:0:0:
203,335,152950,1,0,3:0:0:0:
306,335,153274,1,0,3:0:0:0:
306,335,153436,2,0,L|359:335,1,50,0|0,3:0|3:0,2:0:0:0:
405,336,153760,1,0,3:0:0:0:
451,246,154085,6,0,L|345:246,1,99.9999999999999,14|0,2:0|3:0,2:0:0:0:
301,246,154571,2,0,L|195:246,1,99.9999999999999,14|0,2:0|2:0,2:0:0:0:
151,252,155058,2,0,P|104:274|79:165,1,200,14|8,2:0|2:0,2:0:0:0:
151,104,156031,2,0,L|219:104,1,50,8|8,2:0|2:0,2:0:0:0:
250,104,156355,2,0,L|318:104,1,50,8|8,2:0|2:0,2:0:0:0:
347,104,156679,1,14,2:0:0:0:
445,118,167058,6,0,B|496:75|496:75|481:201,1,189.999994926453,0|8,3:0|2:0,2:0:0:0:
511,287,168031,1,2,2:0:0:0:
457,365,168355,1,2,2:0:0:0:
362,369,168679,1,2,2:0:0:0:
277,324,169004,2,0,L|280:225,1,94.9999974632263,10|0,2:0|2:0,2:0:0:0:
247,202,169490,1,2,2:0:0:0:
247,202,169652,6,0,P|226:157|250:115,1,94.9999974632263,2|2,3:2|2:0,2:0:0:0:
338,101,170301,2,0,L|448:104,1,94.9999974632263,10|0,2:0|2:0,2:0:0:0:
395,16,170950,2,0,L|285:13,1,94.9999974632263,2|0,2:0|2:0,2:0:0:0:
219,64,171598,1,10,2:0:0:0:
138,13,171923,1,0,2:0:0:0:
75,84,172247,6,0,L|83:233,1,142.499996194839,2|2,2:0|3:2,2:0:0:0:
52,316,173058,2,0,L|110:312,1,47.4999987316131,0|2,2:0|2:0,2:0:0:0:
139,338,173382,2,0,P|174:357|224:330,1,94.9999974632263,2|2,2:0|2:0,2:0:0:0:
287,265,174031,1,2,2:3:0:0:
287,265,174193,2,0,L|287:201,1,47.4999987316131,10|2,2:0|3:2,2:0:0:0:
284,170,174517,1,10,2:0:0:0:
280,70,174841,6,0,L|216:70,2,50,14|0|0,2:0|3:0|3:0,2:0:0:0:
334,71,175328,1,14,2:0:0:0:
334,71,175490,2,0,L|398:71,1,50,0|0,3:0|3:0,2:0:0:0:
433,71,175814,1,8,2:0:0:0:
433,71,175977,1,14,2:0:0:0:
495,156,176301,1,8,2:0:0:0:
495,156,176463,1,8,2:0:0:0:
306,339,177274,6,0,B|261:336|261:336|253:340|253:340|203:338,1,104.999996795654,6|2,3:2|3:2,2:0:0:0:
149,335,177760,1,8,2:0:0:0:
49,369,178085,2,0,L|49:304,1,52.4999983978271,2|2,3:2|3:2,2:0:0:0:
48,268,178409,1,10,2:0:0:0:
48,268,178571,2,0,L|48:157,1,104.999996795654,2|2,3:2|3:2,2:0:0:0:
46,110,179058,1,0,2:0:0:0:
85,12,179382,2,0,L|29:12,2,52.4999983978271,2|2|10,3:2|3:2|2:0,2:0:0:0:
125,45,179868,6,0,B|175:24|175:24|230:50,1,104.999996795654,2|2,3:2|3:2,2:0:0:0:
261,79,180355,1,10,2:0:0:0:
261,183,180679,2,0,L|261:251,1,52.4999983978271,2|2,3:2|3:2,2:0:0:0:
263,288,181004,1,10,2:0:0:0:
263,288,181166,2,0,P|312:256|367:286,1,104.999996795654,2|2,3:2|3:2,2:0:0:0:
393,302,181652,1,10,2:0:0:0:
481,359,181977,2,0,L|480:238,1,104.999996795654,2|0,3:2|3:2,2:0:0:0:
481,201,182463,6,0,P|508:160|476:104,1,104.999996795654,10|2,2:0|2:0,2:0:0:0:
444,82,182950,1,10,2:0:0:0:
345,56,183274,2,0,B|302:31|302:31|248:57,1,104.999996795654,2|10,3:2|2:0,2:0:0:0:
208,84,183760,2,0,B|165:109|165:109|111:83,1,104.999996795654,2|2,3:2|3:2,2:0:0:0:
70,57,184247,1,10,2:0:0:0:
21,150,184571,2,0,L|21:217,1,52.4999983978271,2|2,3:2|3:2,2:0:0:0:
24,259,184896,1,10,2:0:0:0:
24,259,185058,6,0,L|136:259,1,104.999996795654,2|2,3:2|3:2,2:0:0:0:
181,260,185544,2,0,L|237:260,1,52.4999983978271,10|0,2:0|3:2,2:0:0:0:
285,258,185868,2,0,L|341:258,1,52.4999983978271,10|0,2:0|3:2,2:0:0:0:
385,232,186193,1,10,2:0:0:0:
385,232,186355,2,0,P|408:181|379:129,1,104.999996795654,6|0,3:2|3:2,2:0:0:0:
345,111,186841,1,0,3:2:0:0:
257,53,187166,2,0,L|257:-14,2,52.4999983978271,2|10|10,3:2|2:0|2:0,2:0:0:0:
209,74,187652,6,0,P|190:128|220:173,1,104.999996795654,6|2,3:2|3:2,2:0:0:0:
249,204,188139,1,14,2:0:0:0:
194,293,188463,2,0,L|131:293,1,52.4999983978271,2|2,3:2|3:2,2:0:0:0:
89,296,188787,1,10,2:0:0:0:
89,296,188950,2,0,P|53:257|79:203,1,104.999996795654,2|2,3:2|3:2,2:0:0:0:
106,177,189436,1,0,2:0:0:0:
69,78,189760,2,0,L|6:78,2,52.4999983978271,2|2|10,3:2|3:2|2:0,2:0:0:0:
115,52,190247,6,0,B|159:27|159:27|216:55,1,104.999996795654,6|2,3:2|3:2,2:0:0:0:
250,80,190733,2,0,L|250:146,1,52.4999983978271,14|0,2:0|3:2,2:0:0:0:
249,185,191058,2,0,L|249:251,1,52.4999983978271,14|0,2:0|3:2,2:0:0:0:
247,289,191382,1,14,2:0:0:0:
341,333,191706,2,0,L|341:267,1,52.4999983978271,14|0,2:0|3:2,2:0:0:0:
340,228,192031,2,0,L|340:162,1,52.4999983978271,14|0,2:0|3:2,2:0:0:0:
341,123,192355,2,0,L|341:57,1,52.4999983978271,10|2,2:0|3:2,2:0:0:0:
381,37,192679,1,2,3:2:0:0:
381,37,192841,6,0,B|425:12|425:12|482:40,1,104.999996795654,6|2,3:2|3:2,2:0:0:0:
503,79,193328,2,0,L|503:145,1,52.4999983978271,10|2,2:0|2:0,2:0:0:0:
503,183,193652,1,2,3:2:0:0:
506,288,193977,2,0,L|440:288,1,52.4999983978271,10|2,2:0|2:0,2:0:0:0:
405,292,194301,1,2,3:2:0:0:
405,292,194463,2,0,P|351:316|310:289,1,104.999996795654,2|2,3:2|3:2,2:0:0:0:
286,250,194950,2,0,L|286:190,1,52.4999983978271,2|0,2:0|3:2,2:0:0:0:
287,145,195274,1,10,2:0:0:0:
340,54,195598,6,0,L|280:54,1,52.4999983978271,6|2,3:2|3:2,2:0:0:0:
235,53,195922,1,10,2:0:0:0:
129,52,196247,2,0,L|129:-8,2,52.4999983978271,10|2|10,2:0|3:2|2:0,2:0:0:0:
154,97,196733,2,0,P|181:139|151:193,1,104.999996795654,2|2,3:2|3:2,2:0:0:0:
132,231,197220,1,0,3:2:0:0:
132,231,197382,2,0,P|105:273|135:327,1,104.999996795654,10|2,2:0|3:2,2:0:0:0:
166,352,197868,1,0,3:2:0:0:
271,349,198193,6,0,L|435:345,1,157.499995193481,6|8,3:2|2:0,2:0:0:0:
480,344,198841,1,2,2:0:0:0:
442,245,199166,1,8,2:0:0:0:
442,245,199328,2,0,L|323:247,1,104.999996795654,2|12,2:0|2:0,2:0:0:0:
284,250,199814,1,2,2:0:0:0:
179,257,200139,2,0,B|153:249|153:249|117:265,1,52.4999983978271,10|10,2:0|2:0,2:0:0:0:
83,283,200463,2,0,B|57:291|57:291|21:275,1,52.4999983978271,8|10,2:0|2:0,2:0:0:0:
2,238,200787,6,0,L|1:131,1,104.999996795654,6|2,3:2|3:2,2:0:0:0:
0,80,201274,1,8,2:0:0:0:
0,80,201436,2,0,L|106:79,1,104.999996795654,2|10,2:0|2:0,2:0:0:0:
157,84,201923,2,0,P|203:107|254:77,1,104.999996795654,6|2,3:2|3:2,2:0:0:0:
331,21,202571,1,10,2:0:0:0:
331,21,202733,2,0,L|398:19,1,52.4999983978271,10|0,2:0|3:2,2:0:0:0:
436,16,203058,1,14,2:0:0:0:
488,106,203382,6,0,L|370:109,1,104.999996795654,12|2,2:0|3:2,2:0:0:0:
343,143,203868,2,0,P|317:187|349:243,1,104.999996795654,14|2,2:0|3:2,2:0:0:0:
370,273,204355,2,0,P|360:336|272:321,1,157.499995193481,14|10,2:0|2:0,2:0:0:0:
202,262,205166,2,0,L|202:207,2,52.4999983978271,2|10|2,3:2|2:0|3:2,2:0:0:0:
168,302,205652,1,10,2:0:0:0:
168,302,205814,6,0,B|11:305|11:305|51:291|72:233,1,236.249992790222,14|0,2:0|2:0,2:0:0:0:
64,249,207436,6,0,L|62:185,1,52.4999983978271,8|8,2:0|2:0,2:0:0:0:
145,131,207923,2,0,L|143:67,1,52.4999983978271,8|8,2:0|2:0,2:0:0:0:
56,29,208409,1,6,3:2:0:0:
