osu file format v14

[General]
AudioFilename: audio.mp3
AudioLeadIn: 0
PreviewTime:48112
Countdown: 0
SampleSet: Soft
StackLeniency: 0.7
Mode: 0
LetterboxInBreaks: 0
WidescreenStoryboard: 1

[Editor]
Bookmarks:156679,167058
DistanceSpacing: 1
BeatDivisor: 4
GridSize: 4
TimelineZoom: 2.799999

[Metadata]
Title:Kaikai Kitan
TitleUnicode:廻廻奇譚
Artist:Osamu
ArtistUnicode:攻
Creator:Nevo
Version:Arc's Insane
Source:呪術廻戦
Tags:vocaloid japanese rock pop jrock jpop cover arc [arc] ozaki senpai Kazarii addy2607 KaedeharaKazuha jujutsu kaisen anime opening sorcery Fight JJK j-rock 鏡音レン kagamine len おさむ eve
BeatmapID:3231615
BeatmapSetID:1397696

[Difficulty]
HPDrainRate:5
CircleSize:4
OverallDifficulty:8
ApproachRate:9
SliderMultiplier:1.4
SliderTickRate:1

[Events]
//Background and Video events
0,0,"len.jpg",0,0
Video,0,"mp3.mp4"
//Break Periods
2,156879,166458
//Storyboard Layer 0 (Background)
//Storyboard Layer 1 (Fail)
//Storyboard Layer 2 (Pass)
//Storyboard Layer 3 (Foreground)
//Storyboard Layer 4 (Overlay)
//Storyboard Sound Samples

[TimingPoints]
2302,324.324324324324,4,2,1,85,1,0
3274,-83.3333333333333,4,2,1,85,0,0
5545,324.324324324324,4,2,1,80,1,0
5545,-83.3333333333333,4,2,1,80,0,0
15436,-133.333333333333,4,2,1,80,0,0
15923,-200,4,2,1,80,0,0
17868,-200,4,2,1,70,0,0
17869,324.324324324324,4,2,1,70,1,0
18193,-133.333333333333,4,2,1,70,0,0
18436,-133.333333333333,4,2,1,5,0,0
18517,-133.333333333333,4,2,1,70,0,0
26787,-66.6666666666667,4,2,1,70,0,0
28247,-66.6666666666667,4,2,1,80,0,0
38463,-83.3333333333333,4,2,1,80,0,0
41301,-83.3333333333333,4,2,1,5,0,0
41382,-83.3333333333333,4,2,1,80,0,0
43814,-200,4,2,1,80,0,0
44950,-125,4,2,1,80,0,0
46409,-66.6666666666667,4,2,1,80,0,0
47787,-66.6666666666667,4,2,1,5,0,0
47868,-66.6666666666667,4,2,1,80,0,0
48841,-52.6315789473684,4,2,1,90,0,0
49328,-62.5,4,2,1,90,0,0
69274,-100,4,2,1,90,0,0
69760,-71.4285714285714,4,2,1,80,0,0
70247,-83.3333333333333,4,2,1,80,0,0
70490,-83.3333333333333,4,2,1,5,0,0
70571,-83.3333333333333,4,2,1,80,0,0
71463,-83.3333333333333,4,2,1,5,0,0
71544,-83.3333333333333,4,2,1,80,0,0
73733,-83.3333333333333,4,2,1,5,0,0
73814,-83.3333333333333,4,2,1,80,0,0
74868,-83.3333333333333,4,2,1,5,0,0
74950,-71.4285714285714,4,2,1,80,0,0
77382,-200,4,2,1,80,0,0
79977,-83.3333333333333,4,2,1,80,0,0
84111,-83.3333333333333,4,2,1,5,0,0
84193,-83.3333333333333,4,2,1,80,0,0
85166,-200,4,2,1,80,0,0
86625,-200,4,2,1,65,0,0
86950,-133.333333333333,4,2,1,65,0,0
94247,-100,4,2,1,65,0,0
95544,-133.333333333333,4,2,1,65,0,0
105923,-399.999999999997,4,2,1,70,0,0
107220,-71.4285714285714,4,2,1,80,0,0
112571,-100,4,2,1,65,0,0
113463,-100,4,2,1,5,0,0
113544,-100,4,2,1,65,0,0
115166,-100,4,2,1,80,0,0
116301,-66.6666666666667,4,2,1,80,0,0
116544,-66.6666666666667,4,2,1,5,0,0
116625,-66.6666666666667,4,2,1,80,0,0
117598,-52.6315789473684,4,2,1,90,0,0
118085,-62.5,4,2,1,90,0,0
139004,-71.4285714285714,4,2,1,90,0,0
139085,-71.4285714285714,4,2,1,70,0,0
151328,-71.4285714285714,4,2,1,75,0,0
151490,-55.5555555555556,4,2,1,75,0,0
151814,-83.3333333333333,4,2,1,75,0,0
154085,-62.5,4,2,1,75,0,0
154571,-83.3333333333333,4,2,1,75,0,0
155058,-62.5,4,2,1,75,0,0
155301,-62.5,4,2,1,5,0,0
155382,-83.3333333333333,4,2,1,75,0,0
156679,-83.3333333333333,4,2,1,60,0,0
167058,-200,4,2,1,60,0,0
168031,-133.333333333333,4,2,1,60,0,0
169652,-200,4,2,1,60,0,0
170625,-100,4,2,1,60,0,0
172247,-133.333333333333,4,2,1,60,0,0
173220,-100,4,2,1,60,0,0
174031,-100,4,2,1,70,0,0
174841,-55.5555555555556,4,2,1,80,0,0
177274,-50,4,2,1,90,0,0
177760,-62.5,4,2,1,90,0,0
184003,-62.5,4,2,1,5,0,0
184085,-62.5,4,2,1,90,0,0
186355,-55.5555555555556,4,2,1,90,0,0
186598,-55.5555555555556,4,2,1,5,0,0
186679,-62.5,4,2,1,90,0,0
187652,-55.5555555555556,4,2,1,90,0,0
188139,-62.5,4,2,1,90,0,0
197706,-100,4,2,1,90,0,0
198193,-71.4285714285714,4,2,1,80,0,0
198922,-71.4285714285714,4,2,1,5,0,0
199004,-71.4285714285714,4,2,1,80,0,0
203301,-71.4285714285714,4,2,1,5,0,0
203382,-62.5,4,2,1,80,0,0
205814,-166.666666666667,4,2,1,80,0,0
208409,-83.3333333333333,4,2,1,80,0,0

[Colours]
Combo1 : 155,155,255
Combo2 : 43,155,168
Combo3 : 226,213,44

[HitObjects]
123,136,2302,5,14,2:0:0:0:
156,26,2464,1,0,3:2:0:0:
156,26,2626,1,0,3:2:0:0:
198,187,2788,5,10,2:0:0:0:
76,67,2950,1,0,3:2:0:0:
76,67,3112,1,0,3:2:0:0:
237,109,3274,6,0,L|342:80,1,83.9999974365235,14|0,2:0|2:0,2:0:0:0:
317,86,3599,1,0,3:2:0:0:
438,39,3761,6,0,L|406:126,1,83.9999974365235,14|0,2:0|2:0,2:0:0:0:
409,118,4085,1,0,3:2:0:0:
375,279,4247,5,10,2:0:0:0:
327,180,4491,5,10,2:0:0:0:
346,364,4734,5,10,2:0:0:0:
346,364,5545,6,0,P|285:342|251:356,1,83.9999974365235,6|0,3:2|2:0,2:0:0:0:
162,382,5869,1,8,2:0:0:0:
105,273,6031,2,0,L|195:295,1,83.9999974365235,0|2,2:0|3:2,2:0:0:0:
209,194,6355,1,0,3:2:0:0:
209,194,6517,1,8,2:0:0:0:
112,113,6680,6,0,P|62:140|25:167,1,83.9999974365235,2|0,3:2|2:0,2:0:0:0:
166,14,7004,1,0,3:2:0:0:
166,14,7166,2,0,P|215:35|257:47,1,83.9999974365235,10|0,2:0|2:0,2:0:0:0:
260,41,7409,1,8,2:0:0:0:
270,35,7490,1,0,3:2:0:0:
305,136,7653,1,0,3:2:0:0:
422,73,7815,5,10,2:0:0:0:
422,73,7977,2,0,L|376:250,1,167.999994873047,2|0,3:2|2:0,2:0:0:0:
485,333,8463,2,0,P|491:275|473:249,1,83.9999974365235,10|0,2:0|2:0,2:0:0:0:
466,256,8707,1,8,2:0:0:0:
454,263,8788,1,0,3:2:0:0:
361,310,8950,1,0,3:2:0:0:
273,223,9112,5,10,2:0:0:0:
177,192,9274,2,0,P|190:132|204:19,1,167.999994873047,2|0,3:2|2:0,2:0:0:0:
28,139,9761,2,0,P|54:213|61:239,1,83.9999974365235,10|0,2:0|3:2,2:0:0:0:
121,329,10085,2,0,B|89:361|89:361|42:348,1,83.9999974365235,2|8,3:2|2:0,2:0:0:0:
126,248,10328,5,8,2:0:0:0:
138,252,10409,2,0,L|206:268,1,41.9999987182618,8|8,2:0|2:0,2:0:0:0:
231,322,10572,1,8,2:0:0:0:
246,318,10653,1,8,2:0:0:0:
266,314,10734,6,0,L|351:294,1,83.9999974365235,6|0,3:2|2:0,2:0:0:0:
438,361,11058,1,10,2:0:0:0:
503,238,11220,2,0,P|462:231|405:206,1,83.9999974365235,0|0,2:0|3:2,2:0:0:0:
408,101,11544,1,0,3:2:0:0:
408,101,11707,1,10,2:0:0:0:
308,156,11869,6,0,P|262:170|218:190,1,83.9999974365235,2|0,3:2|2:0,2:0:0:0:
133,59,12193,1,0,3:2:0:0:
133,59,12355,2,0,P|202:67|207:101,1,83.9999974365235,10|0,2:0|2:0,2:0:0:0:
209,86,12599,1,8,2:0:0:0:
212,100,12680,1,0,3:2:0:0:
154,175,12842,1,0,3:2:0:0:
231,264,13004,5,10,2:0:0:0:
231,264,13166,2,0,L|400:239,1,167.999994873047,2|0,3:2|2:0,2:0:0:0:
491,182,13653,5,10,2:0:0:0:
410,319,13815,1,0,3:2:0:0:
340,172,13977,1,10,2:0:0:0:
340,172,14139,1,0,3:2:0:0:
414,232,14301,5,10,2:0:0:0:
334,367,14463,2,0,L|160:328,1,167.999994873047,6|8,3:2|0:2,2:0:0:0:
37,299,14950,5,8,0:2:0:0:
126,203,15112,1,0,3:2:0:0:
126,203,15193,1,8,2:0:0:0:
126,203,15274,1,8,2:0:0:0:
52,102,15436,2,0,L|4:111,2,26.2500010013581,0|0|0,2:0|3:2|3:2,2:0:0:0:
154,25,15761,5,0,3:2:0:0:
154,25,15842,1,0,3:2:0:0:
154,25,15923,2,0,B|213:113|225:274|225:274|277:187|328:152,1,420,6|0,3:2|3:2,2:0:0:0:
433,135,18031,5,2,2:0:0:0:
430,216,18193,2,0,P|428:254|422:293,1,78.7500030040742,2|0,3:2|0:0,2:0:0:0:
413,317,18517,2,0,P|428:364|491:363,1,105.000004005432,2|2,3:2|3:2,2:0:0:0:
337,260,19004,6,0,P|299:270|225:293,1,105.000004005432,2|2,2:0|2:0,2:0:0:0:
182,346,19490,2,0,P|142:329|110:319,1,52.5000020027161,2|0,3:2|2:0,2:0:0:0:
58,302,19814,5,2,3:2:0:0:
80,227,19977,1,2,2:0:0:0:
0,65,20301,5,2,2:0:0:0:
32,133,20463,2,0,P|77:119|140:99,1,105.000004005432,2|2,3:2|3:2,2:0:0:0:
197,139,20950,2,0,B|253:157|227:189|284:211,1,105.000004005432,2|2,2:0|2:0,2:0:0:0:
347,193,21436,1,2,3:2:0:0:
416,76,21598,6,0,P|370:70|339:114,1,105.000004005432,2|2,2:0|2:0,2:0:0:0:
347,193,22085,2,0,L|420:187,1,52.5000020027161,2|2,3:2|2:0,2:0:0:0:
331,270,22409,2,0,L|213:245,2,105.000004005432,2|2|0,3:2|3:2|3:2,2:0:0:0:
176,303,23220,5,2,2:0:0:0:
115,262,23382,2,0,P|107:232|131:156,1,105.000004005432,2|2,3:2|3:2,2:0:0:0:
111,79,23868,2,0,P|172:100|235:113,1,105.000004005432,2|2,2:0|2:0,2:0:0:0:
304,53,24355,6,0,P|348:44|378:42,1,52.5000020027161,2|0,3:2|2:0,2:0:0:0:
405,100,24679,1,2,3:2:0:0:
482,75,24841,2,0,P|491:42|481:12,1,52.5000020027161,2|0,2:0|3:2,2:0:0:0:
401,180,25166,1,2,2:0:0:0:
401,180,25328,2,0,P|414:214|427:233,1,52.5000020027161,2|2,3:2|2:0,2:0:0:0:
414,328,25652,6,0,L|294:293,1,105.000004005432,2|0,3:2|2:0,2:0:0:0:
313,298,26139,1,0,2:0:0:0:
241,344,26301,1,2,3:2:0:0:
67,175,26625,5,2,3:2:0:0:
147,214,26787,2,0,B|169:126|169:126|194:106|194:106|213:17,1,210.000008010865,14|2,2:0|3:2,2:0:0:0:
233,22,27193,1,8,2:0:0:0:
248,27,27274,1,2,3:2:0:0:
339,56,27436,1,0,3:2:0:0:
445,35,27598,5,10,2:0:0:0:
269,122,27760,1,10,2:0:0:0:
269,122,28247,5,6,3:2:0:0:
414,181,28409,1,0,2:0:0:0:
341,269,28571,2,0,L|333:159,1,105.000004005432,10|0,2:0|3:2,2:0:0:0:
222,251,28896,5,2,3:2:0:0:
203,330,29058,2,0,P|163:321|139:249,1,105.000004005432,2|0,3:2|2:0,2:0:0:0:
95,152,29382,6,0,P|152:164|206:171,1,105.000004005432,10|2,2:0|2:0,2:0:0:0:
84,32,29706,1,0,2:0:0:0:
21,86,29868,2,0,L|10:199,1,105.000004005432,10|2,2:0|2:0,2:0:0:0:
198,170,30193,6,0,B|220:121|220:121|190:73,1,105.000004005432,2|2,3:2|3:2,2:0:0:0:
387,214,30679,6,0,B|355:114|355:114|422:17,1,210.000008010865,10|2,2:0|3:2,2:0:0:0:
468,203,31166,1,10,2:0:0:0:
332,274,31328,5,2,2:0:0:0:
332,274,31409,1,10,2:0:0:0:
332,274,31490,1,2,3:2:0:0:
361,353,31652,2,0,L|473:369,1,105.000004005432,2|2,3:2|2:0,2:0:0:0:
253,234,31977,6,0,P|209:269|140:277,1,105.000004005432,10|0,2:0|2:0,2:0:0:0:
15,257,32301,1,2,3:2:0:0:
79,347,32463,2,0,L|95:223,1,105.000004005432,10|2,2:0|2:0,2:0:0:0:
97,221,32706,5,2,2:0:0:0:
97,221,32787,1,2,3:2:0:0:
59,127,32950,1,0,3:0:0:0:
182,71,33112,2,0,P|131:57|80:48,1,105.000004005432,10|0,2:0|2:0,2:0:0:0:
229,162,33436,5,0,3:2:0:0:
358,74,33598,1,2,2:0:0:0:
322,218,33760,2,0,L|292:98,1,105.000004005432,10|0,2:0|3:0,2:0:0:0:
284,104,34004,5,0,3:0:0:0:
284,104,34085,1,2,3:2:0:0:
429,110,34247,2,0,P|462:157|441:204,1,105.000004005432,2|0,3:2|2:0,2:0:0:0:
371,320,34571,6,0,P|316:301|255:287,1,105.000004005432,10|2,2:0|2:0,2:0:0:0:
158,344,34896,1,0,2:0:0:0:
102,279,35058,2,0,P|163:252|213:282,1,105.000004005432,10|2,2:0|2:0,2:0:0:0:
195,180,35382,6,0,B|213:125|213:125|194:77,1,105.000004005432,0|2,3:2|3:2,2:0:0:0:
196,82,35706,1,2,2:0:0:0:
40,213,35868,6,0,B|3:105|3:105|55:5,1,210.000008010865,8|2,2:0|3:2,2:0:0:0:
112,169,36355,1,8,2:0:0:0:
268,148,36517,5,2,2:0:0:0:
268,148,36598,1,8,2:0:0:0:
268,148,36679,1,2,3:2:0:0:
315,235,36841,2,0,L|438:265,1,105.000004005432,0|2,3:2|2:0,2:0:0:0:
474,89,37166,6,0,P|429:135|433:176,1,105.000004005432,10|0,2:0|2:0,2:0:0:0:
502,284,37490,1,2,3:2:0:0:
389,354,37652,2,0,L|253:321,1,105.000004005432,14|2,2:0|2:0,2:0:0:0:
264,325,37896,5,10,2:0:0:0:
263,325,37977,1,2,3:2:0:0:
160,356,38139,1,0,2:0:0:0:
83,228,38301,5,2,3:2:0:0:
172,262,38463,2,0,P|197:185|244:73,1,167.999994873047,6|0,3:2|3:0,2:0:0:0:
90,24,38950,6,0,P|139:52|141:90,1,83.9999974365235,8|0,2:0|3:0,2:0:0:0:
133,97,39193,1,0,3:2:0:0:
121,106,39274,2,0,P|78:129|32:148,1,83.9999974365235,0|2,3:2|3:2,2:0:0:0:
185,167,39598,5,10,2:0:0:0:
268,186,39760,1,2,3:2:0:0:
362,126,39923,6,0,P|369:182|379:239,1,83.9999974365235,2|2,3:2|3:2,2:0:0:0:
471,110,40247,2,0,P|494:71|469:26,1,83.9999974365235,10|2,2:0|2:0,2:0:0:0:
451,30,40490,5,0,3:2:0:0:
436,34,40571,2,0,P|347:25|325:20,1,83.9999974365235,2|0,3:2|2:0,2:0:0:0:
259,10,40896,1,10,2:0:0:0:
200,102,41058,6,0,P|223:165|241:252,1,125.999996154785,2|0,3:2|0:0,2:0:0:0:
234,245,41382,1,2,3:2:0:0:
337,355,41544,6,0,P|361:320|327:269,1,83.9999974365235,8|0,2:0|2:0,2:0:0:0:
333,272,41787,1,0,3:2:0:0:
330,286,41868,2,0,P|376:300|444:322,1,83.9999974365235,0|2,3:2|3:2,2:0:0:0:
448,200,42193,5,10,2:0:0:0:
420,114,42355,1,2,3:2:0:0:
307,82,42517,6,0,P|266:96|211:102,1,83.9999974365235,2|2,2:0|3:2,2:0:0:0:
86,89,42841,2,0,P|143:129|174:171,1,83.9999974365235,10|2,2:0|2:0,2:0:0:0:
150,160,43085,5,8,2:0:0:0:
144,181,43166,1,10,2:0:0:0:
85,248,43328,1,2,3:2:0:0:
104,336,43490,1,0,3:2:0:0:
194,358,43652,1,2,3:2:0:0:
313,265,43814,6,0,B|382:268|363:335|427:344,1,140,6|0,2:0|2:0,2:0:0:0:
292,348,44787,5,2,2:0:0:0:
292,348,44950,2,0,P|392:305|467:276,1,168,2|2,2:0|2:0,2:0:0:0:
320,157,45598,5,2,3:2:0:0:
320,157,45679,1,0,3:2:0:0:
320,157,45760,1,10,2:0:0:0:
407,210,45923,1,2,3:2:0:0:
335,64,46085,1,2,3:2:0:0:
220,181,46247,1,2,3:2:0:0:
44,140,46409,6,0,P|103:124|160:117,1,105.000004005432,14|2,2:0|3:2,2:0:0:0:
20,59,46733,1,2,3:2:0:0:
119,292,46896,6,0,P|59:276|3:269,1,105.000004005432,14|2,2:0|3:2,2:0:0:0:
143,211,47220,1,2,3:2:0:0:
246,374,47382,5,10,2:0:0:0:
284,231,47544,2,0,P|346:211|453:189,1,157.500006008148,6|0,3:2|0:0,2:0:0:0:
463,198,47868,6,0,P|466:224|455:262,1,52.5000020027161,8|0,2:0|2:0,2:0:0:0:
390,91,48031,2,0,P|384:60|393:27,1,52.5000020027161,0|0,3:2|2:0,2:0:0:0:
502,0,48841,6,0,B|488:68|488:68|278:16,1,265.999992897034,6|2,3:2|3:2,2:0:0:0:
152,31,49328,2,0,P|186:66|182:132,1,112,8|2,2:0|2:0,2:0:0:0:
87,267,49652,1,2,3:2:0:0:
87,267,49814,1,2,3:2:0:0:
27,182,49977,1,10,2:0:0:0:
169,201,50139,6,0,P|276:230|381:270,1,224,2|2,3:2|3:2,2:0:0:0:
495,151,50625,2,0,P|453:132|406:170,1,112,8|2,2:0|2:0,2:0:0:0:
415,188,50868,1,8,2:0:0:0:
423,203,50950,1,2,3:2:0:0:
321,157,51112,1,2,3:2:0:0:
359,65,51274,1,10,2:0:0:0:
198,46,51436,6,0,P|219:142|237:271,1,224,2|2,3:2|3:2,2:0:0:0:
90,356,51923,2,0,P|106:276|117:234,1,112,10|2,2:0|2:0,2:0:0:0:
127,244,52166,1,8,2:0:0:0:
143,239,52247,1,2,3:2:0:0:
116,125,52409,1,2,3:2:0:0:
25,150,52571,1,10,2:0:0:0:
186,166,52733,6,0,P|248:167|288:130,1,112,2|0,3:2|2:0,2:0:0:0:
365,34,53058,1,2,3:2:0:0:
479,139,53220,2,0,L|353:110,1,112,10|0,2:0|2:0,2:0:0:0:
213,80,53544,5,2,3:2:0:0:
310,182,53706,1,0,3:0:0:0:
310,182,53787,1,2,3:0:0:0:
310,182,53868,2,0,L|298:247,1,56,8|8,0:2|0:0,2:0:0:0:
240,288,54031,2,0,L|253:353,1,56,10|8,0:0|0:0,2:0:0:0:
327,376,54193,6,0,P|229:358|193:385,1,112,2|2,3:2|2:0,2:0:0:0:
59,348,54517,2,0,P|123:330|143:282,1,112,10|2,2:0|2:0,2:0:0:0:
108,175,54841,1,2,3:2:0:0:
108,175,55004,1,0,3:0:0:0:
222,211,55166,1,10,2:0:0:0:
221,58,55328,6,0,P|110:77|0:90,1,224,2|2,3:2|3:2,2:0:0:0:
311,18,55814,2,0,P|298:93|289:150,1,112,10|2,2:0|2:0,2:0:0:0:
307,140,56058,1,8,2:0:0:0:
317,151,56139,1,2,3:2:0:0:
393,191,56301,1,2,3:2:0:0:
456,126,56463,1,10,2:0:0:0:
323,232,56625,2,0,P|334:285|345:344,1,112,2|0,3:2|2:0,2:0:0:0:
154,184,56950,5,2,3:2:0:0:
195,349,57112,2,0,P|205:293|214:235,1,112,10|0,2:0|3:2,2:0:0:0:
36,84,57436,2,0,P|128:104|168:116,1,112,10|0,2:0|3:0,2:0:0:0:
230,144,57760,1,10,2:0:0:0:
358,33,57923,6,0,B|316:64|316:64|339:196|339:196|300:223,1,224,6|0,3:2|3:2,2:0:0:0:
253,16,58409,1,0,3:2:0:0:
418,101,58571,1,10,2:0:0:0:
418,101,58652,1,10,2:0:0:0:
418,101,58733,1,0,3:2:0:0:
307,217,58896,6,0,L|318:148,1,56,10|8,2:0|2:0,2:0:0:0:
218,252,59058,2,0,L|238:324,1,56,10|8,2:0|2:0,2:0:0:0:
295,378,59220,6,0,P|225:327|87:326,1,224,6|2,3:2|3:2,2:0:0:0:
13,188,59706,2,0,B|60:226|60:226|137:216,1,112,8|2,2:0|2:0,2:0:0:0:
120,205,59950,1,0,3:0:0:0:
127,192,60031,1,2,3:2:0:0:
164,101,60193,1,2,3:2:0:0:
77,63,60355,1,10,2:0:0:0:
221,176,60517,6,0,P|292:160|393:50,1,224,2|2,3:2|3:2,2:0:0:0:
512,211,61004,2,0,P|465:189|393:164,1,112,8|10,2:0|2:0,2:0:0:0:
412,185,61247,1,8,2:0:0:0:
414,201,61328,1,2,3:2:0:0:
437,289,61490,1,2,3:2:0:0:
361,345,61652,1,10,2:0:0:0:
244,249,61814,6,0,P|326:258|390:277,1,112,6|0,3:2|2:0,2:0:0:0:
169,346,62139,1,2,3:2:0:0:
124,217,62301,2,0,P|68:230|8:236,1,112,14|0,2:0|2:0,2:0:0:0:
258,68,62625,6,0,B|286:119|286:119|255:189,1,112,14|0,2:0|2:0,2:0:0:0:
105,126,62950,2,0,P|107:78|161:38,1,112,14|0,2:0|2:0,2:0:0:0:
334,41,63274,5,14,2:0:0:0:
192,103,63436,1,0,2:0:0:0:
416,189,63598,5,14,2:0:0:0:
295,146,63760,1,0,2:0:0:0:
295,146,63841,1,0,2:0:0:0:
295,146,63923,2,0,P|335:145|350:150,1,56,10|8,2:0|2:0,2:0:0:0:
451,267,64085,5,2,3:2:0:0:
420,280,64166,1,0,3:2:0:0:
391,274,64247,1,2,3:2:0:0:
369,261,64328,1,0,3:2:0:0:
351,242,64409,6,0,B|280:224|247:280|267:341|199:372|135:353,1,224,6|2,3:2|3:2,2:0:0:0:
18,240,64896,2,0,P|76:256|126:276,1,112,10|2,2:0|2:0,2:0:0:0:
171,211,65139,1,0,2:0:0:0:
176,201,65220,2,0,P|170:144|109:118,1,112,2|2,3:2|3:2,2:0:0:0:
92,22,65544,1,10,2:0:0:0:
92,22,65706,1,2,2:0:0:0:
217,51,65868,6,0,L|344:8,1,112,2|2,3:2|3:2,2:0:0:0:
481,119,66193,1,8,2:0:0:0:
397,90,66355,1,2,3:2:0:0:
330,200,66517,2,0,P|339:263|344:327,1,112,2|0,2:0|3:2,2:0:0:0:
422,185,66841,1,10,2:0:0:0:
250,271,67004,5,8,2:0:0:0:
250,271,67085,1,8,2:0:0:0:
250,271,67166,2,0,P|186:269|145:199,1,112,6|2,3:2|3:2,2:0:0:0:
258,80,67490,5,10,2:0:0:0:
226,171,67652,1,2,3:2:0:0:
173,47,67814,1,10,2:0:0:0:
309,5,67977,1,2,3:2:0:0:
140,134,68139,5,10,2:0:0:0:
36,47,68301,2,0,L|289:84,1,224,2|2,3:2|3:2,2:0:0:0:
439,107,68787,5,2,3:2:0:0:
356,210,68950,1,10,2:0:0:0:
356,210,69031,1,8,2:0:0:0:
356,210,69112,1,8,2:0:0:0:
434,316,69274,2,0,L|491:324,2,35,2|0|0,3:2|3:2|3:2,2:0:0:0:
364,370,69598,1,2,3:2:0:0:
268,256,69760,6,0,B|234:242|174:275|203:312|143:351|79:314,1,195.999994018555,6|0,3:2|3:2,2:0:0:0:
0,192,70247,2,0,P|64:213|140:233,1,125.999996154785,8|0,2:0|0:0,2:0:0:0:
122,244,70571,1,2,3:2:0:0:
209,147,70733,6,0,B|182:58|182:58|274:23,1,167.999994873047,8|0,2:0|2:0,2:0:0:0:
377,135,71220,2,0,P|345:178|356:251,1,125.999996154785,14|0,2:0|0:0,2:0:0:0:
374,252,71544,1,0,3:2:0:0:
506,223,71706,5,10,2:0:0:0:
506,223,71787,1,8,2:0:0:0:
506,223,71868,2,0,L|517:157,1,41.9999987182618,10|8,2:0|2:0,2:0:0:0:
458,301,72031,1,8,2:0:0:0:
458,301,72112,1,8,2:0:0:0:
458,301,72193,2,0,L|465:367,1,41.9999987182618,10|8,2:0|2:0,2:0:0:0:
342,373,72355,6,0,P|270:323|188:276,1,167.999994873047,6|2,3:2|3:2,2:0:0:0:
110,205,72841,2,0,P|30:218|3:293,1,167.999994873047,8|0,2:0|2:0,2:0:0:0:
107,301,73328,1,10,2:0:0:0:
201,183,73490,6,0,P|197:119|186:44,1,125.999996154785,6|0,3:2|0:0,2:0:0:0:
174,42,73814,1,2,3:2:0:0:
278,103,73977,1,8,2:0:0:0:
368,0,74139,5,10,2:0:0:0:
368,0,74220,1,8,2:0:0:0:
368,0,74301,1,10,2:0:0:0:
284,27,74463,1,0,3:2:0:0:
330,168,74625,2,0,L|458:123,1,125.999996154785,14|0,2:0|0:0,2:0:0:0:
465,122,74950,6,0,P|485:191|458:237,1,97.9999970092774,12|0,2:0|2:0,2:0:0:0:
429,286,75274,1,2,3:2:0:0:
322,368,75436,6,0,P|234:328|193:315,1,97.9999970092774,14|0,2:0|2:0,2:0:0:0:
157,334,75760,1,2,3:2:0:0:
22,223,75923,6,0,P|96:179|154:260,1,195.999994018555,14|0,2:0|3:2,2:0:0:0:
249,190,76409,1,10,2:0:0:0:
249,190,76571,1,2,3:2:0:0:
289,276,76733,1,2,3:2:0:0:
404,163,76896,6,0,L|516:190,1,97.9999970092774,10|2,2:0|3:2,2:0:0:0:
386,255,77220,1,10,2:0:0:0:
359,71,77382,6,0,B|263:78|184:122|184:122|219:57|229:-1,1,315,14|0,2:0|2:0,2:0:0:0:
228,0,79004,5,8,2:0:0:0:
275,171,79166,1,8,2:0:0:0:
56,240,79490,5,8,2:0:0:0:
73,138,79652,1,8,2:0:0:0:
188,333,79977,6,0,B|234:306|283:319|268:356|313:381|365:353,1,167.999994873047,6|0,3:2|3:0,2:0:0:0:
407,231,80463,1,10,2:0:0:0:
469,294,80625,2,0,P|462:357|460:395,1,83.9999974365235,0|0,2:0|3:0,2:0:0:0:
512,183,80950,2,0,P|502:132|492:91,1,83.9999974365235,0|8,3:0|2:0,2:0:0:0:
383,59,81274,6,0,P|342:92|295:73,1,83.9999974365235,2|0,2:0|2:0,2:0:0:0:
216,29,81598,1,0,3:0:0:0:
216,29,81760,2,0,P|210:78|193:134,1,83.9999974365235,8|0,2:0|3:0,2:0:0:0:
190,119,82004,1,8,2:0:0:0:
175,126,82085,1,0,3:0:0:0:
91,92,82247,1,0,3:0:0:0:
50,184,82409,5,8,2:0:0:0:
50,184,82571,2,0,P|80:260|113:356,1,167.999994873047,2|0,3:2|3:0,2:0:0:0:
262,288,83058,5,8,2:0:0:0:
234,371,83220,1,0,3:0:0:0:
204,228,83382,1,8,2:0:0:0:
343,265,83544,1,0,3:0:0:0:
428,158,83706,5,8,2:0:0:0:
317,189,83868,2,0,L|286:33,1,125.999996154785,6|0,3:2|0:0,2:0:0:0:
311,46,84193,5,8,2:0:0:0:
212,15,84355,1,8,2:0:0:0:
195,118,84517,1,8,2:0:0:0:
195,118,84598,1,8,2:0:0:0:
195,118,84679,2,0,P|158:135|111:129,2,83.9999974365235,8|0|0,2:0|3:0|3:0,2:0:0:0:
11,161,85166,6,0,B|53:232|75:345|75:345|99:283|142:242,1,315,6|2,3:2|3:2,2:0:0:0:
260,280,86950,6,0,L|250:344,1,52.5000020027161,2|0,2:0|2:0,2:0:0:0:
344,281,87274,2,0,L|328:376,2,78.7500030040742,2|2|2,2:0|2:0|2:0,2:0:0:0:
428,212,87923,5,2,2:0:0:0:
428,212,88085,2,0,P|483:206|497:145,1,105.000004005432,0|2,2:0|2:0,2:0:0:0:
431,70,88571,1,2,2:0:0:0:
431,70,88733,2,0,P|362:106|333:131,1,105.000004005432,0|2,2:0|2:0,2:0:0:0:
205,131,89220,6,0,P|253:162|252:221,1,105.000004005432,2|2,3:2|2:0,2:0:0:0:
134,174,89706,1,0,2:0:0:0:
134,174,89868,2,0,L|118:76,2,78.7500030040742,2|2|2,2:0|2:0|2:0,2:0:0:0:
35,239,90517,5,2,2:0:0:0:
35,239,90679,2,0,P|77:273|101:336,1,105.000004005432,0|2,2:0|2:0,2:0:0:0:
206,297,91166,1,2,2:0:0:0:
206,297,91328,2,0,B|240:327|240:327|314:306,1,105.000004005432,0|2,2:0|2:0,2:0:0:0:
366,211,91814,6,0,B|322:257|322:257|315:365,1,157.500006008148,2|0,3:2|2:0,2:0:0:0:
507,322,93274,6,0,L|445:308,1,52.5000020027161,2|0,3:2|2:0,2:0:0:0:
419,241,93598,1,2,3:2:0:0:
364,325,93760,1,8,2:0:0:0:
364,325,93923,2,0,L|292:340,1,52.5000020027161,2|0,3:2|2:0,2:0:0:0:
239,207,94247,6,0,L|169:186,1,70,2|0,2:0|3:2,2:0:0:0:
125,262,94571,2,0,L|52:275,1,70,2|0,2:0|2:0,2:0:0:0:
10,172,94896,6,0,P|23:124|11:78,1,70,0|8,3:2|2:0,2:0:0:0:
106,37,95220,1,2,2:0:0:0:
106,37,95544,6,0,P|162:60|216:75,1,105.000004005432,2|2,2:0|2:0,2:0:0:0:
245,142,96031,2,0,P|267:128|294:119,1,52.5000020027161,2|0,2:0|2:0,2:0:0:0:
339,176,96355,2,0,P|363:196|448:179,1,105.000004005432,2|2,2:0|2:0,2:0:0:0:
510,42,96841,5,0,3:2:0:0:
413,7,97004,2,0,P|424:48|438:126,1,105.000004005432,0|2,3:2|2:0,2:0:0:0:
438,185,97490,1,0,2:0:0:0:
366,261,97652,6,0,P|389:294|458:281,2,105.000004005432,10|2|2,2:0|2:0|2:0,2:0:0:0:
274,307,98463,1,0,2:0:0:0:
226,245,98625,2,0,P|195:254|158:270,1,52.5000020027161,2|0,2:0|2:0,2:0:0:0:
119,337,98950,2,0,P|85:319|32:300,1,78.7500030040742,10|2,2:0|2:0,2:0:0:0:
15,303,99274,2,0,L|19:369,1,52.5000020027161,2|0,2:0|2:0,2:0:0:0:
86,215,99598,6,0,L|100:95,1,105.000004005432,2|2,3:2|2:0,2:0:0:0:
98,110,100085,1,0,2:0:0:0:
77,18,100247,2,0,L|36:-7,2,35.0000013351441,2|0|0,2:0|2:0|2:0,2:0:0:0:
164,46,100571,2,0,L|242:23,1,70.0000026702882,2|0,2:0|2:0,2:0:0:0:
298,68,100896,6,0,L|317:131,1,52.5000020027161,2|0,2:0|2:0,2:0:0:0:
408,103,101220,1,2,2:0:0:0:
389,210,101382,1,0,2:0:0:0:
389,210,101544,2,0,L|376:274,1,52.5000020027161,10|0,2:0|2:0,2:0:0:0:
349,372,101868,6,0,L|308:363,3,26.2500010013581,2|0|0|0,2:0|2:0|2:0|2:0,2:0:0:0:
303,331,102193,2,0,P|240:348|182:345,1,105.000004005432,2|0,3:2|2:0,2:0:0:0:
200,347,102679,1,2,3:2:0:0:
149,275,102841,5,8,2:0:0:0:
149,275,103004,2,0,L|163:216,1,52.5000020027161,2|0,2:0|2:0,2:0:0:0:
235,188,103328,2,0,L|220:121,1,52.5000020027161,2|0,2:0|2:0,2:0:0:0:
156,29,103652,6,0,P|194:11|228:10,1,52.5000020027161,2|0,3:2|2:0,2:0:0:0:
272,47,103977,1,2,3:2:0:0:
381,8,104139,1,8,2:0:0:0:
381,8,104301,2,0,P|369:62|365:113,1,105.000004005432,2|2,3:2|2:0,2:0:0:0:
376,128,104706,5,0,2:0:0:0:
385,137,104787,1,0,3:2:0:0:
463,216,104950,2,0,P|420:227|389:238,1,52.5000020027161,2|0,2:0|2:0,2:0:0:0:
376,297,105274,1,0,3:2:0:0:
295,363,105436,2,0,P|250:338|196:315,1,105.000004005432,8|0,2:0|2:0,2:0:0:0:
72,253,105923,6,0,P|108:277|116:336,1,105,2|2,2:0|2:0,2:0:0:0:
116,334,107058,1,0,3:2:0:0:
199,151,107220,6,0,L|-8:181,1,195.999994018555,6|2,3:2|3:2,2:0:0:0:
209,56,107706,2,0,L|113:37,1,97.9999970092774,8|0,2:0|3:0,2:0:0:0:
97,24,107950,1,0,3:2:0:0:
97,24,108031,2,0,P|55:40|55:104,1,97.9999970092774,0|0,3:2|3:2,2:0:0:0:
170,243,108355,1,8,2:0:0:0:
261,218,108517,1,2,3:2:0:0:
179,349,108679,6,0,P|239:358|290:371,1,97.9999970092774,2|2,3:2|3:2,2:0:0:0:
387,295,109004,2,0,P|408:238|386:203,1,97.9999970092774,10|2,2:0|2:0,2:0:0:0:
371,196,109247,1,0,2:0:0:0:
371,196,109328,2,0,P|375:132|380:87,1,97.9999970092774,0|2,3:2|3:2,2:0:0:0:
436,35,109652,1,10,2:0:0:0:
219,33,109814,6,0,P|275:40|299:90,1,97.9999970092774,6|0,3:2|2:0,2:0:0:0:
101,102,110139,1,2,3:2:0:0:
101,102,110301,2,0,P|160:114|211:128,1,97.9999970092774,8|0,2:0|2:0,2:0:0:0:
209,148,110544,1,0,3:2:0:0:
209,148,110625,2,0,P|191:200|184:249,1,97.9999970092774,0|2,3:2|3:2,2:0:0:0:
165,384,110950,5,8,2:0:0:0:
91,343,111112,1,2,3:2:0:0:
303,343,111274,2,0,P|266:312|210:319,1,97.9999970092774,2|0,3:2|3:0,2:0:0:0:
84,353,111598,2,0,L|61:242,1,97.9999970092774,10|2,2:0|2:0,2:0:0:0:
44,243,111841,5,8,2:0:0:0:
31,232,111923,1,10,2:0:0:0:
35,126,112085,1,2,3:2:0:0:
132,90,112247,1,8,2:0:0:0:
213,149,112409,1,2,3:2:0:0:
349,76,112571,6,0,P|334:135|318:229,1,140,6|2,3:2|2:0,2:0:0:0:
309,289,113058,1,2,3:2:0:0:
393,365,113220,2,0,P|422:323|400:258,1,105,8|0,2:0|0:0,2:0:0:0:
402,265,113544,1,0,3:0:0:0:
501,40,113868,5,0,2:0:0:0:
451,131,114031,1,8,2:0:0:0:
383,80,114193,1,0,3:0:0:0:
383,80,114274,1,8,2:0:0:0:
383,80,114355,2,0,L|330:73,1,35,8|8,2:0|2:0,2:0:0:0:
241,45,114517,6,0,P|257:86|267:131,1,70,10|0,2:0|2:0,2:0:0:0:
183,239,114841,1,10,0:0:0:0:
144,155,115004,1,2,3:2:0:0:
112,280,115166,5,14,2:0:0:0:
260,199,115328,1,0,2:0:0:0:
260,199,115490,1,2,3:2:0:0:
355,318,115652,5,14,2:0:0:0:
183,239,115814,1,0,2:0:0:0:
183,239,115977,1,2,3:2:0:0:
275,373,116139,5,14,2:0:0:0:
437,295,116301,2,0,P|442:215|457:108,1,157.500006008148,6|0,2:0|0:0,2:0:0:0:
451,114,116625,6,0,P|417:118|387:132,1,52.5000020027161,10|0,2:0|2:0,2:0:0:0:
317,24,116787,2,0,P|342:27|367:37,1,52.5000020027161,10|0,2:0|2:0,2:0:0:0:
196,185,117598,6,0,B|144:19|144:19|94:131,1,265.999992897034,6|2,3:2|3:2,2:0:0:0:
109,261,118085,2,0,P|155:291|196:329,1,112,8|2,2:0|2:0,2:0:0:0:
356,277,118409,5,2,3:2:0:0:
315,355,118571,1,2,3:2:0:0:
294,214,118733,1,10,2:0:0:0:
445,278,118896,6,0,P|450:222|486:43,1,224,2|2,3:2|3:2,2:0:0:0:
381,15,119382,2,0,P|292:35|286:88,1,112,8|2,2:0|2:0,2:0:0:0:
293,71,119625,1,8,2:0:0:0:
297,90,119706,1,2,3:2:0:0:
203,150,119868,1,2,3:2:0:0:
119,86,120031,1,10,2:0:0:0:
8,165,120193,6,0,B|69:182|74:256|25:279|33:345|98:371,1,224,2|2,3:2|3:2,2:0:0:0:
223,293,120679,2,0,P|285:319|281:376,1,112,10|2,2:0|2:0,2:0:0:0:
276,368,120923,1,8,2:0:0:0:
260,373,121004,1,2,3:2:0:0:
361,293,121166,1,2,3:2:0:0:
437,316,121328,1,10,2:0:0:0:
364,166,121490,6,0,L|483:133,1,112,2|0,3:2|2:0,2:0:0:0:
455,228,121814,1,2,3:2:0:0:
377,77,121977,2,0,P|309:57|264:83,1,112,10|0,2:0|2:0,2:0:0:0:
191,144,122301,5,2,3:2:0:0:
113,61,122463,1,8,2:0:0:0:
113,61,122544,1,10,2:0:0:0:
113,61,122625,2,0,L|182:73,1,56,8|8,2:0|2:0,2:0:0:0:
205,147,122787,2,0,L|190:215,1,56,10|8,2:0|2:0,2:0:0:0:
124,275,122950,6,0,P|104:215|83:162,1,112,6|2,3:2|2:0,2:0:0:0:
71,343,123274,2,0,P|125:375|173:354,1,112,10|2,2:0|2:0,2:0:0:0:
278,290,123598,1,2,3:2:0:0:
359,331,123760,1,2,3:2:0:0:
450,221,123923,5,10,2:0:0:0:
450,221,124085,2,0,P|351:278|249:372,1,224,2|2,3:2|3:2,2:0:0:0:
204,198,124571,2,0,P|249:158|302:179,1,112,10|2,2:0|2:0,2:0:0:0:
301,188,124814,1,8,2:0:0:0:
305,200,124896,1,2,3:2:0:0:
394,158,125058,1,2,3:2:0:0:
359,65,125220,1,10,2:0:0:0:
209,81,125382,6,0,L|87:49,1,112,2|0,3:2|2:0,2:0:0:0:
11,197,125706,1,2,3:2:0:0:
11,197,125868,2,0,P|78:158|119:187,1,112,10|2,2:0|3:2,2:0:0:0:
241,356,126193,2,0,P|180:332|169:286,1,112,10|2,2:0|3:2,2:0:0:0:
204,198,126517,1,10,2:0:0:0:
475,297,126679,6,0,B|368:293|368:293|353:284|353:284|246:278,1,224,6|8,3:2|0:2,2:0:0:0:
412,216,127166,1,8,0:2:0:0:
327,370,127328,1,10,2:0:0:0:
327,370,127409,1,10,2:0:0:0:
327,370,127490,1,2,3:2:0:0:
293,179,127652,6,0,P|329:157|356:157,1,56,10|8,2:0|2:0,2:0:0:0:
381,87,127814,2,0,P|424:98|444:115,1,56,10|8,2:0|2:0,2:0:0:0:
479,176,127977,6,0,B|428:47|428:47|532:-3,1,224,6|2,3:2|3:2,2:0:0:0:
299,83,128463,1,8,2:0:0:0:
209,14,128625,1,2,2:0:0:0:
209,14,128706,1,8,2:0:0:0:
209,14,128787,2,0,P|199:92|189:133,1,112,2|2,3:2|3:2,2:0:0:0:
138,262,129112,1,10,2:0:0:0:
43,189,129274,6,0,B|111:155|172:205|124:251|196:297|257:271,1,224,2|2,3:2|3:2,2:0:0:0:
377,162,129760,2,0,P|317:164|286:204,1,112,8|10,2:0|2:0,2:0:0:0:
294,217,130004,1,8,2:0:0:0:
300,231,130085,1,2,3:2:0:0:
339,325,130247,1,2,3:2:0:0:
479,248,130409,5,10,2:0:0:0:
479,248,130571,2,0,L|514:15,1,224,6|2,3:2|3:2,2:0:0:0:
343,4,131058,2,0,P|363:62|380:122,1,112,14|0,2:0|2:0,2:0:0:0:
325,178,131301,1,2,3:2:0:0:
321,186,131382,2,0,P|270:157|200:172,1,112,14|0,2:0|2:0,2:0:0:0:
178,232,131625,1,2,3:2:0:0:
173,243,131706,2,0,P|112:262|66:235,1,112,14|0,2:0|2:0,2:0:0:0:
63,45,132031,5,14,2:0:0:0:
125,175,132193,1,0,2:0:0:0:
195,0,132355,5,14,2:0:0:0:
172,105,132517,1,0,2:0:0:0:
172,105,132598,1,0,3:2:0:0:
172,105,132679,2,0,L|247:124,1,56,10|8,2:0|2:0,2:0:0:0:
337,180,132841,5,2,3:2:0:0:
338,209,132923,1,0,3:2:0:0:
326,238,133004,1,2,3:2:0:0:
301,258,133085,1,0,3:2:0:0:
275,262,133166,6,0,L|326:22,1,224,6|2,3:2|3:2,2:0:0:0:
478,22,133652,2,0,P|493:91|461:127,1,112,10|2,2:0|2:0,2:0:0:0:
457,124,133896,1,0,2:0:0:0:
442,117,133977,1,2,3:2:0:0:
504,198,134139,1,2,3:2:0:0:
406,245,134301,2,0,P|459:267|512:298,1,112,10|2,2:0|2:0,2:0:0:0:
319,341,134625,5,2,3:2:0:0:
261,196,134787,1,2,3:2:0:0:
149,294,134950,2,0,P|218:285|263:272,1,112,8|2,2:0|3:2,2:0:0:0:
336,152,135274,6,0,L|345:36,1,112,2|0,2:0|3:0,2:0:0:0:
418,171,135598,1,10,2:0:0:0:
260,32,135760,1,8,2:0:0:0:
260,32,135841,1,8,2:0:0:0:
260,32,135923,5,6,3:2:0:0:
107,86,136085,1,2,3:2:0:0:
81,7,136247,1,10,2:0:0:0:
220,105,136409,1,2,3:2:0:0:
145,167,136571,5,10,2:0:0:0:
173,24,136733,1,2,3:2:0:0:
246,207,136896,1,10,2:0:0:0:
64,257,137058,6,0,B|147:278|147:278|184:325|184:325|279:346,1,224,6|2,3:2|3:2,2:0:0:0:
378,236,137544,1,2,3:2:0:0:
446,330,137706,1,10,2:0:0:0:
446,330,137787,1,8,2:0:0:0:
446,330,137868,5,8,2:0:0:0:
439,121,138112,5,0,3:2:0:0:
246,207,138355,6,0,L|311:222,1,56,14|0,0:2|2:0,2:0:0:0:
246,207,139004,6,0,P|198:267|83:209,1,195.999994018555,6|0,3:2|2:0,2:0:0:0:
203,102,139490,2,0,P|282:114|321:122,1,97.9999970092774,8|0,2:0|2:0,2:0:0:0:
127,42,139814,5,0,3:0:0:0:
207,11,139977,1,0,3:0:0:0:
207,11,140301,2,0,P|312:26|416:44,1,195.999994018555,8|0,2:0|3:0,2:0:0:0:
483,119,140787,2,0,P|514:62|500:18,1,97.9999970092774,8|0,2:0|2:0,2:0:0:0:
388,147,141112,5,2,3:2:0:0:
388,147,141436,1,0,2:0:0:0:
364,236,141598,2,0,P|384:289|411:354,1,97.9999970092774,8|0,2:0|2:0,2:0:0:0:
296,174,141923,2,0,P|234:163|170:157,1,97.9999970092774,0|0,3:0|3:0,2:0:0:0:
388,147,142247,5,8,2:3:0:0:
388,147,142571,1,0,3:0:0:0:
290,297,142733,1,14,2:0:0:0:
290,297,143058,2,0,P|234:298|207:241,1,97.9999970092774,8|8,2:0|2:0,2:0:0:0:
197,241,143301,1,8,2:0:0:0:
175,227,143382,1,8,2:0:0:0:
148,225,143463,1,8,2:0:0:0:
122,236,143544,1,8,2:0:0:0:
109,256,143625,1,8,2:0:0:0:
102,277,143706,6,0,P|121:353|125:382,1,97.9999970092774,6|0,3:2|2:0,2:0:0:0:
21,246,144031,1,0,3:0:0:0:
34,170,144193,2,0,P|48:115|61:73,1,97.9999970092774,8|0,2:0|2:0,2:0:0:0:
11,247,144517,1,0,3:0:0:0:
22,167,144679,2,0,P|36:112|49:70,1,97.9999970092774,8|0,2:0|2:0,2:0:0:0:
242,86,145004,6,0,P|305:108|351:128,1,97.9999970092774,0|0,3:0|3:0,2:0:0:0:
175,24,145328,1,8,2:0:0:0:
259,0,145490,1,0,3:0:0:0:
259,0,145814,1,0,3:0:0:0:
212,161,145977,2,0,P|255:203|301:192,1,97.9999970092774,8|0,2:0|2:0,2:0:0:0:
473,159,146301,6,0,P|417:185|366:214,1,97.9999970092774,2|0,3:2|3:0,2:0:0:0:
385,202,146787,2,0,P|413:266|435:325,1,97.9999970092774,8|0,2:0|2:0,2:0:0:0:
391,109,147112,1,0,3:0:0:0:
321,264,147274,1,8,2:0:0:0:
213,218,147436,5,8,2:0:0:0:
213,218,147517,1,8,2:0:0:0:
213,218,147598,1,8,2:0:0:0:
241,312,147760,1,8,0:3:0:0:
149,346,147923,1,8,0:3:0:0:
62,201,148085,6,0,P|99:106|156:-6,1,195.999994018555,6|0,3:2|3:0,2:0:0:0:
47,0,148571,2,0,P|9:45|28:87,1,97.9999970092774,8|0,2:0|3:0,2:0:0:0:
123,126,148814,5,0,3:0:0:0:
133,129,148896,2,0,P|205:116|249:104,1,97.9999970092774,2|0,3:2|3:0,2:0:0:0:
291,40,149220,1,8,2:0:0:0:
330,138,149382,2,0,P|318:199|313:256,1,97.9999970092774,0|0,3:0|3:0,2:0:0:0:
282,45,149706,1,0,3:0:0:0:
378,11,149868,1,8,2:0:0:0:
512,142,150112,5,0,3:0:0:0:
505,145,150193,2,0,P|450:128|395:107,1,97.9999970092774,0|0,3:0|3:0,2:0:0:0:
427,229,150517,1,8,2:0:0:0:
348,274,150679,2,0,P|336:318|378:370,1,97.9999970092774,0|0,3:0|3:0,2:0:0:0:
439,225,151004,1,0,3:0:0:0:
350,184,151166,1,8,2:0:0:0:
263,148,151328,1,8,2:0:0:0:
263,148,151409,1,8,2:0:0:0:
263,148,151490,6,0,P|210:158|129:187,1,125.999996154785,6|8,3:2|2:0,2:0:0:0:
41,143,151733,1,8,2:0:0:0:
41,143,151814,2,0,P|40:90|79:70,1,83.9999974365235,14|8,2:0|2:0,2:0:0:0:
96,73,152058,1,8,2:0:0:0:
96,73,152139,2,0,L|87:135,1,41.9999987182618,2|8,3:2|2:0,2:0:0:0:
79,222,152301,1,8,2:0:0:0:
84,240,152382,1,8,2:0:0:0:
90,257,152463,1,6,3:2:0:0:
153,344,152625,5,8,2:0:0:0:
158,328,152706,1,8,2:0:0:0:
163,311,152787,2,0,L|219:295,3,41.9999987182618,8|0|0|0,2:0|3:0|3:0|3:0,2:0:0:0:
231,228,153112,2,0,L|281:256,3,41.9999987182618,0|0|0|0,3:0|3:0|3:0|3:0,2:0:0:0:
341,224,153436,2,0,L|357:279,3,41.9999987182618,0|0|0|0,3:0|3:0|3:0|3:0,2:0:0:0:
422,298,153760,2,0,L|393:348,3,41.9999987182618,0|0|0|0,3:0|3:0|3:0|3:0,2:0:0:0:
309,358,154085,6,0,P|337:208|349:114,1,224,14|0,2:0|3:0,2:0:0:0:
272,54,154571,2,0,B|269:-12|382:-33|397:47,1,167.999994873047,14|0,2:0|2:0,2:0:0:0:
242,156,155058,2,0,B|200:135|152:155|162:206|114:219|49:191,1,168,14|0,2:0|0:0,2:0:0:0:
66,196,155382,6,0,P|55:150|41:121,2,55.9999982910157,8|10|8,3:0|2:0|2:0,2:0:0:0:
41,299,155706,2,0,P|7:327|-18:361,2,55.9999982910157,8|8|8,2:0|2:0|2:0,2:0:0:0:
143,269,156031,2,0,P|192:282|246:309,1,83.9999974365235,8|8,2:0|2:0,2:0:0:0:
222,295,156517,1,8,2:0:0:0:
114,369,156679,5,14,2:0:0:0:
335,269,167058,6,0,L|381:257,3,35,0|2|2|2,3:0|2:0|2:0|2:0,2:0:0:0:
437,306,167706,1,8,2:0:0:0:
437,306,168031,2,0,P|366:291|263:283,1,157.500006008148,2|0,2:0|2:0,2:0:0:0:
281,283,168841,1,0,2:0:0:0:
201,319,169004,2,0,B|192:288|192:288|196:261,1,52.5000020027161,10|0,2:0|2:0,2:0:0:0:
107,124,169652,6,0,L|61:136,3,35,2|2|2|2,3:2|2:0|2:0|2:0,2:0:0:0:
0,92,170301,1,10,2:0:0:0:
0,92,170625,2,0,B|60:98|84:174|22:209|69:273|91:269,1,210,0|0,2:0|2:0,2:0:0:0:
80,266,171436,1,2,3:2:0:0:
164,204,171598,1,10,2:0:0:0:
164,204,171760,2,0,P|237:199|279:254,1,140,0|2,2:0|2:0,2:0:0:0:
242,342,172247,6,0,P|189:337|137:337,1,105.000004005432,2|2,2:0|2:0,2:0:0:0:
318,368,172733,1,2,3:2:0:0:
369,308,172896,2,0,P|376:263|377:242,1,52.5000020027161,0|0,2:0|2:0,2:0:0:0:
469,355,173220,6,0,P|461:280|451:140,1,210,2|2,2:0|2:0,2:0:0:0:
451,145,174031,2,0,L|475:191,1,35,2|2,2:3|2:3,2:0:0:0:
398,51,174193,5,10,2:0:0:0:
354,145,174355,1,2,3:2:0:0:
305,21,174517,5,10,2:0:0:0:
357,160,174679,1,2,3:2:0:0:
178,230,174841,6,0,P|114:212|41:199,1,125.999996154785,14|0,2:0|3:0,2:0:0:0:
216,331,175166,1,0,3:0:0:0:
281,202,175328,5,14,2:0:0:0:
221,345,175490,1,0,3:0:0:0:
162,133,175652,1,0,3:0:0:0:
340,308,175814,5,8,2:0:0:0:
118,338,175977,1,14,2:0:0:0:
118,338,176058,1,0,2:0:0:0:
118,338,176139,1,0,2:0:0:0:
118,338,176220,1,0,0:0:0:0:
118,338,176301,6,0,P|125:298|136:269,1,62.9999980773926,8|0,2:0|2:0,2:0:0:0:
14,187,176463,2,0,P|30:231|35:266,1,62.9999980773926,8|0,2:0|2:0,2:0:0:0:
512,230,177274,6,0,B|384:210|384:210|371:198|371:198|226:176,1,280,6|2,3:2|3:2,2:0:0:0:
145,83,177760,2,0,P|167:33|225:41,1,112,8|0,2:0|2:0,2:0:0:0:
119,190,178085,1,2,3:2:0:0:
33,216,178247,1,2,3:2:0:0:
5,132,178409,1,10,2:0:0:0:
155,275,178571,6,0,B|212:304|270:283|255:230|315:209|383:235,1,224,2|2,3:2|3:2,2:0:0:0:
469,291,179058,2,0,B|481:350|481:350|439:387,1,112,0|0,2:0|2:0,2:0:0:0:
383,318,179301,1,8,2:0:0:0:
377,311,179382,2,0,L|415:198,1,112,2|2,3:2|3:2,2:0:0:0:
441,101,179706,1,10,2:0:0:0:
315,13,179868,6,0,P|402:80|512:90,1,224,2|2,3:2|3:2,2:0:0:0:
318,135,180355,2,0,P|257:162|206:155,1,112,10|0,2:0|2:0,2:0:0:0:
203,138,180598,1,8,2:0:0:0:
194,120,180679,1,2,3:2:0:0:
96,78,180841,1,2,3:2:0:0:
40,162,181004,1,10,2:0:0:0:
48,295,181166,6,0,P|128:321|176:342,1,112,2|0,3:2|2:0,2:0:0:0:
247,372,181490,1,2,3:2:0:0:
346,265,181652,1,10,2:0:0:0:
256,286,181814,1,0,2:0:0:0:
401,329,181977,1,2,3:2:0:0:
461,196,182139,5,8,2:0:0:0:
462,172,182220,1,10,2:0:0:0:
461,147,182301,1,0,3:2:0:0:
455,124,182382,1,8,2:0:0:0:
446,98,182463,1,10,2:0:0:0:
431,78,182544,1,8,2:0:0:0:
411,58,182625,6,0,P|344:83|195:122,1,224,2|10,3:2|2:0,2:0:0:0:
101,54,183112,1,2,2:0:0:0:
22,102,183274,2,0,P|9:159|41:210,1,112,2|0,3:2|3:2,2:0:0:0:
87,343,183598,5,10,2:0:0:0:
87,343,183760,2,0,P|114:265|150:180,1,168,2|0,3:2|0:0,2:0:0:0:
169,174,184085,1,2,3:2:0:0:
247,238,184247,1,10,2:0:0:0:
349,118,184409,1,0,2:0:0:0:
349,118,184490,1,0,2:0:0:0:
349,118,184571,1,2,3:2:0:0:
267,150,184733,1,2,3:2:0:0:
379,267,184896,5,10,2:0:0:0:
465,237,185058,2,0,P|476:119|493:5,1,224,2|2,3:2|3:2,2:0:0:0:
379,267,185544,6,0,P|366:202|357:143,1,112,10|0,2:0|3:2,2:0:0:0:
326,339,185868,2,0,P|296:289|269:237,1,112,10|0,2:0|3:2,2:0:0:0:
194,97,186193,1,10,2:0:0:0:
2,139,186355,6,0,B|58:106|125:123|91:182|169:208|218:187,1,188.999994232178,6|0,3:2|0:0,2:0:0:0:
201,192,186679,2,0,P|176:223|155:260,1,56,0|0,3:2|3:0,2:0:0:0:
155,321,186841,2,0,P|183:372|191:388,1,56,0|0,3:2|3:0,2:0:0:0:
264,301,187004,5,10,2:0:0:0:
264,301,187085,1,10,2:0:0:0:
264,301,187166,1,2,3:2:0:0:
360,197,187328,1,10,2:0:0:0:
390,187,187409,1,8,2:0:0:0:
422,186,187490,1,10,2:0:0:0:
456,206,187571,1,8,2:0:0:0:
473,226,187652,6,0,B|355:250|355:250|351:259|351:259|220:283,1,251.999992309571,6|2,3:2|3:2,2:0:0:0:
99,149,188139,2,0,P|156:185|200:192,1,112,14|0,2:0|2:0,2:0:0:0:
270,60,188463,1,2,3:2:0:0:
182,104,188625,1,2,3:2:0:0:
145,16,188787,1,10,2:0:0:0:
358,24,188950,6,0,L|315:255,1,224,2|2,3:2|3:2,2:0:0:0:
241,350,189436,2,0,B|279:388|279:388|335:373,1,112,0|10,2:0|2:0,2:0:0:0:
234,263,189679,1,0,2:0:0:0:
221,260,189760,2,0,P|158:268|97:286,1,112,2|2,3:2|3:2,2:0:0:0:
42,209,190085,1,10,2:0:0:0:
99,68,190247,6,0,L|139:199,1,112,6|0,3:2|2:0,2:0:0:0:
239,5,190571,1,2,3:2:0:0:
239,5,190733,2,0,L|222:135,1,112,14|0,2:0|3:2,2:0:0:0:
332,86,190977,5,2,3:2:0:0:
341,81,191058,2,0,P|341:140|292:202,1,112,14|0,2:0|3:2,2:0:0:0:
408,200,191301,5,2,3:2:0:0:
416,196,191382,2,0,P|392:250|323:288,1,112,14|0,2:0|3:2,2:0:0:0:
299,358,191625,5,2,3:2:0:0:
289,351,191706,2,0,P|233:320|173:315,1,112,14|0,2:0|3:2,2:0:0:0:
116,258,191950,5,2,3:2:0:0:
107,263,192031,2,0,P|69:280|48:284,3,56,14|0|0|0,2:0|2:0|3:2|3:2,2:0:0:0:
25,184,192355,5,10,2:0:0:0:
22,158,192436,1,8,2:0:0:0:
25,136,192517,1,2,3:2:0:0:
36,114,192598,1,0,3:2:0:0:
51,100,192679,2,0,P|99:111|119:120,1,56,2|0,3:2|3:2,2:0:0:0:
194,182,192841,6,0,B|216:73|216:73|334:95,1,224,6|2,3:2|3:2,2:0:0:0:
414,162,193328,1,10,2:0:0:0:
381,24,193490,1,2,2:0:0:0:
381,24,193571,1,0,2:0:0:0:
381,24,193652,1,2,3:2:0:0:
459,70,193814,1,2,3:2:0:0:
332,183,193977,2,0,L|362:296,1,112,10|2,2:0|2:0,2:0:0:0:
382,383,194301,5,2,3:2:0:0:
452,286,194463,1,2,3:2:0:0:
276,282,194625,1,8,2:0:0:0:
276,282,194787,2,0,P|218:294|153:309,1,112,2|2,3:2|2:0,2:0:0:0:
70,337,195112,1,0,3:2:0:0:
112,226,195274,1,10,2:0:0:0:
0,113,195436,5,8,2:0:0:0:
0,113,195517,1,8,2:0:0:0:
0,113,195598,1,6,3:2:0:0:
20,234,195760,1,2,3:2:0:0:
115,60,195923,1,10,2:0:0:0:
75,153,196085,1,2,3:2:0:0:
48,0,196247,1,10,2:0:0:0:
207,44,196409,1,2,3:2:0:0:
164,134,196571,5,10,2:0:0:0:
317,95,196733,2,0,L|474:58,1,112,2|2,3:2|2:0,2:0:0:0:
340,262,197058,5,2,3:2:0:0:
248,227,197220,1,0,3:2:0:0:
217,316,197382,1,10,2:0:0:0:
217,316,197463,1,8,2:0:0:0:
217,316,197544,1,8,2:0:0:0:
367,185,197706,2,0,L|381:140,2,35,2|0|0,3:2|3:2|3:2,2:0:0:0:
465,285,198031,5,2,3:2:0:0:
465,285,198112,1,0,2:0:0:0:
465,285,198193,2,0,P|452:344|323:365,1,195.999994018555,6|0,3:2|3:2,2:0:0:0:
248,227,198679,2,0,P|258:168|266:73,1,146.999995513916,8|0,2:0|0:0,2:0:0:0:
256,60,199004,1,2,3:2:0:0:
102,130,199166,6,0,P|133:188|179:323,1,195.999994018555,8|0,2:0|3:0,2:0:0:0:
72,353,199652,1,12,2:0:0:0:
72,353,199977,1,0,3:2:0:0:
14,258,200139,5,10,2:0:0:0:
24,252,200220,1,8,2:0:0:0:
34,246,200301,1,10,2:0:0:0:
45,143,200463,1,8,2:0:0:0:
60,139,200544,1,8,2:0:0:0:
73,137,200625,1,10,2:0:0:0:
87,134,200706,1,8,2:0:0:0:
97,132,200787,6,0,B|152:128|194:187|152:210|174:267|230:283,1,195.999994018555,6|2,3:2|3:2,2:0:0:0:
336,341,201274,2,0,B|361:294|361:294|331:230,1,97.9999970092774,8|2,2:0|2:0,2:0:0:0:
299,177,201598,1,0,2:0:0:0:
416,110,201760,5,10,2:0:0:0:
416,110,201923,2,0,P|329:137|227:163,1,195.999994018555,6|2,3:2|3:2,2:0:0:0:
90,46,202409,2,0,P|144:42|172:86,1,97.9999970092774,8|10,2:0|2:0,2:0:0:0:
167,89,202652,1,8,2:0:0:0:
161,103,202733,2,0,P|97:125|46:135,1,97.9999970092774,10|0,2:0|3:2,2:0:0:0:
37,239,203058,2,0,P|74:294|109:378,1,146.999995513916,14|0,2:0|0:0,2:0:0:0:
114,384,203382,6,0,P|147:340|227:364,1,112,12|0,2:0|2:0,2:0:0:0:
275,380,203706,1,2,3:2:0:0:
422,265,203868,6,0,P|361:279|287:296,1,112,14|0,2:0|2:0,2:0:0:0:
257,230,204193,1,2,3:2:0:0:
92,112,204355,6,0,P|181:128|316:162,1,224,14|0,2:0|3:2,2:0:0:0:
449,35,204841,1,10,2:0:0:0:
372,70,205004,1,2,3:2:0:0:
409,142,205166,1,2,3:2:0:0:
312,4,205328,6,0,P|255:22|195:46,1,112,10|2,2:0|3:2,2:0:0:0:
0,68,205652,1,10,2:0:0:0:
0,68,205814,2,0,B|76:79|210:161|210:161|179:90|192:10,1,377.999988464356,14|0,2:0|2:0,2:0:0:0:
191,17,207436,5,8,2:0:0:0:
372,70,207598,1,8,2:0:0:0:
160,233,207923,5,8,2:0:0:0:
42,259,208085,1,8,2:0:0:0:
308,364,208409,6,0,B|290:321|313:276|349:296|356:245|343:206,1,167.999994873047,6|0,3:2|2:0,2:0:0:0:
233,61,208896,1,0,2:0:0:0:
278,127,209058,2,0,P|345:119|387:105,1,83.9999974365235,0|0,2:0|2:0,2:0:0:0:
474,161,209382,5,0,2:0:0:0:
474,161,209544,1,0,2:0:0:0:
447,248,209706,2,0,P|398:231|361:225,1,83.9999974365235,0|0,2:0|2:0,2:0:0:0:
281,258,210031,2,0,P|231:268|186:267,1,83.9999974365235,0|0,2:0|2:0,2:0:0:0:
63,132,210355,5,0,2:0:0:0:
63,132,210436,1,0,2:0:0:0:
63,132,210517,1,0,2:0:0:0:
145,167,210679,1,0,2:0:0:0:
187,88,210841,1,0,2:0:0:0:
39,223,211004,6,0,P|63:295|84:393,1,167.999994873047,0|0,2:0|2:0,2:0:0:0:
186,254,211490,2,0,P|174:304|170:348,1,83.9999974365235,0|0,2:0|2:0,2:0:0:0:
309,237,211814,2,0,P|306:182|296:141,1,83.9999974365235,0|0,2:0|2:0,2:0:0:0:
383,291,212139,1,0,2:0:0:0:
475,164,212301,6,0,B|514:185|514:185|375:211,1,167.999994873047,0|0,2:0|2:0,2:0:0:0:
233,110,212787,1,0,2:0:0:0:
352,78,212950,1,0,2:0:0:0:
352,78,213031,1,0,2:0:0:0:
352,78,213112,1,0,2:0:0:0:
220,211,213274,1,0,2:0:0:0:
131,158,213436,1,0,2:0:0:0:
20,205,213598,5,0,2:0:0:0:
256,192,213679,12,0,215706,2:0:0:0:
