osu file format v14

[General]
AudioFilename: audio.mp3
AudioLeadIn: 0
PreviewTime: 1709
Countdown: 0
SampleSet: None
StackLeniency: 0.7
Mode: 0
LetterboxInBreaks: 0
WidescreenStoryboard: 0

[Editor]
DistanceSpacing: 1.8
BeatDivisor: 4
GridSize: 16
TimelineZoom: 2.3

[Metadata]
Title:NO-LIMIT (TV Size)
TitleUnicode:NO-LIMIT (TV Size)
Artist:Osaka Shunkashuto
ArtistUnicode:大阪☆春夏秋冬
Creator:kundschafter98
Version:hitsounds
Source:Fairy Tail Final Series
Tags:NoPengoo Demsteg Hakashii SSFW Spring Summer Fall Winter japanese vocalist Erza Gray Natsu OP opening 25 barks
BeatmapID:2052555
BeatmapSetID:980772

[Difficulty]
HPDrainRate:5
CircleSize:5
OverallDifficulty:5
ApproachRate:5
SliderMultiplier:1.4
SliderTickRate:1

[Events]
//Background and Video events
0,0,"pog.jpg",0,0
//Break Periods
//Storyboard Layer 0 (Background)
//Storyboard Layer 1 (Fail)
//Storyboard Layer 2 (Pass)
//Storyboard Layer 3 (Foreground)
//Storyboard Sound Samples
Sample,1867,0,"normal-hitfinish.wav",60
Sample,7077,0,"normal-hitfinish.wav",60
Sample,9603,0,"normal-hitfinish.wav",60
Sample,10393,0,"soft-hitclap2.wav",70
Sample,12288,0,"soft-hitclap2.wav",70
Sample,12919,0,"soft-hitclap2.wav",70
Sample,14656,0,"normal-hitfinish.wav",50
Sample,14814,0,"soft-hitclap2.wav",70
Sample,20972,0,"normal-hitfinish.wav",70
Sample,67709,0,"normal-hitfinish.wav",70

[TimingPoints]
310,315.789473684211,4,3,1,60,1,0

[HitObjects]
92,157,467,5,0,3:0:0:0:
92,157,546,5,0,3:0:0:0:
208,60,625,5,8,3:1:0:0:
208,60,783,5,8,3:1:0:0:
208,60,862,5,8,3:1:0:0:
208,60,941,5,8,3:1:0:0:
208,60,1099,5,8,3:1:0:0:
208,60,1178,5,8,3:1:0:0:
208,60,1257,5,8,3:1:0:0:
208,60,1336,5,8,3:2:0:0:
320,176,1415,1,8,3:2:0:0:
368,160,1494,1,8,3:2:0:0:
92,157,1573,5,0,3:0:0:0:
92,157,1652,5,0,3:0:0:0:
252,174,1731,1,4,0:3:0:0:
150,239,2046,5,0,3:0:0:0:
204,55,2204,5,8,3:1:0:0:
150,239,2520,5,2,3:0:0:0:
150,239,2678,5,0,3:0:0:0:
204,55,2836,5,8,3:1:0:0:
150,239,3152,5,2,3:0:0:0:
150,239,3310,5,0,3:0:0:0:
204,55,3467,5,8,3:1:0:0:
150,239,3783,5,2,3:0:0:0:
150,239,3941,5,0,3:0:0:0:
204,55,4099,5,8,3:1:0:0:
150,239,4415,5,2,3:0:0:0:
150,239,4573,5,0,3:0:0:0:
204,55,4731,5,8,3:1:0:0:
233,159,4888,1,0,3:0:0:0:
150,239,5046,5,0,3:0:0:0:
150,239,5204,5,0,3:0:0:0:
204,55,5362,5,8,3:1:0:0:
150,239,5678,5,2,3:0:0:0:
150,239,5836,5,0,3:0:0:0:
204,55,5994,5,10,3:1:0:0:
150,239,6310,5,2,3:0:0:0:
150,239,6467,5,0,3:0:0:0:
204,55,6625,5,8,3:1:0:0:
320,160,6783,1,2,3:0:0:0:
150,239,6941,5,4,3:0:0:0:
150,239,7099,5,0,3:0:0:0:
204,55,7257,5,8,3:1:0:0:
150,239,7573,5,2,3:0:0:0:
150,239,7731,5,0,3:0:0:0:
204,55,7888,5,8,3:1:0:0:
129,126,8046,1,0,0:0:0:0:
150,239,8204,5,2,3:0:0:0:
150,239,8362,5,0,3:0:0:0:
204,55,8520,5,8,3:1:0:0:
204,55,8836,5,10,3:1:0:0:
204,55,8994,5,8,3:1:0:0:
204,55,9152,5,8,3:1:0:0:
204,55,9310,5,8,3:1:0:0:
320,192,9467,1,6,3:0:0:0:
197,229,9625,5,2,3:0:0:0:
199,55,9783,5,8,3:1:0:0:
197,229,9941,5,2,3:0:0:0:
197,229,10257,5,2,3:0:0:0:
77,65,10415,5,0,3:0:0:0:
171,136,10573,5,8,3:1:0:0:
95,172,10888,5,2,3:0:0:0:
23,138,11046,5,12,3:1:0:0:
384,112,11204,1,2,3:0:0:0:
133,244,11362,5,2,3:0:0:0:
171,136,11520,5,2,3:0:0:0:
254,145,11678,5,8,3:1:0:0:
197,229,11994,5,2,3:0:0:0:
197,229,12152,5,2,3:0:0:0:
199,55,12310,5,8,3:1:0:0:
197,229,12467,5,2,3:0:0:0:
197,229,12783,5,2,3:0:0:0:
77,65,12941,5,0,3:0:0:0:
171,136,13099,5,8,3:1:0:0:
95,172,13415,5,2,3:0:0:0:
23,138,13573,5,8,3:1:0:0:
238,211,13731,5,2,3:0:0:0:
23,138,13888,5,12,3:1:0:0:
328,155,14046,5,8,3:1:0:0:
264,111,14204,5,8,3:1:0:0:
365,103,14283,5,8,3:1:0:0:
378,206,14362,5,8,3:1:0:0:
378,206,14441,5,8,3:1:0:0:
314,47,14520,5,6,3:0:0:0:
235,237,14678,5,2,3:0:0:0:
156,200,14836,5,10,3:1:0:0:
229,144,14994,5,2,3:0:0:0:
148,113,15152,5,0,3:0:0:0:
74,158,15310,5,2,3:0:0:0:
226,50,15467,5,0,3:0:0:0:
160,255,15625,5,10,3:1:0:0:
245,248,15783,5,0,3:0:0:0:
357,240,15941,5,2,3:0:0:0:
381,151,16099,5,10,3:1:0:0:
310,84,16257,5,2,3:0:0:0:
241,160,16415,5,2,3:0:0:0:
448,209,16573,5,2,3:0:0:0:
211,242,16731,5,8,3:1:0:0:
412,102,16888,1,2,3:0:0:0:
314,47,17046,5,2,3:0:0:0:
235,237,17204,5,2,3:0:0:0:
156,200,17362,5,10,3:1:0:0:
229,144,17520,5,2,3:0:0:0:
148,113,17678,5,0,3:0:0:0:
74,158,17836,5,2,3:0:0:0:
226,50,17993,5,0,3:0:0:0:
160,255,18151,5,10,3:1:0:0:
245,248,18309,5,0,3:0:0:0:
357,240,18467,5,2,3:0:0:0:
381,151,18625,5,10,3:1:0:0:
310,84,18783,5,2,3:0:0:0:
223,225,18941,5,2,3:0:0:0:
133,144,19099,5,2,3:0:0:0:
133,144,19257,5,2,3:0:0:0:
133,144,19415,5,10,3:2:0:0:
86,180,20204,1,2,0:0:0:0:
215,106,20362,5,0,3:0:0:0:
215,106,20441,5,0,3:0:0:0:
215,106,20520,5,10,3:0:0:0:
338,157,20836,5,6,3:0:0:0:
92,66,21073,1,2,3:0:0:0:
235,195,21152,5,8,3:0:0:0:
35,116,21310,1,2,3:0:0:0:
188,131,21467,5,0,3:0:0:0:
256,76,21625,5,2,3:0:0:0:
301,157,21783,5,8,3:0:0:0:
195,201,21941,5,2,3:0:0:0:
96,180,22099,5,0,3:0:0:0:
129,46,22257,1,2,3:0:0:0:
336,233,22415,5,8,3:0:0:0:
226,224,22731,5,2,3:0:0:0:
248,86,22888,5,0,3:0:0:0:
343,148,23046,5,10,3:0:0:0:
334,269,23362,5,2,3:0:0:0:
175,49,23520,1,2,3:0:0:0:
410,198,23678,5,8,3:0:0:0:
293,117,23836,5,2,3:0:0:0:
293,117,23994,5,0,3:0:0:0:
293,117,24152,5,2,3:0:0:0:
377,73,24310,5,8,3:0:0:0:
121,77,24467,1,2,3:0:0:0:
246,195,24625,5,0,3:0:0:0:
274,99,24941,5,8,3:0:0:0:
352,168,25099,5,0,3:0:0:0:
158,189,25257,5,2,3:0:0:0:
158,189,25415,5,0,3:0:0:0:
245,215,25573,5,10,3:0:0:0:
65,138,25888,1,6,3:0:0:0:
235,44,26046,1,2,3:0:0:0:
356,228,26204,5,8,3:0:0:0:
308,135,26362,5,2,3:0:0:0:
414,150,26520,5,0,3:0:0:0:
445,232,26678,5,2,3:0:0:0:
364,287,26836,5,8,3:0:0:0:
230,189,26994,5,2,3:0:0:0:
170,105,27152,5,0,3:0:0:0:
255,57,27310,1,2,3:0:0:0:
150,240,27467,5,8,3:0:0:0:
79,137,27783,5,2,3:0:0:0:
175,166,27941,5,0,3:0:0:0:
251,223,28099,5,10,3:0:0:0:
338,146,28257,5,0,3:0:0:0:
215,63,28415,5,14,3:2:0:0:
132,49,28573,1,2,3:0:0:0:
215,63,28731,5,12,3:2:0:0:
177,187,28888,5,2,3:0:0:0:
301,117,29046,5,12,3:2:0:0:
276,201,29204,5,2,3:0:0:0:
276,201,29520,5,2,3:0:0:0:
202,118,29678,5,12,3:2:0:0:
276,201,29836,5,0,3:0:0:0:
284,113,29994,5,12,3:2:0:0:
276,201,30152,5,0,3:0:0:0:
202,118,30310,5,12,3:2:0:0:
117,58,30467,1,2,3:0:0:0:
202,118,30625,5,10,3:2:0:0:
371,155,30783,5,0,3:0:0:0:
371,155,30862,5,0,3:0:0:0:
364,152,30941,5,10,3:0:0:0:
272,255,31099,5,4,3:0:0:0:
350,246,31257,5,10,3:0:0:0:
92,70,31415,1,2,3:0:0:0:
188,178,31573,5,2,3:0:0:0:
188,178,31731,5,2,3:0:0:0:
288,243,31888,5,10,3:0:0:0:
185,98,32046,5,2,3:0:0:0:
261,135,32204,5,0,3:0:0:0:
110,109,32362,1,2,3:0:0:0:
332,151,32520,5,10,3:0:0:0:
259,229,32678,5,2,3:0:0:0:
259,229,32836,5,2,3:0:0:0:
217,157,32994,5,2,3:0:0:0:
346,268,33152,5,10,3:0:0:0:
155,239,33467,5,2,3:0:0:0:
265,257,33783,5,10,3:0:0:0:
112,192,34099,5,2,3:0:0:0:
138,100,34257,5,0,3:0:0:0:
202,158,34415,5,10,3:0:0:0:
73,82,34573,1,2,3:0:0:0:
325,144,34731,5,0,3:0:0:0:
250,44,34888,1,2,3:0:0:0:
390,191,35046,5,10,3:0:0:0:
188,105,35204,5,2,3:0:0:0:
290,253,35362,5,2,3:0:0:0:
217,186,35520,5,0,3:0:0:0:
328,51,35599,1,2,3:0:0:0:
288,133,35678,5,8,3:0:0:0:
232,55,35836,1,2,3:0:0:0:
390,269,35994,5,14,3:0:0:0:
237,244,36310,5,10,3:0:0:0:
137,219,36625,5,2,3:0:0:0:
170,153,36783,5,0,3:0:0:0:
351,150,36941,5,10,3:0:0:0:
351,150,37099,5,0,3:0:0:0:
256,193,37257,5,10,3:0:0:0:
194,79,37415,5,8,3:0:0:0:
194,79,37494,5,8,3:0:0:0:
194,79,37573,5,10,3:0:0:0:
194,79,37731,5,10,3:0:0:0:
194,79,37810,5,8,3:0:0:0:
194,79,37888,5,8,3:0:0:0:
88,108,38046,5,0,3:0:0:0:
272,160,38204,5,2,3:0:0:0:
152,173,38520,5,14,3:0:0:0:
361,158,38836,5,2,3:0:0:0:
361,239,39152,5,10,3:0:0:0:
435,166,39310,5,4,3:2:0:0:
172,97,39783,5,0,3:0:0:0:
141,188,39941,1,2,3:0:0:0:
172,97,40099,5,2,3:0:0:0:
224,210,40257,1,2,3:0:0:0:
306,122,40415,5,10,3:0:0:0:
366,136,40573,5,6,3:2:0:0:
65,107,40731,1,2,3:0:0:0:
65,107,40888,1,2,3:0:0:0:
172,97,41046,5,2,3:0:0:0:
172,97,41362,5,2,3:0:0:0:
306,122,41678,5,10,3:0:0:0:
366,136,41836,5,4,3:2:0:0:
306,122,41994,5,2,3:0:0:0:
172,97,42310,5,0,3:0:0:0:
172,97,42625,5,0,3:0:0:0:
306,122,42941,5,8,3:0:0:0:
366,136,43099,5,4,3:2:0:0:
172,97,43573,5,6,3:0:0:0:
172,97,43888,5,2,3:0:0:0:
306,122,44204,5,10,3:0:0:0:
366,136,44362,5,4,3:2:0:0:
172,97,44836,5,0,3:0:0:0:
98,148,44994,1,2,3:0:0:0:
172,97,45152,5,2,3:0:0:0:
83,57,45310,1,2,3:0:0:0:
306,122,45467,5,10,3:0:0:0:
366,136,45625,5,2,3:0:0:0:
332,202,45783,5,10,3:0:0:0:
397,233,45941,5,10,3:0:0:0:
397,233,46020,5,8,3:0:0:0:
400,229,46099,5,2,3:0:0:0:
167,180,46257,5,4,3:2:0:0:
250,233,46415,5,0,3:0:0:0:
167,180,46573,5,6,3:2:0:0:
250,233,46731,5,0,3:0:0:0:
167,180,46888,5,6,3:2:0:0:
250,233,47046,5,0,3:0:0:0:
167,180,47204,5,4,3:2:0:0:
250,233,47362,5,0,3:0:0:0:
167,180,47520,5,4,3:2:0:0:
250,233,47678,5,0,3:0:0:0:
167,180,47836,5,4,3:2:0:0:
250,233,47994,5,2,3:0:0:0:
167,180,48152,5,4,3:2:0:0:
250,233,48310,5,2,3:0:0:0:
167,180,48467,5,4,3:2:0:0:
353,121,48625,5,10,3:2:0:0:
353,121,48704,5,8,3:2:0:0:
353,121,48783,5,8,3:2:0:0:
353,121,48862,5,8,3:2:0:0:
353,121,48941,5,8,3:2:0:0:
353,121,49020,5,8,3:2:0:0:
353,121,49099,5,8,3:2:0:0:
353,121,49178,5,8,3:2:0:0:
353,121,49257,5,8,3:2:0:0:
353,121,49336,5,8,3:2:0:0:
353,121,49415,5,8,3:2:0:0:
353,121,49494,5,8,3:2:0:0:
353,121,49573,5,8,3:2:0:0:
353,121,49652,5,8,3:2:0:0:
353,121,49731,5,8,3:2:0:0:
353,121,49810,5,8,3:2:0:0:
353,121,49888,5,8,3:3:0:0:
136,255,50046,5,0,3:0:0:0:
196,276,50204,5,0,3:0:0:0:
226,181,50362,5,8,3:0:0:0:
272,286,50520,5,0,3:0:0:0:
330,311,50678,5,0,3:0:0:0:
386,209,50836,5,4,3:0:0:0:
457,233,50994,5,4,3:0:0:0:
412,129,52257,5,4,3:3:0:0:
245,178,52731,5,10,3:1:0:0:
291,106,53046,5,2,3:0:0:0:
245,178,53362,5,10,3:1:0:0:
363,90,53520,5,2,3:0:0:0:
279,53,53836,5,2,3:0:0:0:
245,178,53994,5,10,3:1:0:0:
194,57,54152,5,2,3:0:0:0:
120,73,54310,5,2,3:0:0:0:
245,178,54625,5,10,3:1:0:0:
412,129,54941,5,4,3:0:0:0:
245,178,55257,5,8,3:1:0:0:
105,155,55573,5,2,3:0:0:0:
202,49,55731,5,2,3:0:0:0:
245,178,55888,5,8,3:1:0:0:
93,68,56046,5,2,3:0:0:0:
168,44,56362,5,2,3:0:0:0:
245,178,56520,5,10,3:1:0:0:
268,60,56678,5,2,3:0:0:0:
336,97,56836,5,2,3:0:0:0:
245,178,57152,5,10,3:1:0:0:
412,129,57467,5,4,3:1:0:0:
245,178,57783,5,10,3:1:0:0:
259,69,58099,5,2,3:0:0:0:
245,178,58415,5,10,3:1:0:0:
259,69,58731,5,2,3:0:0:0:
245,178,59046,5,10,3:1:0:0:
259,69,59362,5,2,3:0:0:0:
245,178,59678,5,10,3:1:0:0:
245,178,59994,5,10,3:1:0:0:
245,178,60310,5,8,3:1:0:0:
259,69,60467,5,2,3:0:0:0:
245,178,60625,5,10,3:1:0:0:
259,69,61099,5,2,3:0:0:0:
245,178,61257,5,10,3:1:0:0:
245,178,61573,5,8,3:1:0:0:
245,178,61888,5,8,3:1:0:0:
353,121,61967,5,0,3:2:0:0:
353,121,62046,5,8,3:2:0:0:
353,121,62125,5,8,3:2:0:0:
353,121,62204,5,8,3:2:0:0:
353,121,62283,5,8,3:2:0:0:
412,129,62362,5,4,3:0:0:0:
245,178,62836,5,10,3:1:0:0:
339,135,63152,5,2,3:0:0:0:
410,82,63310,5,2,3:0:0:0:
245,178,63467,5,8,3:1:0:0:
446,175,63625,5,2,3:0:0:0:
322,55,63941,5,2,3:0:0:0:
245,178,64099,5,8,3:1:0:0:
159,60,64257,5,2,3:0:0:0:
88,146,64415,5,2,3:0:0:0:
245,178,64731,5,8,3:1:0:0:
412,129,65046,5,4,3:1:0:0:
245,178,65362,5,10,3:1:0:0:
120,61,65678,5,0,3:0:0:0:
225,46,65836,5,2,3:0:0:0:
245,178,65994,5,10,3:1:0:0:
112,148,66152,5,2,3:0:0:0:
99,68,66467,5,2,3:0:0:0:
245,178,66625,5,10,3:1:0:0:
187,69,66783,5,2,3:0:0:0:
295,57,66941,5,2,3:0:0:0:
245,178,67257,5,10,3:1:0:0:
126,214,67573,5,0,3:0:0:0:
245,178,67888,5,10,3:1:0:0:
329,91,68204,5,2,3:0:0:0:
245,178,68520,5,10,3:1:0:0:
92,157,68678,5,0,3:0:0:0:
92,157,68757,5,0,3:0:0:0:
208,60,68836,5,8,3:0:0:0:
208,60,68994,5,8,3:0:0:0:
208,60,69073,5,8,3:0:0:0:
204,55,69152,5,8,3:0:0:0:
208,60,69310,5,8,3:0:0:0:
204,55,69388,5,8,3:0:0:0:
204,55,69467,5,8,3:0:0:0:
92,157,69546,5,0,3:0:0:0:
92,157,69625,5,0,3:0:0:0:
92,157,69704,5,0,3:0:0:0:
92,157,69783,5,0,3:0:0:0:
92,157,69862,5,0,3:0:0:0:
229,186,69941,5,4,3:0:0:0:
150,239,70257,5,0,3:0:0:0:
204,55,70415,5,12,3:1:0:0:
150,239,70731,5,2,3:0:0:0:
150,239,70888,5,0,3:0:0:0:
204,55,71046,5,12,3:1:0:0:
150,239,71362,5,2,3:0:0:0:
150,239,71520,5,0,3:0:0:0:
204,55,71678,5,12,3:1:0:0:
150,239,71994,5,2,3:0:0:0:
150,239,72152,5,0,3:0:0:0:
204,55,72310,5,12,3:1:0:0:
150,239,72625,5,2,3:0:0:0:
150,239,72783,5,0,3:0:0:0:
204,55,72941,5,12,3:1:0:0:
150,239,73257,5,0,3:0:0:0:
150,239,73415,5,0,3:0:0:0:
204,55,73573,5,12,3:1:0:0:
150,239,73888,5,2,3:0:0:0:
150,239,74046,5,0,3:0:0:0:
204,55,74204,5,14,3:1:0:0:
150,239,74520,5,6,3:2:0:0:
150,239,74678,5,0,3:0:0:0:
204,55,74836,5,12,3:1:0:0:
454,138,74994,1,2,0:0:0:0:
150,239,75152,5,4,3:0:0:0:
150,239,75310,5,0,3:0:0:0:
204,55,75467,5,12,3:1:0:0:
150,239,75783,5,2,3:0:0:0:
150,239,75941,5,0,3:0:0:0:
204,55,76099,5,12,3:1:0:0:
150,239,76415,5,2,3:0:0:0:
150,239,76573,5,0,3:0:0:0:
204,55,76731,5,12,3:1:0:0:
204,55,77046,5,10,3:1:0:0:
204,55,77204,5,8,3:1:0:0:
204,55,77362,5,8,3:1:0:0:
204,55,77520,5,8,3:1:0:0:
320,192,77678,1,6,3:0:0:0:
197,229,77836,5,2,3:0:0:0:
199,55,77994,5,8,3:1:0:0:
197,229,78152,5,2,3:0:0:0:
197,229,78468,5,2,3:0:0:0:
77,65,78626,5,0,3:0:0:0:
171,136,78784,5,8,3:1:0:0:
95,172,79099,5,2,3:0:0:0:
23,138,79257,5,12,3:1:0:0:
384,112,79415,1,2,3:0:0:0:
133,244,79573,5,2,3:0:0:0:
171,136,79731,5,2,3:0:0:0:
254,145,79889,5,8,3:1:0:0:
197,229,80204,5,6,3:2:0:0:
197,229,80362,5,2,3:0:0:0:
199,55,80520,5,8,3:1:0:0:
197,229,80677,5,2,3:0:0:0:
197,229,80993,5,2,3:0:0:0:
77,65,81152,5,4,3:2:0:0:
171,136,81309,5,8,3:1:0:0:
95,172,81625,5,2,3:0:0:0:
23,138,81783,5,8,3:1:0:0:
238,211,81941,5,2,3:0:0:0:
157,111,82099,1,8,3:1:0:0:
328,155,82257,5,8,3:1:0:0:
264,111,82415,5,8,3:1:0:0:
365,103,82494,5,8,3:1:0:0:
378,206,82573,5,8,3:1:0:0:
378,206,82652,5,8,3:1:0:0:
314,47,82731,5,6,3:0:0:0:
235,237,82889,5,2,3:0:0:0:
156,200,83047,5,10,3:1:0:0:
229,144,83205,5,2,3:0:0:0:
148,113,83363,5,0,3:0:0:0:
74,158,83521,5,2,3:0:0:0:
226,50,83678,5,0,3:0:0:0:
160,255,83836,5,10,3:1:0:0:
245,248,83994,5,0,3:0:0:0:
357,240,84152,5,2,3:0:0:0:
381,151,84310,5,10,3:1:0:0:
310,84,84468,5,2,3:0:0:0:
241,160,84626,5,2,3:0:0:0:
448,209,84784,5,2,3:0:0:0:
211,242,84942,5,8,3:1:0:0:
412,102,85099,1,2,3:0:0:0:
314,47,85257,5,2,3:0:0:0:
235,237,85415,5,2,3:0:0:0:
156,200,85573,5,10,3:1:0:0:
229,144,85731,5,2,3:0:0:0:
148,113,85889,5,0,3:0:0:0:
74,158,86047,5,2,3:0:0:0:
226,50,86204,5,0,3:0:0:0:
160,255,86362,5,10,3:1:0:0:
245,248,86520,5,0,3:0:0:0:
357,240,86678,5,2,3:0:0:0:
381,151,86836,5,10,3:1:0:0:
310,84,86994,5,2,3:0:0:0:
223,225,87152,5,2,3:0:0:0:
133,144,87310,5,2,3:0:0:0:
133,144,87468,5,2,3:0:0:0:
133,144,87626,5,10,3:2:0:0:
