osu file format v14

[General]
AudioFilename: audio.mp3
AudioLeadIn: 0
PreviewTime: 1709
Countdown: 0
SampleSet: None
StackLeniency: 0.7
Mode: 0
LetterboxInBreaks: 0
WidescreenStoryboard: 1

[Editor]
Bookmarks: 88393
DistanceSpacing: 0.6
BeatDivisor: 4
GridSize: 8
TimelineZoom: 3.599999

[Metadata]
Title:NO-LIMIT (TV Size)
TitleUnicode:NO-LIMIT (TV Size)
Artist:Osaka Shunkashuto
ArtistUnicode:大阪☆春夏秋冬
Creator:kundschafter98
Version:NO Genkai!
Source:Fairy Tail Final Series
Tags:NoPengoo Demsteg Hakashii SSFW Spring Summer Fall Winter japanese vocalist Erza Gray Natsu OP opening 25 barks
BeatmapID:2053296
BeatmapSetID:980772

[Difficulty]
HPDrainRate:6
CircleSize:4
OverallDifficulty:9
ApproachRate:9.3
SliderMultiplier:2.1
SliderTickRate:1

[Events]
//Background and Video events
0,0,"pog.png",0,0
//Break Periods
//Storyboard Layer 0 (Background)
//Storyboard Layer 1 (Fail)
//Storyboard Layer 2 (Pass)
//Storyboard Layer 3 (Foreground)
//Storyboard Sound Samples
Sample,1867,0,"normal-hitfinish.wav",60
Sample,1867,0,"normal-hitfinish.wav",60
Sample,1867,0,"normal-hitfinish.wav",60
Sample,7077,0,"normal-hitfinish.wav",60
Sample,7077,0,"normal-hitfinish.wav",60
Sample,7077,0,"normal-hitfinish.wav",60
Sample,9603,0,"normal-hitfinish.wav",60
Sample,9603,0,"normal-hitfinish.wav",60
Sample,9603,0,"normal-hitfinish.wav",60
Sample,10393,0,"soft-hitclap2.wav",70
Sample,10393,0,"soft-hitclap2.wav",70
Sample,10393,0,"soft-hitclap2.wav",70
Sample,12288,0,"soft-hitclap2.wav",70
Sample,12288,0,"soft-hitclap2.wav",70
Sample,12288,0,"soft-hitclap2.wav",70
Sample,12919,0,"soft-hitclap2.wav",70
Sample,12919,0,"soft-hitclap2.wav",70
Sample,12919,0,"soft-hitclap2.wav",70
Sample,14656,0,"normal-hitfinish.wav",50
Sample,14656,0,"normal-hitfinish.wav",50
Sample,14656,0,"normal-hitfinish.wav",50
Sample,14814,0,"soft-hitclap2.wav",70
Sample,14814,0,"soft-hitclap2.wav",70
Sample,14814,0,"soft-hitclap2.wav",70
Sample,20972,0,"normal-hitfinish.wav",70
Sample,20972,0,"normal-hitfinish.wav",70
Sample,20972,0,"normal-hitfinish.wav",70
Sample,67709,0,"normal-hitfinish.wav",70
Sample,67709,0,"normal-hitfinish.wav",70
Sample,67709,0,"normal-hitfinish.wav",70

[TimingPoints]
310,315.789473684211,4,3,1,60,1,0
310,-100,4,3,1,60,0,0
5204,-83.3333333333333,4,3,1,60,0,0
5362,-100,4,3,1,60,0,0
20204,-100,4,3,1,60,0,0
38517,-133.333333333333,4,3,1,60,0,0
46099,-100,4,3,1,60,0,0
52257,-100,4,3,1,60,0,1
80204,-100,4,3,1,60,0,0

[HitObjects]
248,121,467,5,0,3:0:0:0:
242,141,546,1,0,3:0:0:0:
235,160,625,2,0,L|208:238,1,52.5,8|0,3:1|0:0,0:0:0:0:
248,384,783,1,8,3:1:0:0:
273,377,862,1,8,3:1:0:0:
298,372,941,2,0,L|376:352,1,52.5,8|0,3:1|0:0,0:0:0:0:
475,252,1099,1,8,3:1:0:0:
453,229,1178,1,8,3:1:0:0:
432,204,1257,2,0,L|377:140,1,52.5,8|8,3:1|3:2,0:0:0:0:
333,233,1415,2,0,L|306:311,1,52.5,8|8,3:2|3:2,0:0:0:0:
435,337,1573,2,0,L|513:317,1,52.5,0|0,3:0|3:0,0:0:0:0:
432,82,1731,6,0,B|310:70|354:162|235:137,1,210,4|0,0:3|3:0,0:0:0:0:
42,34,2204,1,8,3:1:0:0:
158,96,2362,1,0,0:0:0:0:
35,195,2520,2,0,P|96:203|156:232,1,105,2|0,3:0|3:0,0:0:0:0:
260,309,2836,1,8,3:1:0:0:
154,361,2994,1,0,0:0:0:0:
250,152,3152,6,0,P|294:124|345:110,1,105,2|0,3:0|3:0,0:0:0:0:
281,281,3467,1,8,3:1:0:0:
166,95,3625,1,0,0:0:0:0:
109,295,3783,2,0,P|64:322|13:336,1,105,2|0,3:0|3:0,0:0:0:0:
123,96,4099,1,8,3:1:0:0:
214,345,4257,1,0,0:0:0:0:
246,53,4415,5,2,3:0:0:0:
372,306,4573,1,0,3:0:0:0:
411,98,4731,1,8,3:1:0:0:
285,288,4888,1,0,3:0:0:0:
330,46,5046,1,0,3:0:0:0:
477,221,5204,2,0,B|420:229|420:229|391:220|391:220|328:230,1,125.999996154785,0|8,3:0|3:1,0:0:0:0:
160,256,5520,1,0,0:0:0:0:
311,119,5678,5,2,3:0:0:0:
272,342,5836,1,0,3:0:0:0:
341,131,5994,1,10,3:1:0:0:
399,349,6152,1,0,0:0:0:0:
486,122,6310,1,2,3:0:0:0:
428,340,6467,1,0,3:0:0:0:
294,133,6625,1,8,3:1:0:0:
206,352,6783,1,2,3:0:0:0:
149,109,6941,6,0,P|119:53|57:4,1,105,4|0,3:0|3:0,0:0:0:0:
58,280,7257,2,0,P|88:336|150:385,1,105,8|0,3:1|0:0,0:0:0:0:
261,114,7573,1,2,3:0:0:0:
71,190,7731,1,0,3:0:0:0:
246,278,7888,2,0,P|305:298|385:285,1,105,8|0,3:1|0:0,0:0:0:0:
358,109,8204,2,0,P|417:89|497:102,1,105,2|0,3:0|3:0,0:0:0:0:
154,192,8520,5,8,3:1:0:0:
385,254,8678,1,0,0:0:0:0:
215,61,8836,2,0,L|145:-3,1,52.5,10|0,3:1|0:0,0:0:0:0:
215,298,8994,2,0,L|194:390,1,52.5,8|0,3:1|0:0,0:0:0:0:
419,179,9152,2,0,L|509:150,1,52.5,8|0,3:1|0:0,0:0:0:0:
148,174,9310,2,0,L|55:154,1,52.5,8|0,3:1|0:0,0:0:0:0:
453,303,9467,1,6,3:0:0:0:
436,53,9625,1,2,3:0:0:0:
374,364,9783,1,8,3:1:0:0:
327,82,9941,6,0,B|208:39|245:119|126:104,1,210,2|2,3:0|3:0,0:0:0:0:
228,253,10415,1,0,3:0:0:0:
381,149,10573,2,0,P|435:125|481:122,1,105,8|0,3:1|0:0,0:0:0:0:
365,318,10888,1,2,3:0:0:0:
278,99,11046,1,12,3:1:0:0:
464,242,11204,1,2,3:0:0:0:
172,53,11362,1,2,3:0:0:0:
419,104,11520,1,2,3:0:0:0:
242,261,11678,6,0,P|191:274|125:267,1,105,8|0,3:1|0:0,0:0:0:0:
234,109,11994,1,2,3:0:0:0:
306,373,12152,1,2,3:0:0:0:
58,237,12310,1,8,3:1:0:0:
298,181,12467,6,0,B|336:232|329:283|329:283|376:301|402:361,1,210,2|2,3:0|3:0,0:0:0:0:
224,313,12941,1,0,3:0:0:0:
368,137,13099,2,0,P|395:79|402:5,1,105,8|0,3:1|0:0,0:0:0:0:
204,107,13415,1,2,3:0:0:0:
298,181,13573,1,8,3:1:0:0:
298,56,13731,1,2,3:0:0:0:
184,209,13888,6,0,B|175:250|175:250|215:346,1,105,12|8,3:1|3:1,0:0:0:0:
399,266,14204,1,8,3:1:0:0:
397,238,14282,1,8,3:1:0:0:
395,212,14361,1,8,3:1:0:0:
395,186,14440,1,8,3:1:0:0:
395,160,14520,6,0,P|385:106|353:52,1,105,6|2,3:0|3:0,0:0:0:0:
107,180,14836,1,10,3:1:0:0:
247,247,14994,1,2,3:0:0:0:
235,92,15152,1,0,3:0:0:0:
137,302,15310,1,2,3:0:0:0:
14,125,15467,5,0,3:0:0:0:
281,223,15625,2,0,P|378:171|484:177,1,210,10|2,3:1|3:0,0:0:0:0:
297,94,16099,2,0,P|351:91|396:62,1,105,10|2,3:1|3:0,0:0:0:0:
100,31,16415,1,2,3:0:0:0:
142,205,16573,1,2,3:0:0:0:
226,20,16731,2,0,L|193:158,1,105,8|2,3:1|3:0,0:0:0:0:
173,321,17046,5,2,3:0:0:0:
23,221,17204,1,2,3:0:0:0:
325,263,17362,1,10,3:1:0:0:
95,280,17520,2,0,B|115:197|115:197|97:154|97:154|119:64,1,210,2|2,3:0|3:0,0:0:0:0:
276,191,17994,1,0,3:0:0:0:
219,36,18152,2,0,L|192:154,1,105,10|0,3:1|3:0,0:0:0:0:
154,329,18467,1,2,3:0:0:0:
348,242,18625,6,0,P|413:225|480:221,1,105,10|2,3:1|3:0,0:0:0:0:
217,56,18941,2,0,L|147:-8,1,52.5,2|0,3:0|0:0,0:0:0:0:
217,293,19099,2,0,L|196:385,1,52.5,2|0,3:0|0:0,0:0:0:0:
421,174,19257,2,0,L|511:145,1,52.5,2|0,3:0|0:0,0:0:0:0:
232,178,19415,2,0,B|99:176|157:261|19:230,1,210,10|0,3:2|0:0,0:0:0:0:
48,46,19888,5,0,0:0:0:0:
155,99,20046,1,0,0:0:0:0:
50,161,20204,1,2,0:0:0:0:
269,100,20362,1,0,3:0:0:0:
269,100,20441,1,0,3:0:0:0:
269,100,20520,1,10,3:0:0:0:
156,197,20678,1,0,0:0:0:0:
317,337,20836,6,0,P|391:282|471:263,1,157.5,6|2,3:0|3:0,0:0:0:0:
495,262,21152,1,8,3:0:0:0:
332,209,21310,2,0,P|263:198|211:166,1,105,2|0,3:0|3:0,0:0:0:0:
98,125,21625,1,2,3:0:0:0:
206,98,21783,1,8,3:0:0:0:
156,197,21941,1,2,3:0:0:0:
45,59,22099,1,0,3:0:0:0:
280,34,22257,2,0,P|341:46|400:76,1,105,2|8,3:0|3:0,0:0:0:0:
338,245,22573,1,0,0:0:0:0:
304,132,22731,5,2,3:0:0:0:
417,177,22888,1,0,3:0:0:0:
259,313,23046,1,10,3:0:0:0:
225,200,23204,1,0,0:0:0:0:
451,290,23362,1,2,3:0:0:0:
160,276,23520,2,0,L|280:293,1,105,2|8,3:0|3:0,0:0:0:0:
356,220,23836,5,2,3:0:0:0:
423,141,23994,1,0,3:0:0:0:
321,123,24152,1,2,3:0:0:0:
458,238,24310,1,8,3:0:0:0:
385,43,24467,1,2,3:0:0:0:
255,202,24625,2,0,P|255:269|284:322,1,105,0|0,3:0|0:0,0:0:0:0:
286,26,24941,2,0,L|159:13,1,105,8|0,3:0|3:0,0:0:0:0:
216,112,25257,2,0,L|343:99,1,105,2|0,3:0|3:0,0:0:0:0:
114,94,25573,6,0,B|105:166|105:166|135:227|135:227|123:304,1,210,10|6,3:0|3:0,0:0:0:0:
225,177,26046,1,2,3:0:0:0:
31,246,26204,1,8,3:0:0:0:
234,284,26362,1,2,3:0:0:0:
124,158,26520,1,0,3:0:0:0:
133,265,26678,1,2,3:0:0:0:
267,108,26836,1,8,3:0:0:0:
63,70,26994,2,0,P|32:125|28:181,1,105,2|0,3:0|3:0,0:0:0:0:
202,207,27310,2,0,B|111:185|98:311|-21:254,1,210,2|0,3:0|0:0,0:0:0:0:
141,119,27783,5,2,3:0:0:0:
175,320,27941,1,0,3:0:0:0:
46,163,28099,1,10,3:0:0:0:
111,242,28257,1,0,3:0:0:0:
230,76,28415,5,14,3:2:0:0:
167,345,28573,1,2,3:0:0:0:
143,56,28731,5,12,3:2:0:0:
268,254,28889,1,2,3:0:0:0:
304,7,29046,5,12,3:2:0:0:
170,178,29204,2,0,P|147:232|145:281,1,105,2|0,3:0|0:0,0:0:0:0:
411,178,29520,1,2,3:0:0:0:
116,113,29678,5,12,3:2:0:0:
358,243,29836,1,0,3:0:0:0:
59,278,29994,5,12,3:2:0:0:
321,133,30152,1,0,3:0:0:0:
20,85,30310,5,12,3:2:0:0:
256,199,30468,1,2,3:0:0:0:
90,319,30625,6,0,L|20:383,1,52.5,10|0,3:2|0:0,0:0:0:0:
90,82,30783,2,0,L|69:-10,1,52.5,0|0,3:0|3:0,0:0:0:0:
294,201,30941,2,0,P|344:218|435:226,1,105,14|0,3:0|3:0,0:0:0:0:
285,94,31257,1,10,3:0:0:0:
196,155,31415,1,2,3:0:0:0:
383,141,31573,1,2,3:0:0:0:
186,46,31731,1,2,3:0:0:0:
374,33,31888,5,10,3:0:0:0:
295,202,32046,2,0,L|317:328,1,105,2|0,3:0|3:0,0:0:0:0:
402,244,32362,1,2,3:0:0:0:
212,258,32520,1,10,3:0:0:0:
408,351,32678,1,2,3:0:0:0:
114,211,32836,1,2,3:0:0:0:
165,356,32994,1,2,3:0:0:0:
259,160,33152,6,0,P|197:123|123:110,1,105,10|0,3:0|0:0,0:0:0:0:
285,322,33467,2,0,P|355:304|416:261,1,105,2|0,3:0|0:0,0:0:0:0:
310,89,33783,2,0,P|255:41|184:16,1,105,10|0,3:0|0:0,0:0:0:0:
135,218,34099,2,0,P|199:249|274:255,1,105,2|0,3:0|3:0,0:0:0:0:
408,136,34415,5,10,3:0:0:0:
97,119,34573,2,0,L|206:161,1,105,2|0,3:0|3:0,0:0:0:0:
417,245,34888,1,2,3:0:0:0:
507,183,35046,1,10,3:0:0:0:
309,89,35204,1,2,3:0:0:0:
318,198,35362,6,0,L|330:314,1,105,2|0,3:0|3:0,0:0:0:0:
363,330,35599,2,0,L|352:225,1,105,2|0,3:0|0:0,0:0:0:0:
386,194,35836,1,2,3:0:0:0:
512,325,35994,2,0,P|461:283|385:265,1,105,14|0,3:0|0:0,0:0:0:0:
194,279,36310,1,10,3:0:0:0:
324,367,36467,1,0,0:0:0:0:
357,170,36625,1,2,3:0:0:0:
280,276,36782,1,0,3:0:0:0:
410,289,36941,6,0,P|443:231|447:173,1,105,10|0,3:0|3:0,0:0:0:0:
227,157,37257,1,10,3:0:0:0:
249,363,37415,1,8,3:0:0:0:
249,363,37494,1,8,3:0:0:0:
249,363,37573,1,10,3:0:0:0:
300,87,37731,1,10,3:0:0:0:
300,87,37810,1,8,3:0:0:0:
300,87,37889,1,8,3:0:0:0:
154,227,38046,1,0,3:0:0:0:
324,185,38204,5,2,3:0:0:0:
202,58,38362,1,0,0:0:0:0:
234,323,38520,2,0,L|246:216,1,78.7500030040742,14|0,3:0|0:0,0:0:0:0:
319,87,38836,2,0,P|375:58|424:51,1,78.7500030040742,2|0,3:0|0:0,0:0:0:0:
325,279,39152,1,10,3:0:0:0:
220,142,39310,2,0,P|148:85|73:64,1,157.500006008148,4|0,3:2|0:0,0:0:0:0:
19,155,39783,5,0,3:0:0:0:
126,238,39941,2,0,P|113:191|130:137,1,78.7500030040742,2|2,3:0|3:0,0:0:0:0:
49,337,40257,2,0,P|45:288|10:243,1,78.7500030040742,2|10,3:0|3:0,0:0:0:0:
142,345,40573,2,0,P|177:328|216:327,2,78.7500030040742,6|2|2,3:2|3:0|3:0,0:0:0:0:
210,227,41046,2,0,P|264:229|309:245,1,78.7500030040742,2|0,3:0|0:0,0:0:0:0:
254,133,41362,2,0,P|306:121|348:98,1,78.7500030040742,2|0,3:0|0:0,0:0:0:0:
441,39,41678,1,10,3:0:0:0:
382,203,41836,1,4,3:2:0:0:
493,129,41994,6,0,B|483:162|483:162|499:223|499:223|477:288,1,157.500006008148,2|0,3:0|3:0,0:0:0:0:
381,324,42467,1,0,0:0:0:0:
298,187,42625,2,0,P|249:167|203:165,1,78.7500030040742,0|0,3:0|0:0,0:0:0:0:
297,282,42941,1,8,3:0:0:0:
387,107,43099,2,0,P|436:87|482:85,1,78.7500030040742,4|0,3:2|0:0,0:0:0:0:
388,202,43415,1,0,0:0:0:0:
267,94,43573,6,0,P|225:64|174:46,1,78.7500030040742,6|0,3:0|0:0,0:0:0:0:
175,249,43888,2,0,P|124:240|75:217,1,78.7500030040742,2|0,3:0|0:0,0:0:0:0:
281,190,44204,1,10,3:0:0:0:
224,347,44362,2,0,L|44:320,1,157.500006008148,4|0,3:2|0:0,0:0:0:0:
47,158,44836,5,0,3:0:0:0:
119,242,44994,1,2,3:0:0:0:
212,101,45152,1,2,3:0:0:0:
138,157,45310,1,2,3:0:0:0:
257,285,45467,2,0,P|274:343|270:396,1,78.7500030040742,10|2,3:0|3:0,0:0:0:0:
292,95,45783,2,0,P|320:41|361:7,1,78.7500030040742,10|10,3:0|3:0,0:0:0:0:
360,321,46099,5,2,3:0:0:0:
199,132,46257,1,4,3:2:0:0:
273,366,46415,1,0,3:0:0:0:
376,123,46573,1,6,3:2:0:0:
182,322,46731,5,0,3:0:0:0:
467,268,46888,1,6,3:2:0:0:
299,64,47046,1,0,3:0:0:0:
262,288,47204,1,4,3:2:0:0:
481,137,47362,5,0,3:0:0:0:
183,95,47520,1,4,3:2:0:0:
453,28,47678,1,0,3:0:0:0:
399,296,47836,1,4,3:2:0:0:
276,118,47994,5,2,3:0:0:0:
326,349,48152,1,4,3:2:0:0:
461,109,48310,1,2,3:0:0:0:
111,94,48467,1,4,3:2:0:0:
399,304,48625,6,0,P|436:315|478:308,3,52.5,10|8|8|8,3:2|3:2|3:2|3:2,0:0:0:0:
454,207,48941,5,8,3:2:0:0:
456,176,49020,1,8,3:2:0:0:
449,146,49099,1,8,3:2:0:0:
431,120,49178,1,8,3:2:0:0:
402,106,49257,1,8,3:2:0:0:
370,108,49336,1,8,3:2:0:0:
338,109,49415,1,8,3:2:0:0:
307,100,49494,1,8,3:2:0:0:
278,85,49573,2,0,P|260:61|244:34,3,52.5,8|8|8|8,3:2|3:2|3:2|3:2,0:0:0:0:
264,342,49888,5,8,3:3:0:0:
441,23,50046,1,0,3:0:0:0:
101,144,50204,1,0,3:0:0:0:
479,272,50362,5,8,3:0:0:0:
247,20,50520,1,0,3:0:0:0:
198,337,50678,1,0,3:0:0:0:
495,87,50836,5,4,3:0:0:0:
20,180,50994,1,4,3:0:0:0:
64,208,52257,6,0,B|118:193|156:150|156:150|210:168|264:154,1,210,4|0,3:3|0:0,0:0:0:0:
505,100,52731,1,10,3:1:0:0:
307,0,52888,1,0,0:0:0:0:
384,240,53046,2,0,P|401:174|397:108,1,105,2|0,3:0|0:0,0:0:0:0:
264,352,53362,1,10,3:1:0:0:
176,192,53520,2,0,P|159:126|163:60,1,105,2|0,3:0|0:0,0:0:0:0:
301,258,53836,1,2,3:0:0:0:
97,336,53994,1,10,3:1:0:0:
392,259,54152,1,2,3:0:0:0:
63,190,54310,6,0,P|52:137|61:57,1,105,2|0,3:0|0:0,0:0:0:0:
213,245,54625,2,0,P|224:298|215:378,1,105,10|0,3:1|0:0,0:0:0:0:
157,160,54941,2,0,B|223:125|282:176|282:176|336:163|336:163|378:172,1,210,4|8,3:0|3:1,0:0:0:0:
285,31,55415,1,0,0:0:0:0:
334,271,55573,2,0,L|355:381,1,105,2|2,3:0|3:0,0:0:0:0:
472,97,55888,5,8,3:1:0:0:
289,172,56046,2,0,P|228:194|152:197,1,105,2|0,3:0|0:0,0:0:0:0:
0,166,56362,1,2,3:0:0:0:
207,301,56520,1,10,3:1:0:0:
113,39,56678,1,2,3:0:0:0:
66,274,56836,2,0,L|94:407,1,105,2|0,3:0|0:0,0:0:0:0:
261,147,57152,2,0,L|233:14,1,105,10|0,3:1|0:0,0:0:0:0:
238,319,57467,2,0,P|294:308|364:273,1,105,4|0,3:1|0:0,0:0:0:0:
111,124,57783,6,0,P|54:135|-15:170,1,105,10|0,3:1|0:0,0:0:0:0:
216,255,58099,1,2,3:0:0:0:
239,64,58257,1,0,0:0:0:0:
95,334,58415,1,10,3:1:0:0:
357,311,58573,1,0,0:0:0:0:
105,129,58731,2,0,P|49:96|-4:85,1,105,2|0,3:0|0:0,0:0:0:0:
350,46,59046,2,0,P|406:13|459:2,1,105,10|0,3:1|0:0,0:0:0:0:
312,250,59362,2,0,L|341:392,1,105,2|0,3:0|0:0,0:0:0:0:
463,128,59678,2,0,L|441:25,1,105,10|0,3:1|0:0,0:0:0:0:
193,155,59994,5,10,3:1:0:0:
422,282,60152,1,0,0:0:0:0:
307,33,60310,1,8,3:1:0:0:
237,332,60467,1,2,3:0:0:0:
396,79,60625,2,0,P|416:146|418:206,1,105,10|0,3:1|0:0,0:0:0:0:
319,368,60941,5,0,0:0:0:0:
264,119,61099,1,2,3:0:0:0:
56,342,61257,1,10,3:1:0:0:
137,64,61415,1,0,0:0:0:0:
237,332,61573,1,8,3:1:0:0:
242,40,61731,1,0,0:0:0:0:
146,295,61888,2,0,P|151:339|162:373,1,52.5,8|0,3:1|3:2,0:0:0:0:
360,107,62046,2,0,P|366:63|364:27,1,52.5,8|8,3:2|3:2,0:0:0:0:
98,93,62204,6,0,P|71:94|45:99,1,52.5,8|8,3:2|3:2,0:0:0:0:
247,263,62362,2,0,P|342:236|460:244,1,210,4|0,3:0|0:0,0:0:0:0:
235,133,62836,1,10,3:1:0:0:
343,347,62994,1,0,0:0:0:0:
416,135,63152,1,2,3:0:0:0:
142,105,63310,2,0,P|61:110|-2:136,1,105,2|8,3:0|3:1,0:0:0:0:
256,300,63625,2,0,P|175:295|112:269,1,105,2|0,3:0|0:0,0:0:0:0:
314,120,63941,1,2,3:0:0:0:
327,360,64099,5,8,3:1:0:0:
128,196,64257,1,2,3:0:0:0:
397,87,64415,2,0,P|468:76|547:84,1,105,2|0,3:0|0:0,0:0:0:0:
268,275,64731,2,0,P|339:286|418:278,1,105,8|0,3:1|0:0,0:0:0:0:
120,133,65046,1,4,3:1:0:0:
227,360,65204,1,0,0:0:0:0:
426,186,65362,5,10,3:1:0:0:
253,9,65520,1,0,0:0:0:0:
281,291,65678,2,0,P|332:337|386:352,1,105,0|2,3:0|3:0,0:0:0:0:
247,83,65994,1,10,3:1:0:0:
200,334,66152,1,2,3:0:0:0:
65,69,66310,1,0,0:0:0:0:
110,303,66467,1,2,3:0:0:0:
327,180,66625,2,0,P|263:150|193:146,1,105,10|2,3:1|3:0,0:0:0:0:
9,232,66941,2,0,P|91:206|140:205,1,105,2|0,3:0|0:0,0:0:0:0:
409,246,67257,6,0,B|439:163|439:163|422:114|422:114|450:39,1,210,10|0,3:1|3:0,0:0:0:0:
256,104,67731,1,0,0:0:0:0:
304,256,67888,2,0,L|348:140,1,105,10|0,3:1|0:0,0:0:0:0:
256,8,68204,1,2,3:0:0:0:
207,256,68362,1,0,0:0:0:0:
448,96,68520,2,0,P|384:80|328:80,1,105,10|0,3:1|3:0,0:0:0:0:
45,109,68836,5,8,3:0:0:0:
395,220,68994,1,8,3:0:0:0:
395,220,69073,1,8,3:0:0:0:
395,220,69152,1,8,3:0:0:0:
211,18,69310,1,8,3:0:0:0:
204,54,69388,1,8,3:0:0:0:
198,90,69467,1,8,3:0:0:0:
191,126,69546,1,0,3:0:0:0:
185,162,69625,1,0,3:0:0:0:
178,198,69704,1,0,3:0:0:0:
172,235,69783,1,0,3:0:0:0:
165,271,69862,1,0,3:0:0:0:
159,307,69941,2,0,P|248:366|356:368,1,210,4|0,3:0|3:0,0:0:0:0:
472,147,70415,5,12,3:1:0:0:
280,201,70573,1,0,0:0:0:0:
463,312,70731,1,2,3:0:0:0:
347,20,70888,1,0,3:0:0:0:
262,296,71046,2,0,P|208:333|143:357,1,105,12|0,3:1|0:0,0:0:0:0:
254,102,71362,5,2,3:0:0:0:
333,367,71520,1,0,3:0:0:0:
409,99,71678,2,0,P|454:73|504:57,1,105,12|0,3:1|0:0,0:0:0:0:
376,275,71994,1,2,3:0:0:0:
304,35,72152,1,0,3:0:0:0:
478,229,72310,1,12,3:1:0:0:
308,66,72467,1,0,0:0:0:0:
204,280,72625,6,0,P|199:332|204:384,1,105,2|0,3:0|3:0,0:0:0:0:
377,155,72941,2,0,P|381:207|376:259,1,105,12|0,3:1|0:0,0:0:0:0:
186,37,73257,2,0,P|181:89|186:141,1,105,0|0,3:0|3:0,0:0:0:0:
313,326,73573,1,12,3:1:0:0:
445,95,73731,1,0,0:0:0:0:
210,221,73888,6,0,P|259:202|311:194,1,105,2|0,3:0|3:0,0:0:0:0:
502,300,74204,2,0,P|452:281|401:273,1,105,14|0,3:1|0:0,0:0:0:0:
125,278,74520,1,6,3:2:0:0:
338,378,74678,1,0,3:0:0:0:
262,88,74836,1,12,3:1:0:0:
228,260,74994,1,2,0:0:0:0:
474,182,75152,6,0,B|402:174|402:174|345:191|345:191|265:178,1,210,4|12,3:0|3:1,0:0:0:0:
9,124,75625,1,0,0:0:0:0:
257,66,75783,2,0,P|348:58|408:76,1,105,2|0,3:0|3:0,0:0:0:0:
137,240,76099,2,0,P|228:248|288:230,1,105,12|0,3:1|0:0,0:0:0:0:
159,60,76415,1,2,3:0:0:0:
30,261,76573,1,0,3:0:0:0:
281,148,76731,5,12,3:1:0:0:
54,94,76888,1,0,0:0:0:0:
158,295,77046,2,0,L|137:387,1,52.5,10|0,3:1|0:0,0:0:0:0:
364,177,77204,2,0,L|454:149,1,52.5,8|0,3:1|0:0,0:0:0:0:
159,60,77362,2,0,L|88:-3,1,52.5,8|0,3:1|0:0,0:0:0:0:
304,276,77520,2,0,L|342:311,1,52.5,8|0,3:1|0:0,0:0:0:0:
0,185,77678,5,6,3:0:0:0:
349,90,77836,1,2,3:0:0:0:
202,362,77994,1,8,3:1:0:0:
174,163,78152,6,0,B|208:109|259:98|259:98|260:48|307:3,1,210,2|2,3:0|3:0,0:0:0:0:
157,31,78625,1,0,3:0:0:0:
280,222,78783,2,0,P|283:161|259:99,1,105,8|0,3:1|0:0,0:0:0:0:
75,226,79099,1,2,3:0:0:0:
247,338,79257,2,0,P|294:360|346:364,1,105,12|2,3:1|3:0,0:0:0:0:
497,251,79573,2,0,P|449:273|397:277,1,105,2|2,3:0|3:0,0:0:0:0:
136,140,79888,1,8,3:1:0:0:
414,5,80046,1,0,0:0:0:0:
320,283,80204,6,0,L|274:410,1,105,6|2,3:2|3:0,0:0:0:0:
201,54,80520,1,8,3:1:0:0:
417,178,80678,2,0,P|455:252|455:317,1,105,2|0,3:0|0:0,0:0:0:0:
205,241,80994,2,0,P|167:204|143:158,1,105,2|4,3:0|3:2,0:0:0:0:
342,19,81310,6,0,B|405:37|416:75|416:75|459:89|459:89|498:116|507:148,1,210,8|2,3:1|3:0,0:0:0:0:
281,195,81783,2,0,L|300:68,1,105,8|2,3:1|3:0,0:0:0:0:
354,331,82099,2,0,L|373:392,1,52.5,8|0,3:1|0:0,0:0:0:0:
192,101,82257,2,0,L|167:54,1,52.5,8|0,3:1|0:0,0:0:0:0:
379,177,82415,5,8,3:1:0:0:
401,189,82493,1,8,3:1:0:0:
424,201,82572,1,8,3:1:0:0:
447,213,82651,1,8,3:1:0:0:
470,226,82730,1,6,3:0:0:0:
171,191,82888,1,2,3:0:0:0:
461,119,83046,2,0,L|341:59,1,105,10|2,3:1|3:0,0:0:0:0:
104,65,83362,5,0,3:0:0:0:
332,244,83520,2,0,P|388:238|444:201,1,105,2|0,3:0|3:0,0:0:0:0:
80,188,83836,2,0,B|65:232|111:269|111:269|112:314|112:314|151:337|170:375,1,210,10|2,3:1|3:0,0:0:0:0:
245,63,84310,5,10,3:1:0:0:
212,272,84467,1,2,3:0:0:0:
348,18,84625,1,2,3:0:0:0:
419,248,84783,1,2,3:0:0:0:
178,125,84941,2,0,P|123:105|48:105,1,105,8|2,3:1|3:0,0:0:0:0:
283,351,85257,1,2,3:0:0:0:
383,80,85415,1,2,3:0:0:0:
171,224,85573,5,10,3:1:0:0:
410,332,85731,2,0,P|465:352|540:352,1,105,2|0,3:0|3:0,0:0:0:0:
332,145,86046,2,0,P|277:125|202:125,1,105,2|0,3:0|3:0,0:0:0:0:
314,349,86362,1,10,3:1:0:0:
314,349,86678,1,2,3:0:0:0:
406,110,86836,1,10,3:1:0:0:
183,287,86994,1,2,3:0:0:0:
454,201,87152,6,0,P|499:187|536:183,1,52.5,2|0,3:0|0:0,0:0:0:0:
194,89,87310,2,0,P|149:75|112:71,1,52.5,2|0,3:0|0:0,0:0:0:0:
417,20,87467,2,0,P|462:6|499:2,1,52.5,2|0,3:0|0:0,0:0:0:0:
272,240,87625,2,0,B|291:228|291:228|264:204|264:204|301:190|301:190|275:166|275:166|310:159|310:159|283:135|283:135|318:128|318:128|293:96|293:96|328:89|328:89|304:58|304:58|339:50|339:50|327:31|327:31|332:15,1,420,10|0,3:2|0:0,0:0:0:0:
