osu file format v14

[General]
AudioFilename: audio.mp3
AudioLeadIn: 0
PreviewTime: 51167
Countdown: 1
SampleSet: None
StackLeniency: 0.7
Mode: 0
LetterboxInBreaks: 0
WidescreenStoryboard: 0

[Editor]
Bookmarks: 1746,9482,28430,38535,42640,43114,43588,46114,48640,52272
DistanceSpacing: 2.5
BeatDivisor: 4
GridSize: 16
TimelineZoom: 2

[Metadata]
Title:NO-LIMIT (TV Size)
TitleUnicode:NO-LIMIT (TV Size)
Artist:Osaka Shunka Shuutou
ArtistUnicode:大阪☆春夏秋冬
Creator:Keada
Version:E.N.D
Source:Fairy Tail
Tags:
BeatmapID:2065322
BeatmapSetID:987268

[Difficulty]
HPDrainRate:7
CircleSize:4.5
OverallDifficulty:8
ApproachRate:9.3
SliderMultiplier:1.8
SliderTickRate:1

[Events]
//Background and Video events
0,0,"4JMevSvKMMGf1PYBevTbhQ_store_header_image.png",0,0
Video,0,"大阪春夏秋冬 NO-LIMIT TVアニメFAIRY TAILOPテーマ.mp4"
//Break Periods
//Storyboard Layer 0 (Background)
//Storyboard Layer 1 (Fail)
//Storyboard Layer 2 (Pass)
//Storyboard Layer 3 (Foreground)
//Storyboard Sound Samples

[TimingPoints]
6,315.789473684211,6,3,2,65,1,0
1269,-100,6,3,10,65,0,0
1427,-100,6,3,9,65,0,0
1584,-100,6,3,8,65,0,0
1742,-83.3333333333333,6,3,6,65,0,0
1900,315.789473684211,4,3,6,65,1,0
2057,-83.3333333333333,6,3,6,65,0,0
2215,-83.3333333333333,6,3,2,65,0,0
4347,-83.3333333333333,6,3,2,5,0,0
4426,-83.3333333333333,6,3,2,65,0,0
5926,-83.3333333333333,6,3,2,5,0,0
6005,-83.3333333333333,6,3,2,65,0,0
6952,-83.3333333333333,6,3,6,65,0,0
7189,-83.3333333333333,6,3,6,5,0,0
7268,-83.3333333333333,6,3,2,65,0,0
9478,-100,6,3,6,65,0,0
9794,-100,6,3,1,65,0,0
10031,-100,6,3,1,5,0,0
10110,-100,6,3,1,65,0,0
10505,-100,6,3,1,5,0,0
10584,-100,6,3,1,65,0,0
10821,-100,6,3,1,5,0,0
10900,-100,6,3,1,65,0,0
11926,-100,6,3,1,5,0,0
12005,-100,6,3,1,65,0,0
12715,-100,6,3,1,5,0,0
12794,-100,6,3,1,65,0,0
14531,-100,6,3,6,65,0,0
14689,-100,6,3,1,65,0,0
15242,-100,6,3,1,5,0,0
15321,-100,6,3,1,65,0,0
17768,-100,6,3,1,5,0,0
17847,-100,6,3,1,65,0,0
19426,-100,6,3,2,65,0,0
19900,-133.333333333333,6,3,1,65,0,0
20531,-399.999999999997,6,3,1,65,0,0
20768,-133.333333333333,6,3,1,5,0,0
20847,-90.9090909090909,6,3,6,65,0,0
21084,-90.9090909090909,6,3,6,5,0,0
21163,-90.9090909090909,6,3,5,65,0,0
22347,-90.9090909090909,6,3,5,5,0,0
22426,-90.9090909090909,6,3,5,65,0,0
23373,-90.9090909090909,6,3,2,65,0,0
23610,-90.9090909090909,6,3,5,5,0,0
23689,-90.9090909090909,6,3,5,65,0,0
25584,-90.9090909090909,6,3,2,65,0,0
25900,-90.9090909090909,6,3,6,65,0,0
26136,-90.9090909090909,6,3,5,5,0,0
26215,-90.9090909090909,6,3,5,65,0,0
27400,-90.9090909090909,6,3,5,5,0,0
27478,-90.9090909090909,6,3,5,65,0,0
28110,-90.9090909090909,6,3,2,65,0,0
28426,-90.9090909090909,6,3,6,65,0,0
28584,-90.9090909090909,6,3,2,65,0,0
30636,-90.9090909090909,6,3,5,65,0,0
30952,-90.9090909090909,6,3,6,65,0,0
31189,-90.9090909090909,6,3,6,5,0,0
31268,-90.9090909090909,6,3,5,65,0,0
33400,-90.9090909090909,6,3,5,5,0,0
33478,-90.9090909090909,6,3,2,65,0,0
33794,-90.9090909090909,6,3,5,65,0,0
36005,-90.9090909090909,6,3,6,65,0,0
36321,-90.9090909090909,6,3,2,65,0,0
37900,-90.9090909090909,6,3,10,65,0,0
38057,-90.9090909090909,6,3,9,65,0,0
38215,-90.9090909090909,6,3,8,65,0,0
38373,-90.9090909090909,6,3,2,65,0,0
38531,-125,6,3,6,65,0,0
38768,-125,6,3,2,5,0,0
38847,-125,6,3,2,65,0,0
39084,-125,6,3,2,5,0,0
39163,-125,6,3,2,65,0,0
40031,-125,6,3,2,5,0,0
40110,-125,6,3,2,65,0,0
40347,-125,6,3,2,5,0,0
40426,-125,6,3,2,65,0,0
41294,-125,6,3,2,5,0,0
41373,-125,6,3,2,65,0,0
41610,-125,6,3,2,5,0,0
41689,-125,6,3,2,65,0,0
42321,-333.333333333333,6,3,2,65,0,0
42557,-333.333333333333,6,3,2,5,0,0
42636,-90.9090909090909,6,3,6,65,0,0
43110,-90.9090909090909,6,3,4,65,0,0
43584,-125,6,3,6,65,0,0
43821,-125,6,3,2,5,0,0
43900,-125,6,3,2,65,0,0
44136,-125,6,3,2,5,0,0
44215,-125,6,3,2,65,0,0
45084,-125,6,3,2,5,0,0
45163,-125,6,3,2,65,0,0
45400,-125,6,3,2,5,0,0
45478,-125,6,3,2,65,0,0
46110,-100,6,3,6,65,0,0
46347,-100,6,3,2,5,0,0
46426,-100,6,3,2,65,0,0
46742,-90.9090909090909,6,3,2,65,0,0
47057,-83.3333333333333,6,3,2,65,0,0
47373,-76.9230769230769,6,3,2,65,0,0
48636,-76.9230769230769,6,3,6,65,0,0
48952,-76.9230769230769,6,3,2,65,0,0
51163,-133.333333333333,6,3,2,65,0,0
51636,-222.222222222221,6,3,2,65,0,0
52268,-71.4285714285714,6,3,6,65,0,1
52742,-71.4285714285714,6,3,2,65,0,1
54873,-71.4285714285714,6,3,2,5,0,1
54952,-71.4285714285714,6,3,6,65,0,1
55268,-71.4285714285714,6,3,2,65,0,1
57478,-71.4285714285714,6,3,6,65,0,1
57715,-71.4285714285714,6,3,2,5,0,1
57794,-71.4285714285714,6,3,2,65,0,1
60005,-71.4285714285714,6,3,4,65,0,1
60163,-71.4285714285714,6,3,2,65,0,1
62373,-71.4285714285714,6,3,6,65,0,1
62847,-71.4285714285714,6,3,2,65,0,1
64978,-71.4285714285714,6,3,2,5,0,1
65057,-71.4285714285714,6,3,6,65,0,1
65373,-71.4285714285714,6,3,2,65,0,1
67584,-71.4285714285714,6,3,6,65,0,1
67821,-71.4285714285714,6,3,2,5,0,1
67900,-71.4285714285714,6,3,2,65,0,1
69478,-71.4285714285714,6,3,10,65,0,1
69636,-71.4285714285714,6,3,9,65,0,1
69794,-71.4285714285714,6,3,8,65,0,1
69952,-71.4285714285714,6,3,6,65,0,1
73900,-90.9090909090909,6,3,2,65,0,1
74136,-90.9090909090909,6,3,2,5,0,1
74215,-90.9090909090909,6,3,2,65,0,1
74452,-90.9090909090909,6,3,2,5,0,1
74531,-90.9090909090909,6,3,2,65,0,1
75163,-90.9090909090909,6,3,6,65,0,1
75400,-90.9090909090909,6,3,6,5,0,1
75478,-90.9090909090909,6,3,2,65,0,1
77689,-100,6,3,6,65,0,0
77847,-100,6,3,1,65,0,0
78400,-100,6,3,1,5,0,0
78478,-100,6,3,1,65,0,0
80215,-100,6,3,6,65,0,0
80531,-100,6,3,1,65,0,0
80926,-100,6,3,1,5,0,0
81005,-100,6,3,1,65,0,0
82742,-100,6,3,6,65,0,0
83057,-100,6,3,1,65,0,0
83452,-100,6,3,1,5,0,0
83531,-100,6,3,1,65,0,0
85268,-100,6,3,6,65,0,0
85584,-100,6,3,1,65,0,0
85978,-100,6,3,1,5,0,0
86057,-100,6,3,1,65,0,0
87636,-100,6,3,6,65,0,0

[Colours]
Combo1 : 36,151,219
Combo2 : 239,220,152
Combo3 : 71,63,233
Combo4 : 176,47,69

[HitObjects]
152,72,479,6,0,L|141:132,1,45
109,278,637,1,8,0:0:0:0:
226,141,795,1,8,0:0:0:0:
258,133,874,1,8,0:0:0:0:
290,140,953,1,8,0:0:0:0:
134,349,1111,1,8,0:0:0:0:
102,356,1190,1,8,0:0:0:0:
70,348,1269,2,0,P|49:332|42:309,1,45,2|2,0:0|0:0,0:0:0:0:
112,235,1427,2,0,P|115:261|104:282,1,45,2|2,0:0|0:0,0:0:0:0:
0,256,1584,2,0,P|22:241|46:243,1,45,2|2,0:0|0:0,0:0:0:0:
204,307,1742,6,0,B|230:321|257:323|257:323|278:310|303:308|303:308|354:329|354:329|409:318,1,215.999993408203,6|0,0:0|0:0,0:0:0:0:
362,115,2215,2,0,P|339:163|355:214,1,107.999996704102,12|0,0:0|0:0,0:0:0:0:
495,353,2531,1,2,0:0:0:0:
435,167,2689,1,2,0:0:0:0:
302,309,2847,2,0,P|253:309|196:261,1,107.999996704102,12|0,0:0|0:0,0:0:0:0:
73,131,3163,5,2,0:0:0:0:
118,320,3321,1,2,0:0:0:0:
244,173,3478,2,0,P|293:173|350:221,1,107.999996704102,12|0,0:0|0:0,0:0:0:0:
452,365,3794,1,2,0:0:0:0:
408,175,3952,1,2,0:0:0:0:
268,346,4110,2,0,B|237:360|205:349|205:349|167:303|99:324,1,161.999995056153,12|0,0:0|0:0,0:0:0:0:
36,372,4426,6,0,B|17:297|17:297|41:255|41:255|16:161,1,215.999993408203,2|12,0:0|0:0,0:0:0:0:
18,168,4900,1,0,0:0:0:0:
205,218,5057,2,0,B|225:170|225:170|207:103,1,107.999996704102,2|2,0:0|0:0,0:0:0:0:
55,0,5373,2,0,B|35:48|35:48|53:115,1,107.999996704102,12|0,0:0|0:0,0:0:0:0:
154,292,5689,6,0,P|230:309|284:239,1,161.999995056153,2|0,0:0|0:0,0:0:0:0:
306,228,6005,2,0,B|277:208|277:208|190:220,1,107.999996704102,12|0,0:0|0:0,0:0:0:0:
354,343,6321,1,2,0:0:0:0:
231,142,6478,2,0,L|104:159,2,107.999996704102,2|12|0,0:0|0:0|0:0,0:0:0:0:
477,24,6952,6,0,B|501:66|501:66|458:197,1,161.999995056153,6|0,0:0|0:0,0:0:0:0:
452,203,7268,2,0,P|399:210|358:178,1,107.999996704102,12|0,0:0|0:0,0:0:0:0:
257,10,7584,1,2,0:0:0:0:
228,202,7742,1,2,0:0:0:0:
84,69,7900,2,0,P|137:62|178:94,1,107.999996704102,12|0,0:0|0:0,0:0:0:0:
253,274,8215,5,2,0:0:0:0:
300,85,8373,1,2,0:0:0:0:
452,203,8531,2,0,P|399:209|358:177,1,107.999996704102,12|0,0:0|0:0,0:0:0:0:
157,10,8847,5,8,0:0:0:0:
180,268,9005,1,8,0:0:0:0:
349,17,9163,5,8,0:0:0:0:
326,275,9321,1,8,0:0:0:0:
89,149,9478,5,6,0:0:0:0:
248,107,9636,1,2,0:0:0:0:
180,268,9794,2,0,B|179:237|193:213|193:213|167:177|177:115,1,135,12|0,0:0|0:0,0:0:0:0:
174,139,10110,1,2,0:0:0:0:
239,322,10268,2,0,P|180:350|120:324,1,135,2|0,0:0|0:0,0:0:0:0:
180,268,10584,6,0,L|321:249,1,135,12|0,0:0|0:0,0:0:0:0:
313,249,10900,1,0,0:0:0:0:
437,352,11057,1,12,0:0:0:0:
461,191,11215,1,0,0:0:0:0:
361,319,11373,1,2,0:0:0:0:
295,170,11531,1,2,0:0:0:0:
497,287,11689,2,0,L|507:137,1,135,12|0,0:0|0:0,0:0:0:0:
510,79,12005,5,6,0:0:0:0:
382,320,12163,2,0,L|370:206,1,90,2|12,0:0|0:0,0:0:0:0:
326,51,12478,2,0,B|288:88|288:88|297:193,1,135,2|0,0:0|0:0,0:0:0:0:
294,169,12794,2,0,L|303:258,1,90
96,353,13110,6,0,B|94:317|103:294|103:294|91:273|91:252|91:252|119:230|129:178,1,180,12|0,0:0|0:0,0:0:0:0:
14,59,13584,2,0,P|8:110|37:156,1,90,12|0,0:0|0:0,0:0:0:0:
221,252,13900,2,0,L|275:263,1,45,12|0,0:0|0:0,0:0:0:0:
196,262,14057,2,0,L|240:270,1,45,2|0,0:0|0:0,0:0:0:0:
357,298,14215,1,8,0:0:0:0:
374,257,14293,1,8,0:0:0:0:
367,213,14372,1,8,0:0:0:0:
338,179,14451,1,8,0:0:0:0:
296,165,14531,6,0,L|187:144,2,90,4|2|12,0:0|0:0|0:0,0:0:0:0:
180,61,15005,2,0,P|116:119|128:182,1,135,2|2,0:0|0:0,0:0:0:0:
117,161,15321,2,0,L|122:262,1,90
375,144,15636,2,0,B|329:115|329:115|194:151,1,180,12|2,0:0|0:0,0:0:0:0:
448,194,16110,2,0,B|464:155|464:155|453:106,1,90,12|0,0:0|0:0,0:0:0:0:
328,6,16426,1,2,0:0:0:0:
318,198,16584,1,2,0:0:0:0:
159,91,16742,2,0,B|203:80|203:80|244:97,1,90,12|0,0:0|0:0,0:0:0:0:
316,307,17057,6,0,P|273:300|243:268,2,90,6|2|12,0:0|0:0|0:0,0:0:0:0:
500,188,17531,2,0,L|487:337,1,135,2|0,0:0|0:0,0:0:0:0:
488,322,17847,2,0,P|438:304|387:312,1,90,2|2,0:0|0:0,0:0:0:0:
143,317,18163,2,0,B|196:334|232:312|232:312|269:288|335:313,1,180,12|0,0:0|0:0,0:0:0:0:
76,363,18636,2,0,P|60:321|76:270,1,90,12|0,0:0|0:0,0:0:0:0:
241,100,18952,2,0,L|248:167,1,45,2|2,0:0|0:0,0:0:0:0:
65,144,19110,2,0,L|60:188,1,45,2|2,0:0|0:0,0:0:0:0:
253,100,19268,2,0,L|260:167,1,45,2|2,0:0|0:0,0:0:0:0:
171,271,19426,6,0,B|165:246|178:216|178:216|156:189|145:155|145:155|155:131|151:101,1,180,12|0,0:0|2:0,0:0:0:0:
321,57,19900,2,0,L|333:148,1,67.5000025749208,2|0,2:0|2:0,2:0:0:0:
70,76,20215,2,0,L|62:169,1,67.5000025749208,2|2,2:0|0:0,2:0:0:0:
38,255,20452,1,2,0:0:0:0:
42,260,20531,2,0,P|84:268|84:268,1,33.75,10|0,0:0|0:0,0:0:0:0:
149,185,20847,6,0,L|166:332,1,148.50000453186,6|0,0:0|0:0,0:0:0:0:
166,332,21163,1,12,0:0:0:0:
261,164,21321,1,0,0:0:0:0:
261,164,21400,1,0,0:0:0:0:
261,164,21478,1,6,0:0:0:0:
149,185,21636,1,2,0:0:0:0:
262,347,21794,2,0,L|269:243,1,99.0000030212403,12|0,0:0|0:0,0:0:0:0:
174,71,22110,6,0,P|238:91|249:190,1,148.50000453186,6|0,0:0|0:0,0:0:0:0:
261,164,22426,1,12,0:0:0:0:
56,124,22584,1,0,0:0:0:0:
56,124,22663,1,0,0:0:0:0:
56,124,22742,2,0,B|37:77|37:77|55:25,1,99.0000030212403,6|2,0:0|0:0,0:0:0:0:
261,164,23057,2,0,B|276:209|276:209|257:256,1,99.0000030212403,12|0,0:0|0:0,0:0:0:0:
0,363,23373,6,0,L|180:354,1,148.50000453186,6|0,0:0|0:0,0:0:0:0:
148,355,23689,1,12,0:0:0:0:
145,177,23847,2,0,L|133:253,1,49.5000015106202,2|0,0:0|0:0,0:0:0:0:
230,357,24005,1,6,0:0:0:0:
76,266,24163,1,2,0:0:0:0:
257,256,24321,1,12,0:0:0:0:
165,98,24478,6,0,B|149:128|155:164|155:164|174:187|174:216|174:216|155:249|172:287,1,198.000006042481,2|2,0:0|0:0,0:0:0:0:
338,174,24952,2,0,P|303:137|237:141,1,99.0000030212403,12|0,0:0|0:0,0:0:0:0:
171,286,25268,1,6,0:0:0:0:
171,286,25426,1,2,0:0:0:0:
97,65,25584,2,0,P|132:28|198:32,1,99.0000030212403,12|0,0:0|0:0,0:0:0:0:
316,290,25900,6,0,B|276:301|246:286|246:286|213:271|161:288,1,148.50000453186,6|0,0:0|0:0,0:0:0:0:
171,286,26215,1,12,0:0:0:0:
257,132,26373,1,0,0:0:0:0:
257,132,26452,1,0,0:0:0:0:
257,132,26531,1,6,0:0:0:0:
78,140,26689,1,2,0:0:0:0:
282,207,26847,2,0,P|316:190|330:112,1,99.0000030212403,12|0,0:0|0:0,0:0:0:0:
150,96,27163,6,0,B|124:140|124:140|145:261,1,148.50000453186,6|0,0:0|0:0,0:0:0:0:
141,236,27478,1,12,0:0:0:0:
56,91,27636,1,0,0:0:0:0:
216,165,27794,1,6,0:0:0:0:
249,3,27952,1,2,0:0:0:0:
236,264,28110,2,0,L|243:368,1,99.0000030212403,12|0,0:0|0:0,0:0:0:0:
397,107,28426,5,6,0:0:0:0:
365,314,28584,1,2,0:0:0:0:
512,166,28742,1,12,0:0:0:0:
306,198,28900,1,2,0:0:0:0:
492,292,29057,2,0,B|506:247|506:247|487:198,1,99.0000030212403,12|0,0:0|0:0,0:0:0:0:
288,361,29373,2,0,B|272:316|272:316|291:268,1,99.0000030212403,6|0,0:0|0:0,0:0:0:0:
392,30,29689,6,0,P|451:50|471:95,1,99.0000030212403,12|0,0:0|0:0,0:0:0:0:
390,270,30005,1,6,0:0:0:0:
390,280,30163,1,2,0:0:0:0:
395,108,30321,2,0,P|422:163|405:210,1,99.0000030212403,12|0,0:0|0:0,0:0:0:0:
230,270,30636,5,12,0:0:0:0:
225,271,30715,1,0,0:0:0:0:
220,272,30794,1,4,0:0:0:0:
215,273,30873,1,4,0:0:0:0:
210,274,30952,2,0,B|192:222|192:222|205:183|205:183|186:113,1,148.50000453186,6|0,0:0|0:0,0:0:0:0:
140,83,31268,2,0,P|185:98|227:74,1,99.0000030212403,12|0,0:0|0:0,0:0:0:0:
82,7,31584,1,6,0:0:0:0:
95,164,31742,1,2,0:0:0:0:
227,74,31900,1,12,0:0:0:0:
19,147,32057,5,0,0:0:0:0:
263,141,32215,1,6,0:0:0:0:
263,141,32294,1,4,0:0:0:0:
263,141,32373,2,0,L|274:196,1,49.5000015106202,4|4,0:0|0:0,0:0:0:0:
137,266,32531,1,12,0:0:0:0:
292,297,32689,1,0,0:0:0:0:
164,120,32847,1,6,0:0:0:0:
201,334,33005,1,2,0:0:0:0:
379,208,33163,2,0,B|381:153|348:105|348:105|347:134|333:157,1,148.50000453186,12|0,0:0|0:0,0:0:0:0:
355,283,33478,6,0,P|415:278|452:235,1,99.0000030212403,6|0,0:0|0:0,0:0:0:0:
371,30,33794,2,0,P|310:34|273:77,1,99.0000030212403,12|0,0:0|0:0,0:0:0:0:
471,322,34110,2,0,P|505:287|512:239,1,99.0000030212403,6|0,0:0|0:0,0:0:0:0:
349,106,34426,1,12,0:0:0:0:
371,362,34584,6,0,B|319:368|282:327|282:327|235:359|184:335,1,198.000006042481,2|2,0:0|0:0,0:0:0:0:
172,326,34978,1,0,0:0:0:0:
172,326,35057,1,12,0:0:0:0:
150,149,35215,1,0,0:0:0:0:
314,216,35373,2,0,B|273:238|273:238|163:231,2,148.50000453186,6|2|2,0:0|2:0|2:0,0:0:0:0:
154,54,36005,6,0,B|137:99|137:99|153:162,1,99.0000030212403,6|0,0:0|0:0,0:0:0:0:
378,269,36321,2,0,B|395:224|395:224|379:161,1,99.0000030212403,12|0,0:0|0:0,0:0:0:0:
251,26,36636,1,6,0:0:0:0:
313,216,36794,1,0,0:0:0:0:
154,54,36952,1,12,0:0:0:0:
92,244,37110,1,0,0:0:0:0:
303,126,37268,6,0,B|331:104|331:104|310:231,1,148.50000453186,8|8,0:0|0:0,0:0:0:0:
307,255,37584,1,8,0:0:0:0:
93,149,37742,1,8,0:0:0:0:
88,147,37821,1,8,0:0:0:0:
83,145,37900,1,2,0:0:0:0:
254,48,38057,1,2,0:0:0:0:
183,189,38215,1,2,0:0:0:0:
170,90,38373,1,2,0:0:0:0:
426,134,38531,6,0,B|452:185|452:185|421:245,1,108,6|0,0:0|2:0,0:0:0:0:
431,326,38847,2,0,B|405:275|405:275|435:214,1,108,6|0,0:0|0:0,0:0:0:0:
500,277,39163,1,8,0:0:0:0:
276,165,39321,2,0,B|256:214|256:214|266:268|266:268|275:245|286:235,1,144,6|0,0:0|0:0,0:0:0:0:
331,102,39794,6,0,P|283:79|231:91,1,108,6|0,0:0|0:0,0:0:0:0:
131,102,40110,2,0,P|182:113|230:91,1,108,6|0,0:0|0:0,0:0:0:0:
174,23,40426,1,8,0:0:0:0:
284,236,40584,2,0,B|333:256|333:256|387:246|387:246|364:237|354:226,1,144,6|0,0:0|0:0,0:0:0:0:
117,197,41057,6,0,P|95:252|122:308,1,108,6|0,0:0|0:0,0:0:0:0:
125,203,41373,2,0,L|126:90,1,108,6|0,0:0|0:0,0:0:0:0:
178,37,41689,1,8,0:0:0:0:
284,236,41847,2,0,B|235:256|235:256|181:246|181:246|204:237|214:226,1,144,6|0,0:0|0:0,0:0:0:0:
382,85,42321,6,0,P|388:109|387:126,1,40.4999987640381,6|0,0:0|0:0,0:0:0:0:
276,158,42636,2,0,B|310:154|336:175|336:175|364:154|398:149|398:149|426:170|468:164,1,198.000006042481,6|8,0:0|0:0,0:0:0:0:
209,324,43110,2,0,B|174:328|149:307|149:307|121:328|87:333|87:333|59:312|17:318,1,198.000006042481,6|0,0:0|2:0,0:0:0:0:
96,157,43584,6,0,B|120:203|120:203|96:263,1,108,6|0,0:0|0:0,0:0:0:0:
37,206,43900,2,0,B|16:153|16:153|40:107,1,108,6|0,0:0|0:0,0:0:0:0:
110,78,44215,1,8,0:0:0:0:
33,282,44373,2,0,P|62:316|158:292,1,144,6|0,0:0|0:0,0:0:0:0:
293,112,44847,6,0,L|180:98,1,108,6|0,0:0|0:0,0:0:0:0:
253,190,45163,2,0,L|366:176,1,108,6|0,0:0|0:0,0:0:0:0:
372,101,45478,1,8,0:0:0:0:
303,267,45636,1,6,0:0:0:0:
186,99,45794,5,12,0:0:0:0:
180,94,45873,1,0,0:0:0:0:
174,89,45952,1,8,0:0:0:0:
168,84,46031,1,8,0:0:0:0:
162,79,46110,2,0,B|128:109|128:109|131:219,1,135,6|0,0:0|0:0,0:0:0:0:
159,277,46426,2,0,P|202:246|210:207,1,90,4|0,0:0|0:0,0:0:0:0:
92,39,46742,2,0,P|49:70|41:115,1,99.0000030212403,6|0,0:0|0:0,0:0:0:0:
277,246,47057,2,0,P|285:193|255:149,1,107.999996704102,6|0,0:0|0:0,0:0:0:0:
36,189,47373,5,6,0:0:0:0:
70,349,47531,1,0,0:0:0:0:
131,120,47689,5,6,0:0:0:0:
122,295,47847,1,0,0:0:0:0:
351,218,48005,5,6,0:0:0:0:
317,378,48163,1,0,0:0:0:0:
256,149,48321,5,6,0:0:0:0:
265,324,48479,1,0,0:0:0:0:
131,120,48636,6,0,P|144:57|210:30,1,116.999994644165,6|0,0:0|0:0,0:0:0:0:
146,194,48873,1,8,0:0:0:0:
146,194,48952,2,0,P|83:181|56:114,1,116.999994644165,6|0,0:0|0:0,0:0:0:0:
223,181,49189,1,2,0:0:0:0:
223,181,49268,2,0,P|209:244|144:271,1,116.999994644165,12|0,0:0|0:0,0:0:0:0:
209,105,49505,1,8,0:0:0:0:
209,105,49584,2,0,P|272:118|299:184,1,116.999994644165,6|0,0:0|0:0,0:0:0:0:
0,365,49900,5,8,0:0:0:0:
56,139,50057,1,2,0:0:0:0:
226,302,50215,1,2,0:0:0:0:
22,26,50373,5,8,0:0:0:0:
84,251,50530,1,2,0:0:0:0:
247,81,50688,1,2,0:0:0:0:
119,361,50847,5,12,0:0:0:0:
134,56,51005,1,12,0:0:0:0:
84,251,51163,2,0,B|70:261|60:274|60:274|45:276|27:284,2,67.5000025749208,2|2|2,2:0|2:0|2:0,2:0:0:0:
152,275,51636,2,0,B|167:268|182:265|182:265|190:255|207:243,1,60.7499981460572,2|0,2:0|2:0,2:0:0:0:
235,184,51952,6,0,B|233:175|233:175|234:166|234:166|233:160,1,20.2499993820191,2|2,2:0|2:0,2:0:0:0:
512,251,52268,6,0,B|472:254|434:237|434:237|398:244|364:262|364:262|321:241|251:245,1,251.999992309571,6|0,0:0|0:0,0:0:0:0:
29,327,52742,2,0,L|12:202,1,125.999996154785,12|0,0:0|0:0,0:0:0:0:
163,0,53057,1,2,0:0:0:0:
165,252,53215,1,2,0:0:0:0:
37,34,53373,1,12,0:0:0:0:
312,160,53531,6,0,B|278:174|241:170|241:170|213:147|169:147|169:147|131:176|58:153,1,251.999992309571,2|0,0:0|0:0,0:0:0:0:
355,93,54005,2,0,P|387:146|374:206,1,125.999996154785,12|0,0:0|0:0,0:0:0:0:
149,323,54321,1,2,0:0:0:0:
265,101,54478,1,2,0:0:0:0:
431,289,54636,2,0,P|335:298|274:218,1,188.999994232178,12|0,0:0|0:0,0:0:0:0:
265,101,54952,6,0,L|120:78,1,125.999996154785,6|0,0:0|0:0,0:0:0:0:
24,342,55268,2,0,L|169:319,1,125.999996154785,12|0,0:0|0:0,0:0:0:0:
374,206,55584,1,2,0:0:0:0:
114,144,55742,2,0,P|89:206|136:268,1,125.999996154785,2|12,0:0|0:0,0:0:0:0:
412,265,56057,6,0,B|374:206|374:206|191:196,1,251.999992309571,2|0,0:0|0:0,0:0:0:0:
402,345,56531,1,12,0:0:0:0:
407,92,56689,1,0,0:0:0:0:
192,195,56847,2,0,L|174:56,1,125.999996154785,2|2,0:0|0:0,0:0:0:0:
402,345,57163,2,0,L|420:205,1,125.999996154785,12|0,0:0|0:0,0:0:0:0:
207,4,57478,6,0,B|251:23|251:23|269:162,1,188.999994232178,6|0,0:0|0:0,0:0:0:0:
236,261,57794,2,0,P|175:271|125:236,1,125.999996154785,12|0,0:0|0:0,0:0:0:0:
357,124,58110,2,0,P|407:159|417:220,1,125.999996154785,2|2,0:0|0:0,0:0:0:0:
174,107,58426,2,0,P|195:49|251:23,1,125.999996154785,14|2,0:0|0:0,0:0:0:0:
499,196,58742,6,0,L|482:320,1,125.999996154785,2|2,0:0|0:0,0:0:0:0:
118,236,59057,2,0,L|101:111,1,125.999996154785,14|2,0:0|0:0,0:0:0:0:
478,1,59373,2,0,L|461:125,1,125.999996154785,2|2,0:0|0:0,0:0:0:0:
54,323,59689,2,0,L|37:198,1,125.999996154785,14|2,0:0|0:0,0:0:0:0:
364,69,60005,5,6,0:0:0:0:
201,339,60163,1,2,0:0:0:0:
48,63,60321,5,8,0:0:0:0:
211,345,60478,1,2,0:0:0:0:
42,51,60636,5,8,0:0:0:0:
218,350,60794,2,0,B|313:333|313:333|361:354|361:354|462:337,1,251.999992309571
494,21,61268,5,8,0:0:0:0:
462,337,61426,1,2,0:0:0:0:
207,151,61584,2,0,B|261:145|261:145|276:149|276:149|341:143,1,125.999996154785,8|0,0:0|0:0,0:0:0:0:
462,337,61900,1,8,0:0:0:0:
411,343,61978,1,8,0:0:0:0:
368,315,62057,1,8,0:0:0:0:
352,266,62136,1,8,0:0:0:0:
370,218,62215,1,8,0:0:0:0:
416,194,62294,1,8,0:0:0:0:
466,204,62373,6,0,B|455:241|423:256|423:256|371:133|512:105,1,251.999992309571,6|0,0:0|0:0,0:0:0:0:
368,315,62847,2,0,L|241:303,1,125.999996154785,12|0,0:0|0:0,0:0:0:0:
93,97,63163,1,2,0:0:0:0:
132,350,63321,2,0,B|161:294|161:294|140:234,1,125.999996154785,2|12,0:0|0:0,0:0:0:0:
5,367,63636,1,0,0:0:0:0:
247,221,63794,6,0,L|269:86,1,125.999996154785,2|0,0:0|0:0,0:0:0:0:
23,26,64110,1,12,0:0:0:0:
140,234,64268,1,0,0:0:0:0:
322,39,64426,2,0,P|277:20|192:61,1,125.999996154785,2|2,0:0|0:0,0:0:0:0:
352,246,64742,2,0,B|414:273|477:228|477:228|446:228|424:202,1,188.999994232178,12|0,0:0|0:0,0:0:0:0:
476,39,65057,6,0,P|500:96|481:155,1,125.999996154785,6|0,0:0|0:0,0:0:0:0:
201,158,65373,2,0,P|182:99|206:42,1,125.999996154785,12|0,0:0|0:0,0:0:0:0:
427,206,65689,1,2,0:0:0:0:
149,213,65847,1,2,0:0:0:0:
356,28,66005,1,12,0:0:0:0:
250,262,66163,6,0,B|225:208|248:150|248:150|210:136|196:109|196:109|210:81|205:40,1,251.999992309571,2|0,0:0|0:0,0:0:0:0:
341,208,66636,1,12,0:0:0:0:
70,146,66794,1,0,0:0:0:0:
321,18,66952,2,0,B|345:76|345:76|320:147,1,125.999996154785,2|2,0:0|0:0,0:0:0:0:
145,349,67268,2,0,B|123:289|123:289|147:231,1,125.999996154785,12|0,0:0|0:0,0:0:0:0:
480,297,67584,6,0,B|433:319|392:295|392:295|349:269|290:294,1,188.999994232178,6|0,0:0|0:0,0:0:0:0:
231,346,67900,2,0,P|254:288|225:216,1,125.999996154785,12|0,0:0|0:0,0:0:0:0:
18,32,68215,1,2,0:0:0:0:
21,284,68373,1,2,0:0:0:0:
297,131,68531,2,0,B|253:129|253:129|223:144|223:144|170:142,1,125.999996154785,12|0,0:0|0:0,0:0:0:0:
480,297,68847,6,0,L|495:151,1,125.999996154785,8|0,0:0|0:0,0:0:0:0:
382,25,69084,1,8,0:0:0:0:
382,25,69163,2,0,L|393:150,1,125.999996154785,10|0,0:0|0:0,0:0:0:0:
331,298,69400,1,8,0:0:0:0:
331,298,69478,1,2,0:0:0:0:
153,37,69636,1,2,0:0:0:0:
26,325,69794,1,2,0:0:0:0:
306,13,69952,5,6,0:0:0:0:
256,192,70110,12,0,73584,2:0:0:0:
363,231,73900,6,0,P|389:159|353:101,1,148.50000453186,2|0,0:0|0:0,0:0:0:0:
269,199,74215,2,0,P|338:166|353:100,1,148.50000453186,12|0,0:0|0:0,0:0:0:0:
273,113,74531,1,2,0:0:0:0:
276,285,74689,2,0,P|229:276|196:240,2,99.0000030212403,2|12|0,0:0|0:0|0:0,0:0:0:0:
307,36,75163,6,0,L|130:22,1,148.50000453186,6|0,0:0|0:0,0:0:0:0:
81,64,75478,2,0,P|111:101|158:110,1,99.0000030212403,12|0,0:0|0:0,0:0:0:0:
400,59,75794,1,2,0:0:0:0:
330,226,75952,1,2,0:0:0:0:
307,36,76110,1,12,0:0:0:0:
415,256,76268,6,0,L|399:49,1,198.000006042481,2|0,0:0|0:0,0:0:0:0:
467,318,76742,2,0,P|420:338|371:325,1,99.0000030212403,12|0,0:0|0:0,0:0:0:0:
64,313,77057,1,8,0:0:0:0:
229,86,77215,1,8,0:0:0:0:
229,367,77373,1,8,0:0:0:0:
64,140,77531,1,8,0:0:0:0:
330,226,77689,5,6,0:0:0:0:
395,29,77847,1,0,0:0:0:0:
398,281,78005,1,12,0:0:0:0:
324,22,78163,2,0,B|295:56|295:56|305:161,1,135,2|0,0:0|0:0,0:0:0:0:
329,226,78478,2,0,P|369:206|388:166,1,90,2|0,0:0|0:0,0:0:0:0:
470,13,78794,2,0,L|489:202,1,180,12|0,0:0|0:0,0:0:0:0:
469,323,79268,2,0,P|425:314|397:280,1,90,12|0,0:0|0:0,0:0:0:0:
343,60,79584,1,2,0:0:0:0:
296,322,79742,2,0,L|274:135,1,180,2|2,0:0|0:0,0:0:0:0:
55,113,80215,5,6,0:0:0:0:
120,310,80373,1,2,0:0:0:0:
123,58,80531,1,12,0:0:0:0:
49,317,80689,2,0,B|20:283|20:283|30:178,1,135,2|0,0:0|0:0,0:0:0:0:
54,112,81004,2,0,P|93:131|112:171,1,90,2|0,0:0|0:0,0:0:0:0:
195,326,81320,2,0,L|214:137,1,180,12|0,0:0|0:0,0:0:0:0:
194,16,81794,2,0,P|150:24|122:58,1,90,12|0,0:0|0:0,0:0:0:0:
338,182,82110,2,0,L|500:163,1,135,12|2,0:0|0:0,0:0:0:0:
481,89,82426,1,8,0:0:0:0:
436,94,82504,1,8,0:0:0:0:
391,99,82583,1,8,0:0:0:0:
346,104,82662,1,8,0:0:0:0:
302,109,82742,6,0,P|261:145|258:195,1,90,6|0,0:0|0:0,0:0:0:0:
410,268,83057,1,12,0:0:0:0:
319,32,83215,2,0,L|160:23,1,135
157,105,83531,2,0,P|186:47|177:7,1,90,2|0,0:0|0:0,0:0:0:0:
23,187,83847,2,0,B|33:256|33:256|16:290|16:290|30:376,1,180,12|0,0:0|0:0,0:0:0:0:
81,102,84321,2,0,P|42:83|-4:87,1,90,12|0,0:0|0:0,0:0:0:0:
165,237,84636,1,2,0:0:0:0:
199,14,84794,1,2,0:0:0:0:
383,143,84952,2,0,P|343:162|298:159,1,90,12|0,0:0|0:0,0:0:0:0:
23,187,85268,5,6,0:0:0:0:
221,81,85426,1,2,0:0:0:0:
211,305,85584,1,12,0:0:0:0:
64,122,85742,2,0,B|96:156|96:156|90:269,1,135,2|0,0:0|0:0,0:0:0:0:
50,320,86057,2,0,P|115:301|160:316,1,90,2|0,0:0|0:0,0:0:0:0:
363,331,86373,2,0,B|339:347|312:351|312:351|298:265|354:225,1,180,12|0,0:0|0:0,0:0:0:0:
495,68,86847,1,12,0:0:0:0:
404,274,87005,1,0,0:0:0:0:
211,77,87163,6,0,L|201:15,1,45,2|2,0:0|0:0,0:0:0:0:
363,93,87321,2,0,L|355:137,1,45,2|2,0:0|0:0,0:0:0:0:
139,104,87478,2,0,L|129:42,1,45,2|2,0:0|0:0,0:0:0:0:
381,207,87636,6,0,B|342:217|307:194|307:194|273:216|225:219|225:219|183:182|130:178|130:178|134:226|92:259,1,360,6|0,0:0|2:0,0:0:0:0:
